osu file format v14

[General]
AudioFilename: audio.mp3
AudioLeadIn: 0
PreviewTime: 118239
Countdown: 1
SampleSet: Drum
StackLeniency: 0.7
Mode: 0
LetterboxInBreaks: 0
WidescreenStoryboard: 0

[Editor]
Bookmarks: 73944,103482,180559
DistanceSpacing: 0.9
BeatDivisor: 2
GridSize: 4
TimelineZoom: 4.399998

[Metadata]
Title:Hollow
TitleUnicode:Hollow
Artist:Rivers of Nihil
ArtistUnicode:Rivers of Nihil
Creator:vrnl
Version:Endless Days
Source:
Tags:Where Owls Know My Name english progressive technical death metal
BeatmapID:2069833
BeatmapSetID:989460

[Difficulty]
HPDrainRate:5
CircleSize:4.2
OverallDifficulty:9.4
ApproachRate:9.8
SliderMultiplier:1
SliderTickRate:1

[Events]
//Background and Video events
0,0,"Daniel-Mirlea-Hoia-Baciu.jpg",0,0
//Break Periods
//Storyboard Layer 0 (Background)
//Storyboard Layer 1 (Fail)
//Storyboard Layer 2 (Pass)
//Storyboard Layer 3 (Foreground)
//Storyboard Layer 4 (Overlay)
//Storyboard Sound Samples

[TimingPoints]
99,230.769230769231,4,2,0,5,1,0
1022,-100,4,2,0,10,0,0
1945,-100,4,2,0,15,0,0
2868,-100,4,2,0,20,0,0
3791,-100,4,2,0,25,0,0
4714,-100,4,2,0,30,0,0
5637,-100,4,2,0,35,0,0
6560,-100,4,2,0,40,0,0
7252,-100,4,2,0,5,0,0
7483,-200,4,2,0,20,0,0
20868,-100,4,2,0,40,0,0
21329,-100,4,2,0,60,0,0
21791,-100,4,2,0,80,0,0
22137,-100,4,2,0,5,0,0
22252,-66.6666666666667,4,3,1,70,0,0
25482,-66.6666666666667,4,3,2,70,0,0
25944,-100,4,3,1,70,0,0
28252,-66.6666666666667,4,3,1,70,0,0
29175,-66.6666666666667,4,3,99,70,0,0
29405,-100,4,3,2,70,0,0
29636,-100,4,3,99,70,0,0
29713,-100,4,3,1,70,0,0
30098,-66.6666666666667,4,3,1,70,0,0
32867,-66.6666666666667,4,3,2,70,0,0
33328,-100,4,3,1,70,0,0
33790,-66.6666666666667,4,3,1,70,0,0
35175,-66.6666666666667,4,3,2,70,0,0
35521,-66.6666666666667,4,3,99,70,0,0
35636,-66.6666666666667,4,3,2,70,0,0
35982,-66.6666666666667,4,3,99,70,0,0
37021,-50,4,3,1,70,0,0
46252,-50,4,3,2,70,0,0
46482,-50,4,3,1,70,0,0
47636,-50,4,3,99,70,0,0
47867,-50,4,3,2,70,0,0
48098,-100,4,3,99,70,0,0
48175,-100,4,3,1,70,0,0
50867,-100,4,3,99,70,0,0
50944,-100,4,3,1,70,0,0
51790,230.769230769231,6,3,1,70,1,0
52713,-333.333333333333,6,3,1,70,0,0
53059,-333.333333333333,6,3,1,5,0,0
53174,-333.333333333333,6,3,1,70,0,0
54443,-333.333333333333,6,3,1,5,0,0
54559,-333.333333333333,6,3,1,70,0,0
55828,-333.333333333333,6,3,1,5,0,0
55944,-100,6,3,1,70,0,0
57328,-100,6,3,99,70,0,0
57405,-100,6,3,1,70,0,0
58251,-333.333333333333,6,3,1,70,0,0
58597,-333.333333333333,6,3,1,5,0,0
58713,-333.333333333333,6,3,1,70,0,0
64136,-333.333333333333,6,3,1,5,0,0
64252,-333.333333333333,6,3,1,70,0,0
65520,-333.333333333333,6,3,1,5,0,0
65636,-333.333333333333,6,3,1,70,0,0
66905,-333.333333333333,6,3,1,5,0,0
67021,-333.333333333333,6,3,1,70,0,0
72097,-333.333333333333,6,3,1,70,0,0
73020,-66.6666666666667,6,3,1,70,0,0
73251,-66.6666666666667,6,3,2,70,0,0
73482,-66.6666666666667,6,3,1,70,0,0
73597,-66.6666666666667,6,3,2,70,0,0
73944,230.769230769231,4,3,1,60,1,0
73944,-57.1428571428571,4,3,1,60,0,0
81098,-57.1428571428571,4,3,2,60,0,0
81328,-57.1428571428571,4,3,99,60,0,0
81405,-57.1428571428571,4,3,1,60,0,0
88021,-57.1428571428571,4,3,99,60,0,0
88482,-57.1428571428571,4,3,2,60,0,0
88713,-57.1428571428571,4,3,1,60,0,0
93098,-57.1428571428571,4,3,2,60,0,0
93328,-57.1428571428571,4,3,1,60,0,0
95867,-57.1428571428571,4,3,2,60,0,0
96098,-57.1428571428571,4,3,99,60,0,0
96175,-57.1428571428571,4,3,1,60,0,0
103021,-57.1428571428571,4,3,99,60,0,0
103252,-57.1428571428571,4,3,2,60,0,0
103482,-57.1428571428571,4,3,1,80,0,0
103559,-57.1428571428571,4,3,1,80,0,0
104405,-57.1428571428571,4,3,99,80,0,0
104636,-57.1428571428571,4,3,2,80,0,0
104867,-57.1428571428571,4,3,1,80,0,0
107174,-100,4,3,1,80,0,0
109252,-100,4,3,2,80,0,0
109482,-100,4,3,1,80,0,0
109944,-57.1428571428571,4,3,99,80,0,0
110175,-57.1428571428571,4,3,2,80,0,0
110405,-57.1428571428571,4,3,99,80,0,0
110636,-57.1428571428571,4,3,2,80,0,0
110867,-57.1428571428571,4,3,1,80,0,0
111328,-100,4,3,1,80,0,0
111790,-100,4,3,2,80,0,0
112252,-100,4,3,1,80,0,0
113405,-57.1428571428571,4,3,1,80,0,0
114790,-100,4,3,1,80,0,0
116405,-50,4,3,1,80,0,0
117328,-66.6666666666667,4,3,1,80,0,0
117482,-66.6666666666667,4,3,2,80,0,0
117790,-66.6666666666667,4,3,1,80,0,0
117944,-66.6666666666667,4,3,2,80,0,0
118251,-66.6666666666667,4,3,1,80,0,1
124713,-66.6666666666667,4,3,99,80,0,1
124944,-66.6666666666667,4,3,2,80,0,1
125175,-66.6666666666667,4,3,99,80,0,1
125405,-66.6666666666667,4,3,2,80,0,1
125636,-50,4,3,1,80,0,1
125867,-50,4,3,99,80,0,1
128867,-50,4,3,99,80,0,1
129097,-50,4,3,2,80,0,1
129328,-50,4,3,1,80,0,1
133021,230.769230769231,6,3,1,80,1,0
133021,-66.6666666666667,6,3,1,80,0,0
153790,230.769230769231,4,3,1,80,1,0
154713,-50,4,3,1,80,0,0
155636,-50,4,2,1,20,0,0
155866,-50,4,2,1,40,0,0
156097,-50,4,2,1,60,0,0
156328,-50,4,2,1,80,0,0
156559,-50,4,3,1,80,0,0
156636,-50,4,3,99,80,0,0
161636,-50,4,3,1,80,0,0
161713,-50,4,3,2,80,0,0
162097,-50,4,3,99,80,0,0
164866,-50,4,3,2,80,0,0
165020,-50,4,3,99,80,0,0
165328,-50,4,3,1,80,0,0
165482,-50,4,3,2,80,0,0
165789,-50,4,3,99,80,0,0
171328,-50,4,3,2,80,0,0
172251,-50,4,3,99,80,0,0
172405,-50,4,3,2,80,0,0
172713,-50,4,3,99,80,0,0
172866,-50,4,3,2,80,0,0
173174,-50,4,3,99,80,0,0
176866,-80,4,3,99,80,0,0
177328,-57.1428571428571,4,3,99,80,0,0
177789,-50,4,3,99,80,0,0
178097,-50,4,3,2,80,0,0
178251,-40,4,3,99,80,0,0
178482,-40,4,3,2,80,0,0
178713,-80,4,3,99,80,0,0
179174,-57.1428571428571,4,3,99,80,0,0
180097,-57.1428571428571,4,3,1,80,0,0
180251,-57.1428571428571,4,3,2,85,0,0
180559,-40,4,3,1,85,0,1
180636,-40,4,3,99,85,0,1
184713,-40,4,3,2,85,0,1
184789,-40,4,3,99,85,0,1
185482,-50,4,3,99,85,0,1
185789,-66.6666666666667,4,3,99,85,0,1
186097,-50,4,3,99,85,0,1
186636,-50,4,3,1,85,0,1
187020,-50,4,3,2,85,0,1
187943,-50,4,3,1,80,0,1
188020,-50,4,3,99,80,0,1
191405,-50,4,3,2,80,0,1
191636,-50,4,3,99,80,0,1
195097,-50,4,3,2,80,0,1
195328,-66.6666666666667,4,3,1,80,0,0
196251,-66.6666666666667,4,3,1,70,0,0
198559,-66.6666666666667,4,3,2,70,0,0
199251,-100,4,3,1,70,0,0
200020,-66.6666666666667,4,3,1,70,0,0
201097,-66.6666666666667,4,3,1,70,0,0
202251,-66.6666666666667,4,3,2,70,0,0
202482,-66.6666666666667,4,3,99,70,0,0
202713,-66.6666666666667,4,3,1,70,0,0
205943,-66.6666666666667,4,3,2,70,0,0
206174,-66.6666666666667,4,3,2,70,0,0
206405,-66.6666666666667,4,3,1,70,0,0
208020,-66.6666666666667,4,3,2,70,0,0
208251,-66.6666666666667,4,3,1,70,0,0
208943,-66.6666666666667,4,3,99,70,0,0
209174,-66.6666666666667,4,3,2,70,0,0
209636,-66.6666666666667,4,3,99,70,0,0
209751,-66.6666666666667,4,3,2,70,0,0
209866,-66.6666666666667,4,3,99,70,0,0
210097,-50,4,3,1,70,0,0
216559,-66.6666666666667,4,3,1,70,0,0
216789,-66.6666666666667,4,3,2,70,0,0
217020,-66.6666666666667,4,3,1,70,0,0
217251,-66.6666666666667,4,3,2,70,0,0
217482,-66.6666666666667,4,3,1,70,0,0
220713,-66.6666666666667,4,3,99,70,0,0
220943,-66.6666666666667,4,3,2,70,0,0
221174,-66.6666666666667,4,3,1,70,0,0
221405,-100,4,3,99,70,0,0
222097,-100,4,3,1,70,0,0
222789,-100,4,3,99,70,0,0
223251,-100,4,3,1,70,0,0
223943,-100,4,3,1,70,0,0
224405,-66.6666666666667,4,3,99,70,0,0
224636,-100,4,3,2,70,0,0
224866,-100,4,3,99,80,0,0
225328,-100,4,3,2,80,0,0
225789,-100,4,3,99,80,0,0
226020,-100,4,3,2,80,0,0
226251,-57.1428571428571,4,3,1,80,0,0
228559,-100,4,3,1,80,0,0
230636,-100,4,3,2,80,0,0
230866,-100,4,3,1,80,0,0
231328,-100,4,3,99,80,0,0
231559,-100,4,3,2,80,0,0
231789,-100,4,3,99,80,0,0
232020,-57.1428571428571,4,3,2,80,0,0
232251,-57.1428571428571,4,3,1,80,0,0
232713,-100,4,3,1,80,0,0
233636,-100,4,3,99,80,0,0
233866,-100,4,3,2,80,0,0
234097,-100,4,3,1,80,0,0
234789,-57.1428571428571,4,3,1,80,0,0
236174,-100,4,3,1,80,0,0
237559,-100,4,3,2,80,0,0
237789,-50,4,3,1,80,0,0
238713,-100,4,3,99,80,0,0
238866,-100,4,3,2,80,0,0
239174,-100,4,3,99,80,0,0
239328,-100,4,3,2,80,0,0
239636,-66.6666666666667,4,3,1,80,0,1
246097,-66.6666666666667,4,3,99,80,0,1
246328,-66.6666666666667,4,3,2,80,0,1
246559,-66.6666666666667,4,3,99,80,0,1
246789,-66.6666666666667,4,3,2,80,0,1
247020,-50,4,3,1,80,0,1
247251,-50,4,3,99,80,0,1
249905,-50,4,3,1,80,0,1
250251,-50,4,3,99,80,0,1
250482,-50,4,3,2,80,0,1
250713,-50,4,3,1,80,0,1
252559,-40,4,3,1,85,0,1
254174,-40,4,3,2,85,0,1
254405,-66.6666666666667,4,3,1,80,0,0
257636,-66.6666666666667,4,3,99,80,0,0
258097,-50,4,3,1,80,0,0
261328,-50,4,3,99,80,0,0
261559,-50,4,3,2,80,0,0
261789,-50,4,3,1,80,0,0
262020,-50,4,3,99,80,0,1
263636,-50,4,3,99,80,0,1
263866,-50,4,3,1,80,0,1
263982,-50,4,3,2,80,0,1
264097,-50,4,3,99,80,0,1
264559,-50,4,3,1,80,0,1
264789,-50,4,3,2,80,0,1
265020,-50,4,3,99,80,0,1
265136,-50,4,3,1,80,0,1
265251,-50,4,3,2,80,0,1
265482,-100,4,3,1,80,0,0
267097,-100,4,3,2,80,0,0
267328,-100,4,3,1,80,0,0
268713,-100,4,3,2,80,0,0
269174,-66.6666666666667,4,3,99,75,0,0
271020,-66.6666666666667,4,3,2,75,0,0
271482,-66.6666666666667,4,3,1,75,0,0
273328,-66.6666666666667,4,3,1,75,0,0
275636,-66.6666666666667,4,3,99,75,0,0
275866,-66.6666666666667,4,3,2,75,0,0
276097,-66.6666666666667,4,3,99,75,0,0
276328,-66.6666666666667,4,3,2,75,0,0
276559,-50,4,3,1,80,0,0
276790,-50,4,3,99,80,0,1
280251,-50,4,3,1,80,0,1
280482,-40,4,3,99,85,0,1
283713,-50,4,3,2,85,0,1
283943,230.769230769231,6,3,99,80,1,0
283943,-66.6666666666667,6,3,99,80,0,0
284405,-66.6666666666667,6,3,1,80,0,0
294559,-100,6,3,1,80,0,0
294789,-100,6,3,2,80,0,0
295020,-100,6,3,1,80,0,0
300097,-66.6666666666667,6,3,2,80,0,0
300559,-50,6,3,1,80,0,0

[Colours]
Combo1 : 249,81,0
Combo2 : 0,117,0
Combo3 : 155,156,146
Combo4 : 0,164,0
Combo5 : 90,73,88
Combo6 : 215,0,0
SliderBorder : 0,164,0

[HitObjects]
256,192,560,12,0,7252,0:0:0:0:
51,121,7484,5,2,0:0:0:0:
51,121,7946,1,0,0:0:0:0:
175,81,8175,1,2,0:0:0:0:
86,224,8407,2,0,P|65:252|58:281,1,50,2|0,0:0|0:0,0:0:0:0:
169,327,8869,2,0,L|226:313,2,50,2|0|0,0:0|0:0|0:0,0:0:0:0:
387,125,9561,5,2,0:0:0:0:
387,125,9792,2,0,P|392:155|418:185,1,50,2|0,0:0|0:0,0:0:0:0:
225,314,10253,2,0,P|210:348|197:362,2,50,2|2|0,0:0|0:0|0:0,0:0:0:0:
139,40,11175,5,2,0:0:0:0:
45,196,11638,1,0,0:0:0:0:
45,196,11869,2,0,B|101:210,1,50,2|2,0:0|0:0,0:0:0:0:
157,296,12330,1,0,0:0:0:0:
157,296,12561,6,0,B|213:310,2,50,2|0|0,0:0|0:0|0:0,0:0:0:0:
314,267,13253,2,0,L|348:321,2,50,2|0|0,0:0|0:0|0:0,0:0:0:0:
472,301,13946,2,0,L|456:348,1,50,2|0,0:0|0:0,0:0:0:0:
455,348,14407,1,2,0:0:0:0:
384,93,14869,37,2,0:0:0:0:
384,93,15330,1,0,0:0:0:0:
235,60,15561,1,2,0:0:0:0:
313,203,15792,2,0,L|340:248,1,50,2|0,0:0|0:0,0:0:0:0:
409,347,16253,2,0,P|432:337|450:321,2,50,2|0|0,0:0|0:0|0:0,0:0:0:0:
153,215,16946,5,2,0:0:0:0:
153,215,17175,2,0,L|99:195,1,50,2|0,0:0|0:0,0:0:0:0:
25,349,17638,2,0,L|80:371,2,50,2|2|0,0:0|0:0|0:0,0:0:0:0:
327,137,18561,5,2,0:0:0:0:
458,249,19023,1,0,0:0:0:0:
458,249,19252,2,0,P|434:266|409:274,1,50,2|2,0:0|0:0,0:0:0:0:
188,225,19715,1,0,0:0:0:0:
188,225,19946,2,0,P|153:226|130:238,1,50,2|0,0:0|0:0,0:0:0:0:
256,192,20407,12,0,22137,0:0:0:0:
165,85,22253,5,4,0:0:0:0:
145,111,22329,1,0,0:0:0:0:
135,143,22406,1,0,0:0:0:0:
132,176,22483,1,0,0:0:0:0:
138,208,22560,1,0,0:0:0:0:
154,236,22637,1,0,0:0:0:0:
180,255,22714,2,0,L|250:271,2,50.0000019073487,2|0|0,0:0|0:0|0:0,0:0:0:0:
88,336,22945,2,0,L|36:361,2,50.0000019073487
282,358,23176,37,10,0:0:0:0:
314,350,23253,1,0,0:0:0:0:
342,334,23329,1,0,0:0:0:0:
365,310,23406,1,0,0:0:0:0:
379,279,23483,1,0,0:0:0:0:
384,246,23560,1,0,0:0:0:0:
370,215,23637,2,0,L|320:178,2,50.0000019073487,2|0|0,0:0|0:0|0:0,0:0:0:0:
423,87,23868,2,0,L|473:63,2,50.0000019073487
246,163,24099,5,2,0:0:0:0:
226,190,24176,2,0,P|198:202|159:201,1,50.0000019073487
94,85,24329,1,0,0:0:0:0:
121,65,24405,1,0,0:0:0:0:
151,51,24482,1,0,0:0:0:0:
183,42,24559,1,2,0:0:0:0:
216,39,24636,1,0,0:0:0:0:
249,43,24713,1,0,0:0:0:0:
281,53,24790,1,0,0:0:0:0:
310,68,24868,2,0,P|331:86|346:115,1,50.0000019073487
205,314,25022,5,10,0:0:0:0:
235,328,25099,1,0,0:0:0:0:
267,334,25176,1,0,0:0:0:0:
300,332,25253,1,0,0:0:0:0:
331,322,25329,1,0,0:0:0:0:
359,304,25406,1,0,0:0:0:0:
376,275,25483,6,0,P|386:244|381:220,2,50.0000019073487,2|0|0,0:0|0:0|0:0,0:0:0:0:
226,190,25714,2,0,P|187:190|167:203,2,50.0000019073487,8|0|0,0:0|0:0|0:0,0:0:0:0:
421,120,25945,37,0,0:0:0:0:
430,105,26022,1,0,0:0:0:0:
439,91,26099,1,0,0:0:0:0:
448,77,26176,2,0,L|469:42,2,33.3333333333333,2|0|0,0:0|0:0|0:0,0:0:0:0:
275,86,26406,37,0,0:0:0:0:
269,70,26483,1,0,0:0:0:0:
261,55,26560,1,0,0:0:0:0:
255,40,26637,2,0,L|237:-1,2,33.3333333333333,2|0|0,0:0|0:0|0:0,0:0:0:0:
424,247,26868,37,8,0:0:0:0:
401,271,26944,1,0,0:0:0:0:
374,291,27021,1,0,0:0:0:0:
344,306,27098,1,0,0:0:0:0:
312,314,27175,1,0,0:0:0:0:
279,317,27252,1,0,0:0:0:0:
246,314,27329,1,2,0:0:0:0:
214,304,27406,1,0,0:0:0:0:
185,289,27483,1,0,0:0:0:0:
159,268,27560,5,0,0:0:0:0:
191,263,27636,1,0,0:0:0:0:
222,250,27713,1,0,0:0:0:0:
248,229,27790,1,2,0:0:0:0:
267,202,27867,1,0,0:0:0:0:
278,171,27944,1,0,0:0:0:0:
281,137,28021,1,0,0:0:0:0:
274,105,28098,1,0,0:0:0:0:
259,75,28175,1,0,0:0:0:0:
236,51,28253,2,0,L|173:26,2,50.0000019073487,2|0|0,0:0|0:0|0:0,0:0:0:0:
85,132,28483,2,0,L|143:108,2,50.0000019073487
188,200,28714,5,10,0:0:0:0:
222,210,28790,1,0,0:0:0:0:
259,215,28867,1,0,0:0:0:0:
295,210,28944,1,0,0:0:0:0:
331,197,29021,1,0,0:0:0:0:
362,177,29098,1,0,0:0:0:0:
378,144,29175,22,0,L|392:204,3,37.5000014305115,8|8|8|8,0:0|0:0|0:0|0:0,0:0:0:0:
463,245,29406,6,0,L|472:222,3,25,4|4|4|4,0:0|0:0|0:0|0:0,0:0:0:0:
411,306,29637,5,4,0:0:0:0:
382,323,29713,1,0,0:0:0:0:
351,336,29790,1,0,0:0:0:0:
319,342,29867,1,0,0:0:0:0:
285,342,29944,1,0,0:0:0:0:
253,337,30021,1,0,0:0:0:0:
220,328,30099,2,0,L|168:369,2,50.0000019073487,2|0|0,0:0|0:0|0:0,0:0:0:0:
298,235,30329,2,0,L|356:264,2,50.0000019073487
126,174,30560,5,10,0:0:0:0:
97,157,30636,1,0,0:0:0:0:
83,127,30713,1,0,0:0:0:0:
86,94,30790,1,0,0:0:0:0:
106,68,30867,1,0,0:0:0:0:
136,55,30944,1,0,0:0:0:0:
169,61,31022,2,0,P|189:70|220:105,2,50.0000019073487,2|0|0,0:0|0:0|0:0,0:0:0:0:
286,29,31253,5,0,0:0:0:0:
314,46,31329,1,0,0:0:0:0:
337,69,31406,1,0,0:0:0:0:
356,97,31483,1,2,0:0:0:0:
367,128,31560,1,0,0:0:0:0:
372,161,31637,1,0,0:0:0:0:
369,195,31714,1,0,0:0:0:0:
359,226,31791,1,0,0:0:0:0:
342,255,31868,1,0,0:0:0:0:
320,280,31945,5,2,0:0:0:0:
292,262,32021,1,0,0:0:0:0:
260,251,32098,1,0,0:0:0:0:
227,249,32175,1,0,0:0:0:0:
194,255,32252,1,0,0:0:0:0:
164,269,32329,1,0,0:0:0:0:
139,290,32406,2,0,L|120:347,2,50.0000019073487,10|0|0,0:0|0:0|0:0,0:0:0:0:
225,171,32637,2,0,L|208:114,2,50.0000019073487
282,334,32868,37,2,0:0:0:0:
321,339,32945,2,0,L|376:344,1,50.0000019073487
404,262,33099,1,8,0:0:0:0:
443,259,33176,2,0,L|500:250,1,50.0000019073487
435,154,33329,5,2,0:0:0:0:
411,130,33405,1,0,0:0:0:0:
383,112,33482,1,0,0:0:0:0:
353,98,33559,1,0,0:0:0:0:
320,90,33636,1,0,0:0:0:0:
287,88,33713,1,0,0:0:0:0:
254,92,33791,2,0,L|202:54,2,50.0000019073487,2|0|0,0:0|0:0|0:0,0:0:0:0:
343,201,34022,2,0,L|396:241,2,50.0000019073487
122,145,34253,5,10,0:0:0:0:
102,179,34329,2,0,P|97:201|103:239,1,50.0000019073487
178,284,34483,1,0,0:0:0:0:
210,275,34559,1,0,0:0:0:0:
243,273,34636,1,0,0:0:0:0:
276,277,34713,1,2,0:0:0:0:
308,287,34790,1,0,0:0:0:0:
337,303,34867,1,0,0:0:0:0:
364,323,34945,2,0,L|388:371,2,50.0000019073487
443,262,35176,21,4,0:0:0:0:
445,249,35233,1,4,0:0:0:0:
447,236,35291,1,4,0:0:0:0:
449,223,35349,1,4,0:0:0:0:
451,211,35406,1,4,0:0:0:0:
454,198,35464,1,4,0:0:0:0:
456,185,35521,2,0,P|452:161|437:137,1,37.5000014305115,8|8,0:0|0:0,0:0:0:0:
274,73,35637,5,0,0:0:0:0:
261,86,35695,1,4,0:0:0:0:
252,103,35753,1,4,0:0:0:0:
249,121,35810,1,4,0:0:0:0:
251,139,35868,1,4,0:0:0:0:
257,156,35926,1,4,0:0:0:0:
263,166,35983,2,8,P|253:182|238:193,1,37.5000014305115
151,54,36098,69,0,0:0:0:0:
58,176,36214,1,8,0:0:0:0:
69,199,36272,1,8,0:0:0:0:
78,223,36328,1,8,0:0:0:0:
87,247,36387,1,8,0:0:0:0:
99,270,36445,6,0,P|120:288|155:295,1,37.5000014305115
290,254,36560,1,8,0:0:0:0:
315,246,36618,1,0,0:0:0:0:
339,236,36676,2,0,L|386:218,1,37.5000014305115
463,148,36790,5,8,0:0:0:0:
398,380,36906,1,8,0:0:0:0:
234,187,37022,6,0,P|202:220|203:285,1,100,4|0,0:0|0:0,0:0:0:0:
396,109,37253,2,0,P|367:75|303:68,1,100
362,356,37483,2,0,P|402:315|412:264,1,100,2|0,0:0|0:0,0:0:0:0:
227,109,37714,1,0,0:0:0:0:
227,109,37829,1,0,0:0:0:0:
46,241,37945,6,0,P|84:275|155:292,1,100,10|0,0:0|0:0,0:0:0:0:
341,168,38176,2,0,P|353:117|326:63,1,100
47,35,38406,2,0,P|62:92|99:142,1,100,2|0,0:0|0:0,0:0:0:0:
257,274,38637,1,0,0:0:0:0:
277,288,38695,1,0,0:0:0:0:
297,301,38753,1,0,0:0:0:0:
317,314,38810,1,0,0:0:0:0:
339,326,38868,6,0,B|396:322|396:322|426:291,1,100,2|0,0:0|0:0,0:0:0:0:
139,164,39099,2,0,B|119:219|119:219|143:272,1,100
428,122,39329,2,0,B|411:65|411:65|364:44,1,100,2|0,0:0|0:0,0:0:0:0:
123,49,39560,1,0,0:0:0:0:
105,67,39618,1,0,0:0:0:0:
87,85,39676,1,0,0:0:0:0:
70,103,39733,1,0,0:0:0:0:
52,120,39791,38,0,P|54:178|102:226,1,100,10|0,0:0|0:0,0:0:0:0:
296,309,40022,2,0,P|354:300|392:272,1,100
219,45,40253,2,0,P|207:100|222:150,1,100,2|0,0:0|0:0,0:0:0:0:
467,192,40483,1,8,0:0:0:0:
358,28,40599,1,8,0:0:0:0:
382,289,40714,6,0,B|341:301|341:301|301:346,1,100,2|0,0:0|0:0,0:0:0:0:
110,202,40945,2,0,B|98:170|98:170|26:122,1,100
330,148,41176,2,0,B|359:124|359:124|432:119,1,100,2|0,0:0|0:0,0:0:0:0:
188,268,41406,1,0,0:0:0:0:
177,291,41464,1,0,0:0:0:0:
167,314,41522,1,0,0:0:0:0:
157,336,41579,1,0,0:0:0:0:
147,359,41637,6,0,P|208:346|257:366,1,100,10|0,0:0|0:0,0:0:0:0:
432,304,41868,1,0,0:0:0:0:
432,304,41983,1,0,0:0:0:0:
208,91,42099,2,0,B|179:144|211:196,1,100,8|0,0:0|0:0,0:0:0:0:
428,221,42329,1,8,0:0:0:0:
291,35,42445,1,8,0:0:0:0:
80,114,42560,6,0,L|50:231,1,100,2|0,0:0|0:0,0:0:0:0:
251,342,42791,2,0,L|352:299,1,100
370,89,43022,2,0,L|297:182,1,100,2|0,0:0|0:0,0:0:0:0:
121,311,43253,1,0,0:0:0:0:
96,307,43310,1,0,0:0:0:0:
71,303,43368,1,0,0:0:0:0:
46,300,43426,1,0,0:0:0:0:
21,298,43483,38,0,P|52:229|37:182,1,100,10|0,0:0|0:0,0:0:0:0:
86,79,43714,1,0,0:0:0:0:
86,79,43829,1,0,0:0:0:0:
312,18,43945,2,0,P|378:32|405:75,1,100,8|0,0:0|0:0,0:0:0:0:
242,308,44176,1,8,0:0:0:0:
281,129,44291,1,8,0:0:0:0:
422,335,44406,5,2,0:0:0:0:
373,322,44482,1,0,0:0:0:0:
323,319,44559,1,0,0:0:0:0:
275,329,44636,1,0,0:0:0:0:
228,346,44713,1,0,0:0:0:0:
178,349,44790,1,0,0:0:0:0:
130,335,44868,5,2,0:0:0:0:
91,303,44944,1,0,0:0:0:0:
69,258,45021,1,0,0:0:0:0:
67,209,45098,1,0,0:0:0:0:
85,162,45175,1,0,0:0:0:0:
119,127,45252,1,0,0:0:0:0:
163,110,45329,5,10,0:0:0:0:
211,137,45405,1,0,0:0:0:0:
242,183,45482,1,0,0:0:0:0:
247,238,45559,1,0,0:0:0:0:
226,288,45636,1,0,0:0:0:0:
183,323,45713,1,0,0:0:0:0:
130,335,45791,37,2,0:0:0:0:
149,283,45867,1,0,0:0:0:0:
187,243,45944,1,0,0:0:0:0:
238,222,46021,1,0,0:0:0:0:
293,222,46098,1,0,0:0:0:0:
344,244,46175,1,0,0:0:0:0:
382,284,46253,2,0,P|378:318|361:347,2,66.6666666666667,2|0|0,0:0|0:0|0:0,0:0:0:0:
395,145,46483,5,2,0:0:0:0:
342,127,46559,1,0,0:0:0:0:
287,125,46636,1,0,0:0:0:0:
233,140,46713,1,0,0:0:0:0:
179,154,46790,1,0,0:0:0:0:
124,156,46867,1,0,0:0:0:0:
69,148,46945,2,0,P|41:137|5:105,2,66.6666666666667,2|0|0,0:0|0:0|0:0,0:0:0:0:
149,45,47176,5,10,0:0:0:0:
187,66,47252,1,0,0:0:0:0:
217,99,47329,1,0,0:0:0:0:
233,140,47406,1,0,0:0:0:0:
235,184,47483,1,0,0:0:0:0:
222,226,47560,1,0,0:0:0:0:
185,263,47637,21,8,0:0:0:0:
208,271,47695,1,8,0:0:0:0:
231,278,47753,1,8,0:0:0:0:
254,285,47810,1,8,0:0:0:0:
258,309,47868,5,4,0:0:0:0:
276,300,47926,1,4,0:0:0:0:
293,290,47983,1,4,0:0:0:0:
311,281,48041,1,4,0:0:0:0:
352,291,48099,5,4,0:0:0:0:
38,87,48329,2,0,B|8:139|8:139|39:294,1,200
396,108,49022,1,8,0:0:0:0:
38,165,49253,2,0,P|80:135|142:142,1,100,0|2,0:0|0:0,0:0:0:0:
319,212,49714,1,2,0:0:0:0:
93,337,49945,5,0,0:0:0:0:
93,337,50176,2,0,B|197:296|197:375|303:343,1,200
54,100,50868,1,4,0:0:0:0:
278,57,51099,1,0,0:0:0:0:
278,57,51156,1,0,0:0:0:0:
278,57,51214,1,0,0:0:0:0:
278,57,51272,1,0,0:0:0:0:
278,57,51329,2,0,P|235:83|212:150,1,100,8|0,0:0|0:0,0:0:0:0:
262,329,51790,5,4,0:0:0:0:
467,230,52020,1,0,0:0:0:0:
262,329,52251,1,2,0:0:0:0:
467,230,52482,1,0,0:0:0:0:
203,91,52713,6,0,L|155:101,1,44.999998626709,8|0,0:0|0:0,0:0:0:0:
119,229,53174,37,2,0:0:0:0:
190,2,53405,1,0,0:0:0:0:
119,229,53637,1,2,0:0:0:0:
190,2,53866,1,0,0:0:0:0:
384,271,54097,6,0,L|418:306,1,44.999998626709,2|0,0:0|0:0,0:0:0:0:
436,117,54560,5,10,0:0:0:0:
165,80,54791,1,0,0:0:0:0:
436,117,55020,1,2,0:0:0:0:
165,80,55251,1,0,0:0:0:0:
226,333,55482,6,0,L|253:294,1,44.999998626709,2|0,0:0|0:0,0:0:0:0:
43,337,55943,37,2,0:0:0:0:
343,229,56174,2,0,L|276:211,1,50
30,150,56406,1,10,0:0:0:0:
348,245,56637,1,0,0:0:0:0:
43,337,56866,1,2,0:0:0:0:
354,263,57097,1,0,0:0:0:0:
247,29,57329,5,4,0:0:0:0:
147,247,57560,1,0,0:0:0:0:
247,29,57791,1,2,0:0:0:0:
147,247,58020,1,0,0:0:0:0:
458,275,58251,6,0,L|504:288,1,44.999998626709,8|0,0:0|0:0,0:0:0:0:
285,138,58714,5,2,0:0:0:0:
425,346,58943,1,0,0:0:0:0:
285,138,59174,1,2,0:0:0:0:
425,346,59405,1,0,0:0:0:0:
112,280,59636,37,2,0:0:0:0:
54,83,59866,5,0,0:0:0:0:
54,83,59924,1,0,0:0:0:0:
54,83,59982,1,0,0:0:0:0:
54,83,60040,1,0,0:0:0:0:
54,83,60097,1,10,0:0:0:0:
233,275,60328,1,0,0:0:0:0:
54,83,60559,1,2,0:0:0:0:
233,275,60790,2,0,L|264:281,2,29.9999990844727
466,157,61482,5,2,0:0:0:0:
173,34,61713,1,0,0:0:0:0:
369,192,61943,1,2,0:0:0:0:
55,138,62174,1,0,0:0:0:0:
12,383,62405,5,8,0:0:0:0:
196,321,62636,1,0,0:0:0:0:
406,346,62866,37,4,0:0:0:0:
87,284,63097,1,0,0:0:0:0:
406,346,63328,1,2,0:0:0:0:
87,284,63559,1,0,0:0:0:0:
421,88,63790,6,0,L|469:82,1,44.999998626709,8|0,0:0|0:0,0:0:0:0:
454,221,64251,5,2,0:0:0:0:
320,9,64482,1,0,0:0:0:0:
454,221,64713,1,2,0:0:0:0:
320,9,64943,1,0,0:0:0:0:
123,257,65174,6,0,L|108:303,1,44.999998626709,2|0,0:0|0:0,0:0:0:0:
22,175,65636,37,10,0:0:0:0:
289,89,65866,1,0,0:0:0:0:
22,175,66097,1,2,0:0:0:0:
289,89,66328,1,0,0:0:0:0:
212,326,66559,6,0,L|198:371,1,44.999998626709,2|0,0:0|0:0,0:0:0:0:
366,306,67020,5,2,0:0:0:0:
121,254,67251,1,0,0:0:0:0:
360,169,67482,1,10,0:0:0:0:
121,254,67713,1,0,0:0:0:0:
366,306,67943,1,2,0:0:0:0:
121,254,68174,1,0,0:0:0:0:
246,43,68405,5,2,0:0:0:0:
213,334,68636,1,0,0:0:0:0:
246,43,68866,1,2,0:0:0:0:
213,334,69097,1,2,0:0:0:0:
44,70,69328,37,8,0:0:0:0:
44,70,69790,37,2,0:0:0:0:
372,32,70020,1,2,0:0:0:0:
44,70,70251,1,2,0:0:0:0:
372,32,70482,1,2,0:0:0:0:
111,309,70943,37,0,0:0:0:0:
120,312,71001,1,0,0:0:0:0:
129,315,71059,1,0,0:0:0:0:
138,318,71116,1,0,0:0:0:0:
147,321,71174,1,8,0:0:0:0:
447,209,71405,1,0,0:0:0:0:
150,131,71636,1,2,0:0:0:0:
447,209,71866,2,0,L|435:242,2,29.9999990844727,2|2|0,0:0|0:0|0:0,0:0:0:0:
293,49,72559,5,2,0:0:0:0:
173,279,72790,1,0,0:0:0:0:
293,49,73020,2,0,P|276:96|286:147,1,75.0000028610231,8|8,0:0|0:0,0:0:0:0:
403,302,73251,1,4,0:0:0:0:
310,285,73366,1,4,0:0:0:0:
240,331,73482,2,0,P|187:359|148:357,1,75.0000028610231,8|4,0:0|0:0,0:0:0:0:
80,332,73713,1,4,0:0:0:0:
25,268,73828,1,4,0:0:0:0:
43,121,73944,6,0,L|218:75,1,175.00000166893,2|0,0:0|0:0,0:0:0:0:
391,148,74291,1,0,0:0:0:0:
391,148,74406,2,0,P|409:195|444:220,1,87.500000834465,2|0,0:0|0:0,0:0:0:0:
163,237,74637,2,0,P|77:194|-18:199,1,175.00000166893,0|10,0:0|0:0,0:0:0:0:
248,336,74983,1,0,0:0:0:0:
248,336,75097,2,0,L|340:348,1,87.500000834465
242,68,75329,5,2,0:0:0:0:
205,146,75445,1,0,0:0:0:0:
295,140,75560,2,0,P|333:114|351:69,1,87.500000834465
54,167,75791,2,0,L|80:254,1,87.500000834465,2|0,0:0|0:0,0:0:0:0:
305,286,76020,1,0,0:0:0:0:
305,286,76137,1,0,0:0:0:0:
305,286,76251,2,0,P|348:291|385:313,1,87.500000834465,2|0,0:0|0:0,0:0:0:0:
357,102,76483,2,0,P|314:107|275:88,1,87.500000834465
140,48,76713,37,10,0:0:0:0:
32,148,76829,1,0,0:0:0:0:
177,123,76945,5,8,0:0:0:0:
105,235,77060,1,0,0:0:0:0:
220,206,77174,5,10,0:0:0:0:
179,325,77291,1,0,0:0:0:0:
289,269,77406,5,8,0:0:0:0:
441,348,77520,2,0,P|446:303|420:255,2,87.500000834465,8|2|8,0:0|0:0|0:0,0:0:0:0:
310,169,77868,2,0,P|345:128|384:112,1,87.500000834465,8|0,0:0|0:0,0:0:0:0:
168,79,78097,38,0,L|18:180,1,175.00000166893,2|0,0:0|0:0,0:0:0:0:
122,327,78445,1,0,0:0:0:0:
122,327,78560,2,0,P|174:347|209:341,1,87.500000834465,10|0,0:0|0:0,0:0:0:0:
276,204,78791,1,8,0:0:0:0:
208,87,78906,1,8,0:0:0:0:
64,77,79020,2,0,P|96:174|52:250,1,175.00000166893,2|0,0:0|0:0,0:0:0:0:
289,336,79368,1,0,0:0:0:0:
289,336,79482,6,0,P|339:325|378:338,1,87.500000834465,2|0,0:0|0:0,0:0:0:0:
351,92,79714,2,0,P|440:108|516:66,1,175.00000166893,0|2,0:0|0:0,0:0:0:0:
282,21,80060,1,0,0:0:0:0:
198,89,80174,2,0,P|212:143|248:180,1,87.500000834465
41,337,80406,5,10,0:0:0:0:
181,268,80520,2,0,P|232:252|279:264,2,87.500000834465
302,352,80868,1,2,0:0:0:0:
400,294,80983,1,0,0:0:0:0:
420,182,81097,1,2,0:0:0:0:
356,90,81213,1,0,0:0:0:0:
173,34,81329,6,0,L|106:207,1,175.00000166893,4|0,0:0|0:0,0:0:0:0:
225,325,81674,1,0,0:0:0:0:
225,325,81791,2,0,P|278:316|321:329,1,87.500000834465,2|0,0:0|0:0,0:0:0:0:
436,70,82020,2,0,B|346:49|346:49|254:64,1,175.00000166893,0|10,0:0|0:0,0:0:0:0:
307,247,82368,2,0,P|343:280|401:291,2,87.500000834465
86,68,82714,37,2,0:0:0:0:
87,159,82829,1,0,0:0:0:0:
167,99,82945,2,0,P|171:57|143:14,1,87.500000834465
117,311,83174,2,0,L|203:349,1,87.500000834465,2|0,0:0|0:0,0:0:0:0:
350,91,83406,1,0,0:0:0:0:
350,91,83520,1,0,0:0:0:0:
350,91,83637,2,0,P|349:138|379:182,1,87.500000834465,2|0,0:0|0:0,0:0:0:0:
149,18,83868,2,0,P|95:18|54:40,1,87.500000834465
120,269,84097,37,10,0:0:0:0:
213,347,84213,1,0,0:0:0:0:
195,231,84328,37,8,0:0:0:0:
309,286,84444,1,0,0:0:0:0:
262,175,84559,5,10,0:0:0:0:
394,198,84674,1,0,0:0:0:0:
317,104,84791,5,8,0:0:0:0:
429,46,84906,2,0,P|478:29|519:34,2,87.500000834465,8|2|8,0:0|0:0|0:0,0:0:0:0:
394,198,85251,2,0,P|412:249|446:288,1,87.500000834465,8|8,0:0|0:0,0:0:0:0:
264,320,85482,6,0,L|86:358,1,175.00000166893,2|0,0:0|0:0,0:0:0:0:
152,161,85829,1,0,0:0:0:0:
152,161,85945,2,0,P|187:124|195:77,1,87.500000834465,2|0,0:0|0:0,0:0:0:0:
40,171,86174,1,8,0:0:0:0:
120,272,86291,1,8,0:0:0:0:
254,290,86406,2,0,L|447:239,1,175.00000166893,2|0,0:0|0:0,0:0:0:0:
482,77,86751,1,0,0:0:0:0:
482,77,86867,38,0,P|438:43|394:33,1,87.500000834465,2|0,0:0|0:0,0:0:0:0:
272,206,87097,2,0,B|328:278|328:278|415:316,1,175.00000166893,0|2,0:0|0:0,0:0:0:0:
240,336,87445,1,0,0:0:0:0:
89,235,87560,2,0,P|69:190|77:146,1,87.500000834465
307,11,87791,6,0,P|330:56|320:104,1,87.500000834465,10|0,0:0|0:0,0:0:0:0:
183,256,88020,1,8,0:0:0:0:
170,268,88078,1,8,0:0:0:0:
157,280,88136,1,8,0:0:0:0:
144,292,88194,1,8,0:0:0:0:
130,303,88251,2,0,L|57:370,1,87.500000834465,10|0,0:0|0:0,0:0:0:0:
264,348,88483,1,4,0:0:0:0:
357,256,88597,1,4,0:0:0:0:
342,118,88714,6,0,L|157:80,1,175.00000166893,2|0,0:0|0:0,0:0:0:0:
83,178,89060,1,0,0:0:0:0:
152,271,89174,2,0,B|176:315|176:315|166:370,1,87.500000834465,2|0,0:0|0:0,0:0:0:0:
336,313,89406,2,0,B|375:292|375:292|444:299,1,87.500000834465
222,102,89637,2,0,P|179:94|128:123,1,87.500000834465,10|0,0:0|0:0,0:0:0:0:
146,254,89868,1,8,0:0:0:0:
254,221,89983,1,8,0:0:0:0:
332,127,90097,6,0,P|380:113|429:119,1,87.500000834465,2|0,0:0|0:0,0:0:0:0:
355,315,90329,2,0,P|316:344|270:354,2,87.500000834465,0|0|2,0:0|0:0|0:0,0:0:0:0:
374,204,90674,1,0,0:0:0:0:
292,108,90791,2,0,B|344:85|344:85|472:111,1,175.00000166893,0|2,0:0|0:0,0:0:0:0:
427,298,91136,2,0,P|463:321|506:326,2,87.500000834465
216,278,91482,37,10,0:0:0:0:
349,249,91597,1,0,0:0:0:0:
246,187,91713,5,8,0:0:0:0:
393,185,91828,1,0,0:0:0:0:
292,108,91944,5,10,0:0:0:0:
445,123,92059,1,0,0:0:0:0:
293,38,92174,2,0,L|199:57,1,87.500000834465,8|8,0:0|0:0,0:0:0:0:
100,145,92406,1,2,0:0:0:0:
54,269,92520,2,0,P|30:313|-5:333,2,87.500000834465,8|8|8,0:0|0:0|0:0,0:0:0:0:
174,215,92868,6,0,P|234:231|255:256,1,87.500000834465
323,325,93097,1,4,0:0:0:0:
422,342,93214,1,4,0:0:0:0:
510,299,93329,2,0,B|501:238|501:238|417:138,1,175.00000166893,10|8,0:0|0:0,0:0:0:0:
275,96,93674,1,8,0:0:0:0:
179,170,93791,2,0,P|148:209|104:234,1,87.500000834465,2|0,0:0|0:0,0:0:0:0:
291,289,94020,2,0,P|322:324|368:343,1,87.500000834465
421,183,94251,37,2,0:0:0:0:
359,80,94368,1,0,0:0:0:0:
229,56,94483,2,0,P|162:74|138:97,1,87.500000834465
119,276,94714,2,0,P|137:324|165:346,2,87.500000834465,2|0|0,0:0|0:0|0:0,0:0:0:0:
190,162,95060,1,0,0:0:0:0:
96,37,95174,6,0,B|41:74|41:74|8:193,1,175.00000166893,10|0,0:0|0:0,0:0:0:0:
62,275,95520,1,0,0:0:0:0:
172,302,95637,1,2,0:0:0:0:
288,288,95751,1,0,0:0:0:0:
375,227,95868,1,2,0:0:0:0:
414,127,95983,1,0,0:0:0:0:
276,50,96097,6,0,P|194:95|92:81,1,175.00000166893,4|0,0:0|0:0,0:0:0:0:
192,241,96445,1,0,0:0:0:0:
298,308,96560,2,0,P|345:320|390:317,2,87.500000834465,2|0|0,0:0|0:0|0:0,0:0:0:0:
264,175,96906,1,0,0:0:0:0:
396,55,97020,2,0,B|414:104|394:160,1,87.500000834465,10|0,0:0|0:0,0:0:0:0:
333,232,97251,1,0,0:0:0:0:
218,238,97368,1,0,0:0:0:0:
105,153,97483,6,0,P|145:130|194:131,1,87.500000834465,2|0,0:0|0:0,0:0:0:0:
303,186,97714,2,0,P|304:237|277:283,1,87.500000834465
114,315,97945,2,0,P|60:322|27:352,1,87.500000834465,2|0,0:0|0:0,0:0:0:0:
227,113,98174,2,0,P|299:98|408:157,1,175.00000166893,0|2,0:0|0:0,0:0:0:0:
439,235,98520,2,0,B|433:282|396:311,2,87.500000834465
445,80,98868,37,10,0:0:0:0:
314,153,98983,1,0,0:0:0:0:
338,25,99097,5,8,0:0:0:0:
227,113,99214,1,0,0:0:0:0:
215,20,99329,5,10,0:0:0:0:
121,107,99445,1,0,0:0:0:0:
54,35,99560,2,0,B|12:65|12:65|-5:113,2,87.500000834465,8|8|2,0:0|0:0|0:0,0:0:0:0:
223,206,99906,1,8,0:0:0:0:
156,291,100020,1,8,0:0:0:0:
108,201,100137,1,8,0:0:0:0:
283,266,100252,6,0,L|379:300,1,87.500000834465,2|0,0:0|0:0,0:0:0:0:
326,125,100483,2,0,L|253:57,1,87.500000834465
502,231,100714,2,0,P|475:283|434:303,1,87.500000834465,2|0,0:0|0:0,0:0:0:0:
292,190,100945,1,8,0:0:0:0:
351,53,101060,1,8,0:0:0:0:
445,134,101174,2,0,P|480:172|517:185,1,87.500000834465,2|0,0:0|0:0,0:0:0:0:
248,258,101406,2,0,P|215:295|179:312,1,87.500000834465
46,114,101637,38,0,B|99:79|99:79|229:86,1,175.00000166893,2|0,0:0|0:0,0:0:0:0:
320,148,101983,1,0,0:0:0:0:
355,254,102097,2,0,P|386:289|433:309,1,87.500000834465,2|0,0:0|0:0,0:0:0:0:
176,183,102329,2,0,P|127:175|81:193,1,87.500000834465
360,42,102560,1,10,0:0:0:0:
399,129,102674,1,0,0:0:0:0:
381,221,102791,2,0,L|320:295,1,87.500000834465
138,321,103020,53,8,0:0:0:0:
126,302,103078,1,8,0:0:0:0:
114,283,103136,1,8,0:0:0:0:
102,264,103194,1,8,0:0:0:0:
89,245,103251,6,4,L|137:235,1,43.7500004172325
114,151,103367,2,4,L|180:162,1,43.7500004172325
239,97,103483,5,12,0:0:0:0:
500,201,103714,1,0,0:0:0:0:
25,186,103945,5,8,0:0:0:0:
421,105,104174,1,8,0:0:0:0:
170,363,104406,37,8,0:0:0:0:
153,348,104464,1,8,0:0:0:0:
152,326,104520,1,8,0:0:0:0:
166,310,104579,1,8,0:0:0:0:
187,306,104637,5,4,0:0:0:0:
198,312,104695,1,4,0:0:0:0:
207,320,104751,1,4,0:0:0:0:
214,330,104810,1,4,0:0:0:0:
226,364,104868,70,0,L|272:376,7,43.7500004172325,2|0|0|0|0|0|0|0,0:0|0:0|0:0|0:0|0:0|0:0|0:0|0:0,0:0:0:0:
469,292,105329,2,0,L|413:298,7,43.7500004172325,2|0|0|0|0|0|0|0,0:0|0:0|0:0|0:0|0:0|0:0|0:0|0:0,0:0:0:0:
291,173,105791,1,2,0:0:0:0:
272,161,105847,1,0,0:0:0:0:
251,154,105906,1,0,0:0:0:0:
229,151,105964,1,0,0:0:0:0:
207,152,106020,1,0,0:0:0:0:
186,159,106079,1,0,0:0:0:0:
166,168,106137,1,0,0:0:0:0:
148,180,106195,1,0,0:0:0:0:
133,196,106251,6,0,P|116:196|66:169,1,43.7500004172325,10|0,0:0|0:0,0:0:0:0:
215,55,106368,2,0,L|276:52,5,43.7500004172325
373,84,106714,69,8,0:0:0:0:
378,105,106770,1,0,0:0:0:0:
381,126,106829,2,0,L|397:210,1,43.7500004172325
465,213,106945,1,8,0:0:0:0:
452,231,107001,1,0,0:0:0:0:
441,249,107060,2,0,L|407:301,1,43.7500004172325
171,333,107174,22,0,P|115:302|173:197,1,200,4|2,0:0|0:0,0:0:0:0:
159,198,107868,1,0,0:0:0:0:
356,330,108097,1,10,0:0:0:0:
468,68,108560,6,0,B|371:14|371:112|267:51,1,200,2|2,0:0|0:0,0:0:0:0:
277,56,109251,2,0,P|275:112|245:155,1,100,8|2,0:0|0:0,0:0:0:0:
251,148,109714,1,0,0:0:0:0:
35,77,109945,37,8,0:0:0:0:
48,104,110001,1,8,0:0:0:0:
61,131,110060,1,8,0:0:0:0:
74,158,110118,1,8,0:0:0:0:
103,148,110174,5,4,0:0:0:0:
98,164,110233,1,4,0:0:0:0:
93,181,110291,1,4,0:0:0:0:
89,198,110347,1,4,0:0:0:0:
106,199,110405,69,8,0:0:0:0:
119,226,110464,1,8,0:0:0:0:
132,253,110521,1,8,0:0:0:0:
145,280,110579,1,8,0:0:0:0:
160,271,110637,6,0,L|132:319,3,43.7500004172325,4|4|4|4,0:0|0:0|0:0|0:0,0:0:0:0:
223,329,110868,5,2,0:0:0:0:
418,211,111020,5,0,0:0:0:0:
127,135,111174,5,2,0:0:0:0:
348,37,111329,6,0,B|399:76|399:76|419:223,1,200,2|2,0:0|0:0,0:0:0:0:
417,210,112251,37,2,0:0:0:0:
42,299,112482,1,2,0:0:0:0:
174,45,112714,53,2,0:0:0:0:
190,53,112771,1,0,0:0:0:0:
205,65,112829,1,0,0:0:0:0:
217,79,112887,1,0,0:0:0:0:
226,95,112944,1,0,0:0:0:0:
232,113,113002,1,0,0:0:0:0:
235,132,113060,1,0,0:0:0:0:
235,150,113117,1,0,0:0:0:0:
231,169,113175,1,0,0:0:0:0:
223,186,113233,1,0,0:0:0:0:
213,201,113290,1,0,0:0:0:0:
200,215,113348,1,0,0:0:0:0:
184,228,113406,2,0,P|162:238|132:239,3,43.7500004172325
135,146,113637,5,8,0:0:0:0:
160,156,113694,1,0,0:0:0:0:
186,161,113752,1,0,0:0:0:0:
214,160,113810,1,0,0:0:0:0:
240,153,113867,1,0,0:0:0:0:
267,146,113925,1,0,0:0:0:0:
294,144,113983,1,0,0:0:0:0:
321,147,114040,1,0,0:0:0:0:
347,155,114098,5,8,0:0:0:0:
79,318,114329,1,0,0:0:0:0:
406,364,114560,5,4,0:0:0:0:
210,81,114791,2,0,P|258:63|317:72,1,100,0|2,0:0|0:0,0:0:0:0:
305,67,115251,1,0,0:0:0:0:
317,297,115483,5,10,0:0:0:0:
218,338,115714,1,0,0:0:0:0:
110,320,115945,1,2,0:0:0:0:
48,231,116174,1,0,0:0:0:0:
340,30,116405,6,0,P|359:72|348:142,1,100,2|0,0:0|0:0,0:0:0:0:
167,270,116636,2,0,P|148:228|155:163,1,100
451,177,116867,38,0,P|421:193|350:189,1,100,2|0,0:0|0:0,0:0:0:0:
99,92,117098,2,0,P|129:76|200:82,1,100
274,262,117329,5,8,0:0:0:0:
355,291,117405,1,8,0:0:0:0:
419,276,117482,1,4,0:0:0:0:
456,237,117559,1,4,0:0:0:0:
463,201,117636,1,4,0:0:0:0:
456,182,117713,1,4,0:0:0:0:
449,174,117791,5,8,0:0:0:0:
387,116,117867,1,8,0:0:0:0:
312,119,117944,1,4,0:0:0:0:
286,172,118021,1,4,0:0:0:0:
293,201,118098,1,4,0:0:0:0:
308,217,118175,1,4,0:0:0:0:
340,229,118251,5,4,0:0:0:0:
313,218,118329,1,0,0:0:0:0:
285,213,118406,1,0,0:0:0:0:
255,214,118483,1,0,0:0:0:0:
227,221,118560,1,0,0:0:0:0:
200,231,118637,1,0,0:0:0:0:
172,241,118714,1,2,0:0:0:0:
145,251,118791,1,0,0:0:0:0:
117,258,118868,1,0,0:0:0:0:
88,261,118945,1,0,0:0:0:0:
59,258,119020,1,0,0:0:0:0:
31,250,119097,1,0,0:0:0:0:
4,237,119174,2,0,L|51:192,2,50.0000019073487,10|0|0,0:0|0:0|0:0,0:0:0:0:
93,91,119406,2,0,L|134:119,2,50.0000019073487
229,16,119637,37,2,0:0:0:0:
251,34,119713,1,0,0:0:0:0:
270,56,119790,1,0,0:0:0:0:
285,81,119867,1,0,0:0:0:0:
297,108,119944,1,0,0:0:0:0:
305,136,120021,1,0,0:0:0:0:
308,165,120098,1,2,0:0:0:0:
307,194,120175,1,0,0:0:0:0:
302,222,120252,1,0,0:0:0:0:
292,250,120329,1,0,0:0:0:0:
278,276,120406,1,0,0:0:0:0:
261,299,120483,1,0,0:0:0:0:
240,320,120560,2,0,L|188:332,2,50.0000019073487,2|0|0,0:0|0:0|0:0,0:0:0:0:
400,272,120791,2,0,L|466:295,2,50.0000019073487
176,163,121020,5,10,0:0:0:0:
156,117,121098,1,0,0:0:0:0:
163,68,121175,1,0,0:0:0:0:
194,30,121252,1,0,0:0:0:0:
241,14,121329,1,0,0:0:0:0:
289,25,121406,1,0,0:0:0:0:
366,79,121483,5,10,0:0:0:0:
343,119,121559,1,0,0:0:0:0:
298,141,121636,1,0,0:0:0:0:
249,148,121713,1,0,0:0:0:0:
200,140,121790,1,0,0:0:0:0:
156,117,121867,1,0,0:0:0:0:
91,71,121945,21,2,0:0:0:0:
82,94,122002,1,0,0:0:0:0:
78,119,122060,1,0,0:0:0:0:
77,144,122118,1,0,0:0:0:0:
81,168,122175,1,0,0:0:0:0:
89,192,122233,1,0,0:0:0:0:
101,214,122291,1,0,0:0:0:0:
116,234,122348,1,0,0:0:0:0:
133,250,122406,2,0,L|143:303,3,37.5000014305115,2|0|0|0,0:0|0:0|0:0|0:0,0:0:0:0:
206,172,122637,2,0,L|220:131,3,37.5000014305115
323,292,122868,5,10,0:0:0:0:
358,280,122924,1,0,0:0:0:0:
382,252,122983,1,0,0:0:0:0:
389,215,123041,1,0,0:0:0:0:
386,177,123097,2,0,P|376:166|339:150,3,37.5000014305115
230,52,123329,69,2,0:0:0:0:
193,61,123386,1,0,0:0:0:0:
162,81,123444,1,0,0:0:0:0:
136,109,123502,1,0,0:0:0:0:
120,142,123559,1,0,0:0:0:0:
114,179,123617,1,0,0:0:0:0:
118,216,123675,1,0,0:0:0:0:
133,250,123732,1,0,0:0:0:0:
157,279,123791,5,2,0:0:0:0:
182,251,123848,1,0,0:0:0:0:
197,217,123906,1,0,0:0:0:0:
200,180,123964,1,0,0:0:0:0:
191,144,124021,1,0,0:0:0:0:
171,112,124079,1,0,0:0:0:0:
141,89,124137,1,0,0:0:0:0:
106,77,124194,1,0,0:0:0:0:
69,77,124251,69,2,0:0:0:0:
98,54,124310,1,0,0:0:0:0:
133,40,124368,1,0,0:0:0:0:
170,36,124424,1,0,0:0:0:0:
207,43,124483,2,0,P|232:54|262:78,3,37.5000014305115
354,56,124714,5,8,0:0:0:0:
366,91,124770,1,8,0:0:0:0:
378,125,124829,1,8,0:0:0:0:
391,160,124887,1,8,0:0:0:0:
428,153,124945,69,4,0:0:0:0:
419,177,125001,1,4,0:0:0:0:
410,201,125060,1,4,0:0:0:0:
401,226,125118,1,4,0:0:0:0:
436,237,125174,5,8,0:0:0:0:
400,247,125233,1,8,0:0:0:0:
363,258,125291,1,8,0:0:0:0:
326,269,125347,1,8,0:0:0:0:
316,233,125406,69,4,0:0:0:0:
303,256,125464,1,4,0:0:0:0:
290,279,125520,1,4,0:0:0:0:
277,301,125579,1,4,0:0:0:0:
237,295,125637,22,0,B|282:337|282:337|410:347,1,150,4|0,0:0|0:0,0:0:0:0:
437,270,125868,53,0,0:0:0:0:
400,247,125924,1,8,0:0:0:0:
359,232,125983,1,0,0:0:0:0:
316,231,126041,1,8,0:0:0:0:
274,244,126097,5,2,0:0:0:0:
238,269,126156,1,8,0:0:0:0:
196,280,126214,1,0,0:0:0:0:
153,273,126270,1,8,0:0:0:0:
116,251,126329,1,0,0:0:0:0:
91,215,126387,1,8,0:0:0:0:
80,173,126445,1,0,0:0:0:0:
87,130,126502,1,8,0:0:0:0:
111,93,126560,69,2,0:0:0:0:
151,76,126618,1,8,0:0:0:0:
194,72,126675,1,0,0:0:0:0:
237,81,126733,1,8,0:0:0:0:
279,93,126790,1,0,0:0:0:0:
322,100,126847,1,8,0:0:0:0:
365,97,126906,1,0,0:0:0:0:
407,84,126963,1,8,0:0:0:0:
446,64,127020,5,2,0:0:0:0:
412,36,127079,1,8,0:0:0:0:
372,21,127137,1,0,0:0:0:0:
328,20,127195,1,8,0:0:0:0:
286,32,127252,1,0,0:0:0:0:
251,58,127310,1,8,0:0:0:0:
226,93,127368,1,0,0:0:0:0:
213,135,127425,1,8,0:0:0:0:
217,180,127483,69,2,0:0:0:0:
241,217,127540,1,8,0:0:0:0:
250,259,127598,1,0,0:0:0:0:
244,302,127656,1,8,0:0:0:0:
222,340,127713,1,0,0:0:0:0:
189,368,127771,1,8,0:0:0:0:
148,381,127829,1,0,0:0:0:0:
104,379,127886,1,8,0:0:0:0:
77,362,127945,5,2,0:0:0:0:
111,345,128002,1,8,0:0:0:0:
147,336,128060,1,0,0:0:0:0:
185,335,128118,1,8,0:0:0:0:
222,340,128175,1,0,0:0:0:0:
259,346,128233,1,8,0:0:0:0:
296,348,128291,1,0,0:0:0:0:
333,343,128348,1,8,0:0:0:0:
369,332,128406,70,0,L|425:355,3,50,2|8|0|8,0:0|0:0|0:0|0:0,0:0:0:0:
225,194,128637,2,0,L|145:223,3,50,0|8|0|8,0:0|0:0|0:0|0:0,0:0:0:0:
333,59,128868,5,8,0:0:0:0:
379,40,128924,1,8,0:0:0:0:
427,49,128983,1,8,0:0:0:0:
459,86,129041,1,8,0:0:0:0:
472,119,129097,69,4,0:0:0:0:
452,134,129156,1,4,0:0:0:0:
427,139,129214,1,4,0:0:0:0:
402,134,129270,1,4,0:0:0:0:
388,113,129329,6,0,P|371:138|370:173,7,50,4|0|0|0|0|0|0|0,0:0|0:0|0:0|0:0|0:0|0:0|0:0|0:0,0:0:0:0:
226,240,129791,2,0,P|244:265|279:283,3,50,2|0|0|0,0:0|0:0|0:0|0:0,0:0:0:0:
296,359,130021,2,0,P|317:348|339:313,3,50
470,253,130251,2,0,P|473:223|467:193,7,50,10|0|0|0|0|0|0|0,0:0|0:0|0:0|0:0|0:0|0:0|0:0|0:0,0:0:0:0:
254,63,130714,69,2,0:0:0:0:
223,69,130771,1,0,0:0:0:0:
195,82,130829,1,0,0:0:0:0:
171,102,130887,1,0,0:0:0:0:
153,128,130944,1,0,0:0:0:0:
142,157,131002,1,0,0:0:0:0:
138,188,131060,1,0,0:0:0:0:
142,219,131117,1,0,0:0:0:0:
153,248,131174,2,0,P|177:263|215:270,3,50,2|0|0|0,0:0|0:0|0:0|0:0,0:0:0:0:
239,168,131406,5,0,0:0:0:0:
209,152,131463,1,0,0:0:0:0:
177,146,131521,1,0,0:0:0:0:
144,151,131579,1,0,0:0:0:0:
114,167,131636,1,2,0:0:0:0:
91,190,131694,1,0,0:0:0:0:
77,220,131752,1,0,0:0:0:0:
73,253,131809,1,0,0:0:0:0:
80,286,131867,1,0,0:0:0:0:
96,315,131925,1,0,0:0:0:0:
121,336,131982,1,0,0:0:0:0:
152,349,132040,1,0,0:0:0:0:
185,352,132097,70,0,P|209:365|228:380,3,50,10|0|0|0,0:0|0:0|0:0|0:0,0:0:0:0:
186,177,132329,2,0,P|165:168|137:144,3,50
328,172,132560,21,8,0:0:0:0:
13,362,132791,1,0,0:0:0:0:
394,346,133021,53,4,0:0:0:0:
405,333,133078,1,0,0:0:0:0:
414,320,133136,1,0,0:0:0:0:
421,305,133194,1,0,0:0:0:0:
422,289,133251,1,0,0:0:0:0:
417,273,133309,1,0,0:0:0:0:
410,259,133367,1,0,0:0:0:0:
404,244,133424,1,0,0:0:0:0:
402,227,133482,1,2,0:0:0:0:
406,212,133540,1,0,0:0:0:0:
414,197,133597,1,0,0:0:0:0:
423,183,133655,1,0,0:0:0:0:
427,168,133713,1,0,0:0:0:0:
426,151,133771,1,0,0:0:0:0:
421,136,133828,1,0,0:0:0:0:
412,122,133886,1,0,0:0:0:0:
400,111,133944,1,10,0:0:0:0:
400,111,134405,5,2,0:0:0:0:
385,102,134462,1,0,0:0:0:0:
370,95,134520,1,0,0:0:0:0:
354,92,134578,1,0,0:0:0:0:
338,94,134635,1,0,0:0:0:0:
324,102,134693,1,0,0:0:0:0:
311,113,134751,1,0,0:0:0:0:
298,122,134808,1,0,0:0:0:0:
282,127,134866,1,2,0:0:0:0:
266,126,134924,1,0,0:0:0:0:
250,122,134981,1,0,0:0:0:0:
235,115,135039,1,0,0:0:0:0:
219,114,135097,1,0,0:0:0:0:
203,119,135155,1,0,0:0:0:0:
189,127,135212,1,0,0:0:0:0:
178,139,135270,1,0,0:0:0:0:
169,153,135328,1,2,0:0:0:0:
169,153,135790,69,10,0:0:0:0:
144,158,135847,1,0,0:0:0:0:
119,152,135905,1,0,0:0:0:0:
104,131,135963,1,0,0:0:0:0:
104,106,136020,1,0,0:0:0:0:
116,83,136078,1,0,0:0:0:0:
136,67,136136,1,0,0:0:0:0:
161,60,136193,1,0,0:0:0:0:
187,62,136251,1,2,0:0:0:0:
210,72,136309,1,0,0:0:0:0:
230,88,136366,1,0,0:0:0:0:
244,110,136424,1,0,0:0:0:0:
252,134,136482,1,0,0:0:0:0:
254,160,136540,1,0,0:0:0:0:
248,185,136597,1,0,0:0:0:0:
237,208,136655,1,0,0:0:0:0:
220,227,136713,1,2,0:0:0:0:
220,227,137175,5,2,0:0:0:0:
237,208,137233,1,0,0:0:0:0:
248,185,137291,1,0,0:0:0:0:
254,160,137348,1,0,0:0:0:0:
252,134,137406,1,0,0:0:0:0:
244,110,137464,1,0,0:0:0:0:
230,88,137520,1,0,0:0:0:0:
210,72,137579,1,0,0:0:0:0:
184,61,137636,69,10,0:0:0:0:
211,56,137693,1,0,0:0:0:0:
239,52,137751,1,0,0:0:0:0:
267,48,137809,1,0,0:0:0:0:
295,43,137866,1,0,0:0:0:0:
322,39,137924,1,0,0:0:0:0:
350,35,137982,1,0,0:0:0:0:
378,30,138039,1,0,0:0:0:0:
406,26,138097,21,10,0:0:0:0:
381,113,138213,1,8,0:0:0:0:
356,199,138328,1,8,0:0:0:0:
331,285,138444,1,8,0:0:0:0:
306,371,138559,53,2,0:0:0:0:
329,372,138616,1,0,0:0:0:0:
350,363,138674,1,0,0:0:0:0:
358,342,138732,1,0,0:0:0:0:
348,321,138789,1,0,0:0:0:0:
328,308,138847,1,0,0:0:0:0:
306,303,138905,1,0,0:0:0:0:
282,305,138962,1,0,0:0:0:0:
260,314,139020,1,2,0:0:0:0:
240,326,139078,1,0,0:0:0:0:
220,337,139135,1,0,0:0:0:0:
197,342,139193,1,0,0:0:0:0:
174,339,139251,1,0,0:0:0:0:
154,328,139309,1,0,0:0:0:0:
137,312,139366,1,0,0:0:0:0:
124,292,139424,1,0,0:0:0:0:
116,270,139482,1,10,0:0:0:0:
117,269,139944,5,2,0:0:0:0:
138,258,140001,1,0,0:0:0:0:
161,255,140059,1,0,0:0:0:0:
183,262,140117,1,0,0:0:0:0:
204,271,140174,1,0,0:0:0:0:
227,275,140232,1,0,0:0:0:0:
250,269,140290,1,0,0:0:0:0:
271,258,140347,1,0,0:0:0:0:
292,248,140405,1,2,0:0:0:0:
315,248,140463,1,0,0:0:0:0:
337,255,140520,1,0,0:0:0:0:
358,266,140578,1,0,0:0:0:0:
380,274,140636,1,0,0:0:0:0:
404,276,140694,1,0,0:0:0:0:
426,269,140751,1,0,0:0:0:0:
445,255,140809,1,0,0:0:0:0:
466,248,140867,1,2,0:0:0:0:
466,248,141328,69,10,0:0:0:0:
449,236,141385,1,0,0:0:0:0:
431,225,141443,1,0,0:0:0:0:
412,216,141501,1,0,0:0:0:0:
392,209,141558,1,0,0:0:0:0:
371,205,141616,1,0,0:0:0:0:
350,205,141674,1,0,0:0:0:0:
329,208,141731,1,0,0:0:0:0:
309,213,141789,1,2,0:0:0:0:
289,219,141847,1,0,0:0:0:0:
268,224,141904,1,0,0:0:0:0:
247,225,141962,1,0,0:0:0:0:
226,224,142020,1,0,0:0:0:0:
205,220,142078,1,0,0:0:0:0:
185,213,142135,1,0,0:0:0:0:
166,205,142193,1,0,0:0:0:0:
147,195,142251,1,2,0:0:0:0:
147,195,142713,5,2,0:0:0:0:
161,177,142770,1,0,0:0:0:0:
179,163,142828,1,0,0:0:0:0:
201,151,142886,1,0,0:0:0:0:
222,144,142943,1,0,0:0:0:0:
245,143,143001,1,0,0:0:0:0:
269,145,143059,1,0,0:0:0:0:
292,152,143117,1,0,0:0:0:0:
308,165,143175,69,2,0:0:0:0:
292,146,143232,1,0,0:0:0:0:
274,132,143289,1,0,0:0:0:0:
254,120,143347,1,0,0:0:0:0:
232,113,143405,1,0,0:0:0:0:
208,110,143462,1,0,0:0:0:0:
185,112,143520,1,0,0:0:0:0:
163,118,143578,1,0,0:0:0:0:
146,125,143636,21,10,0:0:0:0:
434,42,143867,1,0,0:0:0:0:
232,304,144098,5,2,0:0:0:0:
214,332,144174,1,0,0:0:0:0:
186,346,144251,1,0,0:0:0:0:
155,336,144328,1,0,0:0:0:0:
138,307,144405,1,0,0:0:0:0:
140,274,144482,1,0,0:0:0:0:
153,244,144559,1,0,0:0:0:0:
173,218,144636,1,0,0:0:0:0:
196,193,144713,1,0,0:0:0:0:
210,163,144790,1,0,0:0:0:0:
206,131,144867,1,0,0:0:0:0:
186,104,144944,1,0,0:0:0:0:
158,87,145021,1,10,0:0:0:0:
158,87,145482,5,2,0:0:0:0:
119,101,145558,1,0,0:0:0:0:
99,136,145635,1,0,0:0:0:0:
108,176,145712,1,0,0:0:0:0:
137,205,145789,1,0,0:0:0:0:
176,220,145866,1,0,0:0:0:0:
217,220,145943,1,2,0:0:0:0:
255,204,146020,1,0,0:0:0:0:
289,180,146097,1,0,0:0:0:0:
324,157,146174,1,0,0:0:0:0:
364,149,146251,1,0,0:0:0:0:
400,168,146328,1,0,0:0:0:0:
417,206,146405,1,2,0:0:0:0:
417,206,146867,5,10,0:0:0:0:
391,228,146943,1,0,0:0:0:0:
358,238,147020,1,0,0:0:0:0:
325,229,147097,1,0,0:0:0:0:
300,206,147174,1,0,0:0:0:0:
282,176,147251,1,0,0:0:0:0:
264,147,147328,1,2,0:0:0:0:
241,121,147405,1,0,0:0:0:0:
210,105,147482,1,0,0:0:0:0:
176,104,147559,1,0,0:0:0:0:
145,118,147636,1,0,0:0:0:0:
122,144,147713,1,0,0:0:0:0:
107,176,147790,1,2,0:0:0:0:
107,176,148252,37,2,0:0:0:0:
103,209,148328,1,0,0:0:0:0:
108,241,148405,1,0,0:0:0:0:
122,271,148482,1,0,0:0:0:0:
147,293,148559,1,0,0:0:0:0:
179,303,148636,1,0,0:0:0:0:
212,304,148713,5,10,0:0:0:0:
163,302,148789,1,0,0:0:0:0:
118,323,148866,1,0,0:0:0:0:
75,348,148943,1,0,0:0:0:0:
27,345,149020,1,0,0:0:0:0:
10,301,149097,1,0,0:0:0:0:
38,262,149175,5,10,0:0:0:0:
121,225,149290,1,8,0:0:0:0:
206,184,149405,1,8,0:0:0:0:
300,138,149521,1,8,0:0:0:0:
383,115,149636,5,2,0:0:0:0:
423,124,149712,1,0,0:0:0:0:
441,156,149789,1,0,0:0:0:0:
434,193,149866,1,0,0:0:0:0:
407,224,149943,1,0,0:0:0:0:
371,227,150020,1,0,0:0:0:0:
338,251,150097,1,2,0:0:0:0:
325,283,150174,1,0,0:0:0:0:
334,313,150251,1,0,0:0:0:0:
366,332,150328,1,0,0:0:0:0:
403,337,150405,1,0,0:0:0:0:
437,323,150482,1,0,0:0:0:0:
461,294,150559,1,10,0:0:0:0:
461,294,151021,37,2,0:0:0:0:
436,275,151097,1,0,0:0:0:0:
410,258,151174,1,0,0:0:0:0:
381,247,151251,1,0,0:0:0:0:
350,246,151328,1,0,0:0:0:0:
321,257,151405,1,0,0:0:0:0:
295,275,151482,1,2,0:0:0:0:
269,293,151559,1,0,0:0:0:0:
241,304,151636,1,0,0:0:0:0:
209,307,151713,1,0,0:0:0:0:
179,299,151790,1,0,0:0:0:0:
153,283,151867,1,0,0:0:0:0:
132,260,151944,1,2,0:0:0:0:
132,260,152405,5,10,0:0:0:0:
160,240,152481,1,0,0:0:0:0:
195,232,152558,1,0,0:0:0:0:
229,231,152635,1,0,0:0:0:0:
264,238,152712,1,0,0:0:0:0:
296,248,152789,1,0,0:0:0:0:
317,258,152867,1,2,0:0:0:0:
306,222,152943,1,0,0:0:0:0:
284,192,153020,1,0,0:0:0:0:
253,172,153097,1,0,0:0:0:0:
216,165,153174,1,0,0:0:0:0:
179,172,153251,1,0,0:0:0:0:
148,192,153328,1,2,0:0:0:0:
148,192,153790,5,2,0:0:0:0:
173,214,153866,1,0,0:0:0:0:
202,231,153943,1,0,0:0:0:0:
234,241,154020,1,0,0:0:0:0:
268,243,154097,1,0,0:0:0:0:
301,239,154174,1,0,0:0:0:0:
333,228,154251,1,2,0:0:0:0:
361,210,154328,1,0,0:0:0:0:
385,186,154405,1,0,0:0:0:0:
404,158,154482,1,0,0:0:0:0:
416,126,154559,1,0,0:0:0:0:
421,93,154636,1,0,0:0:0:0:
416,64,154713,6,0,P|404:30|372:3,1,66.6666666666667,8|0,0:0|0:0,0:0:0:0:
252,116,154866,2,0,P|221:94|182:86,1,66.6666666666667,8|0,0:0|0:0,0:0:0:0:
185,258,155020,2,0,P|142:260|113:277,1,66.6666666666667,8|0,0:0|0:0,0:0:0:0:
333,79,155174,38,0,B|319:44|268:31,1,66.6666666666667,8|0,0:0|0:0,0:0:0:0:
184,177,155328,2,0,P|147:168|107:176,1,66.6666666666667,8|0,0:0|0:0,0:0:0:0:
172,341,155482,2,0,P|133:359|113:386,1,66.6666666666667,8|0,0:0|0:0,0:0:0:0:
256,192,155636,12,0,156251,0:0:0:0:
352,313,156559,5,4,0:0:0:0:
388,273,156636,1,0,0:0:0:0:
400,221,156713,1,0,0:0:0:0:
377,173,156789,1,0,0:0:0:0:
330,147,156866,1,0,0:0:0:0:
276,150,156943,1,0,0:0:0:0:
238,188,157020,1,2,0:0:0:0:
192,215,157097,1,0,0:0:0:0:
138,215,157174,1,0,0:0:0:0:
89,193,157251,2,0,P|73:181|45:141,2,66.6666666666667
306,236,157482,5,10,0:0:0:0:
361,254,157558,1,0,0:0:0:0:
419,244,157635,1,0,0:0:0:0:
465,208,157712,1,0,0:0:0:0:
489,155,157789,1,0,0:0:0:0:
484,96,157866,1,0,0:0:0:0:
452,47,157943,1,2,0:0:0:0:
400,19,158020,1,0,0:0:0:0:
341,19,158097,1,0,0:0:0:0:
290,47,158174,2,0,P|279:85|295:131,2,66.6666666666667
393,112,158405,5,2,0:0:0:0:
374,152,158481,1,0,0:0:0:0:
342,182,158558,1,0,0:0:0:0:
301,199,158635,1,0,0:0:0:0:
257,200,158712,1,0,0:0:0:0:
215,185,158789,1,0,0:0:0:0:
182,156,158866,1,2,0:0:0:0:
151,187,158942,1,0,0:0:0:0:
134,228,159019,1,0,0:0:0:0:
134,272,159096,1,0,0:0:0:0:
151,313,159173,1,0,0:0:0:0:
182,344,159250,1,0,0:0:0:0:
223,360,159328,37,10,0:0:0:0:
245,312,159405,1,0,0:0:0:0:
215,267,159482,1,0,0:0:0:0:
165,246,159559,1,0,0:0:0:0:
112,256,159636,1,0,0:0:0:0:
66,283,159713,1,0,0:0:0:0:
15,269,159789,6,0,L|-8:186,1,66.6666666666667,8|0,0:0|0:0,0:0:0:0:
132,42,159943,2,0,L|157:128,1,66.6666666666667,8|0,0:0|0:0,0:0:0:0:
295,265,160097,2,0,L|266:186,1,66.6666666666667,8|0,0:0|0:0,0:0:0:0:
365,79,160251,5,2,0:0:0:0:
406,93,160327,1,0,0:0:0:0:
442,119,160404,1,0,0:0:0:0:
467,156,160481,1,0,0:0:0:0:
479,198,160558,1,0,0:0:0:0:
478,243,160635,1,0,0:0:0:0:
462,284,160712,1,2,0:0:0:0:
435,319,160789,1,0,0:0:0:0:
397,343,160866,1,0,0:0:0:0:
354,354,160943,2,0,P|329:353|288:327,2,66.6666666666667
364,217,161174,5,8,0:0:0:0:
329,175,161251,2,0,P|314:218|317:257,1,66.6666666666667,8|8,0:0|0:0,0:0:0:0:
232,273,161405,1,8,0:0:0:0:
186,300,161482,1,8,0:0:0:0:
153,304,161559,1,8,0:0:0:0:
125,297,161636,37,2,0:0:0:0:
116,287,161713,1,4,0:0:0:0:
110,274,161789,1,4,0:0:0:0:
113,261,161866,1,4,0:0:0:0:
120,249,161943,1,4,0:0:0:0:
125,245,162020,1,4,0:0:0:0:
130,242,162097,6,0,P|130:205|114:168,1,66.6666666666667,2|8,0:0|0:0,0:0:0:0:
10,101,162251,1,0,0:0:0:0:
64,83,162327,1,8,0:0:0:0:
120,76,162404,1,0,0:0:0:0:
176,86,162481,1,8,0:0:0:0:
231,103,162558,1,2,0:0:0:0:
288,108,162635,1,8,0:0:0:0:
344,99,162712,1,0,0:0:0:0:
399,82,162789,2,0,P|427:62|443:27,2,66.6666666666667,8|0|8,0:0|0:0|0:0,0:0:0:0:
439,156,163020,5,2,0:0:0:0:
470,206,163096,1,8,0:0:0:0:
454,263,163173,1,0,0:0:0:0:
405,299,163250,1,8,0:0:0:0:
345,308,163327,1,0,0:0:0:0:
287,292,163404,1,8,0:0:0:0:
235,259,163481,1,2,0:0:0:0:
181,230,163558,1,8,0:0:0:0:
121,230,163635,1,0,0:0:0:0:
69,259,163712,1,8,0:0:0:0:
61,316,163789,2,0,P|88:351|123:358,1,66.6666666666667,0|8,0:0|0:0,0:0:0:0:
327,200,163943,5,2,0:0:0:0:
365,259,164019,1,8,0:0:0:0:
348,328,164096,1,8,0:0:0:0:
291,370,164173,1,8,0:0:0:0:
222,355,164251,2,0,P|197:333|192:284,1,66.6666666666667,8|8,0:0|0:0,0:0:0:0:
219,75,164405,37,2,0:0:0:0:
158,40,164481,1,8,0:0:0:0:
90,60,164558,1,8,0:0:0:0:
51,119,164635,1,8,0:0:0:0:
69,187,164713,2,0,P|92:210|141:213,1,66.6666666666667,8|8,0:0|0:0,0:0:0:0:
348,108,164866,5,4,0:0:0:0:
365,130,164943,1,4,0:0:0:0:
363,175,165020,1,8,0:0:0:0:
320,234,165097,1,8,0:0:0:0:
255,269,165174,1,8,0:0:0:0:
181,267,165251,1,8,0:0:0:0:
125,218,165328,5,8,0:0:0:0:
165,173,165405,1,8,0:0:0:0:
214,158,165482,1,0,0:0:0:0:
245,167,165559,1,0,0:0:0:0:
256,178,165636,1,0,0:0:0:0:
260,184,165713,1,0,0:0:0:0:
257,190,165789,6,0,P|239:211|189:222,1,66.6666666666667,4|0,0:0|0:0,0:0:0:0:
218,60,165943,2,0,P|257:55|292:70,1,66.6666666666667
401,175,166097,1,0,0:0:0:0:
407,227,166174,1,0,0:0:0:0:
389,277,166251,2,0,P|369:301|326:316,1,66.6666666666667,2|0,0:0|0:0,0:0:0:0:
165,227,166405,1,0,0:0:0:0:
114,210,166482,1,0,0:0:0:0:
62,223,166559,2,0,P|31:239|12:270,1,66.6666666666667
284,335,166713,38,0,P|312:310|322:273,1,66.6666666666667,8|0,0:0|0:0,0:0:0:0:
234,141,166866,2,0,P|197:136|168:144,1,66.6666666666667
190,311,167020,1,0,0:0:0:0:
146,341,167097,1,0,0:0:0:0:
92,346,167174,2,0,P|63:343|28:313,1,66.6666666666667,2|0,0:0|0:0,0:0:0:0:
281,215,167328,1,0,0:0:0:0:
330,234,167405,1,0,0:0:0:0:
383,228,167482,2,0,P|419:215|447:186,1,66.6666666666667
228,56,167636,6,0,P|206:95|209:132,1,66.6666666666667,2|0,0:0|0:0,0:0:0:0:
295,325,167789,2,0,P|278:300|233:280,1,66.6666666666667
50,312,167943,1,0,0:0:0:0:
28,262,168020,1,0,0:0:0:0:
35,209,168097,2,0,P|50:177|76:154,1,66.6666666666667,2|0,0:0|0:0,0:0:0:0:
328,87,168251,1,0,0:0:0:0:
361,128,168328,1,0,0:0:0:0:
366,181,168405,2,0,P|356:217|328:245,1,66.6666666666667
38,119,168559,6,0,P|70:112|110:118,1,66.6666666666667,8|0,0:0|0:0,0:0:0:0:
221,353,168713,2,0,P|255:331|282:297,1,66.6666666666667
270,160,168866,1,0,0:0:0:0:
237,119,168943,1,0,0:0:0:0:
184,107,169020,6,0,L|101:144,1,66.6666666666667,8|0,0:0|0:0,0:0:0:0:
384,201,169174,2,0,L|442:233,1,66.6666666666667
193,283,169328,2,0,L|110:320,1,66.6666666666667,8|0,0:0|0:0,0:0:0:0:
457,342,169482,38,0,P|454:307|485:266,1,66.6666666666667,4|0,0:0|0:0,0:0:0:0:
373,99,169636,2,0,P|407:79|445:77,1,66.6666666666667
186,72,169789,1,0,0:0:0:0:
133,61,169866,1,0,0:0:0:0:
80,70,169943,2,0,P|71:101|37:141,1,66.6666666666667,2|0,0:0|0:0,0:0:0:0:
126,313,170097,1,0,0:0:0:0:
176,331,170174,1,0,0:0:0:0:
229,326,170251,2,0,P|264:312|303:313,1,66.6666666666667
284,83,170405,6,0,P|270:50|230:22,1,66.6666666666667,8|0,0:0|0:0,0:0:0:0:
418,199,170559,2,0,P|459:195|492:210,1,66.6666666666667
343,331,170713,1,0,0:0:0:0:
298,300,170789,1,0,0:0:0:0:
277,250,170866,2,0,P|296:218|296:177,1,66.6666666666667,2|0,0:0|0:0,0:0:0:0:
394,55,171020,1,0,0:0:0:0:
442,78,171097,1,0,0:0:0:0:
468,124,171174,2,0,P|460:91|468:40,1,66.6666666666667
184,85,171328,6,0,P|153:80|105:96,1,66.6666666666667,2|0,0:0|0:0,0:0:0:0:
201,293,171482,2,0,P|196:331|162:369,1,66.6666666666667
365,257,171636,1,0,0:0:0:0:
412,279,171713,1,0,0:0:0:0:
433,324,171789,2,0,P|448:352|486:378,1,66.6666666666667,2|0,0:0|0:0,0:0:0:0:
376,131,171943,1,0,0:0:0:0:
325,113,172020,1,0,0:0:0:0:
273,125,172097,2,0,P|311:102|329:72,1,66.6666666666667
121,48,172251,5,8,0:0:0:0:
88,121,172328,1,8,0:0:0:0:
101,186,172405,1,4,0:0:0:0:
126,223,172482,1,4,0:0:0:0:
150,236,172559,1,4,0:0:0:0:
157,238,172636,1,4,0:0:0:0:
164,235,172713,37,8,0:0:0:0:
139,310,172790,1,8,0:0:0:0:
85,349,172867,1,4,0:0:0:0:
41,359,172944,1,4,0:0:0:0:
15,352,173021,1,4,0:0:0:0:
7,348,173098,1,4,0:0:0:0:
0,332,173174,6,0,P|32:340|62:370,1,66.6666666666667,2|0,0:0|0:0,0:0:0:0:
263,380,173328,2,0,P|302:378|329:359,1,66.6666666666667
417,168,173482,1,0,0:0:0:0:
382,127,173559,1,0,0:0:0:0:
331,110,173636,2,0,P|299:106|254:121,1,66.6666666666667,2|0,0:0|0:0,0:0:0:0:
134,231,173789,1,0,0:0:0:0:
80,236,173866,1,0,0:0:0:0:
29,220,173943,2,0,P|11:199|3:157,1,66.6666666666667
268,31,174097,6,0,P|285:58|292:99,1,66.6666666666667,8|0,0:0|0:0,0:0:0:0:
187,285,174251,2,0,P|221:300|273:297,1,66.6666666666667
436,209,174405,1,0,0:0:0:0:
441,262,174482,1,0,0:0:0:0:
419,311,174559,2,0,P|395:339|360:356,1,66.6666666666667,2|0,0:0|0:0,0:0:0:0:
207,203,174713,1,0,0:0:0:0:
241,163,174789,1,0,0:0:0:0:
291,147,174866,2,0,P|320:153|351:176,1,66.6666666666667
248,358,175020,6,0,P|211:358|170:330,1,66.6666666666667,2|0,0:0|0:0,0:0:0:0:
126,81,175174,2,0,P|161:98|180:144,1,66.6666666666667
56,332,175328,1,0,0:0:0:0:
32,284,175405,1,0,0:0:0:0:
36,230,175482,2,0,P|45:193|79:163,1,66.6666666666667,2|0,0:0|0:0,0:0:0:0:
303,258,175636,1,0,0:0:0:0:
352,237,175713,1,0,0:0:0:0:
383,194,175789,2,0,P|395:160|386:121,1,66.6666666666667
112,235,175943,38,0,P|153:251|186:241,1,66.6666666666667,8|0,0:0|0:0,0:0:0:0:
363,56,176097,2,0,P|395:52|443:71,1,66.6666666666667
482,219,176251,1,0,0:0:0:0:
461,268,176328,1,0,0:0:0:0:
415,297,176405,6,0,L|322:332,1,66.6666666666667,8|0,0:0|0:0,0:0:0:0:
112,235,176559,2,0,L|174:211,1,66.6666666666667,8|0,0:0|0:0,0:0:0:0:
363,56,176713,2,0,L|270:91,1,66.6666666666667,8|0,0:0|0:0,0:0:0:0:
54,103,176866,6,0,B|43:89|43:89|43:46,1,41.6666666666667,2|0,0:0|0:0,0:0:0:0:
121,64,177020,2,0,B|119:43|119:43|140:16,1,41.6666666666667
205,54,177174,2,0,B|214:33|214:33|247:20,1,41.6666666666667
275,267,177328,6,0,B|276:304|276:304|250:337,1,58.3333338896433,4|0,0:0|0:0,0:0:0:0:
192,273,177482,2,0,B|171:300|171:300|134:313,1,58.3333338896433
114,230,177636,2,0,B|86:246|86:246|41:240,1,58.3333338896433
408,95,177789,38,0,B|444:88|444:88|487:102,1,66.6666666666667,2|0,0:0|0:0,0:0:0:0:
440,173,177943,2,0,B|477:178|477:178|503:202,1,66.6666666666667
437,255,178097,2,0,B|466:284|466:284|472:323,1,66.6666666666667,2|0,0:0|0:0,0:0:0:0:
73,256,178251,6,0,B|29:255|29:255|-7:221,1,83.3333333333333,2|0,0:0|0:0,0:0:0:0:
66,162,178405,2,0,B|37:129|37:129|38:83,1,83.3333333333333,2|8,0:0|0:0,0:0:0:0:
131,100,178559,2,0,B|134:55|134:55|169:21,1,83.3333333333333
231,312,178713,6,0,B|232:342|232:342|251:368,1,41.6666666666667,2|0,0:0|0:0,0:0:0:0:
307,321,178867,2,0,B|321:341|321:341|349:349,1,41.6666666666667
379,282,179021,2,0,B|401:296|401:296|432:294,1,41.6666666666667
95,84,179174,6,0,B|67:78|67:78|24:92,1,58.3333338896433,2|0,0:0|0:0,0:0:0:0:
64,165,179328,2,0,B|34:168|34:168|8:192,1,58.3333338896433
71,249,179482,2,0,B|45:274|45:274|39:313,1,58.3333338896433
389,187,179636,37,0,0:0:0:0:
372,130,179713,1,8,0:0:0:0:
316,113,179789,1,8,0:0:0:0:
279,67,179866,1,8,0:0:0:0:
220,63,179943,1,8,0:0:0:0:
186,15,180020,1,8,0:0:0:0:
129,14,180097,5,8,0:0:0:0:
113,74,180174,1,8,0:0:0:0:
128,118,180251,1,4,0:0:0:0:
150,145,180328,1,4,0:0:0:0:
169,157,180405,1,4,0:0:0:0:
180,159,180482,1,4,0:0:0:0:
194,121,180559,5,4,0:0:0:0:
128,118,180635,1,8,0:0:0:0:
75,156,180712,1,0,0:0:0:0:
56,218,180789,1,8,0:0:0:0:
79,279,180866,1,0,0:0:0:0:
135,313,180943,1,8,0:0:0:0:
200,301,181020,6,0,B|230:337|230:337|278:342,1,83.3333333333333,2|8,0:0|0:0,0:0:0:0:
293,214,181174,2,0,B|338:227|338:227|383:208,1,83.3333333333333,0|8,0:0|0:0,0:0:0:0:
282,70,181328,2,0,B|329:61|329:61|361:27,1,83.3333333333333,0|8,0:0|0:0,0:0:0:0:
467,205,181482,37,2,0:0:0:0:
455,236,181559,1,8,0:0:0:0:
438,265,181636,2,0,P|402:281|342:264,1,83.3333333333333,0|8,0:0|0:0,0:0:0:0:
33,120,181789,5,2,0:0:0:0:
44,151,181866,1,8,0:0:0:0:
63,178,181943,2,0,P|99:194|159:177,1,83.3333333333333,0|8,0:0|0:0,0:0:0:0:
451,18,182097,5,2,0:0:0:0:
439,49,182174,1,8,0:0:0:0:
422,77,182251,2,0,P|386:93|326:76,1,83.3333333333333,0|8,0:0|0:0,0:0:0:0:
149,28,182405,5,4,0:0:0:0:
88,70,182481,1,8,0:0:0:0:
45,131,182558,1,0,0:0:0:0:
39,205,182635,1,8,0:0:0:0:
70,273,182712,1,0,0:0:0:0:
131,316,182789,1,8,0:0:0:0:
204,333,182866,38,0,B|244:308|244:308|263:250,1,83.3333333333333,2|8,0:0|0:0,0:0:0:0:
389,195,183020,2,0,B|357:162|357:162|307:152,1,83.3333333333333
217,28,183174,2,0,B|174:47|174:47|146:96,1,83.3333333333333,0|8,0:0|0:0,0:0:0:0:
350,321,183328,5,2,0:0:0:0:
378,304,183405,1,8,0:0:0:0:
392,274,183482,2,0,P|401:231|383:186,1,83.3333333333333,0|8,0:0|0:0,0:0:0:0:
92,38,183636,5,2,0:0:0:0:
64,55,183713,1,8,0:0:0:0:
50,85,183790,2,0,P|41:128|59:173,1,83.3333333333333,0|8,0:0|0:0,0:0:0:0:
273,297,183943,5,2,0:0:0:0:
269,329,184020,1,8,0:0:0:0:
248,354,184097,2,0,P|212:380|164:383,1,83.3333333333333,0|8,0:0|0:0,0:0:0:0:
190,148,184251,37,2,0:0:0:0:
242,166,184327,1,8,0:0:0:0:
297,171,184404,1,0,0:0:0:0:
350,155,184481,1,8,0:0:0:0:
404,143,184558,1,0,0:0:0:0:
458,155,184635,1,8,0:0:0:0:
507,180,184713,5,2,0:0:0:0:
502,221,184789,1,8,0:0:0:0:
482,257,184866,1,0,0:0:0:0:
450,283,184943,1,8,0:0:0:0:
410,294,185020,1,0,0:0:0:0:
369,290,185097,1,8,0:0:0:0:
332,270,185174,6,0,P|365:241|412:234,3,83.3333333333333,2|8|0|8,0:0|0:0|0:0|0:0,0:0:0:0:
228,78,185482,2,0,P|222:124|240:160,3,66.6666666666667,2|8|0|8,0:0|0:0|0:0|0:0,0:0:0:0:
135,338,185789,2,0,P|100:324|79:291,3,50.0000019073487,2|8|0|8,0:0|0:0|0:0|0:0,0:0:0:0:
169,173,186097,5,4,0:0:0:0:
228,142,186173,1,8,0:0:0:0:
293,132,186250,1,8,0:0:0:0:
359,143,186327,1,8,0:0:0:0:
417,174,186404,1,8,0:0:0:0:
463,223,186481,1,8,0:0:0:0:
407,266,186559,37,4,0:0:0:0:
340,262,186635,1,8,0:0:0:0:
278,240,186712,1,8,0:0:0:0:
224,201,186789,1,8,0:0:0:0:
183,148,186866,1,8,0:0:0:0:
158,87,186943,1,8,0:0:0:0:
186,30,187020,5,4,0:0:0:0:
187,69,187096,1,4,0:0:0:0:
179,109,187173,1,4,0:0:0:0:
164,146,187250,1,4,0:0:0:0:
141,179,187327,1,4,0:0:0:0:
113,206,187404,1,4,0:0:0:0:
79,227,187482,5,0,0:0:0:0:
117,250,187559,1,0,0:0:0:0:
130,270,187636,1,0,0:0:0:0:
134,285,187713,1,0,0:0:0:0:
135,295,187789,1,0,0:0:0:0:
134,300,187866,1,0,0:0:0:0:
132,305,187943,6,0,P|162:308|201:334,5,66.6666666666667,4|0|0|0|0|0,0:0|0:0|0:0|0:0|0:0|0:0,0:0:0:0:
380,243,188405,2,0,P|404:264|436:273,2,66.6666666666667,2|0|0,0:0|0:0|0:0,0:0:0:0:
420,90,188636,1,0,0:0:0:0:
391,110,188712,1,0,0:0:0:0:
359,118,188789,1,0,0:0:0:0:
325,112,188866,37,8,0:0:0:0:
302,67,188942,1,0,0:0:0:0:
262,38,189019,1,0,0:0:0:0:
214,28,189096,1,0,0:0:0:0:
166,41,189173,1,0,0:0:0:0:
128,74,189250,1,0,0:0:0:0:
115,114,189328,5,2,0:0:0:0:
138,110,189404,1,0,0:0:0:0:
161,110,189481,1,0,0:0:0:0:
184,115,189558,1,0,0:0:0:0:
206,124,189635,1,0,0:0:0:0:
226,137,189712,1,0,0:0:0:0:
243,153,189789,1,2,0:0:0:0:
256,172,189866,1,0,0:0:0:0:
266,193,189943,1,0,0:0:0:0:
272,216,190020,1,0,0:0:0:0:
274,239,190097,1,0,0:0:0:0:
271,263,190174,1,0,0:0:0:0:
264,285,190251,1,2,0:0:0:0:
253,306,190327,1,0,0:0:0:0:
239,324,190404,1,0,0:0:0:0:
221,340,190481,1,0,0:0:0:0:
201,351,190558,1,0,0:0:0:0:
179,359,190635,1,0,0:0:0:0:
151,357,190713,6,0,L|85:337,2,66.6666666666667,8|0|0,0:0|0:0|0:0,0:0:0:0:
357,277,190943,2,0,L|428:256,2,66.6666666666667
111,228,191174,21,8,0:0:0:0:
131,193,191232,1,8,0:0:0:0:
151,159,191289,1,8,0:0:0:0:
171,124,191347,1,8,0:0:0:0:
159,93,191405,5,4,0:0:0:0:
185,78,191463,1,4,0:0:0:0:
211,64,191520,1,4,0:0:0:0:
237,50,191578,1,4,0:0:0:0:
267,51,191636,69,4,0:0:0:0:
246,36,191693,1,0,0:0:0:0:
216,29,191751,1,0,0:0:0:0:
180,31,191809,1,0,0:0:0:0:
143,47,191866,1,0,0:0:0:0:
114,82,191924,1,0,0:0:0:0:
108,131,191982,1,0,0:0:0:0:
125,182,192039,1,0,0:0:0:0:
163,228,192097,2,0,L|229:277,3,50
311,328,192328,2,0,L|279:376,3,50
282,130,192559,5,8,0:0:0:0:
320,121,192616,1,0,0:0:0:0:
369,129,192674,1,0,0:0:0:0:
421,157,192732,1,0,0:0:0:0:
457,215,192789,2,0,P|462:241|455:269,3,50
239,323,193020,69,0,0:0:0:0:
207,259,193078,1,0,0:0:0:0:
203,198,193136,1,0,0:0:0:0:
222,152,193193,1,0,0:0:0:0:
233,113,193251,1,0,0:0:0:0:
228,83,193309,1,0,0:0:0:0:
218,65,193366,1,0,0:0:0:0:
210,58,193424,1,0,0:0:0:0:
198,54,193482,2,0,L|163:114,3,50
349,185,193713,2,0,L|378:241,3,50
67,268,193943,5,0,0:0:0:0:
75,275,194001,1,0,0:0:0:0:
88,285,194059,1,0,0:0:0:0:
113,300,194116,1,0,0:0:0:0:
151,314,194174,1,0,0:0:0:0:
201,322,194232,1,0,0:0:0:0:
260,321,194289,1,0,0:0:0:0:
325,294,194347,1,0,0:0:0:0:
371,229,194405,2,0,L|401:175,3,50,4|0|0|0,0:0|0:0|0:0|0:0,0:0:0:0:
191,192,194636,2,0,L|139:259,3,50
331,37,194866,69,8,0:0:0:0:
347,73,194924,1,8,0:0:0:0:
363,109,194982,1,8,0:0:0:0:
378,145,195039,1,8,0:0:0:0:
413,126,195097,5,4,0:0:0:0:
401,153,195155,1,4,0:0:0:0:
389,180,195213,1,4,0:0:0:0:
378,207,195270,1,4,0:0:0:0:
345,225,195328,22,0,B|437:216|502:297|502:297|467:353|371:329|371:329|340:359|319:370|290:364|281:333|300:315|324:317|384:361|392:387,1,525.000020027161,4|0,0:0|0:0,0:0:0:0:
164,379,196251,1,10,0:0:0:0:
131,356,196327,1,0,0:0:0:0:
107,324,196404,1,0,0:0:0:0:
94,286,196482,2,0,P|66:296|39:322,2,50.0000019073487
75,168,196713,5,2,0:0:0:0:
108,181,196789,1,0,0:0:0:0:
143,192,196866,1,0,0:0:0:0:
179,199,196943,1,0,0:0:0:0:
215,199,197020,1,0,0:0:0:0:
251,193,197097,1,0,0:0:0:0:
286,183,197174,1,2,0:0:0:0:
321,177,197251,1,0,0:0:0:0:
358,178,197328,1,0,0:0:0:0:
393,186,197405,1,0,0:0:0:0:
427,197,197482,1,0,0:0:0:0:
461,213,197559,1,0,0:0:0:0:
487,237,197636,2,0,L|516:285,2,50.0000019073487,2|0|0,0:0|0:0|0:0,0:0:0:0:
398,114,197866,2,0,L|423:70,2,50.0000019073487
293,314,198097,5,10,0:0:0:0:
255,327,198173,1,0,0:0:0:0:
215,330,198250,1,0,0:0:0:0:
177,320,198327,1,0,0:0:0:0:
138,311,198404,1,0,0:0:0:0:
98,310,198481,1,0,0:0:0:0:
59,317,198559,38,0,P|40:331|20:363,2,50.0000019073487,2|0|0,0:0|0:0|0:0,0:0:0:0:
223,249,198789,2,0,P|224:226|210:186,2,50.0000019073487,8|0|0,0:0|0:0|0:0,0:0:0:0:
404,318,199020,5,0,0:0:0:0:
419,326,199097,1,0,0:0:0:0:
433,334,199174,1,0,0:0:0:0:
448,342,199251,2,0,L|484:361,2,33.3333333333333,2|0|0,0:0|0:0|0:0,0:0:0:0:
376,172,199481,5,0,0:0:0:0:
391,164,199558,1,0,0:0:0:0:
405,156,199635,1,0,0:0:0:0:
420,150,199713,2,0,L|460:129,2,33.3333333333333,2|0|0,0:0|0:0|0:0,0:0:0:0:
177,248,199943,5,8,0:0:0:0:
147,267,200020,2,0,P|130:271|84:256,1,50.0000019073487
197,129,200174,1,0,0:0:0:0:
222,152,200250,1,0,0:0:0:0:
245,180,200327,1,0,0:0:0:0:
263,211,200404,1,2,0:0:0:0:
275,245,200481,1,0,0:0:0:0:
283,280,200558,1,0,0:0:0:0:
286,317,200636,37,0,0:0:0:0:
301,284,200712,1,0,0:0:0:0:
322,254,200789,1,0,0:0:0:0:
347,227,200866,1,2,0:0:0:0:
375,206,200943,1,0,0:0:0:0:
406,187,201020,1,0,0:0:0:0:
438,180,201097,2,0,P|467:177|503:187,2,50.0000019073487
317,86,201328,2,0,P|317:61|333:28,2,50.0000019073487,2|0|0,0:0|0:0|0:0,0:0:0:0:
405,283,201559,5,0,0:0:0:0:
435,300,201636,1,0,0:0:0:0:
469,301,201713,1,0,0:0:0:0:
497,282,201789,6,0,P|449:289|374:365,1,150.000005722046,10|0,0:0|0:0,0:0:0:0:
377,356,202251,1,2,0:0:0:0:
76,178,202482,1,12,0:0:0:0:
377,77,202713,5,0,0:0:0:0:
350,107,202789,1,0,0:0:0:0:
318,130,202866,1,0,0:0:0:0:
281,144,202943,1,0,0:0:0:0:
241,149,203020,1,0,0:0:0:0:
201,144,203097,1,0,0:0:0:0:
164,129,203174,37,2,0:0:0:0:
199,111,203250,1,0,0:0:0:0:
238,102,203327,1,0,0:0:0:0:
278,104,203404,1,0,0:0:0:0:
316,117,203481,1,0,0:0:0:0:
349,139,203558,1,0,0:0:0:0:
375,170,203636,2,0,P|385:198|387:230,2,50.0000019073487,10|0|0,0:0|0:0|0:0,0:0:0:0:
215,75,203866,2,0,P|215:46|226:22,2,50.0000019073487
274,228,204097,37,2,0:0:0:0:
292,263,204173,1,0,0:0:0:0:
322,290,204250,1,0,0:0:0:0:
358,306,204327,1,0,0:0:0:0:
398,309,204404,1,0,0:0:0:0:
436,299,204481,1,0,0:0:0:0:
470,277,204559,1,2,0:0:0:0:
449,243,204635,1,0,0:0:0:0:
438,204,204712,1,0,0:0:0:0:
445,165,204789,1,0,0:0:0:0:
462,129,204866,1,0,0:0:0:0:
462,88,204943,1,0,0:0:0:0:
439,54,205020,1,2,0:0:0:0:
402,37,205096,1,0,0:0:0:0:
361,37,205173,1,0,0:0:0:0:
328,61,205251,2,0,P|310:86|308:121,2,50.0000019073487
362,233,205482,37,10,0:0:0:0:
379,268,205558,1,0,0:0:0:0:
377,308,205635,1,0,0:0:0:0:
357,342,205712,1,0,0:0:0:0:
324,363,205789,1,0,0:0:0:0:
284,365,205866,1,0,0:0:0:0:
248,349,205943,6,0,P|218:355|179:381,2,50.0000019073487,2|0|0,0:0|0:0|0:0,0:0:0:0:
455,304,206174,2,0,P|488:300|521:274,2,50.0000019073487,8|0|0,0:0|0:0|0:0,0:0:0:0:
295,283,206405,5,2,0:0:0:0:
260,262,206481,1,0,0:0:0:0:
222,249,206558,1,0,0:0:0:0:
183,245,206635,1,0,0:0:0:0:
143,250,206712,1,0,0:0:0:0:
106,264,206789,1,0,0:0:0:0:
72,285,206866,2,0,P|46:314|37:335,2,50.0000019073487,2|0|0,0:0|0:0|0:0,0:0:0:0:
201,173,207097,2,0,P|214:153|218:113,2,50.0000019073487
144,68,207328,5,10,0:0:0:0:
173,44,207405,2,0,P|197:32|233:33,1,50.0000019073487
343,95,207559,1,0,0:0:0:0:
362,130,207636,1,0,0:0:0:0:
359,169,207713,1,0,0:0:0:0:
333,199,207789,2,0,P|306:215|266:215,2,50.0000019073487,2|0|0,0:0|0:0|0:0,0:0:0:0:
200,119,208020,37,8,0:0:0:0:
174,149,208096,1,0,0:0:0:0:
158,186,208173,1,0,0:0:0:0:
154,225,208250,1,2,0:0:0:0:
161,265,208327,1,0,0:0:0:0:
179,300,208404,1,0,0:0:0:0:
206,329,208481,1,0,0:0:0:0:
240,349,208558,1,0,0:0:0:0:
279,359,208635,1,0,0:0:0:0:
319,357,208713,2,0,P|349:347|385:353,2,50.0000019073487,2|0|0,0:0|0:0|0:0,0:0:0:0:
262,223,208943,53,8,0:0:0:0:
277,212,209001,1,8,0:0:0:0:
294,206,209059,1,8,0:0:0:0:
312,206,209116,1,8,0:0:0:0:
329,213,209174,2,0,P|350:229|367:261,3,37.5000014305115,4|4|4|4,0:0|0:0|0:0|0:0,0:0:0:0:
487,281,209405,2,0,P|474:299|446:317,3,37.5000014305115
206,329,209636,5,8,0:0:0:0:
185,312,209693,1,8,0:0:0:0:
165,293,209751,2,0,L|122:256,1,37.5000014305115,4|4,0:0|0:0,0:0:0:0:
122,117,209866,1,8,0:0:0:0:
147,110,209924,1,8,0:0:0:0:
172,103,209982,1,8,0:0:0:0:
197,97,210039,1,8,0:0:0:0:
222,92,210097,6,0,P|275:100|316:159,1,100,4|0,0:0|0:0,0:0:0:0:
54,323,210328,2,0,P|64:267|114:230,1,100
399,339,210559,2,0,P|351:349|290:325,1,100,2|0,0:0|0:0,0:0:0:0:
226,165,210789,1,0,0:0:0:0:
226,165,210905,1,0,0:0:0:0:
45,240,211020,6,0,L|107:331,1,100,10|0,0:0|0:0,0:0:0:0:
360,211,211251,2,0,L|430:129,1,100
143,48,211482,2,0,L|95:149,1,100,2|0,0:0|0:0,0:0:0:0:
245,334,211713,1,0,0:0:0:0:
245,334,211828,1,0,0:0:0:0:
408,180,211943,6,0,P|438:243|428:289,1,100,2|0,0:0|0:0,0:0:0:0:
146,212,212174,2,0,P|112:185|93:124,1,100
293,23,212405,2,0,P|301:83|281:130,1,100,2|0,0:0|0:0,0:0:0:0:
164,297,212636,1,0,0:0:0:0:
164,297,212751,1,0,0:0:0:0:
107,88,212866,6,0,L|221:77,1,100,10|0,0:0|0:0,0:0:0:0:
456,186,213097,2,0,L|334:185,1,100
99,282,213328,2,0,L|213:271,1,100,2|2,0:0|0:0,0:0:0:0:
461,350,213559,1,0,0:0:0:0:
427,349,213616,1,0,0:0:0:0:
394,349,213674,1,0,0:0:0:0:
361,349,213732,1,0,0:0:0:0:
330,349,213789,38,0,P|271:321|239:271,1,100,2|0,0:0|0:0,0:0:0:0:
175,39,214020,2,0,P|206:96|202:139,1,100
70,290,214251,2,0,P|126:300|178:278,1,100,2|0,0:0|0:0,0:0:0:0:
336,124,214482,1,0,0:0:0:0:
336,124,214597,1,0,0:0:0:0:
430,321,214713,6,0,L|308:301,1,100,10|0,0:0|0:0,0:0:0:0:
76,209,214943,2,0,L|185:177,1,100
411,80,215174,2,0,L|293:49,1,100,2|0,0:0|0:0,0:0:0:0:
86,79,215405,1,0,0:0:0:0:
86,79,215520,1,0,0:0:0:0:
253,229,215636,6,0,P|219:278|174:293,1,100,2|0,0:0|0:0,0:0:0:0:
222,57,215866,2,0,P|288:56|336:87,1,100
470,263,216097,2,0,P|417:292|367:283,1,100,2|0,0:0|0:0,0:0:0:0:
166,196,216328,1,0,0:0:0:0:
151,175,216386,1,0,0:0:0:0:
143,151,216443,1,0,0:0:0:0:
141,125,216501,1,0,0:0:0:0:
145,99,216559,6,0,B|207:95|207:95|302:152,1,150.000005722046,8|8,0:0|0:0,0:0:0:0:
282,140,217020,1,2,0:0:0:0:
193,368,217251,1,2,0:0:0:0:
324,25,217482,37,2,0:0:0:0:
357,61,217558,1,0,0:0:0:0:
376,107,217635,1,0,0:0:0:0:
378,157,217712,1,0,0:0:0:0:
363,204,217789,1,0,0:0:0:0:
332,243,217866,1,0,0:0:0:0:
289,269,217943,2,0,L|228:304,2,50.0000019073487,2|0|0,0:0|0:0|0:0,0:0:0:0:
129,146,218174,2,0,L|206:172,2,50.0000019073487
130,13,218405,5,10,0:0:0:0:
87,38,218481,1,0,0:0:0:0:
54,76,218558,1,0,0:0:0:0:
34,121,218635,1,0,0:0:0:0:
29,171,218712,1,0,0:0:0:0:
39,219,218789,1,0,0:0:0:0:
64,263,218866,5,2,0:0:0:0:
109,240,218942,1,0,0:0:0:0:
157,228,219019,1,0,0:0:0:0:
207,226,219096,1,0,0:0:0:0:
256,235,219173,1,0,0:0:0:0:
302,255,219250,1,0,0:0:0:0:
343,283,219328,5,2,0:0:0:0:
296,301,219404,1,0,0:0:0:0:
246,301,219481,1,0,0:0:0:0:
200,284,219558,1,0,0:0:0:0:
161,252,219635,1,0,0:0:0:0:
137,209,219712,1,0,0:0:0:0:
128,160,219789,37,2,0:0:0:0:
175,144,219865,1,0,0:0:0:0:
225,138,219942,1,0,0:0:0:0:
274,148,220019,1,0,0:0:0:0:
322,161,220096,1,0,0:0:0:0:
371,165,220173,1,0,0:0:0:0:
420,155,220251,2,0,P|451:141|470:121,2,50.0000019073487,10|0|0,0:0|0:0|0:0,0:0:0:0:
236,218,220482,2,0,P|207:226|177:250,2,50.0000019073487
346,40,220713,53,8,0:0:0:0:
319,52,220770,1,8,0:0:0:0:
291,64,220828,1,8,0:0:0:0:
263,77,220886,1,8,0:0:0:0:
283,98,220943,5,4,0:0:0:0:
253,93,221001,1,4,0:0:0:0:
223,88,221059,1,4,0:0:0:0:
193,84,221116,1,4,0:0:0:0:
172,54,221174,5,4,0:0:0:0:
222,321,221405,2,0,P|273:338|424:297,1,200,4|0,0:0|0:0,0:0:0:0:
321,109,222097,1,8,0:0:0:0:
129,245,222328,2,0,P|98:296|100:348,2,100,0|2|4,0:0|0:0|0:0,0:0:0:0:
222,40,223020,5,0,0:0:0:0:
365,68,223251,2,0,B|302:90|302:90|263:153|263:153|200:172,1,200,2|0,0:0|0:0,0:0:0:0:
77,296,223943,2,0,L|187:322,1,100,10|0,0:0|0:0,0:0:0:0:
415,279,224405,38,0,L|441:234,3,37.5000014305115,8|8|8|8,0:0|0:0|0:0|0:0,0:0:0:0:
332,130,224636,6,0,L|342:172,3,25,4|4|4|4,0:0|0:0|0:0|0:0,0:0:0:0:
425,115,224866,5,4,0:0:0:0:
164,219,225097,1,0,0:0:0:0:
352,282,225328,5,8,0:0:0:0:
163,31,225559,1,8,0:0:0:0:
7,303,225789,37,8,0:0:0:0:
5,325,225847,1,8,0:0:0:0:
21,341,225905,1,8,0:0:0:0:
42,343,225962,1,8,0:0:0:0:
59,330,226020,5,4,0:0:0:0:
63,318,226078,1,4,0:0:0:0:
63,306,226136,1,4,0:0:0:0:
60,294,226193,1,4,0:0:0:0:
44,262,226251,70,0,L|105:298,7,43.7500004172325,2|0|0|0|0|0|0|0,0:0|0:0|0:0|0:0|0:0|0:0|0:0|0:0,0:0:0:0:
242,167,226713,2,0,L|204:144,7,43.7500004172325,2|0|0|0|0|0|0|0,0:0|0:0|0:0|0:0|0:0|0:0|0:0|0:0,0:0:0:0:
55,59,227174,1,2,0:0:0:0:
72,72,227232,1,0,0:0:0:0:
86,90,227289,1,0,0:0:0:0:
96,109,227347,1,0,0:0:0:0:
103,130,227405,1,0,0:0:0:0:
104,152,227462,1,0,0:0:0:0:
102,174,227520,1,0,0:0:0:0:
97,195,227578,1,0,0:0:0:0:
87,215,227636,6,0,P|92:230|135:268,1,43.7500004172325,10|0,0:0|0:0,0:0:0:0:
191,90,227751,2,0,L|172:31,5,43.7500004172325
188,210,228097,69,8,0:0:0:0:
208,217,228155,1,0,0:0:0:0:
228,223,228212,2,0,L|308:250,1,43.7500004172325
281,355,228328,1,8,0:0:0:0:
301,346,228386,1,0,0:0:0:0:
321,339,228443,2,0,L|379:317,1,43.7500004172325
493,279,228559,22,0,B|517:224|517:224|477:77,1,200,4|2,0:0|0:0,0:0:0:0:
480,88,229251,1,0,0:0:0:0:
214,185,229482,1,8,0:0:0:0:
41,24,229943,6,0,P|66:61|24:211,1,200,2|2,0:0|0:0,0:0:0:0:
34,202,230636,2,0,B|48:257|95:280,1,100,8|2,0:0|0:0,0:0:0:0:
93,279,231097,1,0,0:0:0:0:
312,69,231328,37,8,0:0:0:0:
304,97,231386,1,8,0:0:0:0:
296,126,231443,1,8,0:0:0:0:
289,155,231501,1,8,0:0:0:0:
258,151,231559,5,4,0:0:0:0:
266,166,231616,1,4,0:0:0:0:
274,182,231674,1,4,0:0:0:0:
282,198,231732,1,4,0:0:0:0:
265,202,231789,69,8,0:0:0:0:
257,231,231847,1,8,0:0:0:0:
250,260,231904,1,8,0:0:0:0:
242,289,231962,1,8,0:0:0:0:
226,283,232020,6,0,L|262:324,3,43.7500004172325,4|4|4|4,0:0|0:0|0:0|0:0,0:0:0:0:
229,320,232251,5,2,0:0:0:0:
34,202,232405,5,0,0:0:0:0:
325,126,232559,5,2,0:0:0:0:
104,28,232713,6,0,B|53:67|53:67|33:214,1,200,2|2,0:0|0:0,0:0:0:0:
34,201,233636,37,4,0:0:0:0:
341,323,233866,1,8,0:0:0:0:
168,95,234097,53,2,0:0:0:0:
169,112,234154,1,0,0:0:0:0:
174,131,234212,1,0,0:0:0:0:
182,147,234270,1,0,0:0:0:0:
193,162,234327,1,0,0:0:0:0:
207,174,234385,1,0,0:0:0:0:
224,185,234443,1,0,0:0:0:0:
240,192,234500,1,0,0:0:0:0:
259,195,234558,1,0,0:0:0:0:
278,195,234616,1,0,0:0:0:0:
296,191,234673,1,0,0:0:0:0:
314,185,234731,1,0,0:0:0:0:
332,175,234789,2,0,P|349:158|362:131,3,43.7500004172325
283,64,235020,5,8,0:0:0:0:
272,88,235077,1,0,0:0:0:0:
266,114,235135,1,0,0:0:0:0:
266,142,235193,1,0,0:0:0:0:
272,168,235250,1,0,0:0:0:0:
278,195,235308,1,0,0:0:0:0:
279,222,235366,1,0,0:0:0:0:
275,249,235423,1,0,0:0:0:0:
266,275,235481,5,8,0:0:0:0:
45,45,235713,1,8,0:0:0:0:
348,128,235943,5,4,0:0:0:0:
54,276,236174,2,0,P|86:319|147:346,1,100,0|2,0:0|0:0,0:0:0:0:
125,341,236636,1,0,0:0:0:0:
260,122,236866,5,10,0:0:0:0:
168,77,237097,1,0,0:0:0:0:
74,112,237328,1,2,0:0:0:0:
36,202,237559,1,2,0:0:0:0:
366,362,237789,6,0,P|385:320|375:252,1,100,2|0,0:0|0:0,0:0:0:0:
157,151,238020,2,0,P|138:193|144:258,1,100
433,201,238251,38,0,P|403:185|334:193,1,100,2|0,0:0|0:0,0:0:0:0:
74,335,238482,2,0,P|104:351|179:344,1,100
389,132,238713,5,8,0:0:0:0:
454,190,238789,1,8,0:0:0:0:
471,256,238866,1,4,0:0:0:0:
453,307,238943,1,4,0:0:0:0:
424,332,239020,1,4,0:0:0:0:
403,334,239097,1,4,0:0:0:0:
391,334,239175,5,8,0:0:0:0:
322,290,239251,1,8,0:0:0:0:
305,218,239328,1,4,0:0:0:0:
349,180,239405,1,4,0:0:0:0:
379,179,239482,1,4,0:0:0:0:
398,189,239559,1,4,0:0:0:0:
374,231,239636,5,4,0:0:0:0:
341,239,239712,1,0,0:0:0:0:
308,238,239789,1,0,0:0:0:0:
277,228,239866,1,0,0:0:0:0:
249,210,239943,1,0,0:0:0:0:
228,184,240020,1,0,0:0:0:0:
214,154,240097,1,2,0:0:0:0:
210,121,240174,1,0,0:0:0:0:
215,88,240251,1,0,0:0:0:0:
229,58,240328,1,0,0:0:0:0:
251,33,240405,1,0,0:0:0:0:
279,15,240482,1,0,0:0:0:0:
311,6,240559,2,0,P|347:0|381:8,2,50.0000019073487,10|0|0,0:0|0:0|0:0,0:0:0:0:
484,190,240789,2,0,P|450:199|408:190,2,50.0000019073487
279,169,241020,37,2,0:0:0:0:
247,158,241096,1,0,0:0:0:0:
214,154,241173,1,0,0:0:0:0:
181,155,241250,1,0,0:0:0:0:
148,163,241327,1,0,0:0:0:0:
118,176,241404,1,0,0:0:0:0:
90,195,241482,1,2,0:0:0:0:
77,164,241558,1,0,0:0:0:0:
73,131,241635,1,0,0:0:0:0:
78,98,241712,1,0,0:0:0:0:
92,68,241789,1,0,0:0:0:0:
114,43,241866,1,0,0:0:0:0:
142,25,241943,2,0,L|195:6,2,50.0000019073487,2|0|0,0:0|0:0|0:0,0:0:0:0:
298,109,242174,2,0,L|280:166,2,50.0000019073487
421,78,242405,5,10,0:0:0:0:
430,123,242481,1,0,0:0:0:0:
426,169,242558,1,0,0:0:0:0:
408,212,242635,1,0,0:0:0:0:
379,248,242712,1,0,0:0:0:0:
340,274,242789,1,0,0:0:0:0:
264,244,242866,5,10,0:0:0:0:
230,211,242943,1,0,0:0:0:0:
228,164,243020,1,0,0:0:0:0:
261,97,243097,5,8,0:0:0:0:
303,78,243174,1,0,0:0:0:0:
328,38,243251,1,0,0:0:0:0:
251,9,243328,5,2,0:0:0:0:
227,20,243385,1,0,0:0:0:0:
203,31,243443,1,0,0:0:0:0:
180,43,243501,1,0,0:0:0:0:
156,54,243558,1,0,0:0:0:0:
132,65,243616,1,0,0:0:0:0:
109,77,243674,1,0,0:0:0:0:
85,88,243731,1,0,0:0:0:0:
59,98,243789,2,0,L|36:152,3,37.5000014305115,2|0|0|0,0:0|0:0|0:0|0:0,0:0:0:0:
141,228,244020,2,0,L|119:173,3,37.5000014305115
70,284,244251,5,10,0:0:0:0:
100,305,244308,1,0,0:0:0:0:
136,314,244366,1,0,0:0:0:0:
173,310,244424,1,0,0:0:0:0:
206,293,244482,2,0,P|231:280|257:276,3,37.5000014305115
284,384,244713,69,2,0:0:0:0:
310,352,244770,1,0,0:0:0:0:
325,314,244828,1,0,0:0:0:0:
329,273,244886,1,0,0:0:0:0:
321,233,244943,1,0,0:0:0:0:
301,197,245001,1,0,0:0:0:0:
271,168,245059,1,0,0:0:0:0:
233,153,245116,1,0,0:0:0:0:
192,160,245174,5,2,0:0:0:0:
223,133,245231,1,0,0:0:0:0:
259,113,245289,1,0,0:0:0:0:
299,103,245347,1,0,0:0:0:0:
340,102,245404,1,0,0:0:0:0:
380,110,245462,1,0,0:0:0:0:
418,127,245520,1,0,0:0:0:0:
450,152,245577,1,0,0:0:0:0:
477,185,245636,69,2,0:0:0:0:
457,221,245693,1,0,0:0:0:0:
452,261,245751,1,0,0:0:0:0:
461,301,245809,1,0,0:0:0:0:
484,335,245866,2,0,P|497:353|515:368,3,37.5000014305115
288,281,246097,5,8,0:0:0:0:
251,277,246155,1,8,0:0:0:0:
215,273,246212,1,8,0:0:0:0:
178,270,246270,1,8,0:0:0:0:
168,307,246328,69,4,0:0:0:0:
150,288,246386,1,4,0:0:0:0:
132,270,246443,1,4,0:0:0:0:
114,251,246501,1,4,0:0:0:0:
89,278,246559,5,8,0:0:0:0:
94,243,246616,1,8,0:0:0:0:
101,203,246674,1,8,0:0:0:0:
106,165,246732,1,8,0:0:0:0:
143,171,246789,69,4,0:0:0:0:
128,150,246847,1,4,0:0:0:0:
112,128,246905,1,4,0:0:0:0:
98,107,246962,1,4,0:0:0:0:
57,101,247020,22,0,L|237:68,1,150,4|0,0:0|0:0,0:0:0:0:
303,100,247251,53,0,0:0:0:0:
293,148,247308,1,8,0:0:0:0:
264,188,247366,1,0,0:0:0:0:
220,211,247424,1,8,0:0:0:0:
171,213,247482,5,2,0:0:0:0:
219,207,247539,1,8,0:0:0:0:
263,228,247597,1,0,0:0:0:0:
298,263,247655,1,8,0:0:0:0:
321,308,247712,1,0,0:0:0:0:
354,345,247770,1,8,0:0:0:0:
399,364,247828,1,0,0:0:0:0:
450,361,247886,1,8,0:0:0:0:
493,328,247943,69,2,0:0:0:0:
448,306,248001,1,8,0:0:0:0:
400,292,248059,1,0,0:0:0:0:
350,294,248116,1,8,0:0:0:0:
301,306,248173,1,0,0:0:0:0:
252,316,248231,1,8,0:0:0:0:
202,318,248289,1,0,0:0:0:0:
153,312,248346,1,8,0:0:0:0:
104,300,248404,5,2,0:0:0:0:
70,265,248462,1,8,0:0:0:0:
50,219,248520,1,0,0:0:0:0:
48,169,248578,1,8,0:0:0:0:
65,122,248635,1,0,0:0:0:0:
97,85,248693,1,8,0:0:0:0:
141,61,248751,1,0,0:0:0:0:
195,54,248808,1,8,0:0:0:0:
245,75,248866,69,2,0:0:0:0:
280,108,248923,1,8,0:0:0:0:
291,156,248981,1,0,0:0:0:0:
272,202,249039,1,8,0:0:0:0:
231,229,249097,1,0,0:0:0:0:
182,228,249155,1,8,0:0:0:0:
142,199,249212,1,0,0:0:0:0:
125,152,249269,1,8,0:0:0:0:
138,105,249328,5,2,0:0:0:0:
177,136,249385,1,8,0:0:0:0:
216,167,249443,1,0,0:0:0:0:
255,199,249501,1,8,0:0:0:0:
294,230,249558,1,0,0:0:0:0:
333,262,249616,1,8,0:0:0:0:
372,293,249674,1,0,0:0:0:0:
411,324,249731,1,8,0:0:0:0:
450,356,249789,5,0,0:0:0:0:
186,269,249905,1,8,0:0:0:0:
382,171,250020,5,0,0:0:0:0:
95,196,250136,1,8,0:0:0:0:
274,47,250251,37,8,0:0:0:0:
241,97,250309,1,8,0:0:0:0:
228,154,250366,1,8,0:0:0:0:
244,211,250424,1,8,0:0:0:0:
285,254,250482,5,4,0:0:0:0:
282,296,250539,1,4,0:0:0:0:
259,331,250597,1,4,0:0:0:0:
223,349,250655,1,4,0:0:0:0:
183,354,250713,70,0,L|130:332,7,50,4|0|0|0|0|0|0|0,0:0|0:0|0:0|0:0|0:0|0:0|0:0|0:0,0:0:0:0:
36,211,251174,2,0,L|97:194,3,50,2|0|0|0,0:0|0:0|0:0|0:0,0:0:0:0:
182,155,251405,2,0,L|121:128,3,50
11,42,251636,2,0,L|72:25,7,50,10|0|0|0|0|0|0|0,0:0|0:0|0:0|0:0|0:0|0:0|0:0|0:0,0:0:0:0:
265,5,252097,5,2,0:0:0:0:
263,35,252154,1,0,0:0:0:0:
256,64,252212,1,0,0:0:0:0:
244,91,252270,1,0,0:0:0:0:
227,116,252327,1,0,0:0:0:0:
206,137,252385,1,0,0:0:0:0:
182,155,252443,1,0,0:0:0:0:
154,167,252500,1,0,0:0:0:0:
125,175,252559,70,0,L|35:192,1,62.5,8|0,0:0|0:0,0:0:0:0:
268,195,252674,2,0,L|353:178,1,62.5,8|0,0:0|0:0,0:0:0:0:
126,310,252789,2,0,L|36:327,1,62.5,8|0,0:0|0:0,0:0:0:0:
269,330,252905,2,0,L|354:313,1,62.5,8|0,0:0|0:0,0:0:0:0:
100,226,253020,6,0,L|31:194,1,62.5,8|0,0:0|0:0,0:0:0:0:
268,195,253136,2,0,L|334:232,1,62.5,8|0,0:0|0:0,0:0:0:0:
182,88,253251,2,0,L|113:56,1,62.5,8|0,0:0|0:0,0:0:0:0:
350,57,253367,2,0,L|416:94,1,62.5,8|0,0:0|0:0,0:0:0:0:
470,231,253482,69,8,0:0:0:0:
409,246,253539,1,0,0:0:0:0:
347,243,253597,1,8,0:0:0:0:
287,225,253655,1,0,0:0:0:0:
227,208,253712,1,8,0:0:0:0:
165,201,253770,1,0,0:0:0:0:
103,208,253828,1,8,0:0:0:0:
43,226,253885,1,0,0:0:0:0:
4,275,253943,5,8,0:0:0:0:
49,254,254001,1,8,0:0:0:0:
67,207,254059,1,8,0:0:0:0:
57,158,254116,1,8,0:0:0:0:
35,112,254174,69,4,0:0:0:0:
58,91,254232,1,4,0:0:0:0:
87,81,254289,1,4,0:0:0:0:
118,81,254347,1,4,0:0:0:0:
141,92,254405,22,0,P|162:111|176:151,5,50.0000019073487,4|0|0|0|0|0,0:0|0:0|0:0|0:0|0:0|0:0,0:0:0:0:
143,268,254866,2,0,P|158:293|194:314,5,50.0000019073487,2|0|0|0|0|0,0:0|0:0|0:0|0:0|0:0|0:0,0:0:0:0:
286,328,255328,5,10,0:0:0:0:
326,292,255404,1,0,0:0:0:0:
344,240,255481,1,0,0:0:0:0:
335,187,255558,1,0,0:0:0:0:
300,145,255635,1,0,0:0:0:0:
249,125,255712,1,0,0:0:0:0:
195,134,255789,1,2,0:0:0:0:
215,179,255865,1,0,0:0:0:0:
253,211,255942,1,0,0:0:0:0:
299,231,256019,1,0,0:0:0:0:
342,257,256096,1,0,0:0:0:0:
377,292,256173,1,0,0:0:0:0:
405,333,256251,6,0,L|345:363,5,50.0000019073487,2|0|0|0|0|0,0:0|0:0|0:0|0:0|0:0|0:0,0:0:0:0:
446,177,256713,2,0,L|511:203,5,50.0000019073487,2|0|0|0|0|0,0:0|0:0|0:0|0:0|0:0|0:0,0:0:0:0:
372,71,257174,5,10,0:0:0:0:
325,52,257251,1,0,0:0:0:0:
275,48,257328,1,0,0:0:0:0:
228,66,257405,2,0,P|209:75|158:79,2,50.0000019073487
67,54,257636,5,8,0:0:0:0:
85,86,257693,1,8,0:0:0:0:
104,118,257751,1,8,0:0:0:0:
123,151,257809,1,8,0:0:0:0:
142,183,257866,1,8,0:0:0:0:
160,216,257924,1,8,0:0:0:0:
179,248,257982,1,8,0:0:0:0:
198,281,258039,1,8,0:0:0:0:
215,308,258097,6,0,L|189:366,3,50,2|0|0|0,0:0|0:0|0:0|0:0,0:0:0:0:
276,204,258328,2,0,L|243:143,3,50
332,302,258559,69,2,0:0:0:0:
366,316,258616,1,0,0:0:0:0:
403,312,258674,1,0,0:0:0:0:
434,291,258732,1,0,0:0:0:0:
451,259,258789,2,0,L|476:203,3,50
320,53,259020,6,0,L|288:121,3,50,10|0|0|0,0:0|0:0|0:0|0:0,0:0:0:0:
213,58,259251,1,0,0:0:0:0:
189,87,259308,1,0,0:0:0:0:
174,121,259366,1,0,0:0:0:0:
169,158,259424,1,0,0:0:0:0:
172,195,259481,1,2,0:0:0:0:
171,233,259539,1,0,0:0:0:0:
161,269,259597,1,0,0:0:0:0:
142,301,259654,1,0,0:0:0:0:
118,330,259713,2,0,L|60:366,3,50
259,137,259943,70,0,L|318:175,3,50,2|0|0|0,0:0|0:0|0:0|0:0,0:0:0:0:
362,111,260174,1,0,0:0:0:0:
385,139,260231,1,0,0:0:0:0:
396,175,260289,1,0,0:0:0:0:
393,212,260347,1,0,0:0:0:0:
376,245,260405,5,2,0:0:0:0:
339,238,260462,1,0,0:0:0:0:
301,236,260520,1,0,0:0:0:0:
264,242,260578,1,0,0:0:0:0:
228,251,260635,1,0,0:0:0:0:
191,258,260693,1,0,0:0:0:0:
153,258,260751,1,0,0:0:0:0:
116,253,260808,1,0,0:0:0:0:
80,245,260866,70,0,L|28:203,3,50,10|0|0|0,0:0|0:0|0:0|0:0,0:0:0:0:
241,349,261097,2,0,L|286:377,3,50
377,48,261328,5,8,0:0:0:0:
400,82,261386,1,8,0:0:0:0:
410,121,261443,1,8,0:0:0:0:
407,162,261501,1,8,0:0:0:0:
389,199,261559,69,4,0:0:0:0:
386,224,261616,1,4,0:0:0:0:
388,250,261674,1,4,0:0:0:0:
401,272,261732,1,4,0:0:0:0:
433,283,261789,22,0,P|368:329|278:326,1,150,4|0,0:0|0:0,0:0:0:0:
199,268,262020,53,0,0:0:0:0:
151,284,262077,1,8,0:0:0:0:
104,301,262135,1,0,0:0:0:0:
57,318,262193,1,8,0:0:0:0:
9,333,262251,5,2,0:0:0:0:
26,286,262308,1,8,0:0:0:0:
52,243,262366,1,0,0:0:0:0:
89,210,262424,1,8,0:0:0:0:
133,186,262481,1,0,0:0:0:0:
177,163,262539,1,8,0:0:0:0:
214,130,262597,1,0,0:0:0:0:
239,86,262654,1,8,0:0:0:0:
218,40,262713,69,2,0:0:0:0:
216,89,262770,1,8,0:0:0:0:
238,133,262828,1,0,0:0:0:0:
278,162,262886,1,8,0:0:0:0:
327,169,262943,1,0,0:0:0:0:
373,152,263001,1,8,0:0:0:0:
406,115,263059,1,0,0:0:0:0:
418,67,263116,1,8,0:0:0:0:
396,22,263174,6,0,L|345:5,3,50,2|8|0|8,0:0|0:0|0:0|0:0,0:0:0:0:
446,228,263405,2,0,L|502:201,3,50,0|8|0|8,0:0|0:0|0:0|0:0,0:0:0:0:
272,314,263636,69,8,0:0:0:0:
247,308,263693,1,8,0:0:0:0:
223,302,263751,1,8,0:0:0:0:
198,296,263809,1,8,0:0:0:0:
174,291,263866,2,0,L|105:313,1,50,8|8,0:0|0:0,0:0:0:0:
240,151,263982,2,0,L|301:165,1,50,4|4,0:0|0:0,0:0:0:0:
167,92,264097,5,8,0:0:0:0:
145,119,264155,1,8,0:0:0:0:
139,153,264213,2,0,P|146:186|174:219,1,50
372,227,264328,1,8,0:0:0:0:
385,195,264385,1,8,0:0:0:0:
388,160,264443,1,8,0:0:0:0:
379,126,264501,1,8,0:0:0:0:
358,97,264559,70,0,L|416:68,3,50,8|8|8|8,0:0|0:0|0:0|0:0,0:0:0:0:
462,209,264789,2,0,L|488:252,1,50,4|4,0:0|0:0,0:0:0:0:
376,332,264905,2,0,L|362:381,1,50
242,304,265020,5,8,0:0:0:0:
200,260,265078,1,8,0:0:0:0:
190,205,265136,1,8,0:0:0:0:
210,160,265193,1,8,0:0:0:0:
220,121,265251,1,4,0:0:0:0:
213,91,265309,1,4,0:0:0:0:
196,72,265366,1,4,0:0:0:0:
176,66,265424,1,4,0:0:0:0:
136,90,265482,5,4,0:0:0:0:
448,63,265713,2,0,P|466:107|412:251,1,200
122,149,266405,1,10,0:0:0:0:
40,303,266636,2,0,B|143:334,1,100,0|2,0:0|0:0,0:0:0:0:
312,270,267097,1,8,0:0:0:0:
418,56,267328,5,2,0:0:0:0:
418,56,267559,2,0,B|458:103|458:103|439:256,1,200
224,363,268251,1,10,0:0:0:0:
105,227,268482,1,0,0:0:0:0:
111,210,268539,1,0,0:0:0:0:
117,193,268597,1,0,0:0:0:0:
123,176,268655,1,0,0:0:0:0:
129,159,268713,1,4,0:0:0:0:
225,88,268943,1,0,0:0:0:0:
467,323,269174,5,2,0:0:0:0:
429,310,269250,1,0,0:0:0:0:
390,301,269327,1,0,0:0:0:0:
350,299,269404,1,0,0:0:0:0:
310,304,269481,1,0,0:0:0:0:
271,313,269558,1,0,0:0:0:0:
232,321,269635,1,2,0:0:0:0:
192,324,269712,1,0,0:0:0:0:
152,322,269789,1,0,0:0:0:0:
112,316,269866,1,0,0:0:0:0:
73,308,269943,1,0,0:0:0:0:
39,286,270020,1,0,0:0:0:0:
12,255,270097,5,10,0:0:0:0:
44,231,270173,1,0,0:0:0:0:
80,214,270250,1,0,0:0:0:0:
119,204,270327,1,0,0:0:0:0:
158,200,270404,1,0,0:0:0:0:
198,199,270481,1,0,0:0:0:0:
238,197,270558,1,2,0:0:0:0:
277,189,270635,1,0,0:0:0:0:
315,174,270712,1,0,0:0:0:0:
349,154,270789,1,0,0:0:0:0:
381,130,270866,1,0,0:0:0:0:
404,97,270943,1,0,0:0:0:0:
406,57,271020,38,0,L|463:30,2,50.0000019073487,2|0|0,0:0|0:0|0:0,0:0:0:0:
231,80,271251,1,8,0:0:0:0:
224,119,271327,1,0,0:0:0:0:
226,159,271404,1,0,0:0:0:0:
238,197,271481,1,2,0:0:0:0:
259,231,271558,1,0,0:0:0:0:
287,259,271635,1,0,0:0:0:0:
321,280,271712,1,0,0:0:0:0:
359,292,271789,1,0,0:0:0:0:
399,290,271866,1,0,0:0:0:0:
479,256,271943,5,10,0:0:0:0:
444,220,272019,1,0,0:0:0:0:
399,199,272096,1,0,0:0:0:0:
350,193,272173,1,0,0:0:0:0:
301,204,272250,1,0,0:0:0:0:
259,231,272327,1,0,0:0:0:0:
250,310,272405,5,10,0:0:0:0:
203,288,272481,1,0,0:0:0:0:
168,254,272558,1,0,0:0:0:0:
146,209,272635,1,0,0:0:0:0:
139,159,272712,1,0,0:0:0:0:
150,111,272789,1,0,0:0:0:0:
225,77,272866,21,2,0:0:0:0:
254,73,272923,1,0,0:0:0:0:
284,69,272981,1,0,0:0:0:0:
314,65,273039,1,0,0:0:0:0:
344,62,273096,1,0,0:0:0:0:
373,58,273154,1,0,0:0:0:0:
403,54,273212,1,0,0:0:0:0:
433,50,273269,1,0,0:0:0:0:
462,46,273328,2,0,L|497:14,3,37.5000014305115,2|0|0|0,0:0|0:0|0:0|0:0,0:0:0:0:
382,155,273559,2,0,L|350:134,3,37.5000014305115
462,230,273789,5,10,0:0:0:0:
438,258,273846,1,0,0:0:0:0:
404,274,273904,1,0,0:0:0:0:
367,274,273962,1,0,0:0:0:0:
333,259,274020,2,0,P|317:261|283:277,3,37.5000014305115
306,370,274251,69,2,0:0:0:0:
276,371,274308,1,0,0:0:0:0:
247,364,274366,1,0,0:0:0:0:
221,349,274424,1,0,0:0:0:0:
200,327,274481,1,0,0:0:0:0:
187,300,274539,1,0,0:0:0:0:
182,271,274597,1,0,0:0:0:0:
186,241,274654,1,0,0:0:0:0:
205,217,274713,6,0,L|163:184,3,37.5000014305115,2|0|0|0,0:0|0:0|0:0|0:0,0:0:0:0:
350,134,274943,2,0,L|382:155,3,37.5000014305115
345,42,275174,1,2,0:0:0:0:
312,59,275231,1,0,0:0:0:0:
285,86,275289,1,0,0:0:0:0:
267,119,275347,1,0,0:0:0:0:
260,155,275405,2,0,L|306:209,3,37.5000014305115
407,263,275636,69,8,0:0:0:0:
371,273,275694,1,8,0:0:0:0:
337,284,275751,1,8,0:0:0:0:
301,296,275809,1,8,0:0:0:0:
307,333,275867,5,6,0:0:0:0:
283,323,275925,1,4,0:0:0:0:
260,313,275982,1,4,0:0:0:0:
235,304,276040,1,4,0:0:0:0:
223,338,276097,69,8,0:0:0:0:
214,302,276155,1,8,0:0:0:0:
204,264,276213,1,8,0:0:0:0:
195,227,276271,1,8,0:0:0:0:
231,218,276328,5,4,0:0:0:0:
208,205,276386,1,4,0:0:0:0:
186,191,276444,1,4,0:0:0:0:
164,177,276501,1,4,0:0:0:0:
163,139,276559,6,0,B|119:168|119:168|84:277,1,150,4|0,0:0|0:0,0:0:0:0:
182,341,276789,53,0,0:0:0:0:
231,349,276846,1,8,0:0:0:0:
279,339,276904,1,0,0:0:0:0:
321,312,276962,1,8,0:0:0:0:
343,268,277020,5,2,0:0:0:0:
299,244,277078,1,8,0:0:0:0:
276,200,277135,1,0,0:0:0:0:
281,151,277193,1,8,0:0:0:0:
311,113,277250,1,0,0:0:0:0:
358,97,277308,1,8,0:0:0:0:
406,110,277366,1,0,0:0:0:0:
438,147,277423,1,8,0:0:0:0:
445,196,277482,69,2,0:0:0:0:
396,189,277539,1,8,0:0:0:0:
346,183,277597,1,0,0:0:0:0:
297,176,277655,1,8,0:0:0:0:
247,170,277712,1,0,0:0:0:0:
198,163,277770,1,8,0:0:0:0:
148,157,277828,1,0,0:0:0:0:
98,150,277885,1,8,0:0:0:0:
49,143,277943,5,2,0:0:0:0:
46,193,278000,1,8,0:0:0:0:
59,241,278058,1,0,0:0:0:0:
86,283,278116,1,8,0:0:0:0:
125,314,278173,1,0,0:0:0:0:
171,332,278231,1,8,0:0:0:0:
221,335,278289,1,0,0:0:0:0:
269,322,278346,1,8,0:0:0:0:
311,295,278405,69,2,0:0:0:0:
356,316,278462,1,8,0:0:0:0:
406,314,278520,1,0,0:0:0:0:
449,291,278578,1,8,0:0:0:0:
478,251,278635,1,0,0:0:0:0:
486,202,278693,1,8,0:0:0:0:
471,154,278751,1,0,0:0:0:0:
436,119,278808,1,8,0:0:0:0:
390,102,278866,5,2,0:0:0:0:
343,121,278923,1,8,0:0:0:0:
294,131,278981,1,0,0:0:0:0:
245,128,279039,1,8,0:0:0:0:
196,116,279096,1,0,0:0:0:0:
148,104,279154,1,8,0:0:0:0:
98,102,279212,1,0,0:0:0:0:
49,110,279269,1,8,0:0:0:0:
1,126,279329,70,0,L|48:196,3,50,2|8|0|8,0:0|0:0|0:0|0:0,0:0:0:0:
257,215,279559,2,0,L|219:281,3,50,0|8|0|8,0:0|0:0|0:0|0:0,0:0:0:0:
58,286,279789,5,8,0:0:0:0:
105,301,279847,1,8,0:0:0:0:
152,316,279905,1,8,0:0:0:0:
199,332,279963,1,8,0:0:0:0:
210,372,280020,69,0,0:0:0:0:
246,355,280078,1,0,0:0:0:0:
282,339,280136,1,0,0:0:0:0:
318,323,280193,1,0,0:0:0:0:
313,282,280251,22,0,L|454:338,1,150,4|0,0:0|0:0,0:0:0:0:
424,232,280482,54,0,L|503:200,1,62.5,8|0,0:0|0:0,0:0:0:0:
258,157,280597,2,0,L|195:131,1,62.5,8|0,0:0|0:0,0:0:0:0:
311,49,280713,5,8,0:0:0:0:
341,96,280770,1,0,0:0:0:0:
353,151,280828,1,8,0:0:0:0:
344,207,280886,1,0,0:0:0:0:
315,255,280943,1,8,0:0:0:0:
270,291,281001,1,0,0:0:0:0:
216,307,281059,1,8,0:0:0:0:
160,303,281116,1,0,0:0:0:0:
114,275,281174,70,0,L|46:256,1,62.5,8|0,0:0|0:0,0:0:0:0:
215,222,281289,2,0,L|279:239,1,62.5,8|0,0:0|0:0,0:0:0:0:
115,141,281405,2,0,L|47:121,1,62.5,8|0,0:0|0:0,0:0:0:0:
233,85,281520,2,0,L|296:101,1,62.5,8|0,0:0|0:0,0:0:0:0:
58,70,281636,6,0,L|19:121,1,62.5,8|0,0:0|0:0,0:0:0:0:
162,64,281751,2,0,L|199:11,1,62.5,8|0,0:0|0:0,0:0:0:0:
156,193,281866,2,0,L|117:244,1,62.5,8|0,0:0|0:0,0:0:0:0:
260,187,281982,2,0,L|299:132,1,62.5,8|0,0:0|0:0,0:0:0:0:
253,291,282097,69,8,0:0:0:0:
305,311,282154,1,0,0:0:0:0:
361,307,282212,1,8,0:0:0:0:
411,281,282270,1,0,0:0:0:0:
445,235,282327,1,8,0:0:0:0:
458,181,282385,1,0,0:0:0:0:
446,125,282443,1,8,0:0:0:0:
411,80,282500,1,0,0:0:0:0:
360,64,282559,6,0,L|338:4,1,62.5,8|0,0:0|0:0,0:0:0:0:
295,161,282674,2,0,L|272:224,1,62.5,8|0,0:0|0:0,0:0:0:0:
200,70,282789,2,0,L|176:7,1,62.5,8|0,0:0|0:0,0:0:0:0:
134,168,282905,2,0,L|113:231,1,62.5,8|0,0:0|0:0,0:0:0:0:
67,88,283020,69,8,0:0:0:0:
123,80,283077,1,0,0:0:0:0:
176,97,283135,1,8,0:0:0:0:
216,137,283193,1,0,0:0:0:0:
222,194,283251,2,0,L|199:257,1,62.5,8|0,0:0|0:0,0:0:0:0:
369,151,283366,2,0,L|390:91,1,62.5,8|0,0:0|0:0,0:0:0:0:
446,354,283482,6,0,L|369:334,3,62.5,8|8|8|8,0:0|0:0|0:0|0:0,0:0:0:0:
256,278,283713,70,0,L|184:314,3,50,4|4|4|4,0:0|0:0|0:0|0:0,0:0:0:0:
79,371,283943,5,4,0:0:0:0:
65,354,284000,1,0,0:0:0:0:
53,337,284058,1,0,0:0:0:0:
43,318,284116,1,0,0:0:0:0:
36,299,284173,1,0,0:0:0:0:
30,278,284231,1,0,0:0:0:0:
27,257,284289,1,0,0:0:0:0:
26,236,284346,1,0,0:0:0:0:
27,215,284404,1,2,0:0:0:0:
31,195,284462,1,0,0:0:0:0:
37,174,284519,1,0,0:0:0:0:
45,155,284577,1,0,0:0:0:0:
56,137,284635,1,0,0:0:0:0:
68,119,284693,1,0,0:0:0:0:
82,104,284750,1,0,0:0:0:0:
98,90,284808,1,0,0:0:0:0:
115,77,284866,1,10,0:0:0:0:
115,77,285328,69,2,0:0:0:0:
132,94,285385,1,0,0:0:0:0:
150,108,285443,1,0,0:0:0:0:
170,121,285501,1,0,0:0:0:0:
191,131,285558,1,0,0:0:0:0:
213,140,285616,1,0,0:0:0:0:
235,146,285674,1,0,0:0:0:0:
258,150,285731,1,0,0:0:0:0:
282,152,285789,1,2,0:0:0:0:
305,151,285847,1,0,0:0:0:0:
328,148,285904,1,0,0:0:0:0:
351,143,285962,1,0,0:0:0:0:
373,135,286020,1,0,0:0:0:0:
395,126,286078,1,0,0:0:0:0:
415,114,286135,1,0,0:0:0:0:
434,101,286193,1,0,0:0:0:0:
452,85,286251,1,2,0:0:0:0:
452,85,286713,5,10,0:0:0:0:
428,85,286770,1,0,0:0:0:0:
405,87,286828,1,0,0:0:0:0:
382,93,286886,1,0,0:0:0:0:
360,102,286943,1,0,0:0:0:0:
341,114,287001,1,0,0:0:0:0:
323,129,287059,1,0,0:0:0:0:
307,147,287116,1,0,0:0:0:0:
292,165,287174,1,2,0:0:0:0:
278,183,287232,1,0,0:0:0:0:
263,201,287289,1,0,0:0:0:0:
246,218,287347,1,0,0:0:0:0:
229,233,287405,1,0,0:0:0:0:
209,247,287463,1,0,0:0:0:0:
189,258,287520,1,0,0:0:0:0:
167,266,287578,1,0,0:0:0:0:
144,272,287636,1,2,0:0:0:0:
144,272,288097,69,2,0:0:0:0:
161,288,288154,1,0,0:0:0:0:
182,299,288212,1,0,0:0:0:0:
205,304,288270,1,0,0:0:0:0:
228,303,288327,1,0,0:0:0:0:
251,297,288385,1,0,0:0:0:0:
271,285,288443,1,0,0:0:0:0:
287,268,288500,1,0,0:0:0:0:
296,245,288559,5,10,0:0:0:0:
283,227,288616,1,0,0:0:0:0:
270,210,288674,1,0,0:0:0:0:
257,193,288732,1,0,0:0:0:0:
245,176,288789,1,0,0:0:0:0:
232,158,288847,1,0,0:0:0:0:
219,141,288905,1,0,0:0:0:0:
206,124,288962,1,0,0:0:0:0:
199,108,289020,22,0,L|161:200,1,75.0000028610231
24,235,289251,2,0,L|52:165,1,75.0000028610231
89,29,289481,37,2,0:0:0:0:
108,37,289538,1,0,0:0:0:0:
128,44,289596,1,0,0:0:0:0:
148,49,289654,1,0,0:0:0:0:
169,51,289711,1,0,0:0:0:0:
190,49,289769,1,0,0:0:0:0:
211,46,289827,1,0,0:0:0:0:
231,41,289884,1,0,0:0:0:0:
252,37,289942,1,2,0:0:0:0:
273,34,290000,1,0,0:0:0:0:
294,33,290057,1,0,0:0:0:0:
315,33,290115,1,0,0:0:0:0:
336,34,290173,1,0,0:0:0:0:
357,36,290231,1,0,0:0:0:0:
378,40,290288,1,0,0:0:0:0:
399,44,290346,1,0,0:0:0:0:
419,48,290404,1,10,0:0:0:0:
419,48,290866,5,2,0:0:0:0:
424,65,290923,1,0,0:0:0:0:
429,83,290981,1,0,0:0:0:0:
432,102,291039,1,0,0:0:0:0:
433,121,291096,1,0,0:0:0:0:
431,139,291154,1,0,0:0:0:0:
427,158,291212,1,0,0:0:0:0:
421,175,291269,1,0,0:0:0:0:
414,193,291327,1,2,0:0:0:0:
406,210,291385,1,0,0:0:0:0:
400,227,291442,1,0,0:0:0:0:
396,246,291500,1,0,0:0:0:0:
396,265,291558,1,0,0:0:0:0:
398,283,291616,1,0,0:0:0:0:
403,301,291673,1,0,0:0:0:0:
409,319,291731,1,0,0:0:0:0:
417,336,291789,1,2,0:0:0:0:
417,336,292251,69,10,0:0:0:0:
399,320,292308,1,0,0:0:0:0:
380,306,292366,1,0,0:0:0:0:
359,296,292424,1,0,0:0:0:0:
336,299,292481,1,0,0:0:0:0:
317,312,292539,1,0,0:0:0:0:
297,325,292597,1,0,0:0:0:0:
276,333,292654,1,0,0:0:0:0:
252,335,292712,1,2,0:0:0:0:
230,328,292770,1,0,0:0:0:0:
211,314,292827,1,0,0:0:0:0:
194,299,292885,1,0,0:0:0:0:
174,286,292943,1,0,0:0:0:0:
151,282,293001,1,0,0:0:0:0:
129,288,293058,1,0,0:0:0:0:
110,302,293116,1,0,0:0:0:0:
94,319,293174,1,2,0:0:0:0:
94,319,293636,5,2,0:0:0:0:
76,303,293693,1,0,0:0:0:0:
63,284,293751,1,0,0:0:0:0:
53,263,293809,1,0,0:0:0:0:
47,240,293866,1,0,0:0:0:0:
46,217,293924,1,0,0:0:0:0:
50,194,293982,1,0,0:0:0:0:
58,172,294039,1,0,0:0:0:0:
71,152,294097,1,2,0:0:0:0:
87,135,294155,1,0,0:0:0:0:
106,122,294212,1,0,0:0:0:0:
128,113,294270,1,0,0:0:0:0:
151,108,294328,1,0,0:0:0:0:
174,108,294386,1,0,0:0:0:0:
197,112,294443,1,0,0:0:0:0:
219,121,294501,1,0,0:0:0:0:
240,136,294559,22,0,P|267:185|269:245,1,100,10|4,0:0|0:0,0:0:0:0:
100,327,295020,5,2,0:0:0:0:
122,344,295096,1,0,0:0:0:0:
147,358,295173,1,0,0:0:0:0:
174,370,295250,1,0,0:0:0:0:
202,378,295327,1,0,0:0:0:0:
231,383,295404,1,0,0:0:0:0:
260,384,295481,1,2,0:0:0:0:
289,382,295558,1,0,0:0:0:0:
318,376,295635,1,0,0:0:0:0:
345,367,295712,1,0,0:0:0:0:
372,354,295789,1,0,0:0:0:0:
397,340,295866,1,0,0:0:0:0:
419,321,295943,1,10,0:0:0:0:
419,321,296405,5,2,0:0:0:0:
388,305,296481,1,0,0:0:0:0:
358,284,296558,1,0,0:0:0:0:
335,259,296635,1,0,0:0:0:0:
316,229,296712,1,0,0:0:0:0:
303,197,296789,1,0,0:0:0:0:
294,162,296866,1,2,0:0:0:0:
281,129,296943,1,0,0:0:0:0:
265,99,297020,1,0,0:0:0:0:
245,71,297097,1,0,0:0:0:0:
221,45,297174,1,0,0:0:0:0:
192,23,297251,1,0,0:0:0:0:
164,4,297328,1,2,0:0:0:0:
164,4,297789,37,10,0:0:0:0:
127,12,297865,1,0,0:0:0:0:
96,31,297942,1,0,0:0:0:0:
73,59,298019,1,0,0:0:0:0:
60,94,298096,1,0,0:0:0:0:
56,130,298173,1,0,0:0:0:0:
63,165,298250,1,2,0:0:0:0:
81,196,298327,1,0,0:0:0:0:
108,223,298404,1,0,0:0:0:0:
140,237,298481,1,0,0:0:0:0:
177,242,298558,1,0,0:0:0:0:
213,237,298635,1,0,0:0:0:0:
246,221,298712,1,2,0:0:0:0:
246,221,299174,37,2,0:0:0:0:
283,219,299250,1,0,0:0:0:0:
318,234,299327,1,0,0:0:0:0:
346,262,299404,1,0,0:0:0:0:
358,298,299481,1,0,0:0:0:0:
357,336,299558,1,0,0:0:0:0:
337,371,299635,37,10,0:0:0:0:
307,360,299712,1,0,0:0:0:0:
277,354,299789,1,0,0:0:0:0:
247,353,299866,1,0,0:0:0:0:
215,355,299943,1,0,0:0:0:0:
186,362,300020,1,0,0:0:0:0:
163,372,300097,6,0,P|130:372|74:345,1,75.0000028610231,8|0,0:0|0:0,0:0:0:0:
12,223,300328,2,0,P|52:211|99:219,1,75.0000028610231
230,272,300559,5,2,0:0:0:0:
256,289,300635,1,0,0:0:0:0:
286,299,300712,1,0,0:0:0:0:
319,300,300789,1,0,0:0:0:0:
350,295,300866,1,0,0:0:0:0:
379,281,300943,1,0,0:0:0:0:
403,260,301020,1,2,0:0:0:0:
421,233,301097,1,0,0:0:0:0:
431,203,301174,1,0,0:0:0:0:
434,171,301251,1,0,0:0:0:0:
429,139,301328,1,0,0:0:0:0:
415,111,301405,1,0,0:0:0:0:
394,86,301482,1,10,0:0:0:0:
394,86,301943,5,2,0:0:0:0:
368,96,302019,1,0,0:0:0:0:
344,110,302096,1,0,0:0:0:0:
322,127,302173,1,0,0:0:0:0:
304,148,302250,1,0,0:0:0:0:
290,172,302327,1,0,0:0:0:0:
280,198,302404,1,2,0:0:0:0:
270,224,302481,1,0,0:0:0:0:
259,249,302558,1,0,0:0:0:0:
245,273,302635,1,0,0:0:0:0:
226,293,302712,1,0,0:0:0:0:
204,311,302789,1,0,0:0:0:0:
180,325,302866,1,2,0:0:0:0:
180,325,303327,37,10,0:0:0:0:
213,341,303404,1,0,0:0:0:0:
249,353,303481,1,0,0:0:0:0:
287,355,303558,1,0,0:0:0:0:
324,350,303635,1,0,0:0:0:0:
359,339,303712,1,0,0:0:0:0:
392,320,303789,1,2,0:0:0:0:
420,295,303866,1,0,0:0:0:0:
441,265,303943,1,0,0:0:0:0:
457,230,304020,1,0,0:0:0:0:
466,194,304097,1,0,0:0:0:0:
466,156,304174,1,0,0:0:0:0:
459,119,304251,1,2,0:0:0:0:
459,119,304713,37,2,0:0:0:0:
423,110,304789,1,0,0:0:0:0:
387,104,304866,1,0,0:0:0:0:
350,103,304943,1,0,0:0:0:0:
314,106,305020,1,0,0:0:0:0:
279,114,305097,1,0,0:0:0:0:
243,123,305174,1,2,0:0:0:0:
208,131,305251,1,0,0:0:0:0:
171,132,305328,1,0,0:0:0:0:
135,127,305405,1,0,0:0:0:0:
100,117,305482,1,0,0:0:0:0:
66,104,305559,1,0,0:0:0:0:
33,89,305636,37,8,0:0:0:0:
191,368,305789,1,8,0:0:0:0:
452,156,305943,1,8,0:0:0:0:
