osu file format v14

[General]
AudioFilename: audio.mp3
AudioLeadIn: 0
PreviewTime: 118320
Countdown: 0
SampleSet: Normal
StackLeniency: 0.3
Mode: 1
LetterboxInBreaks: 0
WidescreenStoryboard: 0

[Editor]
Bookmarks: 22371,37145,44529,47760,48222,103601,118370,125755,144222,156691,162229,191306,209075,210216,225922,228691,239755,247139,257768,261909,263768,269306,272755,272998,276678,280370,306062,306100
DistanceSpacing: 0.1
BeatDivisor: 4
GridSize: 32
TimelineZoom: 5.499997

[Metadata]
Title:Hollow
TitleUnicode:Hollow
Artist:Rivers of Nihil
ArtistUnicode:Rivers of Nihil
Creator:SILENCE PLAYER
Version:Vacuous Existence
Source:osu!
Tags:where english owls know my name featured artist fa mappers guild mpg itswinter death metal progressive jazz deathstream rsi raiden
BeatmapID:2374317
BeatmapSetID:1091806

[Difficulty]
HPDrainRate:3.3
CircleSize:2
OverallDifficulty:7.7
ApproachRate:10
SliderMultiplier:1.4
SliderTickRate:1

[Events]
//Background and Video events
0,0,"summoned_by_aoiogataartist_dadk1ua-fullview_waifu2x_art_noise2_scale_tta_1.png",0,-50
//Break Periods
//Storyboard Layer 0 (Background)
//Storyboard Layer 1 (Fail)
//Storyboard Layer 2 (Pass)
//Storyboard Layer 3 (Foreground)
//Storyboard Layer 4 (Overlay)
//Storyboard Sound Samples

[TimingPoints]
222,230.769230769231,4,1,0,5,1,0
222,-200,4,1,0,5,0,0
4837,-200,4,1,0,10,0,0
6683,-200,4,1,0,15,0,0
7606,-142.857142857143,4,1,0,25,0,0
20760,-142.857142857143,4,1,0,40,0,0
22375,-100,4,1,0,75,0,0
50991,-100,4,1,0,75,0,0
51222,-107.142895408177,4,1,0,75,0,0
51279,-109.090869421502,4,1,0,75,0,0
51337,-111.111111111111,4,1,0,75,0,0
51395,-113.207589889657,4,1,0,75,0,0
51452,-115.384571005934,4,1,0,75,0,0
51683,-125,4,1,0,75,0,0
51914,230.769230769231,6,1,0,70,1,8
51914,-125,6,1,0,70,0,0
51917,230.769230769231,6,1,0,70,1,0
51917,-125,6,1,0,70,0,0
73147,-125,6,1,0,70,0,0
73263,-121.212121212121,6,1,0,70,0,0
73378,-117.647058823529,6,1,0,70,0,0
73493,-114.285714285714,6,1,0,70,0,0
73609,-111.111111111111,6,1,0,70,0,0
73724,-108.108108108108,6,1,0,70,0,0
73840,-105.263157894737,6,1,0,70,0,0
73955,-102.564102564103,6,1,0,70,0,0
74070,230.769230769231,4,1,0,60,1,0
74070,-100,6,1,0,70,0,0
117454,-100,6,1,0,70,0,0
117531,-99.173586503665,6,1,0,70,0,0
117608,-98.3606234883202,6,1,0,70,0,0
117685,-97.5609756097561,6,1,0,70,0,0
117762,-96.774224765879,6,1,0,70,0,0
117839,-95.9999692800098,6,1,0,70,0,0
117916,-95.2380952380952,6,1,0,70,0,0
117993,-94.4882187364469,6,1,0,70,0,0
118070,-93.7499707031342,6,1,0,70,0,0
118146,-93.0232558139535,6,1,0,70,0,0
118223,-92.3077207100679,6,1,0,70,0,0
118300,-91.6030254647251,6,1,0,70,0,0
118377,-90.9090909090909,6,1,0,70,0,1
124839,-90.9090909090909,6,1,0,70,0,1
124896,-91.4285714285714,6,1,0,70,0,1
124954,-91.9540229885058,6,1,0,70,0,1
125012,-92.485549132948,6,1,0,70,0,1
125070,-93.0232558139535,6,1,0,70,0,1
125127,-93.5672514619883,6,1,0,70,0,1
125185,-94.1176470588235,6,1,0,70,0,1
125243,-94.6745562130178,6,1,0,70,0,1
125300,-95.2380952380952,6,1,0,70,0,1
125358,-95.8083832335329,6,1,0,70,0,1
125416,-96.3855421686747,6,1,0,70,0,1
125473,-96.969696969697,6,1,0,70,0,1
125531,-97.5609756097561,6,1,0,70,0,1
125589,-98.159509202454,6,1,0,70,0,1
125646,-98.7654320987654,6,1,0,70,0,1
125704,-99.3788819875776,6,1,0,70,0,1
125762,-100,6,1,0,70,0,1
133146,230.769230769231,6,1,0,80,1,0
153915,230.769230769231,6,1,0,80,1,8
153922,230.769230769231,4,1,0,80,1,0
180691,-100,4,1,0,80,0,1
195460,-100,4,1,0,80,0,0
238845,-99.236641221374,4,1,0,80,0,0
238921,-98.4848484848485,4,1,0,80,0,0
238998,-97.7443609022557,4,1,0,80,0,0
239075,-97.0149253731343,4,1,0,80,0,0
239152,-96.2962962962963,4,1,0,80,0,0
239229,-95.5882352941176,4,1,0,80,0,0
239306,-94.8905109489051,4,1,0,80,0,0
239383,-94.2028985507246,4,1,0,80,0,0
239460,-93.5251798561151,4,1,0,80,0,0
239537,-92.8571428571428,4,1,0,80,0,0
239614,-92.1985815602837,4,1,0,80,0,0
239691,-91.5492957746479,4,1,0,80,0,0
239768,-90.9090909090909,4,1,0,80,0,1
246229,-90.9090909090909,4,1,0,80,0,1
246287,-91.4285714285714,4,1,0,80,0,1
246345,-91.9540229885058,4,1,0,80,0,1
246402,-92.485549132948,4,1,0,80,0,1
246460,-93.0232558139535,4,1,0,80,0,1
246518,-93.5672514619883,4,1,0,80,0,1
246575,-94.1176470588235,4,1,0,80,0,1
246633,-94.6745562130178,4,1,0,80,0,1
246691,-95.2380952380952,4,1,0,80,0,1
246748,-95.8083832335329,4,1,0,80,0,1
246806,-96.3855421686747,4,1,0,80,0,1
246864,-96.969696969697,4,1,0,80,0,1
246922,-97.5609756097561,4,1,0,80,0,1
246979,-98.159509202454,4,1,0,80,0,1
247037,-98.7654320987654,4,1,0,80,0,1
247095,-99.3788819875776,4,1,0,80,0,1
247152,-100,4,1,0,80,0,1
254537,-100,4,1,0,80,0,0
276922,-100,4,1,0,80,0,1
280614,-90.9090909090909,4,1,0,90,0,1
283152,-90.9090909090909,4,1,0,90,0,1
283210,-91.4232218640464,4,1,0,90,0,1
283268,-91.9431166326017,4,1,0,90,0,1
283325,-92.4690436759034,4,1,0,90,0,1
283383,-93.000935589412,4,1,0,90,0,1
283441,-93.5390693985064,4,1,0,90,0,1
283498,-94.0833785717579,4,1,0,90,0,1
283556,-94.6341491112434,4,1,0,90,0,1
283614,-95.1914061198555,4,1,0,90,0,1
283672,-95.7551731732307,4,1,0,90,0,1
283729,-96.3257505702484,4,1,0,90,0,1
283787,-96.9030746376552,4,1,0,90,0,1
283845,-97.4874558016247,4,1,0,90,0,1
283902,-98.0788318418812,4,1,0,90,0,1
283960,-98.6775238256881,4,1,0,90,0,1
284018,-99.2835697606075,4,1,0,90,0,1
284075,230.769230769231,4,1,0,90,1,8
284075,-99.948526508848,4,1,0,90,0,0
284080,230.769230769231,6,1,0,80,1,0
284080,-99.948526508848,4,1,0,80,0,0
305733,-90.9090909090909,4,1,0,80,0,0
305849,-83.3333333333333,4,1,0,80,0,0
306003,-76.9230769230769,4,1,0,80,0,0

[Colours]
Combo1 : 130,128,148
Combo2 : 208,145,171
Combo3 : 129,123,171

[HitObjects]
256,192,683,12,0,7375,0:0:0:0:
256,192,7606,5,0,0:0:0:0:
256,192,8068,5,0,0:0:0:0:
256,192,8298,5,8,0:0:0:0:
256,192,8529,5,0,0:0:0:0:
256,192,8760,5,8,0:0:0:0:
256,192,8991,5,0,0:0:0:0:
256,192,9222,5,8,0:0:0:0:
256,192,9452,5,0,0:0:0:0:
256,192,9683,5,8,0:0:0:0:
256,192,9914,5,0,0:0:0:0:
256,192,10145,5,8,0:0:0:0:
256,192,10375,5,8,0:0:0:0:
256,192,10606,5,0,0:0:0:0:
256,192,10837,5,8,0:0:0:0:
256,192,11298,5,8,0:0:0:0:
256,192,11760,5,0,0:0:0:0:
256,192,11991,5,8,0:0:0:0:
256,192,12222,5,0,0:0:0:0:
256,192,12452,5,8,0:0:0:0:
256,192,12683,5,0,0:0:0:0:
256,192,12914,5,8,0:0:0:0:
256,192,13145,5,0,0:0:0:0:
256,192,13375,5,0,0:0:0:0:
256,192,13606,5,8,0:0:0:0:
256,192,13837,5,0,0:0:0:0:
256,192,14068,5,8,0:0:0:0:
256,192,14298,5,8,0:0:0:0:
256,192,14529,5,0,0:0:0:0:
256,192,14991,5,8,0:0:0:0:
256,192,15452,5,8,0:0:0:0:
256,192,15683,5,8,0:0:0:0:
256,192,15914,5,0,0:0:0:0:
256,192,16145,5,8,0:0:0:0:
256,192,16375,5,0,0:0:0:0:
256,192,16606,5,8,0:0:0:0:
256,192,16837,5,0,0:0:0:0:
256,192,17068,5,8,0:0:0:0:
256,192,17298,5,0,0:0:0:0:
256,192,17529,5,8,0:0:0:0:
256,192,17760,5,8,0:0:0:0:
256,192,17991,5,8,0:0:0:0:
256,192,18222,5,0,0:0:0:0:
256,192,18683,5,8,0:0:0:0:
256,192,19145,5,8,0:0:0:0:
256,192,19375,5,8,0:0:0:0:
256,192,19606,5,0,0:0:0:0:
256,192,19837,5,8,0:0:0:0:
256,192,20068,5,0,0:0:0:0:
256,192,20298,5,8,0:0:0:0:
256,192,20529,5,0,0:0:0:0:
256,192,20760,12,0,22145,0:0:0:0:
256,192,22375,5,0,0:0:0:0:
256,192,22452,5,0,0:0:0:0:
256,192,22529,5,0,0:0:0:0:
256,192,22606,5,0,0:0:0:0:
256,192,22683,5,0,0:0:0:0:
256,192,22760,5,0,0:0:0:0:
256,192,22837,5,8,0:0:0:0:
256,192,22914,5,0,0:0:0:0:
256,192,22991,5,0,0:0:0:0:
256,192,23068,5,8,0:0:0:0:
256,192,23145,5,8,0:0:0:0:
256,192,23222,5,0,0:0:0:0:
256,192,23298,5,8,0:0:0:0:
256,192,23375,5,8,0:0:0:0:
256,192,23452,5,8,0:0:0:0:
256,192,23529,5,0,0:0:0:0:
256,192,23606,5,0,0:0:0:0:
256,192,23683,5,0,0:0:0:0:
256,192,23760,5,8,0:0:0:0:
256,192,23837,5,0,0:0:0:0:
256,192,23914,5,0,0:0:0:0:
256,192,23991,5,8,0:0:0:0:
256,192,24068,5,0,0:0:0:0:
256,192,24145,5,0,0:0:0:0:
256,192,24222,5,8,0:0:0:0:
256,192,24298,5,8,0:0:0:0:
256,192,24375,5,0,0:0:0:0:
256,192,24452,5,8,0:0:0:0:
256,192,24529,5,8,0:0:0:0:
256,192,24606,5,8,0:0:0:0:
256,192,24683,5,0,0:0:0:0:
256,192,24760,5,0,0:0:0:0:
256,192,24837,5,0,0:0:0:0:
256,192,24914,5,0,0:0:0:0:
256,192,24991,5,0,0:0:0:0:
256,192,25068,5,0,0:0:0:0:
256,192,25145,5,8,0:0:0:0:
256,192,25222,5,8,0:0:0:0:
256,192,25298,5,0,0:0:0:0:
256,192,25375,5,0,0:0:0:0:
256,192,25452,5,0,0:0:0:0:
256,192,25529,5,0,0:0:0:0:
256,192,25606,5,0,0:0:0:0:
256,192,25683,5,0,0:0:0:0:
256,192,25760,5,0,0:0:0:0:
256,192,25837,5,0,0:0:0:0:
256,192,25914,5,0,0:0:0:0:
256,192,25991,5,0,0:0:0:0:
256,192,26068,5,0,0:0:0:0:
256,192,26145,5,0,0:0:0:0:
256,192,26222,5,0,0:0:0:0:
256,192,26298,5,0,0:0:0:0:
256,192,26375,5,0,0:0:0:0:
256,192,26452,5,0,0:0:0:0:
256,192,26529,5,8,0:0:0:0:
256,192,26606,5,8,0:0:0:0:
256,192,26683,5,0,0:0:0:0:
256,192,26760,5,0,0:0:0:0:
256,192,26837,5,0,0:0:0:0:
256,192,26914,5,0,0:0:0:0:
256,192,26991,5,8,0:0:0:0:
256,192,27068,5,8,0:0:0:0:
256,192,27145,5,8,0:0:0:0:
256,192,27222,5,0,0:0:0:0:
256,192,27298,5,0,0:0:0:0:
256,192,27375,5,0,0:0:0:0:
256,192,27452,5,0,0:0:0:0:
256,192,27529,5,0,0:0:0:0:
256,192,27606,5,0,0:0:0:0:
256,192,27683,5,8,0:0:0:0:
256,192,27760,5,8,0:0:0:0:
256,192,27837,5,0,0:0:0:0:
256,192,27914,5,0,0:0:0:0:
256,192,27991,5,0,0:0:0:0:
256,192,28068,5,0,0:0:0:0:
256,192,28145,5,0,0:0:0:0:
256,192,28222,5,0,0:0:0:0:
256,192,28298,5,0,0:0:0:0:
256,192,28375,5,8,0:0:0:0:
256,192,28452,5,0,0:0:0:0:
256,192,28529,5,0,0:0:0:0:
256,192,28606,5,0,0:0:0:0:
256,192,28683,5,0,0:0:0:0:
256,192,28760,5,0,0:0:0:0:
256,192,28837,5,8,0:0:0:0:
256,192,28914,5,8,0:0:0:0:
256,192,28991,5,0,0:0:0:0:
256,192,29068,5,0,0:0:0:0:
256,192,29145,5,0,0:0:0:0:
256,192,29222,5,0,0:0:0:0:
256,192,29298,5,8,0:0:0:0:
256,192,29356,5,8,0:0:0:0:
256,192,29414,5,8,0:0:0:0:
256,192,29472,5,8,0:0:0:0:
256,192,29529,5,0,0:0:0:0:
256,192,29587,5,0,0:0:0:0:
256,192,29645,5,0,0:0:0:0:
256,192,29702,5,0,0:0:0:0:
256,192,29760,5,8,0:0:0:0:
256,192,29837,5,8,0:0:0:0:
256,192,29914,5,0,0:0:0:0:
256,192,29991,5,0,0:0:0:0:
256,192,30068,5,0,0:0:0:0:
256,192,30145,5,0,0:0:0:0:
256,192,30222,5,8,0:0:0:0:
256,192,30298,5,8,0:0:0:0:
256,192,30375,5,0,0:0:0:0:
256,192,30452,5,0,0:0:0:0:
256,192,30529,5,0,0:0:0:0:
256,192,30606,5,0,0:0:0:0:
256,192,30683,5,8,0:0:0:0:
256,192,30760,5,8,0:0:0:0:
256,192,30837,5,8,0:0:0:0:
256,192,30914,5,0,0:0:0:0:
256,192,30991,5,0,0:0:0:0:
256,192,31068,5,0,0:0:0:0:
256,192,31145,5,8,0:0:0:0:
256,192,31222,5,0,0:0:0:0:
256,192,31298,5,0,0:0:0:0:
256,192,31375,5,8,0:0:0:0:
256,192,31452,5,0,0:0:0:0:
256,192,31529,5,0,0:0:0:0:
256,192,31606,5,0,0:0:0:0:
256,192,31683,5,0,0:0:0:0:
256,192,31760,5,0,0:0:0:0:
256,192,31837,5,0,0:0:0:0:
256,192,31914,5,0,0:0:0:0:
256,192,31991,5,0,0:0:0:0:
256,192,32068,5,8,0:0:0:0:
256,192,32145,5,8,0:0:0:0:
256,192,32222,5,0,0:0:0:0:
256,192,32298,5,0,0:0:0:0:
256,192,32375,5,0,0:0:0:0:
256,192,32452,5,0,0:0:0:0:
256,192,32529,5,8,0:0:0:0:
256,192,32606,5,0,0:0:0:0:
256,192,32683,5,0,0:0:0:0:
256,192,32760,5,0,0:0:0:0:
256,192,32837,5,0,0:0:0:0:
256,192,32914,5,0,0:0:0:0:
256,192,32991,5,8,0:0:0:0:
256,192,33068,5,8,0:0:0:0:
256,192,33145,5,8,0:0:0:0:
256,192,33222,5,8,0:0:0:0:
256,192,33298,5,0,0:0:0:0:
256,192,33375,5,0,0:0:0:0:
256,192,33452,5,0,0:0:0:0:
256,192,33529,5,0,0:0:0:0:
256,192,33606,5,0,0:0:0:0:
256,192,33683,5,0,0:0:0:0:
256,192,33760,5,0,0:0:0:0:
256,192,33837,5,0,0:0:0:0:
256,192,33914,5,0,0:0:0:0:
256,192,33991,5,0,0:0:0:0:
256,192,34068,5,0,0:0:0:0:
256,192,34145,5,0,0:0:0:0:
256,192,34222,5,0,0:0:0:0:
256,192,34298,5,0,0:0:0:0:
256,192,34375,5,8,0:0:0:0:
256,192,34452,5,8,0:0:0:0:
256,192,34529,5,0,0:0:0:0:
256,192,34606,5,0,0:0:0:0:
256,192,34683,5,8,0:0:0:0:
256,192,34760,5,8,0:0:0:0:
256,192,34837,5,0,0:0:0:0:
256,192,34914,5,0,0:0:0:0:
256,192,34991,5,0,0:0:0:0:
256,192,35068,5,0,0:0:0:0:
256,192,35145,5,8,0:0:0:0:
256,192,35222,5,8,0:0:0:0:
256,192,35298,5,0,0:0:0:0:
256,192,35356,5,0,0:0:0:0:
256,192,35414,5,0,0:0:0:0:
256,192,35472,5,0,0:0:0:0:
256,192,35529,5,0,0:0:0:0:
256,192,35587,5,0,0:0:0:0:
256,192,35645,5,8,0:0:0:0:
256,192,35702,5,8,0:0:0:0:
256,192,35760,5,0,0:0:0:0:
256,192,35818,5,0,0:0:0:0:
256,192,35875,5,0,0:0:0:0:
256,192,35933,5,0,0:0:0:0:
256,192,35991,5,0,0:0:0:0:
256,192,36048,5,0,0:0:0:0:
256,192,36106,5,8,0:0:0:0:
256,192,36164,5,8,0:0:0:0:
256,192,36222,5,0,0:0:0:0:
256,192,36279,5,0,0:0:0:0:
256,192,36337,5,8,0:0:0:0:
256,192,36395,5,8,0:0:0:0:
256,192,36452,5,8,0:0:0:0:
256,192,36510,5,8,0:0:0:0:
256,192,36568,5,0,0:0:0:0:
256,192,36625,5,0,0:0:0:0:
256,192,36683,5,8,0:0:0:0:
256,192,36798,5,0,0:0:0:0:
256,192,36856,5,0,0:0:0:0:
256,192,36914,5,8,0:0:0:0:
256,192,37029,5,8,0:0:0:0:
256,192,37145,5,4,0:0:0:0:
256,192,37260,5,0,0:0:0:0:
256,192,37375,5,0,0:0:0:0:
256,192,37491,5,0,0:0:0:0:
256,192,37606,5,8,0:0:0:0:
256,192,37722,5,0,0:0:0:0:
256,192,37837,5,0,0:0:0:0:
256,192,37952,5,0,0:0:0:0:
256,192,38068,5,8,0:0:0:0:
256,192,38183,5,8,0:0:0:0:
256,192,38298,5,0,0:0:0:0:
256,192,38414,5,0,0:0:0:0:
256,192,38529,5,8,0:0:0:0:
256,192,38645,5,0,0:0:0:0:
256,192,38760,5,0,0:0:0:0:
256,192,38818,5,0,0:0:0:0:
256,192,38875,5,0,0:0:0:0:
256,192,38933,5,0,0:0:0:0:
256,192,38991,5,0,0:0:0:0:
256,192,39106,5,0,0:0:0:0:
256,192,39222,5,8,0:0:0:0:
256,192,39337,5,0,0:0:0:0:
256,192,39452,5,8,0:0:0:0:
256,192,39568,5,0,0:0:0:0:
256,192,39683,5,0,0:0:0:0:
256,192,39741,5,0,0:0:0:0:
256,192,39798,5,0,0:0:0:0:
256,192,39856,5,0,0:0:0:0:
256,192,39914,5,8,0:0:0:0:
256,192,40029,5,0,0:0:0:0:
256,192,40145,5,0,0:0:0:0:
256,192,40260,5,0,0:0:0:0:
256,192,40375,5,8,0:0:0:0:
256,192,40491,5,0,0:0:0:0:
256,192,40606,5,8,0:0:0:0:
256,192,40722,5,8,0:0:0:0:
256,192,40837,5,0,0:0:0:0:
256,192,40952,5,0,0:0:0:0:
256,192,41068,5,0,0:0:0:0:
256,192,41183,5,0,0:0:0:0:
256,192,41298,5,8,0:0:0:0:
256,192,41414,5,0,0:0:0:0:
256,192,41529,5,8,0:0:0:0:
256,192,41587,5,0,0:0:0:0:
256,192,41645,5,0,0:0:0:0:
256,192,41702,5,0,0:0:0:0:
256,192,41760,5,8,0:0:0:0:
256,192,41875,5,0,0:0:0:0:
256,192,41991,5,8,0:0:0:0:
256,192,42106,5,0,0:0:0:0:
256,192,42222,5,8,0:0:0:0:
256,192,42337,5,0,0:0:0:0:
256,192,42452,5,8,0:0:0:0:
256,192,42568,5,8,0:0:0:0:
256,192,42683,5,0,0:0:0:0:
256,192,42798,5,0,0:0:0:0:
256,192,42914,5,0,0:0:0:0:
256,192,43029,5,0,0:0:0:0:
256,192,43145,5,8,0:0:0:0:
256,192,43260,5,8,0:0:0:0:
256,192,43375,5,0,0:0:0:0:
256,192,43433,5,0,0:0:0:0:
256,192,43491,5,0,0:0:0:0:
256,192,43548,5,0,0:0:0:0:
256,192,43606,5,8,0:0:0:0:
256,192,43722,5,0,0:0:0:0:
256,192,43837,5,0,0:0:0:0:
256,192,43952,5,0,0:0:0:0:
256,192,44068,5,8,0:0:0:0:
256,192,44183,5,0,0:0:0:0:
256,192,44298,5,8,0:0:0:0:
256,192,44414,5,8,0:0:0:0:
256,192,44529,5,0,0:0:0:0:
256,192,44606,5,0,0:0:0:0:
256,192,44683,5,0,0:0:0:0:
256,192,44760,5,0,0:0:0:0:
256,192,44837,5,0,0:0:0:0:
256,192,44914,5,0,0:0:0:0:
256,192,44991,5,8,0:0:0:0:
256,192,45068,5,8,0:0:0:0:
256,192,45145,5,0,0:0:0:0:
256,192,45222,5,0,0:0:0:0:
256,192,45298,5,0,0:0:0:0:
256,192,45375,5,0,0:0:0:0:
256,192,45452,5,8,0:0:0:0:
256,192,45529,5,8,0:0:0:0:
256,192,45606,5,0,0:0:0:0:
256,192,45683,5,0,0:0:0:0:
256,192,45760,5,0,0:0:0:0:
256,192,45837,5,0,0:0:0:0:
256,192,45914,5,0,0:0:0:0:
256,192,45991,5,0,0:0:0:0:
256,192,46068,5,0,0:0:0:0:
256,192,46145,5,0,0:0:0:0:
256,192,46222,5,0,0:0:0:0:
256,192,46298,5,0,0:0:0:0:
256,192,46375,5,8,0:0:0:0:
256,192,46452,5,0,0:0:0:0:
256,192,46529,5,0,0:0:0:0:
256,192,46606,5,8,0:0:0:0:
256,192,46683,5,8,0:0:0:0:
256,192,46760,5,0,0:0:0:0:
256,192,46837,5,0,0:0:0:0:
256,192,46914,5,0,0:0:0:0:
256,192,46991,5,0,0:0:0:0:
256,192,47068,5,8,0:0:0:0:
256,192,47145,5,0,0:0:0:0:
256,192,47222,5,0,0:0:0:0:
256,192,47298,5,8,0:0:0:0:
256,192,47375,5,8,0:0:0:0:
256,192,47452,5,0,0:0:0:0:
256,192,47529,5,8,0:0:0:0:
256,192,47606,5,0,0:0:0:0:
256,192,47683,5,0,0:0:0:0:
256,192,47760,5,8,0:0:0:0:
256,192,47818,5,8,0:0:0:0:
256,192,47875,5,8,0:0:0:0:
256,192,47933,5,8,0:0:0:0:
256,192,47991,5,0,0:0:0:0:
256,192,48048,5,0,0:0:0:0:
256,192,48106,5,0,0:0:0:0:
256,192,48222,5,4,0:0:0:0:
256,192,48452,5,4,0:0:0:0:
256,192,48914,5,0,0:0:0:0:
256,192,49145,5,8,0:0:0:0:
256,192,49375,5,0,0:0:0:0:
256,192,49606,5,8,0:0:0:0:
256,192,49837,5,0,0:0:0:0:
256,192,50068,5,0,0:0:0:0:
256,192,50298,5,0,0:0:0:0:
256,192,50760,5,0,0:0:0:0:
256,192,50991,5,8,0:0:0:0:
256,192,51222,5,0,0:0:0:0:
256,192,51279,5,0,0:0:0:0:
256,192,51337,5,0,0:0:0:0:
256,192,51395,5,0,0:0:0:0:
256,192,51452,5,8,0:0:0:0:
256,192,51683,5,0,0:0:0:0:
256,192,51917,5,12,0:0:0:0:
256,192,52147,5,8,0:0:0:0:
256,192,52378,5,0,0:0:0:0:
256,192,52609,5,0,0:0:0:0:
256,192,52840,5,8,0:0:0:0:
256,192,53301,5,0,0:0:0:0:
256,192,53532,5,8,0:0:0:0:
256,192,53763,5,0,0:0:0:0:
256,192,53993,5,0,0:0:0:0:
256,192,54224,5,8,0:0:0:0:
256,192,54686,5,8,0:0:0:0:
256,192,54917,5,8,0:0:0:0:
256,192,55147,5,0,0:0:0:0:
256,192,55378,5,8,0:0:0:0:
256,192,56070,5,8,0:0:0:0:
256,192,56301,5,0,0:0:0:0:
256,192,56532,5,8,0:0:0:0:
256,192,56763,5,8,0:0:0:0:
256,192,56993,5,0,0:0:0:0:
256,192,57224,5,0,0:0:0:0:
256,192,57455,5,8,0:0:0:0:
256,192,57686,5,0,0:0:0:0:
256,192,57917,5,0,0:0:0:0:
256,192,58147,5,0,0:0:0:0:
256,192,58378,5,8,0:0:0:0:
256,192,58840,5,0,0:0:0:0:
256,192,59070,5,8,0:0:0:0:
256,192,59301,5,0,0:0:0:0:
256,192,59532,5,0,0:0:0:0:
256,192,59993,5,0,0:0:0:0:
256,192,60051,5,0,0:0:0:0:
256,192,60109,5,0,0:0:0:0:
256,192,60167,5,0,0:0:0:0:
256,192,60224,5,8,0:0:0:0:
256,192,60455,5,8,0:0:0:0:
256,192,60686,5,8,0:0:0:0:
256,192,60917,5,0,0:0:0:0:
256,192,61609,5,8,0:0:0:0:
256,192,61840,5,8,0:0:0:0:
256,192,62070,5,8,0:0:0:0:
256,192,62301,5,0,0:0:0:0:
256,192,62532,5,8,0:0:0:0:
256,192,62561,5,8,0:0:0:0:
256,192,62763,5,0,0:0:0:0:
256,192,62993,5,4,0:0:0:0:
256,192,63224,5,8,0:0:0:0:
256,192,63455,5,0,0:0:0:0:
256,192,63686,5,0,0:0:0:0:
256,192,63917,5,8,0:0:0:0:
256,192,64378,5,8,0:0:0:0:
256,192,64609,5,8,0:0:0:0:
256,192,64840,5,0,0:0:0:0:
256,192,65070,5,0,0:0:0:0:
256,192,65763,5,8,0:0:0:0:
256,192,65993,5,0,0:0:0:0:
256,192,66224,5,0,0:0:0:0:
256,192,66455,5,0,0:0:0:0:
256,192,67147,5,0,0:0:0:0:
256,192,67378,5,0,0:0:0:0:
256,192,67609,5,8,0:0:0:0:
256,192,67840,5,8,0:0:0:0:
256,192,68070,5,0,0:0:0:0:
256,192,68301,5,0,0:0:0:0:
256,192,68532,5,8,0:0:0:0:
256,192,68763,5,8,0:0:0:0:
256,192,68993,5,8,0:0:0:0:
256,192,69224,5,0,0:0:0:0:
256,192,69455,5,8,0:0:0:0:
256,192,69917,5,0,0:0:0:0:
256,192,70147,5,8,0:0:0:0:
256,192,70378,5,0,0:0:0:0:
256,192,70609,5,8,0:0:0:0:
256,192,71070,5,0,0:0:0:0:
256,192,71128,5,0,0:0:0:0:
256,192,71186,5,0,0:0:0:0:
256,192,71243,5,0,0:0:0:0:
256,192,71301,5,8,0:0:0:0:
256,192,71532,5,8,0:0:0:0:
256,192,71763,5,0,0:0:0:0:
256,192,71993,5,8,0:0:0:0:
256,192,72686,5,8,0:0:0:0:
256,192,72917,5,0,0:0:0:0:
256,192,73147,5,8,0:0:0:0:
256,192,73263,5,8,0:0:0:0:
256,192,73378,5,0,0:0:0:0:
256,192,73493,5,0,0:0:0:0:
256,192,73609,5,8,0:0:0:0:
256,192,73724,5,8,0:0:0:0:
256,192,73840,5,0,0:0:0:0:
256,192,73955,5,0,0:0:0:0:
256,192,74070,5,8,0:0:0:0:
256,192,74185,5,8,0:0:0:0:
256,192,74300,5,0,0:0:0:0:
256,192,74416,5,0,0:0:0:0:
256,192,74531,5,0,0:0:0:0:
256,192,74646,5,0,0:0:0:0:
256,192,74762,5,8,0:0:0:0:
256,192,74877,5,0,0:0:0:0:
256,192,74993,5,8,0:0:0:0:
256,192,75108,5,8,0:0:0:0:
256,192,75223,5,0,0:0:0:0:
256,192,75339,5,0,0:0:0:0:
256,192,75454,5,8,0:0:0:0:
256,192,75570,5,0,0:0:0:0:
256,192,75685,5,8,0:0:0:0:
256,192,75800,5,8,0:0:0:0:
256,192,75916,5,0,0:0:0:0:
256,192,76031,5,8,0:0:0:0:
256,192,76146,5,0,0:0:0:0:
256,192,76262,5,0,0:0:0:0:
256,192,76377,5,8,0:0:0:0:
256,192,76493,5,8,0:0:0:0:
256,192,76608,5,0,0:0:0:0:
256,192,76723,5,8,0:0:0:0:
256,192,76839,5,8,0:0:0:0:
256,192,76954,5,0,0:0:0:0:
256,192,77070,5,8,0:0:0:0:
256,192,77185,5,0,0:0:0:0:
256,192,77300,5,8,0:0:0:0:
256,192,77416,5,0,0:0:0:0:
256,192,77531,5,8,0:0:0:0:
256,192,77646,5,8,0:0:0:0:
256,192,77762,5,0,0:0:0:0:
256,192,77877,5,8,0:0:0:0:
256,192,77993,5,8,0:0:0:0:
256,192,78108,5,0,0:0:0:0:
256,192,78223,5,8,0:0:0:0:
256,192,78339,5,8,0:0:0:0:
256,192,78454,5,0,0:0:0:0:
256,192,78570,5,0,0:0:0:0:
256,192,78685,5,8,0:0:0:0:
256,192,78800,5,0,0:0:0:0:
256,192,78916,5,8,0:0:0:0:
256,192,79031,5,8,0:0:0:0:
256,192,79146,5,0,0:0:0:0:
256,192,79262,5,0,0:0:0:0:
256,192,79377,5,0,0:0:0:0:
256,192,79493,5,0,0:0:0:0:
256,192,79608,5,8,0:0:0:0:
256,192,79723,5,8,0:0:0:0:
256,192,79839,5,0,0:0:0:0:
256,192,79954,5,0,0:0:0:0:
256,192,80070,5,8,0:0:0:0:
256,192,80185,5,0,0:0:0:0:
256,192,80300,5,8,0:0:0:0:
256,192,80416,5,8,0:0:0:0:
256,192,80531,5,8,0:0:0:0:
256,192,80646,5,0,0:0:0:0:
256,192,80762,5,8,0:0:0:0:
256,192,80877,5,8,0:0:0:0:
256,192,80993,5,0,0:0:0:0:
256,192,81108,5,0,0:0:0:0:
256,192,81223,5,8,0:0:0:0:
256,192,81339,5,0,0:0:0:0:
256,192,81454,5,0,0:0:0:0:
256,192,81570,5,8,0:0:0:0:
256,192,81685,5,8,0:0:0:0:
256,192,81800,5,8,0:0:0:0:
256,192,81916,5,0,0:0:0:0:
256,192,82031,5,8,0:0:0:0:
256,192,82146,5,0,0:0:0:0:
256,192,82262,5,0,0:0:0:0:
256,192,82377,5,8,0:0:0:0:
256,192,82493,5,8,0:0:0:0:
256,192,82608,5,0,0:0:0:0:
256,192,82723,5,0,0:0:0:0:
256,192,82839,5,8,0:0:0:0:
256,192,82954,5,8,0:0:0:0:
256,192,83070,5,0,0:0:0:0:
256,192,83185,5,8,0:0:0:0:
256,192,83300,5,0,0:0:0:0:
256,192,83416,5,0,0:0:0:0:
256,192,83531,5,8,0:0:0:0:
256,192,83646,5,8,0:0:0:0:
256,192,83762,5,8,0:0:0:0:
256,192,83877,5,0,0:0:0:0:
256,192,83993,5,0,0:0:0:0:
256,192,84108,5,0,0:0:0:0:
256,192,84223,5,8,0:0:0:0:
256,192,84339,5,0,0:0:0:0:
256,192,84454,5,8,0:0:0:0:
256,192,84570,5,0,0:0:0:0:
256,192,84685,5,8,0:0:0:0:
256,192,84800,5,0,0:0:0:0:
256,192,84916,5,8,0:0:0:0:
256,192,85031,5,8,0:0:0:0:
256,192,85146,5,0,0:0:0:0:
256,192,85262,5,8,0:0:0:0:
256,192,85377,5,8,0:0:0:0:
256,192,85493,5,8,0:0:0:0:
256,192,85608,5,0,0:0:0:0:
256,192,85723,5,8,0:0:0:0:
256,192,85839,5,8,0:0:0:0:
256,192,85954,5,0,0:0:0:0:
256,192,86070,5,8,0:0:0:0:
256,192,86185,5,0,0:0:0:0:
256,192,86300,5,8,0:0:0:0:
256,192,86416,5,8,0:0:0:0:
256,192,86531,5,0,0:0:0:0:
256,192,86646,5,0,0:0:0:0:
256,192,86762,5,0,0:0:0:0:
256,192,86877,5,0,0:0:0:0:
256,192,86993,5,8,0:0:0:0:
256,192,87108,5,0,0:0:0:0:
256,192,87223,5,0,0:0:0:0:
256,192,87339,5,0,0:0:0:0:
256,192,87454,5,8,0:0:0:0:
256,192,87570,5,8,0:0:0:0:
256,192,87685,5,0,0:0:0:0:
256,192,87800,5,0,0:0:0:0:
256,192,87916,5,8,0:0:0:0:
256,192,88031,5,0,0:0:0:0:
256,192,88146,5,8,0:0:0:0:
256,192,88204,5,8,0:0:0:0:
256,192,88262,5,8,0:0:0:0:
256,192,88320,5,8,0:0:0:0:
256,192,88377,5,8,0:0:0:0:
256,192,88493,5,0,0:0:0:0:
256,192,88608,5,8,0:0:0:0:
256,192,88723,5,8,0:0:0:0:
256,192,88839,5,0,0:0:0:0:
256,192,88954,5,0,0:0:0:0:
256,192,89070,5,8,0:0:0:0:
256,192,89185,5,0,0:0:0:0:
256,192,89300,5,8,0:0:0:0:
256,192,89416,5,0,0:0:0:0:
256,192,89531,5,0,0:0:0:0:
256,192,89646,5,0,0:0:0:0:
256,192,89762,5,8,0:0:0:0:
256,192,89877,5,0,0:0:0:0:
256,192,89993,5,8,0:0:0:0:
256,192,90108,5,8,0:0:0:0:
256,192,90223,5,0,0:0:0:0:
256,192,90339,5,0,0:0:0:0:
256,192,90454,5,8,0:0:0:0:
256,192,90570,5,8,0:0:0:0:
256,192,90685,5,0,0:0:0:0:
256,192,90800,5,8,0:0:0:0:
256,192,90916,5,8,0:0:0:0:
256,192,91031,5,8,0:0:0:0:
256,192,91146,5,0,0:0:0:0:
256,192,91262,5,0,0:0:0:0:
256,192,91377,5,8,0:0:0:0:
256,192,91493,5,0,0:0:0:0:
256,192,91608,5,8,0:0:0:0:
256,192,91723,5,0,0:0:0:0:
256,192,91839,5,8,0:0:0:0:
256,192,91954,5,0,0:0:0:0:
256,192,92070,5,8,0:0:0:0:
256,192,92185,5,0,0:0:0:0:
256,192,92300,5,8,0:0:0:0:
256,192,92416,5,8,0:0:0:0:
256,192,92531,5,0,0:0:0:0:
256,192,92646,5,8,0:0:0:0:
256,192,92762,5,8,0:0:0:0:
256,192,92877,5,8,0:0:0:0:
256,192,92993,5,0,0:0:0:0:
256,192,93108,5,8,0:0:0:0:
256,192,93223,5,0,0:0:0:0:
256,192,93339,5,0,0:0:0:0:
256,192,93454,5,8,0:0:0:0:
256,192,93570,5,0,0:0:0:0:
256,192,93685,5,8,0:0:0:0:
256,192,93800,5,8,0:0:0:0:
256,192,93916,5,0,0:0:0:0:
256,192,94031,5,0,0:0:0:0:
256,192,94146,5,0,0:0:0:0:
256,192,94262,5,0,0:0:0:0:
256,192,94377,5,8,0:0:0:0:
256,192,94493,5,0,0:0:0:0:
256,192,94608,5,8,0:0:0:0:
256,192,94723,5,8,0:0:0:0:
256,192,94839,5,0,0:0:0:0:
256,192,94954,5,0,0:0:0:0:
256,192,95070,5,8,0:0:0:0:
256,192,95185,5,8,0:0:0:0:
256,192,95300,5,8,0:0:0:0:
256,192,95416,5,0,0:0:0:0:
256,192,95531,5,8,0:0:0:0:
256,192,95646,5,8,0:0:0:0:
256,192,95762,5,0,0:0:0:0:
256,192,95877,5,0,0:0:0:0:
256,192,95993,5,8,0:0:0:0:
256,192,96108,5,8,0:0:0:0:
256,192,96223,5,0,0:0:0:0:
256,192,96339,5,8,0:0:0:0:
256,192,96454,5,8,0:0:0:0:
256,192,96570,5,0,0:0:0:0:
256,192,96685,5,8,0:0:0:0:
256,192,96800,5,8,0:0:0:0:
256,192,96916,5,0,0:0:0:0:
256,192,97031,5,0,0:0:0:0:
256,192,97146,5,8,0:0:0:0:
256,192,97262,5,0,0:0:0:0:
256,192,97377,5,8,0:0:0:0:
256,192,97493,5,8,0:0:0:0:
256,192,97608,5,0,0:0:0:0:
256,192,97723,5,0,0:0:0:0:
256,192,97839,5,8,0:0:0:0:
256,192,97954,5,8,0:0:0:0:
256,192,98070,5,0,0:0:0:0:
256,192,98185,5,0,0:0:0:0:
256,192,98300,5,0,0:0:0:0:
256,192,98416,5,0,0:0:0:0:
256,192,98531,5,8,0:0:0:0:
256,192,98646,5,0,0:0:0:0:
256,192,98762,5,0,0:0:0:0:
256,192,98877,5,0,0:0:0:0:
256,192,98993,5,8,0:0:0:0:
256,192,99108,5,0,0:0:0:0:
256,192,99223,5,8,0:0:0:0:
256,192,99339,5,0,0:0:0:0:
256,192,99454,5,8,0:0:0:0:
256,192,99570,5,0,0:0:0:0:
256,192,99685,5,8,0:0:0:0:
256,192,99800,5,8,0:0:0:0:
256,192,99916,5,0,0:0:0:0:
256,192,100031,5,8,0:0:0:0:
256,192,100146,5,8,0:0:0:0:
256,192,100262,5,8,0:0:0:0:
256,192,100377,5,0,0:0:0:0:
256,192,100493,5,0,0:0:0:0:
256,192,100608,5,8,0:0:0:0:
256,192,100723,5,0,0:0:0:0:
256,192,100839,5,8,0:0:0:0:
256,192,100954,5,0,0:0:0:0:
256,192,101070,5,8,0:0:0:0:
256,192,101185,5,8,0:0:0:0:
256,192,101300,5,0,0:0:0:0:
256,192,101416,5,8,0:0:0:0:
256,192,101531,5,0,0:0:0:0:
256,192,101646,5,0,0:0:0:0:
256,192,101762,5,0,0:0:0:0:
256,192,101877,5,8,0:0:0:0:
256,192,101993,5,0,0:0:0:0:
256,192,102108,5,0,0:0:0:0:
256,192,102223,5,0,0:0:0:0:
256,192,102339,5,8,0:0:0:0:
256,192,102454,5,0,0:0:0:0:
256,192,102570,5,0,0:0:0:0:
256,192,102685,5,8,0:0:0:0:
256,192,102800,5,0,0:0:0:0:
256,192,102916,5,0,0:0:0:0:
256,192,103031,5,8,0:0:0:0:
256,192,103146,5,8,0:0:0:0:
256,192,103204,5,8,0:0:0:0:
256,192,103262,5,8,0:0:0:0:
256,192,103320,5,8,0:0:0:0:
256,192,103377,5,0,0:0:0:0:
256,192,103435,5,0,0:0:0:0:
256,192,103493,5,0,0:0:0:0:
256,192,103550,5,0,0:0:0:0:
256,192,103608,5,8,0:0:0:0:
256,192,103839,5,0,0:0:0:0:
256,192,104070,5,0,0:0:0:0:
256,192,104300,5,0,0:0:0:0:
256,192,104531,5,8,0:0:0:0:
256,192,104646,5,8,0:0:0:0:
256,192,104704,5,8,0:0:0:0:
256,192,104762,5,0,0:0:0:0:
256,192,104820,5,0,0:0:0:0:
256,192,104877,5,0,0:0:0:0:
256,192,104935,5,0,0:0:0:0:
256,192,104993,5,8,0:0:0:0:
256,192,105050,5,8,0:0:0:0:
256,192,105108,5,0,0:0:0:0:
256,192,105166,5,0,0:0:0:0:
256,192,105223,5,0,0:0:0:0:
256,192,105281,5,0,0:0:0:0:
256,192,105339,5,0,0:0:0:0:
256,192,105396,5,0,0:0:0:0:
256,192,105454,5,0,0:0:0:0:
256,192,105512,5,0,0:0:0:0:
256,192,105570,5,0,0:0:0:0:
256,192,105627,5,0,0:0:0:0:
256,192,105685,5,0,0:0:0:0:
256,192,105743,5,0,0:0:0:0:
256,192,105800,5,0,0:0:0:0:
256,192,105858,5,0,0:0:0:0:
256,192,105916,5,0,0:0:0:0:
256,192,105973,5,0,0:0:0:0:
256,192,106031,5,0,0:0:0:0:
256,192,106089,5,0,0:0:0:0:
256,192,106146,5,0,0:0:0:0:
256,192,106204,5,0,0:0:0:0:
256,192,106262,5,0,0:0:0:0:
256,192,106320,5,0,0:0:0:0:
256,192,106377,5,8,0:0:0:0:
256,192,106435,5,8,0:0:0:0:
256,192,106493,5,0,0:0:0:0:
256,192,106550,5,0,0:0:0:0:
256,192,106608,5,0,0:0:0:0:
256,192,106666,5,0,0:0:0:0:
256,192,106723,5,0,0:0:0:0:
256,192,106781,5,0,0:0:0:0:
256,192,106839,5,8,0:0:0:0:
256,192,106896,5,8,0:0:0:0:
256,192,106954,5,0,0:0:0:0:
256,192,107012,5,0,0:0:0:0:
256,192,107070,5,8,0:0:0:0:
256,192,107127,5,8,0:0:0:0:
256,192,107185,5,8,0:0:0:0:
256,192,107243,5,8,0:0:0:0:
256,192,107300,5,0,0:0:0:0:
256,192,107762,5,0,0:0:0:0:
256,192,107993,5,0,0:0:0:0:
256,192,108223,5,8,0:0:0:0:
256,192,108685,5,0,0:0:0:0:
256,192,109146,5,8,0:0:0:0:
256,192,109377,5,0,0:0:0:0:
256,192,109839,5,0,0:0:0:0:
256,192,110070,5,8,0:0:0:0:
256,192,110127,5,8,0:0:0:0:
256,192,110185,5,8,0:0:0:0:
256,192,110243,5,8,0:0:0:0:
256,192,110300,5,0,0:0:0:0:
256,192,110358,5,0,0:0:0:0:
256,192,110416,5,0,0:0:0:0:
256,192,110473,5,0,0:0:0:0:
256,192,110531,5,8,0:0:0:0:
256,192,110589,5,8,0:0:0:0:
256,192,110646,5,8,0:0:0:0:
256,192,110704,5,8,0:0:0:0:
256,192,110762,5,0,0:0:0:0:
256,192,110820,5,0,0:0:0:0:
256,192,110877,5,0,0:0:0:0:
256,192,110993,5,4,0:0:0:0:
256,192,111146,5,4,0:0:0:0:
256,192,111300,5,4,0:0:0:0:
256,192,111454,5,12,0:0:0:0:
256,192,111916,5,8,0:0:0:0:
256,192,112377,5,12,0:0:0:0:
256,192,112608,5,4,0:0:0:0:
256,192,112839,5,8,0:0:0:0:
256,192,112896,5,8,0:0:0:0:
256,192,112954,5,8,0:0:0:0:
256,192,113012,5,8,0:0:0:0:
256,192,113070,5,0,0:0:0:0:
256,192,113127,5,0,0:0:0:0:
256,192,113185,5,0,0:0:0:0:
256,192,113243,5,0,0:0:0:0:
256,192,113300,5,0,0:0:0:0:
256,192,113358,5,0,0:0:0:0:
256,192,113416,5,0,0:0:0:0:
256,192,113473,5,0,0:0:0:0:
256,192,113531,5,8,0:0:0:0:
256,192,113589,5,8,0:0:0:0:
256,192,113646,5,8,0:0:0:0:
256,192,113704,5,8,0:0:0:0:
256,192,113762,5,8,0:0:0:0:
256,192,113820,5,8,0:0:0:0:
256,192,113877,5,0,0:0:0:0:
256,192,113935,5,0,0:0:0:0:
256,192,113993,5,0,0:0:0:0:
256,192,114050,5,0,0:0:0:0:
256,192,114108,5,0,0:0:0:0:
256,192,114166,5,0,0:0:0:0:
256,192,114223,5,8,0:0:0:0:
256,192,114454,5,0,0:0:0:0:
256,192,114685,5,4,0:0:0:0:
256,192,114916,5,0,0:0:0:0:
256,192,115377,5,0,0:0:0:0:
256,192,115608,5,8,0:0:0:0:
256,192,115839,5,0,0:0:0:0:
256,192,116070,5,0,0:0:0:0:
256,192,116300,5,8,0:0:0:0:
256,192,116531,5,8,0:0:0:0:
256,192,116646,5,0,0:0:0:0:
256,192,116762,5,8,0:0:0:0:
256,192,116877,5,8,0:0:0:0:
256,192,116993,5,0,0:0:0:0:
256,192,117108,5,0,0:0:0:0:
256,192,117223,5,8,0:0:0:0:
256,192,117339,5,8,0:0:0:0:
256,192,117454,5,8,0:0:0:0:
256,192,117531,1,8,0:0:0:0:
256,192,117608,1,0,0:0:0:0:
256,192,117685,1,0,0:0:0:0:
256,192,117762,1,0,0:0:0:0:
256,192,117839,1,0,0:0:0:0:
256,192,117916,1,8,0:0:0:0:
256,192,117993,1,8,0:0:0:0:
256,192,118070,1,0,0:0:0:0:
256,192,118146,1,0,0:0:0:0:
256,192,118223,1,0,0:0:0:0:
256,192,118300,1,0,0:0:0:0:
256,192,118377,1,8,0:0:0:0:
256,192,118454,5,8,0:0:0:0:
256,192,118531,5,0,0:0:0:0:
256,192,118608,5,0,0:0:0:0:
256,192,118685,5,0,0:0:0:0:
256,192,118762,5,0,0:0:0:0:
256,192,118839,5,0,0:0:0:0:
256,192,118916,5,0,0:0:0:0:
256,192,118993,5,0,0:0:0:0:
256,192,119070,5,0,0:0:0:0:
256,192,119146,5,0,0:0:0:0:
256,192,119223,5,0,0:0:0:0:
256,192,119300,5,8,0:0:0:0:
256,192,119377,5,8,0:0:0:0:
256,192,119454,5,8,0:0:0:0:
256,192,119531,5,0,0:0:0:0:
256,192,119608,5,0,0:0:0:0:
256,192,119685,5,0,0:0:0:0:
256,192,119762,5,8,0:0:0:0:
256,192,119839,5,8,0:0:0:0:
256,192,119916,5,8,0:0:0:0:
256,192,119993,5,8,0:0:0:0:
256,192,120070,5,8,0:0:0:0:
256,192,120146,5,8,0:0:0:0:
256,192,120223,5,0,0:0:0:0:
256,192,120300,5,0,0:0:0:0:
256,192,120377,5,0,0:0:0:0:
256,192,120454,5,0,0:0:0:0:
256,192,120531,5,0,0:0:0:0:
256,192,120608,5,0,0:0:0:0:
256,192,120685,5,0,0:0:0:0:
256,192,120762,5,0,0:0:0:0:
256,192,120839,5,0,0:0:0:0:
256,192,120916,5,0,0:0:0:0:
256,192,120993,5,0,0:0:0:0:
256,192,121070,5,0,0:0:0:0:
256,192,121146,5,8,0:0:0:0:
256,192,121223,5,8,0:0:0:0:
256,192,121300,5,0,0:0:0:0:
256,192,121377,5,0,0:0:0:0:
256,192,121454,5,0,0:0:0:0:
256,192,121531,5,0,0:0:0:0:
256,192,121608,5,8,0:0:0:0:
256,192,121685,5,8,0:0:0:0:
256,192,121762,5,8,0:0:0:0:
256,192,121839,5,8,0:0:0:0:
256,192,121916,5,0,0:0:0:0:
256,192,121993,5,0,0:0:0:0:
256,192,122070,5,8,0:0:0:0:
256,192,122127,5,8,0:0:0:0:
256,192,122185,5,0,0:0:0:0:
256,192,122243,5,0,0:0:0:0:
256,192,122300,5,8,0:0:0:0:
256,192,122358,5,8,0:0:0:0:
256,192,122416,5,0,0:0:0:0:
256,192,122473,5,0,0:0:0:0:
256,192,122531,5,8,0:0:0:0:
256,192,122589,5,8,0:0:0:0:
256,192,122646,5,8,0:0:0:0:
256,192,122704,5,8,0:0:0:0:
256,192,122762,5,0,0:0:0:0:
256,192,122820,5,0,0:0:0:0:
256,192,122877,5,0,0:0:0:0:
256,192,122935,5,0,0:0:0:0:
256,192,122993,5,8,0:0:0:0:
256,192,123050,5,8,0:0:0:0:
256,192,123108,5,0,0:0:0:0:
256,192,123166,5,0,0:0:0:0:
256,192,123223,5,0,0:0:0:0:
256,192,123281,5,0,0:0:0:0:
256,192,123339,5,0,0:0:0:0:
256,192,123396,5,0,0:0:0:0:
256,192,123454,5,8,0:0:0:0:
256,192,123512,5,8,0:0:0:0:
256,192,123570,5,8,0:0:0:0:
256,192,123627,5,8,0:0:0:0:
256,192,123685,5,8,0:0:0:0:
256,192,123743,5,8,0:0:0:0:
256,192,123800,5,8,0:0:0:0:
256,192,123858,5,8,0:0:0:0:
256,192,123916,5,0,0:0:0:0:
256,192,123973,5,0,0:0:0:0:
256,192,124031,5,0,0:0:0:0:
256,192,124089,5,0,0:0:0:0:
256,192,124146,5,0,0:0:0:0:
256,192,124204,5,0,0:0:0:0:
256,192,124262,5,0,0:0:0:0:
256,192,124320,5,0,0:0:0:0:
256,192,124377,5,8,0:0:0:0:
256,192,124435,5,8,0:0:0:0:
256,192,124493,5,8,0:0:0:0:
256,192,124550,5,8,0:0:0:0:
256,192,124608,5,8,0:0:0:0:
256,192,124666,5,8,0:0:0:0:
256,192,124723,5,0,0:0:0:0:
256,192,124781,5,0,0:0:0:0:
256,192,124839,5,8,0:0:0:0:
256,192,124896,1,8,0:0:0:0:
256,192,124954,1,8,0:0:0:0:
256,192,125012,1,8,0:0:0:0:
256,192,125070,1,0,0:0:0:0:
256,192,125127,1,0,0:0:0:0:
256,192,125185,1,0,0:0:0:0:
256,192,125243,1,0,0:0:0:0:
256,192,125300,1,8,0:0:0:0:
256,192,125358,1,0,0:0:0:0:
256,192,125416,1,8,0:0:0:0:
256,192,125473,1,8,0:0:0:0:
256,192,125531,1,0,0:0:0:0:
256,192,125589,1,0,0:0:0:0:
256,192,125646,1,0,0:0:0:0:
256,192,125704,1,0,0:0:0:0:
256,192,125762,1,8,0:0:0:0:
256,192,125993,5,8,0:0:0:0:
256,192,126050,5,0,0:0:0:0:
256,192,126108,5,8,0:0:0:0:
256,192,126166,5,0,0:0:0:0:
256,192,126223,5,8,0:0:0:0:
256,192,126281,5,8,0:0:0:0:
256,192,126339,5,0,0:0:0:0:
256,192,126396,5,0,0:0:0:0:
256,192,126454,5,8,0:0:0:0:
256,192,126512,5,0,0:0:0:0:
256,192,126570,5,8,0:0:0:0:
256,192,126627,5,0,0:0:0:0:
256,192,126685,5,8,0:0:0:0:
256,192,126743,5,8,0:0:0:0:
256,192,126800,5,0,0:0:0:0:
256,192,126858,5,0,0:0:0:0:
256,192,126916,5,8,0:0:0:0:
256,192,126973,5,0,0:0:0:0:
256,192,127031,5,8,0:0:0:0:
256,192,127089,5,0,0:0:0:0:
256,192,127146,5,8,0:0:0:0:
256,192,127204,5,0,0:0:0:0:
256,192,127262,5,8,0:0:0:0:
256,192,127320,5,8,0:0:0:0:
256,192,127377,5,8,0:0:0:0:
256,192,127435,5,0,0:0:0:0:
256,192,127493,5,8,0:0:0:0:
256,192,127550,5,0,0:0:0:0:
256,192,127608,5,8,0:0:0:0:
256,192,127666,5,8,0:0:0:0:
256,192,127723,5,0,0:0:0:0:
256,192,127781,5,0,0:0:0:0:
256,192,127839,5,8,0:0:0:0:
256,192,127896,5,0,0:0:0:0:
256,192,127954,5,8,0:0:0:0:
256,192,128012,5,0,0:0:0:0:
256,192,128070,5,8,0:0:0:0:
256,192,128127,5,8,0:0:0:0:
256,192,128185,5,0,0:0:0:0:
256,192,128243,5,0,0:0:0:0:
256,192,128300,5,8,0:0:0:0:
256,192,128358,5,0,0:0:0:0:
256,192,128416,5,8,0:0:0:0:
256,192,128473,5,0,0:0:0:0:
256,192,128531,5,8,0:0:0:0:
256,192,128589,5,8,0:0:0:0:
256,192,128646,5,8,0:0:0:0:
256,192,128704,5,8,0:0:0:0:
256,192,128762,5,0,0:0:0:0:
256,192,128820,5,0,0:0:0:0:
256,192,128877,5,8,0:0:0:0:
256,192,128935,5,0,0:0:0:0:
256,192,128993,5,8,0:0:0:0:
256,192,129050,5,8,0:0:0:0:
256,192,129108,5,8,0:0:0:0:
256,192,129166,5,8,0:0:0:0:
256,192,129223,5,0,0:0:0:0:
256,192,129281,5,0,0:0:0:0:
256,192,129339,5,0,0:0:0:0:
256,192,129396,5,0,0:0:0:0:
256,192,129454,5,8,0:0:0:0:
256,192,129512,5,8,0:0:0:0:
256,192,129570,5,8,0:0:0:0:
256,192,129627,5,8,0:0:0:0:
256,192,129685,5,0,0:0:0:0:
256,192,129743,5,0,0:0:0:0:
256,192,129800,5,0,0:0:0:0:
256,192,129858,5,0,0:0:0:0:
256,192,129916,5,0,0:0:0:0:
256,192,129973,5,0,0:0:0:0:
256,192,130031,5,0,0:0:0:0:
256,192,130089,5,0,0:0:0:0:
256,192,130146,5,8,0:0:0:0:
256,192,130204,5,8,0:0:0:0:
256,192,130262,5,8,0:0:0:0:
256,192,130320,5,8,0:0:0:0:
256,192,130377,5,8,0:0:0:0:
256,192,130435,5,8,0:0:0:0:
256,192,130493,5,0,0:0:0:0:
256,192,130550,5,0,0:0:0:0:
256,192,130608,5,0,0:0:0:0:
256,192,130666,5,0,0:0:0:0:
256,192,130723,5,0,0:0:0:0:
256,192,130781,5,0,0:0:0:0:
256,192,130839,5,8,0:0:0:0:
256,192,130896,5,8,0:0:0:0:
256,192,130954,5,0,0:0:0:0:
256,192,131012,5,0,0:0:0:0:
256,192,131070,5,8,0:0:0:0:
256,192,131127,5,8,0:0:0:0:
256,192,131185,5,0,0:0:0:0:
256,192,131243,5,0,0:0:0:0:
256,192,131300,5,0,0:0:0:0:
256,192,131358,5,0,0:0:0:0:
256,192,131416,5,0,0:0:0:0:
256,192,131473,5,0,0:0:0:0:
256,192,131531,5,8,0:0:0:0:
256,192,131589,5,8,0:0:0:0:
256,192,131646,5,8,0:0:0:0:
256,192,131704,5,8,0:0:0:0:
256,192,131762,5,0,0:0:0:0:
256,192,131820,5,0,0:0:0:0:
256,192,131877,5,0,0:0:0:0:
256,192,131935,5,0,0:0:0:0:
256,192,131993,5,0,0:0:0:0:
256,192,132050,5,0,0:0:0:0:
256,192,132108,5,0,0:0:0:0:
256,192,132166,5,0,0:0:0:0:
256,192,132223,5,8,0:0:0:0:
256,192,132281,5,8,0:0:0:0:
256,192,132339,5,8,0:0:0:0:
256,192,132396,5,8,0:0:0:0:
256,192,132454,5,0,0:0:0:0:
256,192,132512,5,0,0:0:0:0:
256,192,132570,5,0,0:0:0:0:
256,192,132627,5,0,0:0:0:0:
256,192,132685,5,8,0:0:0:0:
256,192,132916,5,0,0:0:0:0:
256,192,133146,5,0,0:0:0:0:
256,192,133203,5,0,0:0:0:0:
256,192,133261,5,0,0:0:0:0:
256,192,133319,5,0,0:0:0:0:
256,192,133376,5,0,0:0:0:0:
256,192,133434,5,0,0:0:0:0:
256,192,133492,5,0,0:0:0:0:
256,192,133549,5,0,0:0:0:0:
256,192,133607,5,0,0:0:0:0:
256,192,133665,5,0,0:0:0:0:
256,192,133722,5,0,0:0:0:0:
256,192,133780,5,0,0:0:0:0:
256,192,133838,5,0,0:0:0:0:
256,192,133896,5,0,0:0:0:0:
256,192,133953,5,0,0:0:0:0:
256,192,134011,5,0,0:0:0:0:
256,192,134069,5,8,0:0:0:0:
256,192,134530,5,0,0:0:0:0:
256,192,134588,5,0,0:0:0:0:
256,192,134646,5,0,0:0:0:0:
256,192,134703,5,0,0:0:0:0:
256,192,134761,5,8,0:0:0:0:
256,192,134819,5,8,0:0:0:0:
256,192,134876,5,8,0:0:0:0:
256,192,134934,5,8,0:0:0:0:
256,192,134992,5,0,0:0:0:0:
256,192,135049,5,0,0:0:0:0:
256,192,135107,5,0,0:0:0:0:
256,192,135165,5,0,0:0:0:0:
256,192,135222,5,8,0:0:0:0:
256,192,135280,5,8,0:0:0:0:
256,192,135338,5,8,0:0:0:0:
256,192,135396,5,8,0:0:0:0:
256,192,135453,5,0,0:0:0:0:
256,192,135915,5,8,0:0:0:0:
256,192,135972,5,8,0:0:0:0:
256,192,136030,5,8,0:0:0:0:
256,192,136088,5,8,0:0:0:0:
256,192,136146,5,0,0:0:0:0:
256,192,136203,5,0,0:0:0:0:
256,192,136261,5,0,0:0:0:0:
256,192,136319,5,0,0:0:0:0:
256,192,136376,5,8,0:0:0:0:
256,192,136434,5,8,0:0:0:0:
256,192,136492,5,0,0:0:0:0:
256,192,136549,5,0,0:0:0:0:
256,192,136607,5,8,0:0:0:0:
256,192,136665,5,8,0:0:0:0:
256,192,136722,5,0,0:0:0:0:
256,192,136780,5,0,0:0:0:0:
256,192,136838,5,8,0:0:0:0:
256,192,137299,5,0,0:0:0:0:
256,192,137357,5,0,0:0:0:0:
256,192,137415,5,8,0:0:0:0:
256,192,137472,5,8,0:0:0:0:
256,192,137530,5,8,0:0:0:0:
256,192,137588,5,8,0:0:0:0:
256,192,137646,5,0,0:0:0:0:
256,192,137703,5,0,0:0:0:0:
256,192,137761,5,8,0:0:0:0:
256,192,137819,5,8,0:0:0:0:
256,192,137876,5,8,0:0:0:0:
256,192,137934,5,8,0:0:0:0:
256,192,137992,5,0,0:0:0:0:
256,192,138049,5,0,0:0:0:0:
256,192,138107,5,0,0:0:0:0:
256,192,138165,5,0,0:0:0:0:
256,192,138222,5,8,0:0:0:0:
256,192,138338,5,0,0:0:0:0:
256,192,138453,5,8,0:0:0:0:
256,192,138569,5,8,0:0:0:0:
256,192,138684,5,8,0:0:0:0:
256,192,138742,5,8,0:0:0:0:
256,192,138799,5,8,0:0:0:0:
256,192,138857,5,8,0:0:0:0:
256,192,138915,5,8,0:0:0:0:
256,192,138972,5,8,0:0:0:0:
256,192,139030,5,8,0:0:0:0:
256,192,139088,5,8,0:0:0:0:
256,192,139146,5,0,0:0:0:0:
256,192,139203,5,0,0:0:0:0:
256,192,139261,5,0,0:0:0:0:
256,192,139319,5,0,0:0:0:0:
256,192,139376,5,0,0:0:0:0:
256,192,139434,5,0,0:0:0:0:
256,192,139492,5,0,0:0:0:0:
256,192,139549,5,0,0:0:0:0:
256,192,139607,5,8,0:0:0:0:
256,192,140069,5,0,0:0:0:0:
256,192,140126,5,0,0:0:0:0:
256,192,140184,5,8,0:0:0:0:
256,192,140242,5,8,0:0:0:0:
256,192,140299,5,8,0:0:0:0:
256,192,140357,5,8,0:0:0:0:
256,192,140415,5,8,0:0:0:0:
256,192,140472,5,8,0:0:0:0:
256,192,140530,5,0,0:0:0:0:
256,192,140588,5,0,0:0:0:0:
256,192,140646,5,0,0:0:0:0:
256,192,140703,5,0,0:0:0:0:
256,192,140761,5,0,0:0:0:0:
256,192,140819,5,0,0:0:0:0:
256,192,140876,5,0,0:0:0:0:
256,192,140934,5,0,0:0:0:0:
256,192,140992,5,8,0:0:0:0:
256,192,141453,5,8,0:0:0:0:
256,192,141511,5,8,0:0:0:0:
256,192,141569,5,8,0:0:0:0:
256,192,141626,5,8,0:0:0:0:
256,192,141684,5,0,0:0:0:0:
256,192,141742,5,0,0:0:0:0:
256,192,141799,5,0,0:0:0:0:
256,192,141857,5,0,0:0:0:0:
256,192,141915,5,8,0:0:0:0:
256,192,141972,5,8,0:0:0:0:
256,192,142030,5,8,0:0:0:0:
256,192,142088,5,8,0:0:0:0:
256,192,142146,5,0,0:0:0:0:
256,192,142203,5,0,0:0:0:0:
256,192,142261,5,0,0:0:0:0:
256,192,142319,5,0,0:0:0:0:
256,192,142376,5,8,0:0:0:0:
256,192,142838,5,0,0:0:0:0:
256,192,142896,5,0,0:0:0:0:
256,192,142953,5,0,0:0:0:0:
256,192,143011,5,0,0:0:0:0:
256,192,143069,5,8,0:0:0:0:
256,192,143126,5,8,0:0:0:0:
256,192,143184,5,8,0:0:0:0:
256,192,143242,5,8,0:0:0:0:
256,192,143299,5,0,0:0:0:0:
256,192,143357,5,0,0:0:0:0:
256,192,143415,5,0,0:0:0:0:
256,192,143472,5,0,0:0:0:0:
256,192,143530,5,0,0:0:0:0:
256,192,143588,5,0,0:0:0:0:
256,192,143646,5,0,0:0:0:0:
256,192,143703,5,0,0:0:0:0:
256,192,143761,5,8,0:0:0:0:
256,192,143790,1,8,0:0:0:0:
256,192,143992,5,0,0:0:0:0:
256,192,144222,5,0,0:0:0:0:
256,192,144299,5,0,0:0:0:0:
256,192,144376,5,0,0:0:0:0:
256,192,144453,5,0,0:0:0:0:
256,192,144530,5,0,0:0:0:0:
256,192,144607,5,0,0:0:0:0:
256,192,144684,5,0,0:0:0:0:
256,192,144761,5,0,0:0:0:0:
256,192,144838,5,0,0:0:0:0:
256,192,144915,5,0,0:0:0:0:
256,192,144992,5,0,0:0:0:0:
256,192,145069,5,0,0:0:0:0:
256,192,145146,5,8,0:0:0:0:
256,192,145607,5,8,0:0:0:0:
256,192,145684,5,8,0:0:0:0:
256,192,145761,5,0,0:0:0:0:
256,192,145838,5,0,0:0:0:0:
256,192,145915,5,0,0:0:0:0:
256,192,145992,5,0,0:0:0:0:
256,192,146069,5,8,0:0:0:0:
256,192,146146,5,8,0:0:0:0:
256,192,146222,5,8,0:0:0:0:
256,192,146299,5,8,0:0:0:0:
256,192,146376,5,0,0:0:0:0:
256,192,146453,5,0,0:0:0:0:
256,192,146530,5,8,0:0:0:0:
256,192,146992,5,8,0:0:0:0:
256,192,147069,5,8,0:0:0:0:
256,192,147146,5,0,0:0:0:0:
256,192,147222,5,0,0:0:0:0:
256,192,147299,5,0,0:0:0:0:
256,192,147376,5,0,0:0:0:0:
256,192,147453,5,0,0:0:0:0:
256,192,147530,5,0,0:0:0:0:
256,192,147607,5,0,0:0:0:0:
256,192,147684,5,0,0:0:0:0:
256,192,147761,5,0,0:0:0:0:
256,192,147838,5,0,0:0:0:0:
256,192,147915,5,8,0:0:0:0:
256,192,148376,5,0,0:0:0:0:
256,192,148453,5,0,0:0:0:0:
256,192,148530,5,0,0:0:0:0:
256,192,148607,5,0,0:0:0:0:
256,192,148684,5,0,0:0:0:0:
256,192,148761,5,0,0:0:0:0:
256,192,148838,5,8,0:0:0:0:
256,192,148915,5,8,0:0:0:0:
256,192,148992,5,8,0:0:0:0:
256,192,149069,5,8,0:0:0:0:
256,192,149146,5,0,0:0:0:0:
256,192,149222,5,0,0:0:0:0:
256,192,149299,5,8,0:0:0:0:
256,192,149415,5,8,0:0:0:0:
256,192,149530,5,8,0:0:0:0:
256,192,149646,5,8,0:0:0:0:
256,192,149761,5,0,0:0:0:0:
256,192,149838,5,8,0:0:0:0:
256,192,149915,5,8,0:0:0:0:
256,192,149992,5,8,0:0:0:0:
256,192,150069,5,8,0:0:0:0:
256,192,150146,5,8,0:0:0:0:
256,192,150222,5,0,0:0:0:0:
256,192,150299,5,0,0:0:0:0:
256,192,150376,5,0,0:0:0:0:
256,192,150453,5,0,0:0:0:0:
256,192,150530,5,0,0:0:0:0:
256,192,150607,5,0,0:0:0:0:
256,192,150684,5,8,0:0:0:0:
256,192,151146,5,8,0:0:0:0:
256,192,151222,5,8,0:0:0:0:
256,192,151299,5,8,0:0:0:0:
256,192,151376,5,8,0:0:0:0:
256,192,151453,5,0,0:0:0:0:
256,192,151530,5,0,0:0:0:0:
256,192,151607,5,0,0:0:0:0:
256,192,151684,5,0,0:0:0:0:
256,192,151761,5,8,0:0:0:0:
256,192,151838,5,8,0:0:0:0:
256,192,151915,5,0,0:0:0:0:
256,192,151992,5,0,0:0:0:0:
256,192,152069,5,8,0:0:0:0:
256,192,152530,5,8,0:0:0:0:
256,192,152607,5,8,0:0:0:0:
256,192,152684,5,8,0:0:0:0:
256,192,152761,5,8,0:0:0:0:
256,192,152838,5,0,0:0:0:0:
256,192,152915,5,0,0:0:0:0:
256,192,152992,5,0,0:0:0:0:
256,192,153069,5,0,0:0:0:0:
256,192,153146,5,8,0:0:0:0:
256,192,153222,5,8,0:0:0:0:
256,192,153299,5,0,0:0:0:0:
256,192,153376,5,0,0:0:0:0:
256,192,153453,5,0,0:0:0:0:
256,192,153922,5,0,0:0:0:0:
256,192,153998,5,0,0:0:0:0:
256,192,154075,5,0,0:0:0:0:
256,192,154152,5,0,0:0:0:0:
256,192,154229,5,8,0:0:0:0:
256,192,154306,5,8,0:0:0:0:
256,192,154383,5,8,0:0:0:0:
256,192,154460,5,8,0:0:0:0:
256,192,154537,5,0,0:0:0:0:
256,192,154614,5,0,0:0:0:0:
256,192,154691,5,0,0:0:0:0:
256,192,154768,5,0,0:0:0:0:
256,192,154845,5,8,0:0:0:0:
256,192,154922,5,0,0:0:0:0:
256,192,154998,5,8,0:0:0:0:
256,192,155075,5,0,0:0:0:0:
256,192,155152,5,8,0:0:0:0:
256,192,155229,5,0,0:0:0:0:
256,192,155306,5,8,0:0:0:0:
256,192,155383,5,0,0:0:0:0:
256,192,155460,5,8,0:0:0:0:
256,192,155537,5,0,0:0:0:0:
256,192,155614,5,8,0:0:0:0:
256,192,156691,5,0,0:0:0:0:
256,192,156768,5,0,0:0:0:0:
256,192,156845,5,8,0:0:0:0:
256,192,156922,5,0,0:0:0:0:
256,192,156998,5,8,0:0:0:0:
256,192,157075,5,0,0:0:0:0:
256,192,157152,5,8,0:0:0:0:
256,192,157229,5,8,0:0:0:0:
256,192,157306,5,8,0:0:0:0:
256,192,157383,5,8,0:0:0:0:
256,192,157460,5,0,0:0:0:0:
256,192,157537,5,0,0:0:0:0:
256,192,157614,5,8,0:0:0:0:
256,192,157691,5,0,0:0:0:0:
256,192,157768,5,8,0:0:0:0:
256,192,157845,5,8,0:0:0:0:
256,192,157922,5,0,0:0:0:0:
256,192,157998,5,0,0:0:0:0:
256,192,158075,5,8,0:0:0:0:
256,192,158152,5,0,0:0:0:0:
256,192,158229,5,0,0:0:0:0:
256,192,158306,5,0,0:0:0:0:
256,192,158383,5,8,0:0:0:0:
256,192,158460,5,8,0:0:0:0:
256,192,158537,5,0,0:0:0:0:
256,192,158614,5,0,0:0:0:0:
256,192,158691,5,8,0:0:0:0:
256,192,158768,5,0,0:0:0:0:
256,192,158845,5,0,0:0:0:0:
256,192,158922,5,0,0:0:0:0:
256,192,158998,5,0,0:0:0:0:
256,192,159075,5,0,0:0:0:0:
256,192,159152,5,8,0:0:0:0:
256,192,159229,5,0,0:0:0:0:
256,192,159306,5,8,0:0:0:0:
256,192,159383,5,0,0:0:0:0:
256,192,159460,5,8,0:0:0:0:
256,192,159537,5,0,0:0:0:0:
256,192,159614,5,8,0:0:0:0:
256,192,159691,5,8,0:0:0:0:
256,192,159768,5,8,0:0:0:0:
256,192,159845,5,0,0:0:0:0:
256,192,159922,5,8,0:0:0:0:
256,192,159998,5,0,0:0:0:0:
256,192,160075,5,8,0:0:0:0:
256,192,160152,5,0,0:0:0:0:
256,192,160229,5,8,0:0:0:0:
256,192,160306,5,8,0:0:0:0:
256,192,160383,5,8,0:0:0:0:
256,192,160460,5,0,0:0:0:0:
256,192,160537,5,8,0:0:0:0:
256,192,160614,5,8,0:0:0:0:
256,192,160691,5,0,0:0:0:0:
256,192,160768,5,8,0:0:0:0:
256,192,160845,5,8,0:0:0:0:
256,192,160922,5,0,0:0:0:0:
256,192,160998,5,8,0:0:0:0:
256,192,161075,5,0,0:0:0:0:
256,192,161152,5,8,0:0:0:0:
256,192,161229,5,0,0:0:0:0:
256,192,161306,5,8,0:0:0:0:
256,192,161383,5,0,0:0:0:0:
256,192,161460,5,8,0:0:0:0:
256,192,161537,5,8,0:0:0:0:
256,192,161614,5,0,0:0:0:0:
256,192,161691,5,0,0:0:0:0:
256,192,161768,5,8,0:0:0:0:
256,192,161845,5,0,0:0:0:0:
256,192,161922,5,8,0:0:0:0:
256,192,161998,5,8,0:0:0:0:
256,192,162075,5,0,0:0:0:0:
256,192,162152,5,0,0:0:0:0:
256,192,162229,5,0,0:0:0:0:
256,192,162306,5,8,0:0:0:0:
256,192,162383,5,8,0:0:0:0:
256,192,162460,5,0,0:0:0:0:
256,192,162537,5,8,0:0:0:0:
256,192,162614,5,0,0:0:0:0:
256,192,162691,5,8,0:0:0:0:
256,192,162768,5,0,0:0:0:0:
256,192,162845,5,0,0:0:0:0:
256,192,162922,5,0,0:0:0:0:
256,192,162998,5,8,0:0:0:0:
256,192,163075,5,8,0:0:0:0:
256,192,163152,5,0,0:0:0:0:
256,192,163229,5,0,0:0:0:0:
256,192,163306,5,8,0:0:0:0:
256,192,163383,5,0,0:0:0:0:
256,192,163460,5,0,0:0:0:0:
256,192,163537,5,0,0:0:0:0:
256,192,163614,5,8,0:0:0:0:
256,192,163691,5,0,0:0:0:0:
256,192,163768,5,8,0:0:0:0:
256,192,163845,5,0,0:0:0:0:
256,192,163922,5,8,0:0:0:0:
256,192,163998,5,8,0:0:0:0:
256,192,164075,5,0,0:0:0:0:
256,192,164152,5,8,0:0:0:0:
256,192,164229,5,8,0:0:0:0:
256,192,164306,5,8,0:0:0:0:
256,192,164383,5,8,0:0:0:0:
256,192,164460,5,8,0:0:0:0:
256,192,164537,5,0,0:0:0:0:
256,192,164614,5,8,0:0:0:0:
256,192,164691,5,8,0:0:0:0:
256,192,164768,5,8,0:0:0:0:
256,192,164845,5,8,0:0:0:0:
256,192,164922,5,8,0:0:0:0:
256,192,164998,5,0,0:0:0:0:
256,192,165075,5,0,0:0:0:0:
256,192,165152,5,8,0:0:0:0:
256,192,165229,5,8,0:0:0:0:
256,192,165306,5,8,0:0:0:0:
256,192,165383,5,8,0:0:0:0:
256,192,165460,5,0,0:0:0:0:
256,192,165537,5,0,0:0:0:0:
256,192,165614,5,8,0:0:0:0:
256,192,165691,5,8,0:0:0:0:
256,192,165768,5,0,0:0:0:0:
256,192,165845,5,8,0:0:0:0:
256,192,165922,5,0,0:0:0:0:
256,192,165998,5,0,0:0:0:0:
256,192,166075,5,0,0:0:0:0:
256,192,166152,5,0,0:0:0:0:
256,192,166229,5,0,0:0:0:0:
256,192,166306,5,0,0:0:0:0:
256,192,166383,5,0,0:0:0:0:
256,192,166460,5,0,0:0:0:0:
256,192,166537,5,0,0:0:0:0:
256,192,166614,5,0,0:0:0:0:
256,192,166691,5,8,0:0:0:0:
256,192,166768,5,0,0:0:0:0:
256,192,166845,5,8,0:0:0:0:
256,192,166922,5,8,0:0:0:0:
256,192,166998,5,8,0:0:0:0:
256,192,167075,5,0,0:0:0:0:
256,192,167152,5,0,0:0:0:0:
256,192,167229,5,0,0:0:0:0:
256,192,167306,5,8,0:0:0:0:
256,192,167383,5,8,0:0:0:0:
256,192,167460,5,0,0:0:0:0:
256,192,167537,5,0,0:0:0:0:
256,192,167614,5,0,0:0:0:0:
256,192,167691,5,0,0:0:0:0:
256,192,167768,5,8,0:0:0:0:
256,192,167845,5,8,0:0:0:0:
256,192,167922,5,8,0:0:0:0:
256,192,167998,5,8,0:0:0:0:
256,192,168075,5,8,0:0:0:0:
256,192,168152,5,8,0:0:0:0:
256,192,168229,5,0,0:0:0:0:
256,192,168306,5,0,0:0:0:0:
256,192,168383,5,0,0:0:0:0:
256,192,168460,5,0,0:0:0:0:
256,192,168537,5,0,0:0:0:0:
256,192,168614,5,0,0:0:0:0:
256,192,168691,5,8,0:0:0:0:
256,192,168768,5,8,0:0:0:0:
256,192,168845,5,8,0:0:0:0:
256,192,168922,5,8,0:0:0:0:
256,192,168998,5,0,0:0:0:0:
256,192,169075,5,0,0:0:0:0:
256,192,169152,5,8,0:0:0:0:
256,192,169229,5,0,0:0:0:0:
256,192,169306,5,8,0:0:0:0:
256,192,169383,5,0,0:0:0:0:
256,192,169460,5,8,0:0:0:0:
256,192,169537,5,8,0:0:0:0:
256,192,169614,5,0,0:0:0:0:
256,192,169691,5,0,0:0:0:0:
256,192,169768,5,0,0:0:0:0:
256,192,169845,5,0,0:0:0:0:
256,192,169922,5,0,0:0:0:0:
256,192,169998,5,0,0:0:0:0:
256,192,170075,5,0,0:0:0:0:
256,192,170152,5,0,0:0:0:0:
256,192,170229,5,0,0:0:0:0:
256,192,170306,5,0,0:0:0:0:
256,192,170383,5,8,0:0:0:0:
256,192,170460,5,0,0:0:0:0:
256,192,170537,5,8,0:0:0:0:
256,192,170614,5,8,0:0:0:0:
256,192,170691,5,8,0:0:0:0:
256,192,170768,5,8,0:0:0:0:
256,192,170845,5,0,0:0:0:0:
256,192,170922,5,0,0:0:0:0:
256,192,170998,5,8,0:0:0:0:
256,192,171075,5,8,0:0:0:0:
256,192,171152,5,8,0:0:0:0:
256,192,171229,5,8,0:0:0:0:
256,192,171306,5,0,0:0:0:0:
256,192,171383,5,0,0:0:0:0:
256,192,171460,5,8,0:0:0:0:
256,192,171537,5,8,0:0:0:0:
256,192,171614,5,8,0:0:0:0:
256,192,171691,5,8,0:0:0:0:
256,192,171768,5,0,0:0:0:0:
256,192,171845,5,0,0:0:0:0:
256,192,171922,5,8,0:0:0:0:
256,192,171998,5,8,0:0:0:0:
256,192,172075,5,0,0:0:0:0:
256,192,172152,5,0,0:0:0:0:
256,192,172229,5,8,0:0:0:0:
256,192,172306,5,0,0:0:0:0:
256,192,172383,5,8,0:0:0:0:
256,192,172460,5,8,0:0:0:0:
256,192,172537,5,0,0:0:0:0:
256,192,172614,5,0,0:0:0:0:
256,192,172691,5,0,0:0:0:0:
256,192,172768,5,0,0:0:0:0:
256,192,172845,5,8,0:0:0:0:
256,192,172922,5,8,0:0:0:0:
256,192,172998,5,8,0:0:0:0:
256,192,173075,5,0,0:0:0:0:
256,192,173152,5,0,0:0:0:0:
256,192,173229,5,0,0:0:0:0:
256,192,173306,5,8,0:0:0:0:
256,192,173383,5,0,0:0:0:0:
256,192,173460,5,8,0:0:0:0:
256,192,173537,5,8,0:0:0:0:
256,192,173614,5,0,0:0:0:0:
256,192,173691,5,0,0:0:0:0:
256,192,173768,5,8,0:0:0:0:
256,192,173845,5,8,0:0:0:0:
256,192,173922,5,8,0:0:0:0:
256,192,173998,5,0,0:0:0:0:
256,192,174075,5,8,0:0:0:0:
256,192,174152,5,0,0:0:0:0:
256,192,174229,5,8,0:0:0:0:
256,192,174306,5,8,0:0:0:0:
256,192,174383,5,0,0:0:0:0:
256,192,174460,5,0,0:0:0:0:
256,192,174537,5,0,0:0:0:0:
256,192,174614,5,0,0:0:0:0:
256,192,174691,5,8,0:0:0:0:
256,192,174768,5,8,0:0:0:0:
256,192,174845,5,8,0:0:0:0:
256,192,174922,5,0,0:0:0:0:
256,192,174998,5,0,0:0:0:0:
256,192,175075,5,0,0:0:0:0:
256,192,175152,5,8,0:0:0:0:
256,192,175229,5,8,0:0:0:0:
256,192,175306,5,8,0:0:0:0:
256,192,175383,5,8,0:0:0:0:
256,192,175460,5,0,0:0:0:0:
256,192,175537,5,0,0:0:0:0:
256,192,175614,5,8,0:0:0:0:
256,192,175691,5,8,0:0:0:0:
256,192,175768,5,8,0:0:0:0:
256,192,175845,5,8,0:0:0:0:
256,192,175922,5,8,0:0:0:0:
256,192,175998,5,0,0:0:0:0:
256,192,176075,5,8,0:0:0:0:
256,192,176152,5,8,0:0:0:0:
256,192,176229,5,8,0:0:0:0:
256,192,176306,5,8,0:0:0:0:
256,192,176383,5,8,0:0:0:0:
256,192,176460,5,0,0:0:0:0:
256,192,176537,5,8,0:0:0:0:
256,192,176614,5,0,0:0:0:0:
256,192,176691,5,8,0:0:0:0:
256,192,176768,5,0,0:0:0:0:
256,192,176845,5,8,0:0:0:0:
256,192,176922,5,8,0:0:0:0:
256,192,176998,5,0,0:0:0:0:
256,192,177075,5,0,0:0:0:0:
256,192,177152,5,8,0:0:0:0:
256,192,177229,5,0,0:0:0:0:
256,192,177306,5,8,0:0:0:0:
256,192,177383,5,0,0:0:0:0:
256,192,177460,5,8,0:0:0:0:
256,192,177537,5,8,0:0:0:0:
256,192,177614,5,0,0:0:0:0:
256,192,177691,5,0,0:0:0:0:
256,192,177768,5,8,0:0:0:0:
256,192,177845,5,0,0:0:0:0:
256,192,177922,5,8,0:0:0:0:
256,192,177998,5,0,0:0:0:0:
256,192,178075,5,8,0:0:0:0:
256,192,178152,5,8,0:0:0:0:
256,192,178229,5,0,0:0:0:0:
256,192,178306,5,8,0:0:0:0:
256,192,178383,5,8,0:0:0:0:
256,192,178460,5,0,0:0:0:0:
256,192,178537,5,0,0:0:0:0:
256,192,178614,5,0,0:0:0:0:
256,192,178691,5,8,0:0:0:0:
256,192,178768,5,0,0:0:0:0:
256,192,178845,5,8,0:0:0:0:
256,192,178922,5,0,0:0:0:0:
256,192,178998,5,8,0:0:0:0:
256,192,179075,5,0,0:0:0:0:
256,192,179152,5,8,0:0:0:0:
256,192,179229,5,8,0:0:0:0:
256,192,179306,5,8,0:0:0:0:
256,192,179383,5,0,0:0:0:0:
256,192,179460,5,0,0:0:0:0:
256,192,179537,5,0,0:0:0:0:
256,192,179614,5,8,0:0:0:0:
256,192,179691,5,8,0:0:0:0:
256,192,179768,5,0,0:0:0:0:
256,192,179845,5,8,0:0:0:0:
256,192,179922,5,8,0:0:0:0:
256,192,179998,5,8,0:0:0:0:
256,192,180075,5,0,0:0:0:0:
256,192,180152,5,0,0:0:0:0:
256,192,180229,5,8,0:0:0:0:
256,192,180306,5,0,0:0:0:0:
256,192,180383,5,0,0:0:0:0:
256,192,180460,5,0,0:0:0:0:
256,192,180537,5,8,0:0:0:0:
256,192,180614,5,0,0:0:0:0:
256,192,180691,5,8,0:0:0:0:
256,192,180768,5,0,0:0:0:0:
256,192,180845,5,8,0:0:0:0:
256,192,180922,5,0,0:0:0:0:
256,192,180998,5,8,0:0:0:0:
256,192,181075,5,0,0:0:0:0:
256,192,181152,5,8,0:0:0:0:
256,192,181229,5,0,0:0:0:0:
256,192,181306,5,8,0:0:0:0:
256,192,181383,5,0,0:0:0:0:
256,192,181460,5,8,0:0:0:0:
256,192,181537,5,8,0:0:0:0:
256,192,181614,5,0,0:0:0:0:
256,192,181691,5,0,0:0:0:0:
256,192,181768,5,8,0:0:0:0:
256,192,181845,5,0,0:0:0:0:
256,192,181922,5,8,0:0:0:0:
256,192,181998,5,0,0:0:0:0:
256,192,182075,5,8,0:0:0:0:
256,192,182152,5,0,0:0:0:0:
256,192,182229,5,8,0:0:0:0:
256,192,182306,5,8,0:0:0:0:
256,192,182383,5,0,0:0:0:0:
256,192,182460,5,0,0:0:0:0:
256,192,182537,5,8,0:0:0:0:
256,192,182614,5,8,0:0:0:0:
256,192,182691,5,8,0:0:0:0:
256,192,182768,5,8,0:0:0:0:
256,192,182845,5,0,0:0:0:0:
256,192,182922,5,0,0:0:0:0:
256,192,182998,5,8,0:0:0:0:
256,192,183075,5,0,0:0:0:0:
256,192,183152,5,8,0:0:0:0:
256,192,183229,5,0,0:0:0:0:
256,192,183306,5,8,0:0:0:0:
256,192,183383,5,0,0:0:0:0:
256,192,183460,5,8,0:0:0:0:
256,192,183537,5,8,0:0:0:0:
256,192,183614,5,0,0:0:0:0:
256,192,183691,5,8,0:0:0:0:
256,192,183768,5,8,0:0:0:0:
256,192,183845,5,0,0:0:0:0:
256,192,183922,5,8,0:0:0:0:
256,192,183998,5,0,0:0:0:0:
256,192,184075,5,8,0:0:0:0:
256,192,184152,5,0,0:0:0:0:
256,192,184229,5,8,0:0:0:0:
256,192,184306,5,0,0:0:0:0:
256,192,184383,5,0,0:0:0:0:
256,192,184460,5,8,0:0:0:0:
256,192,184537,5,8,0:0:0:0:
256,192,184614,5,0,0:0:0:0:
256,192,184691,5,8,0:0:0:0:
256,192,184768,5,0,0:0:0:0:
256,192,184845,5,8,0:0:0:0:
256,192,184922,5,8,0:0:0:0:
256,192,184998,5,0,0:0:0:0:
256,192,185075,5,0,0:0:0:0:
256,192,185152,5,8,0:0:0:0:
256,192,185229,5,0,0:0:0:0:
256,192,185306,5,8,0:0:0:0:
256,192,185383,5,8,0:0:0:0:
256,192,185460,5,8,0:0:0:0:
256,192,185537,5,0,0:0:0:0:
256,192,185614,5,8,0:0:0:0:
256,192,185691,5,8,0:0:0:0:
256,192,185768,5,0,0:0:0:0:
256,192,185845,5,8,0:0:0:0:
256,192,185922,5,0,0:0:0:0:
256,192,185998,5,0,0:0:0:0:
256,192,186075,5,8,0:0:0:0:
256,192,186152,5,0,0:0:0:0:
256,192,186229,5,8,0:0:0:0:
256,192,186306,5,0,0:0:0:0:
256,192,186383,5,8,0:0:0:0:
256,192,186460,5,8,0:0:0:0:
256,192,186537,5,8,0:0:0:0:
256,192,186614,5,8,0:0:0:0:
256,192,186691,5,0,0:0:0:0:
256,192,186768,5,8,0:0:0:0:
256,192,186845,5,8,0:0:0:0:
256,192,186922,5,8,0:0:0:0:
256,192,186998,5,8,0:0:0:0:
256,192,187075,5,8,0:0:0:0:
256,192,187152,5,0,0:0:0:0:
256,192,187229,5,0,0:0:0:0:
256,192,187306,5,8,0:0:0:0:
256,192,187383,5,0,0:0:0:0:
256,192,187460,5,8,0:0:0:0:
256,192,187537,5,8,0:0:0:0:
256,192,187614,5,8,0:0:0:0:
256,192,187691,5,0,0:0:0:0:
256,192,187768,5,8,0:0:0:0:
256,192,187845,5,8,0:0:0:0:
256,192,187922,5,0,0:0:0:0:
256,192,187998,5,0,0:0:0:0:
256,192,188075,5,8,0:0:0:0:
256,192,188152,5,8,0:0:0:0:
256,192,188229,5,0,0:0:0:0:
256,192,188306,5,0,0:0:0:0:
256,192,188383,5,0,0:0:0:0:
256,192,188460,5,0,0:0:0:0:
256,192,188537,5,8,0:0:0:0:
256,192,188614,5,8,0:0:0:0:
256,192,188691,5,8,0:0:0:0:
256,192,188768,5,8,0:0:0:0:
256,192,188845,5,0,0:0:0:0:
256,192,188922,5,0,0:0:0:0:
256,192,188998,5,8,0:0:0:0:
256,192,189075,5,8,0:0:0:0:
256,192,189152,5,8,0:0:0:0:
256,192,189229,5,0,0:0:0:0:
256,192,189306,5,0,0:0:0:0:
256,192,189383,5,0,0:0:0:0:
256,192,189460,5,8,0:0:0:0:
256,192,189537,5,8,0:0:0:0:
256,192,189614,5,8,0:0:0:0:
256,192,189691,5,8,0:0:0:0:
256,192,189768,5,8,0:0:0:0:
256,192,189845,5,8,0:0:0:0:
256,192,189922,5,0,0:0:0:0:
256,192,189998,5,0,0:0:0:0:
256,192,190075,5,0,0:0:0:0:
256,192,190152,5,0,0:0:0:0:
256,192,190229,5,0,0:0:0:0:
256,192,190306,5,0,0:0:0:0:
256,192,190383,5,0,0:0:0:0:
256,192,190460,5,0,0:0:0:0:
256,192,190537,5,0,0:0:0:0:
256,192,190614,5,0,0:0:0:0:
256,192,190691,5,0,0:0:0:0:
256,192,190768,5,0,0:0:0:0:
256,192,190845,5,8,0:0:0:0:
256,192,190922,5,8,0:0:0:0:
256,192,190998,5,8,0:0:0:0:
256,192,191075,5,8,0:0:0:0:
256,192,191152,5,0,0:0:0:0:
256,192,191229,5,0,0:0:0:0:
256,192,191306,5,8,0:0:0:0:
256,192,191364,5,8,0:0:0:0:
256,192,191422,5,8,0:0:0:0:
256,192,191479,5,8,0:0:0:0:
256,192,191537,5,0,0:0:0:0:
256,192,191595,5,0,0:0:0:0:
256,192,191652,5,0,0:0:0:0:
256,192,191710,5,0,0:0:0:0:
256,192,191768,5,8,0:0:0:0:
256,192,191825,5,0,0:0:0:0:
256,192,191883,5,8,0:0:0:0:
256,192,191941,5,8,0:0:0:0:
256,192,191998,5,0,0:0:0:0:
256,192,192056,5,8,0:0:0:0:
256,192,192114,5,0,0:0:0:0:
256,192,192172,5,0,0:0:0:0:
256,192,192229,5,8,0:0:0:0:
256,192,192287,5,8,0:0:0:0:
256,192,192345,5,0,0:0:0:0:
256,192,192402,5,0,0:0:0:0:
256,192,192460,5,8,0:0:0:0:
256,192,192518,5,0,0:0:0:0:
256,192,192575,5,8,0:0:0:0:
256,192,192633,5,0,0:0:0:0:
256,192,192691,5,8,0:0:0:0:
256,192,192748,5,0,0:0:0:0:
256,192,192806,5,8,0:0:0:0:
256,192,192864,5,8,0:0:0:0:
256,192,192922,5,0,0:0:0:0:
256,192,192979,5,0,0:0:0:0:
256,192,193037,5,8,0:0:0:0:
256,192,193095,5,0,0:0:0:0:
256,192,193152,5,8,0:0:0:0:
256,192,193210,5,8,0:0:0:0:
256,192,193268,5,0,0:0:0:0:
256,192,193325,5,0,0:0:0:0:
256,192,193383,5,8,0:0:0:0:
256,192,193441,5,8,0:0:0:0:
256,192,193498,5,8,0:0:0:0:
256,192,193556,5,8,0:0:0:0:
256,192,193614,5,0,0:0:0:0:
256,192,193672,5,0,0:0:0:0:
256,192,193729,5,8,0:0:0:0:
256,192,193787,5,0,0:0:0:0:
256,192,193845,5,0,0:0:0:0:
256,192,193902,5,0,0:0:0:0:
256,192,193960,5,8,0:0:0:0:
256,192,194018,5,8,0:0:0:0:
256,192,194075,5,0,0:0:0:0:
256,192,194133,5,8,0:0:0:0:
256,192,194191,5,0,0:0:0:0:
256,192,194248,5,0,0:0:0:0:
256,192,194306,5,8,0:0:0:0:
256,192,194364,5,8,0:0:0:0:
256,192,194422,5,0,0:0:0:0:
256,192,194479,5,0,0:0:0:0:
256,192,194537,5,8,0:0:0:0:
256,192,194595,5,0,0:0:0:0:
256,192,194652,5,8,0:0:0:0:
256,192,194710,5,8,0:0:0:0:
256,192,194768,5,0,0:0:0:0:
256,192,194825,5,8,0:0:0:0:
256,192,194883,5,0,0:0:0:0:
256,192,194941,5,0,0:0:0:0:
256,192,194998,5,8,0:0:0:0:
256,192,195056,5,8,0:0:0:0:
256,192,195114,5,8,0:0:0:0:
256,192,195172,5,8,0:0:0:0:
256,192,195229,5,0,0:0:0:0:
256,192,195287,5,0,0:0:0:0:
256,192,195345,5,0,0:0:0:0:
256,192,195402,5,0,0:0:0:0:
256,192,195460,5,8,0:0:0:0:
256,192,195537,5,8,0:0:0:0:
256,192,195614,5,0,0:0:0:0:
256,192,195691,5,0,0:0:0:0:
256,192,195768,5,0,0:0:0:0:
256,192,195845,5,0,0:0:0:0:
256,192,195922,5,8,0:0:0:0:
256,192,195998,5,8,0:0:0:0:
256,192,196075,5,0,0:0:0:0:
256,192,196152,5,0,0:0:0:0:
256,192,196229,5,0,0:0:0:0:
256,192,196306,5,0,0:0:0:0:
256,192,196383,5,8,0:0:0:0:
256,192,196460,5,8,0:0:0:0:
256,192,196537,5,8,0:0:0:0:
256,192,196614,5,8,0:0:0:0:
256,192,196691,5,0,0:0:0:0:
256,192,196768,5,0,0:0:0:0:
256,192,196845,5,8,0:0:0:0:
256,192,196922,5,8,0:0:0:0:
256,192,196998,5,8,0:0:0:0:
256,192,197075,5,8,0:0:0:0:
256,192,197152,5,8,0:0:0:0:
256,192,197229,5,8,0:0:0:0:
256,192,197306,5,8,0:0:0:0:
256,192,197383,5,8,0:0:0:0:
256,192,197460,5,8,0:0:0:0:
256,192,197537,5,8,0:0:0:0:
256,192,197614,5,0,0:0:0:0:
256,192,197691,5,0,0:0:0:0:
256,192,197768,5,0,0:0:0:0:
256,192,197845,5,0,0:0:0:0:
256,192,197922,5,0,0:0:0:0:
256,192,197998,5,0,0:0:0:0:
256,192,198075,5,0,0:0:0:0:
256,192,198152,5,0,0:0:0:0:
256,192,198229,5,8,0:0:0:0:
256,192,198306,5,8,0:0:0:0:
256,192,198383,5,0,0:0:0:0:
256,192,198460,5,0,0:0:0:0:
256,192,198537,5,0,0:0:0:0:
256,192,198614,5,0,0:0:0:0:
256,192,198691,5,0,0:0:0:0:
256,192,198768,5,0,0:0:0:0:
256,192,198845,5,0,0:0:0:0:
256,192,198922,5,0,0:0:0:0:
256,192,198998,5,0,0:0:0:0:
256,192,199075,5,0,0:0:0:0:
256,192,199152,5,0,0:0:0:0:
256,192,199229,5,0,0:0:0:0:
256,192,199306,5,0,0:0:0:0:
256,192,199383,5,0,0:0:0:0:
256,192,199460,5,0,0:0:0:0:
256,192,199537,5,0,0:0:0:0:
256,192,199614,5,8,0:0:0:0:
256,192,199691,5,8,0:0:0:0:
256,192,199768,5,0,0:0:0:0:
256,192,199845,5,0,0:0:0:0:
256,192,199922,5,0,0:0:0:0:
256,192,199998,5,0,0:0:0:0:
256,192,200075,5,8,0:0:0:0:
256,192,200152,5,0,0:0:0:0:
256,192,200229,5,0,0:0:0:0:
256,192,200306,5,8,0:0:0:0:
256,192,200383,5,8,0:0:0:0:
256,192,200460,5,0,0:0:0:0:
256,192,200537,5,0,0:0:0:0:
256,192,200614,5,0,0:0:0:0:
256,192,200691,5,0,0:0:0:0:
256,192,200768,5,8,0:0:0:0:
256,192,200845,5,8,0:0:0:0:
256,192,200922,5,8,0:0:0:0:
256,192,200998,5,0,0:0:0:0:
256,192,201075,5,0,0:0:0:0:
256,192,201152,5,0,0:0:0:0:
256,192,201229,5,8,0:0:0:0:
256,192,201306,5,0,0:0:0:0:
256,192,201383,5,0,0:0:0:0:
256,192,201460,5,8,0:0:0:0:
256,192,201537,5,8,0:0:0:0:
256,192,201614,5,8,0:0:0:0:
256,192,201691,5,8,0:0:0:0:
256,192,201768,5,0,0:0:0:0:
256,192,201845,5,0,0:0:0:0:
256,192,201922,5,8,0:0:0:0:
256,192,202152,5,0,0:0:0:0:
256,192,202383,5,0,0:0:0:0:
256,192,202614,5,8,0:0:0:0:
256,192,202845,5,8,0:0:0:0:
256,192,202922,5,8,0:0:0:0:
256,192,202998,5,0,0:0:0:0:
256,192,203075,5,0,0:0:0:0:
256,192,203152,5,0,0:0:0:0:
256,192,203229,5,0,0:0:0:0:
256,192,203306,5,8,0:0:0:0:
256,192,203383,5,8,0:0:0:0:
256,192,203460,5,0,0:0:0:0:
256,192,203537,5,0,0:0:0:0:
256,192,203614,5,0,0:0:0:0:
256,192,203691,5,0,0:0:0:0:
256,192,203768,5,8,0:0:0:0:
256,192,203845,5,8,0:0:0:0:
256,192,203922,5,8,0:0:0:0:
256,192,203998,5,8,0:0:0:0:
256,192,204075,5,0,0:0:0:0:
256,192,204152,5,0,0:0:0:0:
256,192,204229,5,8,0:0:0:0:
256,192,204306,5,8,0:0:0:0:
256,192,204383,5,8,0:0:0:0:
256,192,204460,5,8,0:0:0:0:
256,192,204537,5,8,0:0:0:0:
256,192,204614,5,8,0:0:0:0:
256,192,204691,5,0,0:0:0:0:
256,192,204768,5,0,0:0:0:0:
256,192,204845,5,0,0:0:0:0:
256,192,204922,5,0,0:0:0:0:
256,192,204998,5,0,0:0:0:0:
256,192,205075,5,0,0:0:0:0:
256,192,205152,5,0,0:0:0:0:
256,192,205229,5,0,0:0:0:0:
256,192,205306,5,0,0:0:0:0:
256,192,205383,5,0,0:0:0:0:
256,192,205460,5,0,0:0:0:0:
256,192,205537,5,0,0:0:0:0:
256,192,205614,5,8,0:0:0:0:
256,192,205691,5,8,0:0:0:0:
256,192,205768,5,0,0:0:0:0:
256,192,205845,5,0,0:0:0:0:
256,192,205922,5,0,0:0:0:0:
256,192,205998,5,0,0:0:0:0:
256,192,206075,5,0,0:0:0:0:
256,192,206152,5,0,0:0:0:0:
256,192,206229,5,0,0:0:0:0:
256,192,206306,5,0,0:0:0:0:
256,192,206383,5,0,0:0:0:0:
256,192,206460,5,0,0:0:0:0:
256,192,206537,5,0,0:0:0:0:
256,192,206614,5,0,0:0:0:0:
256,192,206691,5,0,0:0:0:0:
256,192,206768,5,0,0:0:0:0:
256,192,206845,5,0,0:0:0:0:
256,192,206922,5,0,0:0:0:0:
256,192,206998,5,8,0:0:0:0:
256,192,207075,5,8,0:0:0:0:
256,192,207152,5,8,0:0:0:0:
256,192,207229,5,0,0:0:0:0:
256,192,207306,5,0,0:0:0:0:
256,192,207383,5,0,0:0:0:0:
256,192,207460,5,8,0:0:0:0:
256,192,207537,5,8,0:0:0:0:
256,192,207614,5,0,0:0:0:0:
256,192,207691,5,0,0:0:0:0:
256,192,207768,5,8,0:0:0:0:
256,192,207845,5,8,0:0:0:0:
256,192,207922,5,0,0:0:0:0:
256,192,207998,5,0,0:0:0:0:
256,192,208075,5,0,0:0:0:0:
256,192,208152,5,8,0:0:0:0:
256,192,208229,5,8,0:0:0:0:
256,192,208306,5,8,0:0:0:0:
256,192,208383,5,0,0:0:0:0:
256,192,208460,5,0,0:0:0:0:
256,192,208537,5,0,0:0:0:0:
256,192,208614,5,0,0:0:0:0:
256,192,208691,5,0,0:0:0:0:
256,192,208768,5,0,0:0:0:0:
256,192,208845,5,8,0:0:0:0:
256,192,208922,5,8,0:0:0:0:
256,192,208998,5,0,0:0:0:0:
256,192,209075,5,8,0:0:0:0:
256,192,209133,5,8,0:0:0:0:
256,192,209191,5,8,0:0:0:0:
256,192,209248,5,8,0:0:0:0:
256,192,209306,5,0,0:0:0:0:
256,192,209364,5,0,0:0:0:0:
256,192,209422,5,0,0:0:0:0:
256,192,209479,5,0,0:0:0:0:
256,192,209537,5,8,0:0:0:0:
256,192,209595,5,8,0:0:0:0:
256,192,209652,5,0,0:0:0:0:
256,192,209710,5,0,0:0:0:0:
256,192,209768,5,8,0:0:0:0:
256,192,209825,5,8,0:0:0:0:
256,192,209883,5,0,0:0:0:0:
256,192,209941,5,0,0:0:0:0:
256,192,209998,5,8,0:0:0:0:
256,192,210056,5,8,0:0:0:0:
256,192,210114,5,8,0:0:0:0:
256,192,210172,5,8,0:0:0:0:
256,192,210229,5,0,0:0:0:0:
256,192,210345,5,0,0:0:0:0:
256,192,210460,5,0,0:0:0:0:
256,192,210575,5,0,0:0:0:0:
256,192,210691,5,8,0:0:0:0:
256,192,210806,5,0,0:0:0:0:
256,192,210922,5,0,0:0:0:0:
256,192,211037,5,0,0:0:0:0:
256,192,211152,5,8,0:0:0:0:
256,192,211268,5,8,0:0:0:0:
256,192,211383,5,0,0:0:0:0:
256,192,211498,5,0,0:0:0:0:
256,192,211614,5,8,0:0:0:0:
256,192,211729,5,8,0:0:0:0:
256,192,211845,5,8,0:0:0:0:
256,192,211960,5,0,0:0:0:0:
256,192,212075,5,0,0:0:0:0:
256,192,212191,5,0,0:0:0:0:
256,192,212306,5,8,0:0:0:0:
256,192,212422,5,0,0:0:0:0:
256,192,212537,5,8,0:0:0:0:
256,192,212652,5,0,0:0:0:0:
256,192,212768,5,0,0:0:0:0:
256,192,212883,5,0,0:0:0:0:
256,192,212998,5,8,0:0:0:0:
256,192,213114,5,0,0:0:0:0:
256,192,213229,5,0,0:0:0:0:
256,192,213345,5,0,0:0:0:0:
256,192,213460,5,8,0:0:0:0:
256,192,213575,5,0,0:0:0:0:
256,192,213691,5,0,0:0:0:0:
256,192,213748,5,0,0:0:0:0:
256,192,213806,5,0,0:0:0:0:
256,192,213864,5,0,0:0:0:0:
256,192,213922,5,0,0:0:0:0:
256,192,214037,5,0,0:0:0:0:
256,192,214152,5,0,0:0:0:0:
256,192,214268,5,0,0:0:0:0:
256,192,214383,5,8,0:0:0:0:
256,192,214498,5,8,0:0:0:0:
256,192,214614,5,0,0:0:0:0:
256,192,214729,5,0,0:0:0:0:
256,192,214845,5,8,0:0:0:0:
256,192,214960,5,8,0:0:0:0:
256,192,215075,5,8,0:0:0:0:
256,192,215191,5,0,0:0:0:0:
256,192,215306,5,8,0:0:0:0:
256,192,215422,5,0,0:0:0:0:
256,192,215537,5,8,0:0:0:0:
256,192,215652,5,0,0:0:0:0:
256,192,215768,5,8,0:0:0:0:
256,192,215883,5,8,0:0:0:0:
256,192,215998,5,0,0:0:0:0:
256,192,216114,5,8,0:0:0:0:
256,192,216229,5,8,0:0:0:0:
256,192,216345,5,8,0:0:0:0:
256,192,216460,5,0,0:0:0:0:
256,192,216518,5,0,0:0:0:0:
256,192,216575,5,0,0:0:0:0:
256,192,216633,5,0,0:0:0:0:
256,192,216691,5,8,0:0:0:0:
256,192,216922,5,0,0:0:0:0:
256,192,217152,5,0,0:0:0:0:
256,192,217383,5,0,0:0:0:0:
256,192,217614,5,0,0:0:0:0:
256,192,217691,5,0,0:0:0:0:
256,192,217768,5,0,0:0:0:0:
256,192,217845,5,0,0:0:0:0:
256,192,217922,5,0,0:0:0:0:
256,192,217998,5,0,0:0:0:0:
256,192,218075,5,8,0:0:0:0:
256,192,218152,5,8,0:0:0:0:
256,192,218229,5,0,0:0:0:0:
256,192,218306,5,0,0:0:0:0:
256,192,218383,5,0,0:0:0:0:
256,192,218460,5,0,0:0:0:0:
256,192,218537,5,8,0:0:0:0:
256,192,218614,5,8,0:0:0:0:
256,192,218691,5,8,0:0:0:0:
256,192,218768,5,8,0:0:0:0:
256,192,218845,5,0,0:0:0:0:
256,192,218922,5,0,0:0:0:0:
256,192,218998,5,8,0:0:0:0:
256,192,219075,5,8,0:0:0:0:
256,192,219152,5,8,0:0:0:0:
256,192,219229,5,8,0:0:0:0:
256,192,219306,5,8,0:0:0:0:
256,192,219383,5,8,0:0:0:0:
256,192,219460,5,0,0:0:0:0:
256,192,219537,5,0,0:0:0:0:
256,192,219614,5,0,0:0:0:0:
256,192,219691,5,0,0:0:0:0:
256,192,219768,5,0,0:0:0:0:
256,192,219845,5,0,0:0:0:0:
256,192,219922,5,0,0:0:0:0:
256,192,219998,5,0,0:0:0:0:
256,192,220075,5,0,0:0:0:0:
256,192,220152,5,0,0:0:0:0:
256,192,220229,5,0,0:0:0:0:
256,192,220306,5,0,0:0:0:0:
256,192,220383,5,8,0:0:0:0:
256,192,220460,5,8,0:0:0:0:
256,192,220537,5,0,0:0:0:0:
256,192,220614,5,0,0:0:0:0:
256,192,220691,5,0,0:0:0:0:
256,192,220768,5,0,0:0:0:0:
256,192,220845,5,8,0:0:0:0:
256,192,220902,5,8,0:0:0:0:
256,192,220960,5,8,0:0:0:0:
256,192,221018,5,8,0:0:0:0:
256,192,221075,5,0,0:0:0:0:
256,192,221133,5,0,0:0:0:0:
256,192,221191,5,0,0:0:0:0:
256,192,221306,5,4,0:0:0:0:
256,192,221537,5,4,0:0:0:0:
256,192,221998,5,0,0:0:0:0:
256,192,222229,5,8,0:0:0:0:
256,192,222460,5,0,0:0:0:0:
256,192,222691,5,8,0:0:0:0:
256,192,222922,5,0,0:0:0:0:
256,192,223152,5,0,0:0:0:0:
256,192,223383,5,0,0:0:0:0:
256,192,223845,5,0,0:0:0:0:
256,192,224075,5,8,0:0:0:0:
256,192,224306,5,0,0:0:0:0:
256,192,224537,5,8,0:0:0:0:
256,192,224595,1,8,0:0:0:0:
256,192,224652,1,8,0:0:0:0:
256,192,224710,1,8,0:0:0:0:
256,192,224768,1,0,0:0:0:0:
256,192,224825,1,0,0:0:0:0:
256,192,224883,1,0,0:0:0:0:
256,192,224941,1,0,0:0:0:0:
256,192,224998,1,0,0:0:0:0:
256,192,225229,5,0,0:0:0:0:
256,192,225460,5,0,0:0:0:0:
256,192,225691,5,0,0:0:0:0:
256,192,225922,5,8,0:0:0:0:
256,192,225979,1,8,0:0:0:0:
256,192,226037,1,8,0:0:0:0:
256,192,226095,1,8,0:0:0:0:
256,192,226152,1,0,0:0:0:0:
256,192,226383,5,0,0:0:0:0:
256,192,226441,1,0,0:0:0:0:
256,192,226498,1,0,0:0:0:0:
256,192,226556,1,0,0:0:0:0:
256,192,226614,1,0,0:0:0:0:
256,192,226672,1,0,0:0:0:0:
256,192,226729,1,0,0:0:0:0:
256,192,226787,1,0,0:0:0:0:
256,192,226845,1,0,0:0:0:0:
256,192,226902,1,0,0:0:0:0:
256,192,226960,1,0,0:0:0:0:
256,192,227018,1,0,0:0:0:0:
256,192,227075,1,0,0:0:0:0:
256,192,227133,1,0,0:0:0:0:
256,192,227191,1,0,0:0:0:0:
256,192,227248,1,0,0:0:0:0:
256,192,227306,1,0,0:0:0:0:
256,192,227364,1,0,0:0:0:0:
256,192,227422,1,0,0:0:0:0:
256,192,227479,1,0,0:0:0:0:
256,192,227537,1,0,0:0:0:0:
256,192,227595,1,0,0:0:0:0:
256,192,227652,1,0,0:0:0:0:
256,192,227710,1,0,0:0:0:0:
256,192,227768,1,8,0:0:0:0:
256,192,227825,1,8,0:0:0:0:
256,192,227883,1,0,0:0:0:0:
256,192,227941,1,0,0:0:0:0:
256,192,227998,1,0,0:0:0:0:
256,192,228056,1,0,0:0:0:0:
256,192,228114,1,0,0:0:0:0:
256,192,228172,1,0,0:0:0:0:
256,192,228229,5,8,0:0:0:0:
256,192,228287,5,8,0:0:0:0:
256,192,228345,1,0,0:0:0:0:
256,192,228402,5,0,0:0:0:0:
256,192,228460,5,8,0:0:0:0:
256,192,228518,5,8,0:0:0:0:
256,192,228575,5,0,0:0:0:0:
256,192,228633,5,0,0:0:0:0:
256,192,228691,5,8,0:0:0:0:
256,192,229152,5,8,0:0:0:0:
256,192,229383,5,0,0:0:0:0:
256,192,229614,5,8,0:0:0:0:
256,192,230075,5,4,0:0:0:0:
256,192,230537,5,8,0:0:0:0:
256,192,230768,5,4,0:0:0:0:
256,192,230998,5,8,0:0:0:0:
256,192,231229,5,0,0:0:0:0:
256,192,231460,5,8,0:0:0:0:
256,192,231518,5,8,0:0:0:0:
256,192,231575,5,8,0:0:0:0:
256,192,231633,5,8,0:0:0:0:
256,192,231691,5,0,0:0:0:0:
256,192,231748,5,0,0:0:0:0:
256,192,231806,5,0,0:0:0:0:
256,192,231864,5,0,0:0:0:0:
256,192,231922,5,8,0:0:0:0:
256,192,231979,5,8,0:0:0:0:
256,192,232037,5,8,0:0:0:0:
256,192,232095,5,8,0:0:0:0:
256,192,232152,5,0,0:0:0:0:
256,192,232210,5,0,0:0:0:0:
256,192,232268,5,0,0:0:0:0:
256,192,232383,5,4,0:0:0:0:
256,192,232537,5,4,0:0:0:0:
256,192,232691,5,4,0:0:0:0:
256,192,232845,5,12,0:0:0:0:
256,192,233306,5,8,0:0:0:0:
256,192,233768,5,12,0:0:0:0:
256,192,233998,5,4,0:0:0:0:
256,192,234229,5,8,0:0:0:0:
256,192,234287,5,8,0:0:0:0:
256,192,234345,5,0,0:0:0:0:
256,192,234402,5,0,0:0:0:0:
256,192,234460,5,0,0:0:0:0:
256,192,234518,5,0,0:0:0:0:
256,192,234575,5,0,0:0:0:0:
256,192,234633,5,0,0:0:0:0:
256,192,234691,5,0,0:0:0:0:
256,192,234748,5,0,0:0:0:0:
256,192,234806,5,0,0:0:0:0:
256,192,234864,5,0,0:0:0:0:
256,192,234922,5,8,0:0:0:0:
256,192,234979,5,8,0:0:0:0:
256,192,235037,5,8,0:0:0:0:
256,192,235095,5,8,0:0:0:0:
256,192,235152,5,8,0:0:0:0:
256,192,235210,5,8,0:0:0:0:
256,192,235268,5,0,0:0:0:0:
256,192,235325,5,0,0:0:0:0:
256,192,235383,5,0,0:0:0:0:
256,192,235441,5,0,0:0:0:0:
256,192,235498,5,0,0:0:0:0:
256,192,235556,5,0,0:0:0:0:
256,192,235614,5,8,0:0:0:0:
256,192,235845,5,8,0:0:0:0:
256,192,236075,5,4,0:0:0:0:
256,192,236306,5,0,0:0:0:0:
256,192,236768,5,0,0:0:0:0:
256,192,236998,5,8,0:0:0:0:
256,192,237229,5,0,0:0:0:0:
256,192,237460,5,0,0:0:0:0:
256,192,237691,5,8,0:0:0:0:
256,192,237922,5,8,0:0:0:0:
256,192,238037,5,0,0:0:0:0:
256,192,238152,5,8,0:0:0:0:
256,192,238268,5,8,0:0:0:0:
256,192,238383,5,0,0:0:0:0:
256,192,238498,5,0,0:0:0:0:
256,192,238614,5,8,0:0:0:0:
256,192,238729,5,0,0:0:0:0:
256,192,238845,5,8,0:0:0:0:
256,192,238922,1,8,0:0:0:0:
256,192,238998,1,0,0:0:0:0:
256,192,239075,1,0,0:0:0:0:
256,192,239152,1,0,0:0:0:0:
256,192,239229,1,0,0:0:0:0:
256,192,239306,1,8,0:0:0:0:
256,192,239383,1,8,0:0:0:0:
256,192,239460,1,0,0:0:0:0:
256,192,239537,1,0,0:0:0:0:
256,192,239614,1,0,0:0:0:0:
256,192,239691,1,0,0:0:0:0:
256,192,239768,5,8,0:0:0:0:
256,192,239845,5,8,0:0:0:0:
256,192,239922,5,0,0:0:0:0:
256,192,239998,5,0,0:0:0:0:
256,192,240075,5,0,0:0:0:0:
256,192,240152,5,0,0:0:0:0:
256,192,240229,5,0,0:0:0:0:
256,192,240306,5,0,0:0:0:0:
256,192,240383,5,0,0:0:0:0:
256,192,240460,5,0,0:0:0:0:
256,192,240537,5,0,0:0:0:0:
256,192,240614,5,0,0:0:0:0:
256,192,240691,5,8,0:0:0:0:
256,192,240768,5,8,0:0:0:0:
256,192,240845,5,8,0:0:0:0:
256,192,240922,5,0,0:0:0:0:
256,192,240998,5,0,0:0:0:0:
256,192,241075,5,0,0:0:0:0:
256,192,241152,5,8,0:0:0:0:
256,192,241229,5,8,0:0:0:0:
256,192,241306,5,8,0:0:0:0:
256,192,241383,5,8,0:0:0:0:
256,192,241460,5,8,0:0:0:0:
256,192,241537,5,8,0:0:0:0:
256,192,241614,5,0,0:0:0:0:
256,192,241691,5,0,0:0:0:0:
256,192,241768,5,0,0:0:0:0:
256,192,241845,5,0,0:0:0:0:
256,192,241922,5,0,0:0:0:0:
256,192,241998,5,0,0:0:0:0:
256,192,242075,5,0,0:0:0:0:
256,192,242152,5,0,0:0:0:0:
256,192,242229,5,0,0:0:0:0:
256,192,242306,5,0,0:0:0:0:
256,192,242383,5,0,0:0:0:0:
256,192,242460,5,0,0:0:0:0:
256,192,242537,5,8,0:0:0:0:
256,192,242614,5,8,0:0:0:0:
256,192,242691,5,0,0:0:0:0:
256,192,242768,5,0,0:0:0:0:
256,192,242845,5,0,0:0:0:0:
256,192,242922,5,0,0:0:0:0:
256,192,242998,5,8,0:0:0:0:
256,192,243075,5,8,0:0:0:0:
256,192,243152,5,0,0:0:0:0:
256,192,243229,5,8,0:0:0:0:
256,192,243306,5,0,0:0:0:0:
256,192,243383,5,0,0:0:0:0:
256,192,243460,5,8,0:0:0:0:
256,192,243518,5,8,0:0:0:0:
256,192,243575,5,0,0:0:0:0:
256,192,243633,5,0,0:0:0:0:
256,192,243691,5,8,0:0:0:0:
256,192,243748,5,8,0:0:0:0:
256,192,243806,5,0,0:0:0:0:
256,192,243864,5,0,0:0:0:0:
256,192,243922,5,8,0:0:0:0:
256,192,243979,5,8,0:0:0:0:
256,192,244037,5,8,0:0:0:0:
256,192,244095,5,8,0:0:0:0:
256,192,244152,5,0,0:0:0:0:
256,192,244210,5,0,0:0:0:0:
256,192,244268,5,0,0:0:0:0:
256,192,244325,5,0,0:0:0:0:
256,192,244383,5,8,0:0:0:0:
256,192,244441,5,8,0:0:0:0:
256,192,244498,5,0,0:0:0:0:
256,192,244556,5,0,0:0:0:0:
256,192,244614,5,0,0:0:0:0:
256,192,244672,5,0,0:0:0:0:
256,192,244729,5,0,0:0:0:0:
256,192,244787,5,0,0:0:0:0:
256,192,244845,5,8,0:0:0:0:
256,192,244902,5,8,0:0:0:0:
256,192,244960,5,8,0:0:0:0:
256,192,245018,5,8,0:0:0:0:
256,192,245075,5,8,0:0:0:0:
256,192,245133,5,8,0:0:0:0:
256,192,245191,5,8,0:0:0:0:
256,192,245248,5,8,0:0:0:0:
256,192,245306,5,0,0:0:0:0:
256,192,245364,5,0,0:0:0:0:
256,192,245422,5,0,0:0:0:0:
256,192,245479,5,0,0:0:0:0:
256,192,245537,5,0,0:0:0:0:
256,192,245595,5,0,0:0:0:0:
256,192,245652,5,0,0:0:0:0:
256,192,245710,5,0,0:0:0:0:
256,192,245768,5,8,0:0:0:0:
256,192,245825,5,8,0:0:0:0:
256,192,245883,5,8,0:0:0:0:
256,192,245941,5,8,0:0:0:0:
256,192,245998,5,8,0:0:0:0:
256,192,246056,5,8,0:0:0:0:
256,192,246114,5,0,0:0:0:0:
256,192,246172,5,0,0:0:0:0:
256,192,246229,5,8,0:0:0:0:
256,192,246287,1,0,0:0:0:0:
256,192,246345,1,8,0:0:0:0:
256,192,246402,1,8,0:0:0:0:
256,192,246460,1,0,0:0:0:0:
256,192,246518,1,0,0:0:0:0:
256,192,246575,1,0,0:0:0:0:
256,192,246633,1,0,0:0:0:0:
256,192,246691,1,8,0:0:0:0:
256,192,246748,1,8,0:0:0:0:
256,192,246806,1,8,0:0:0:0:
256,192,246864,1,8,0:0:0:0:
256,192,246922,1,0,0:0:0:0:
256,192,246979,1,0,0:0:0:0:
256,192,247037,1,0,0:0:0:0:
256,192,247095,1,0,0:0:0:0:
256,192,247152,1,8,0:0:0:0:
256,192,247383,5,8,0:0:0:0:
256,192,247441,5,0,0:0:0:0:
256,192,247498,5,8,0:0:0:0:
256,192,247556,5,0,0:0:0:0:
256,192,247614,5,8,0:0:0:0:
256,192,247672,5,8,0:0:0:0:
256,192,247729,5,0,0:0:0:0:
256,192,247787,5,0,0:0:0:0:
256,192,247845,5,8,0:0:0:0:
256,192,247902,5,0,0:0:0:0:
256,192,247960,5,8,0:0:0:0:
256,192,248018,5,0,0:0:0:0:
256,192,248075,5,8,0:0:0:0:
256,192,248133,5,8,0:0:0:0:
256,192,248191,5,0,0:0:0:0:
256,192,248248,5,0,0:0:0:0:
256,192,248306,5,8,0:0:0:0:
256,192,248364,5,0,0:0:0:0:
256,192,248422,5,8,0:0:0:0:
256,192,248479,5,0,0:0:0:0:
256,192,248537,5,8,0:0:0:0:
256,192,248595,5,0,0:0:0:0:
256,192,248652,5,8,0:0:0:0:
256,192,248710,5,8,0:0:0:0:
256,192,248768,5,8,0:0:0:0:
256,192,248825,5,0,0:0:0:0:
256,192,248883,5,8,0:0:0:0:
256,192,248941,5,0,0:0:0:0:
256,192,248998,5,8,0:0:0:0:
256,192,249056,5,8,0:0:0:0:
256,192,249114,5,0,0:0:0:0:
256,192,249172,5,0,0:0:0:0:
256,192,249229,5,8,0:0:0:0:
256,192,249287,5,0,0:0:0:0:
256,192,249345,5,8,0:0:0:0:
256,192,249402,5,0,0:0:0:0:
256,192,249460,5,8,0:0:0:0:
256,192,249518,5,8,0:0:0:0:
256,192,249575,5,0,0:0:0:0:
256,192,249633,5,0,0:0:0:0:
256,192,249691,5,8,0:0:0:0:
256,192,249748,5,0,0:0:0:0:
256,192,249806,5,8,0:0:0:0:
256,192,249864,5,0,0:0:0:0:
256,192,249922,5,8,0:0:0:0:
256,192,249979,5,8,0:0:0:0:
256,192,250037,5,8,0:0:0:0:
256,192,250095,5,8,0:0:0:0:
256,192,250152,5,0,0:0:0:0:
256,192,250210,5,0,0:0:0:0:
256,192,250268,5,8,0:0:0:0:
256,192,250325,5,0,0:0:0:0:
256,192,250383,5,8,0:0:0:0:
256,192,250441,5,8,0:0:0:0:
256,192,250498,5,8,0:0:0:0:
256,192,250556,5,8,0:0:0:0:
256,192,250614,5,0,0:0:0:0:
256,192,250672,5,0,0:0:0:0:
256,192,250729,5,0,0:0:0:0:
256,192,250787,5,0,0:0:0:0:
256,192,250845,5,8,0:0:0:0:
256,192,250902,5,8,0:0:0:0:
256,192,250960,5,8,0:0:0:0:
256,192,251018,5,8,0:0:0:0:
256,192,251075,5,0,0:0:0:0:
256,192,251133,5,0,0:0:0:0:
256,192,251191,5,0,0:0:0:0:
256,192,251248,5,0,0:0:0:0:
256,192,251306,5,0,0:0:0:0:
256,192,251364,5,0,0:0:0:0:
256,192,251422,5,0,0:0:0:0:
256,192,251479,5,0,0:0:0:0:
256,192,251537,5,8,0:0:0:0:
256,192,251595,5,8,0:0:0:0:
256,192,251652,5,8,0:0:0:0:
256,192,251710,5,8,0:0:0:0:
256,192,251768,5,8,0:0:0:0:
256,192,251825,5,8,0:0:0:0:
256,192,251883,5,0,0:0:0:0:
256,192,251941,5,0,0:0:0:0:
256,192,251998,5,0,0:0:0:0:
256,192,252056,5,0,0:0:0:0:
256,192,252114,5,0,0:0:0:0:
256,192,252172,5,0,0:0:0:0:
256,192,252229,5,8,0:0:0:0:
256,192,252287,5,8,0:0:0:0:
256,192,252345,5,8,0:0:0:0:
256,192,252402,5,8,0:0:0:0:
256,192,252460,5,8,0:0:0:0:
256,192,252518,5,8,0:0:0:0:
256,192,252575,5,0,0:0:0:0:
256,192,252633,5,0,0:0:0:0:
256,192,252691,5,8,0:0:0:0:
256,192,252748,5,0,0:0:0:0:
256,192,252806,5,8,0:0:0:0:
256,192,252864,5,0,0:0:0:0:
256,192,252922,5,8,0:0:0:0:
256,192,252979,5,8,0:0:0:0:
256,192,253037,5,0,0:0:0:0:
256,192,253095,5,0,0:0:0:0:
256,192,253152,5,8,0:0:0:0:
256,192,253210,5,0,0:0:0:0:
256,192,253268,5,8,0:0:0:0:
256,192,253325,5,8,0:0:0:0:
256,192,253383,5,8,0:0:0:0:
256,192,253441,5,0,0:0:0:0:
256,192,253498,5,8,0:0:0:0:
256,192,253556,5,0,0:0:0:0:
256,192,253614,5,8,0:0:0:0:
256,192,253672,5,0,0:0:0:0:
256,192,253729,5,8,0:0:0:0:
256,192,253787,5,8,0:0:0:0:
256,192,253845,5,0,0:0:0:0:
256,192,253902,5,0,0:0:0:0:
256,192,253960,5,8,0:0:0:0:
256,192,254018,5,0,0:0:0:0:
256,192,254075,5,8,0:0:0:0:
256,192,254133,5,8,0:0:0:0:
256,192,254191,5,8,0:0:0:0:
256,192,254248,5,8,0:0:0:0:
256,192,254306,5,0,0:0:0:0:
256,192,254364,5,0,0:0:0:0:
256,192,254422,5,8,0:0:0:0:
256,192,254479,5,8,0:0:0:0:
256,192,254537,5,0,0:0:0:0:
256,192,254614,1,0,0:0:0:0:
256,192,254691,1,0,0:0:0:0:
256,192,254768,1,0,0:0:0:0:
256,192,254845,1,0,0:0:0:0:
256,192,254922,1,0,0:0:0:0:
256,192,254998,1,0,0:0:0:0:
256,192,255075,1,0,0:0:0:0:
256,192,255152,1,0,0:0:0:0:
256,192,255229,1,0,0:0:0:0:
256,192,255306,1,0,0:0:0:0:
256,192,255383,1,0,0:0:0:0:
256,192,255460,1,8,0:0:0:0:
256,192,255537,1,8,0:0:0:0:
256,192,255614,1,0,0:0:0:0:
256,192,255691,1,0,0:0:0:0:
256,192,255768,1,0,0:0:0:0:
256,192,255845,1,0,0:0:0:0:
256,192,255922,1,0,0:0:0:0:
256,192,255998,1,0,0:0:0:0:
256,192,256075,1,0,0:0:0:0:
256,192,256152,1,0,0:0:0:0:
256,192,256229,1,0,0:0:0:0:
256,192,256306,1,0,0:0:0:0:
256,192,256383,1,0,0:0:0:0:
256,192,256460,1,0,0:0:0:0:
256,192,256537,1,0,0:0:0:0:
256,192,256614,1,0,0:0:0:0:
256,192,256691,1,0,0:0:0:0:
256,192,256768,1,0,0:0:0:0:
256,192,256845,1,0,0:0:0:0:
256,192,256922,1,0,0:0:0:0:
256,192,256998,1,0,0:0:0:0:
256,192,257075,1,0,0:0:0:0:
256,192,257152,1,0,0:0:0:0:
256,192,257229,1,0,0:0:0:0:
256,192,257306,1,8,0:0:0:0:
256,192,257383,1,0,0:0:0:0:
256,192,257460,1,0,0:0:0:0:
256,192,257537,1,0,0:0:0:0:
256,192,257614,1,0,0:0:0:0:
256,192,257691,1,0,0:0:0:0:
256,192,257768,5,8,0:0:0:0:
256,192,257825,1,8,0:0:0:0:
256,192,257883,1,8,0:0:0:0:
256,192,257941,1,8,0:0:0:0:
256,192,257998,1,8,0:0:0:0:
256,192,258056,1,8,0:0:0:0:
256,192,258114,1,8,0:0:0:0:
256,192,258172,1,8,0:0:0:0:
256,192,258229,1,0,0:0:0:0:
256,192,258287,1,0,0:0:0:0:
256,192,258345,1,0,0:0:0:0:
256,192,258402,1,0,0:0:0:0:
256,192,258460,1,0,0:0:0:0:
256,192,258518,1,0,0:0:0:0:
256,192,258575,1,0,0:0:0:0:
256,192,258633,1,0,0:0:0:0:
256,192,258691,1,8,0:0:0:0:
256,192,258748,1,8,0:0:0:0:
256,192,258806,1,0,0:0:0:0:
256,192,258864,1,0,0:0:0:0:
256,192,258922,1,8,0:0:0:0:
256,192,258979,1,8,0:0:0:0:
256,192,259037,1,0,0:0:0:0:
256,192,259095,1,0,0:0:0:0:
256,192,259152,1,8,0:0:0:0:
256,192,259210,1,0,0:0:0:0:
256,192,259268,1,0,0:0:0:0:
256,192,259325,1,0,0:0:0:0:
256,192,259383,1,8,0:0:0:0:
256,192,259441,1,8,0:0:0:0:
256,192,259498,1,0,0:0:0:0:
256,192,259556,1,0,0:0:0:0:
256,192,259614,1,8,0:0:0:0:
256,192,259672,1,8,0:0:0:0:
256,192,259729,1,8,0:0:0:0:
256,192,259787,1,0,0:0:0:0:
256,192,259845,1,8,0:0:0:0:
256,192,259902,1,8,0:0:0:0:
256,192,259960,1,8,0:0:0:0:
256,192,260018,1,8,0:0:0:0:
256,192,260075,1,0,0:0:0:0:
256,192,260133,1,0,0:0:0:0:
256,192,260191,1,0,0:0:0:0:
256,192,260248,1,0,0:0:0:0:
256,192,260306,1,8,0:0:0:0:
256,192,260364,1,8,0:0:0:0:
256,192,260422,1,0,0:0:0:0:
256,192,260479,1,0,0:0:0:0:
256,192,260537,1,8,0:0:0:0:
256,192,260595,1,8,0:0:0:0:
256,192,260652,1,8,0:0:0:0:
256,192,260710,1,8,0:0:0:0:
256,192,260768,1,0,0:0:0:0:
256,192,260825,1,0,0:0:0:0:
256,192,260883,1,0,0:0:0:0:
256,192,260941,1,0,0:0:0:0:
256,192,260998,1,8,0:0:0:0:
256,192,261056,1,8,0:0:0:0:
256,192,261114,1,0,0:0:0:0:
256,192,261172,1,0,0:0:0:0:
256,192,261229,1,8,0:0:0:0:
256,192,261287,1,0,0:0:0:0:
256,192,261345,1,0,0:0:0:0:
256,192,261402,1,0,0:0:0:0:
256,192,261460,1,8,0:0:0:0:
256,192,261518,1,8,0:0:0:0:
256,192,261575,1,8,0:0:0:0:
256,192,261633,1,8,0:0:0:0:
256,192,261691,1,0,0:0:0:0:
256,192,261748,1,0,0:0:0:0:
256,192,261806,1,0,0:0:0:0:
256,192,261864,1,0,0:0:0:0:
256,192,261922,1,8,0:0:0:0:
256,192,262152,5,8,0:0:0:0:
256,192,262210,1,0,0:0:0:0:
256,192,262268,1,8,0:0:0:0:
256,192,262325,1,0,0:0:0:0:
256,192,262383,1,8,0:0:0:0:
256,192,262441,1,8,0:0:0:0:
256,192,262498,1,0,0:0:0:0:
256,192,262556,1,0,0:0:0:0:
256,192,262614,1,8,0:0:0:0:
256,192,262672,1,0,0:0:0:0:
256,192,262729,1,8,0:0:0:0:
256,192,262787,1,0,0:0:0:0:
256,192,262845,1,8,0:0:0:0:
256,192,262902,1,8,0:0:0:0:
256,192,262960,1,0,0:0:0:0:
256,192,263018,1,0,0:0:0:0:
256,192,263075,1,8,0:0:0:0:
256,192,263133,1,0,0:0:0:0:
256,192,263191,1,8,0:0:0:0:
256,192,263248,1,0,0:0:0:0:
256,192,263306,1,8,0:0:0:0:
256,192,263364,1,0,0:0:0:0:
256,192,263422,1,8,0:0:0:0:
256,192,263479,1,8,0:0:0:0:
256,192,263537,1,8,0:0:0:0:
256,192,263595,1,0,0:0:0:0:
256,192,263652,1,8,0:0:0:0:
256,192,263710,1,0,0:0:0:0:
256,192,263768,1,8,0:0:0:0:
256,192,263825,1,8,0:0:0:0:
256,192,263883,1,8,0:0:0:0:
256,192,263941,1,8,0:0:0:0:
256,192,263998,1,0,0:0:0:0:
256,192,264056,1,0,0:0:0:0:
256,192,264114,1,8,0:0:0:0:
256,192,264172,1,0,0:0:0:0:
256,192,264229,1,8,0:0:0:0:
256,192,264287,1,8,0:0:0:0:
256,192,264345,1,0,0:0:0:0:
256,192,264402,1,0,0:0:0:0:
256,192,264460,1,8,0:0:0:0:
256,192,264518,1,8,0:0:0:0:
256,192,264575,1,8,0:0:0:0:
256,192,264633,1,8,0:0:0:0:
256,192,264691,1,0,0:0:0:0:
256,192,264748,1,0,0:0:0:0:
256,192,264806,1,8,0:0:0:0:
256,192,264864,1,0,0:0:0:0:
256,192,264922,1,8,0:0:0:0:
256,192,264979,1,8,0:0:0:0:
256,192,265037,1,0,0:0:0:0:
256,192,265095,1,0,0:0:0:0:
256,192,265152,1,8,0:0:0:0:
256,192,265210,1,8,0:0:0:0:
256,192,265268,1,0,0:0:0:0:
256,192,265325,1,0,0:0:0:0:
256,192,265383,1,8,0:0:0:0:
256,192,265441,1,0,0:0:0:0:
256,192,265498,1,8,0:0:0:0:
256,192,265556,1,8,0:0:0:0:
256,192,265614,1,4,0:0:0:0:
256,192,265845,5,4,0:0:0:0:
256,192,266306,1,0,0:0:0:0:
256,192,266537,1,8,0:0:0:0:
256,192,266768,1,0,0:0:0:0:
256,192,266998,1,8,0:0:0:0:
256,192,267229,1,8,0:0:0:0:
256,192,267460,5,0,0:0:0:0:
256,192,267691,1,0,0:0:0:0:
256,192,268152,1,0,0:0:0:0:
256,192,268383,5,8,0:0:0:0:
256,192,268614,1,0,0:0:0:0:
256,192,268672,1,0,0:0:0:0:
256,192,268729,1,0,0:0:0:0:
256,192,268787,1,0,0:0:0:0:
256,192,268845,1,0,0:0:0:0:
256,192,269075,1,0,0:0:0:0:
256,192,269306,5,0,0:0:0:0:
256,192,269383,1,0,0:0:0:0:
256,192,269460,1,0,0:0:0:0:
256,192,269537,1,0,0:0:0:0:
256,192,269614,1,0,0:0:0:0:
256,192,269691,1,0,0:0:0:0:
256,192,269768,1,0,0:0:0:0:
256,192,269845,1,0,0:0:0:0:
256,192,269922,1,0,0:0:0:0:
256,192,269998,1,0,0:0:0:0:
256,192,270075,1,0,0:0:0:0:
256,192,270152,1,0,0:0:0:0:
256,192,270229,1,8,0:0:0:0:
256,192,270306,1,8,0:0:0:0:
256,192,270383,1,0,0:0:0:0:
256,192,270460,1,0,0:0:0:0:
256,192,270537,1,0,0:0:0:0:
256,192,270614,1,0,0:0:0:0:
256,192,270691,1,0,0:0:0:0:
256,192,270768,1,0,0:0:0:0:
256,192,270845,1,0,0:0:0:0:
256,192,270922,1,0,0:0:0:0:
256,192,270998,1,0,0:0:0:0:
256,192,271075,1,0,0:0:0:0:
256,192,271152,1,0,0:0:0:0:
256,192,271229,1,0,0:0:0:0:
256,192,271306,1,0,0:0:0:0:
256,192,271383,1,0,0:0:0:0:
256,192,271460,1,0,0:0:0:0:
256,192,271537,1,0,0:0:0:0:
256,192,271614,1,0,0:0:0:0:
256,192,271691,1,0,0:0:0:0:
256,192,271768,1,0,0:0:0:0:
256,192,271845,1,0,0:0:0:0:
256,192,271922,1,0,0:0:0:0:
256,192,271998,1,0,0:0:0:0:
256,192,272075,1,8,0:0:0:0:
256,192,272152,1,8,0:0:0:0:
256,192,272229,1,0,0:0:0:0:
256,192,272306,1,0,0:0:0:0:
256,192,272383,1,0,0:0:0:0:
256,192,272460,1,0,0:0:0:0:
256,192,272537,1,8,0:0:0:0:
256,192,272614,1,8,0:0:0:0:
256,192,272691,1,8,0:0:0:0:
256,192,272768,1,0,0:0:0:0:
256,192,272845,1,0,0:0:0:0:
256,192,272922,1,0,0:0:0:0:
256,192,272998,5,8,0:0:0:0:
256,192,273056,1,0,0:0:0:0:
256,192,273114,1,0,0:0:0:0:
256,192,273172,1,0,0:0:0:0:
256,192,273229,1,8,0:0:0:0:
256,192,273287,1,8,0:0:0:0:
256,192,273345,1,0,0:0:0:0:
256,192,273402,1,0,0:0:0:0:
256,192,273460,1,8,0:0:0:0:
256,192,273518,1,8,0:0:0:0:
256,192,273575,1,8,0:0:0:0:
256,192,273633,1,8,0:0:0:0:
256,192,273691,1,0,0:0:0:0:
256,192,273748,1,0,0:0:0:0:
256,192,273806,1,0,0:0:0:0:
256,192,273864,1,0,0:0:0:0:
256,192,273922,1,8,0:0:0:0:
256,192,273979,1,8,0:0:0:0:
256,192,274037,1,0,0:0:0:0:
256,192,274095,1,0,0:0:0:0:
256,192,274152,1,0,0:0:0:0:
256,192,274210,1,0,0:0:0:0:
256,192,274268,1,0,0:0:0:0:
256,192,274325,1,0,0:0:0:0:
256,192,274383,1,8,0:0:0:0:
256,192,274441,1,8,0:0:0:0:
256,192,274498,1,8,0:0:0:0:
256,192,274556,1,8,0:0:0:0:
256,192,274614,1,8,0:0:0:0:
256,192,274672,1,8,0:0:0:0:
256,192,274729,1,8,0:0:0:0:
256,192,274787,1,8,0:0:0:0:
256,192,274845,1,8,0:0:0:0:
256,192,274902,1,8,0:0:0:0:
256,192,274960,1,0,0:0:0:0:
256,192,275018,1,0,0:0:0:0:
256,192,275075,1,0,0:0:0:0:
256,192,275133,1,0,0:0:0:0:
256,192,275191,1,0,0:0:0:0:
256,192,275248,1,0,0:0:0:0:
256,192,275306,1,8,0:0:0:0:
256,192,275364,1,8,0:0:0:0:
256,192,275422,1,8,0:0:0:0:
256,192,275479,1,8,0:0:0:0:
256,192,275537,1,8,0:0:0:0:
256,192,275595,1,8,0:0:0:0:
256,192,275652,1,0,0:0:0:0:
256,192,275710,1,0,0:0:0:0:
256,192,275768,1,8,0:0:0:0:
256,192,275825,1,8,0:0:0:0:
256,192,275883,1,8,0:0:0:0:
256,192,275941,1,8,0:0:0:0:
256,192,275998,1,0,0:0:0:0:
256,192,276056,1,0,0:0:0:0:
256,192,276114,1,0,0:0:0:0:
256,192,276172,1,0,0:0:0:0:
256,192,276229,1,8,0:0:0:0:
256,192,276287,1,8,0:0:0:0:
256,192,276345,1,8,0:0:0:0:
256,192,276402,1,8,0:0:0:0:
256,192,276460,1,0,0:0:0:0:
256,192,276518,1,0,0:0:0:0:
256,192,276575,1,8,0:0:0:0:
256,192,276633,1,8,0:0:0:0:
256,192,276691,1,0,0:0:0:0:
256,192,276922,5,8,0:0:0:0:
256,192,276979,1,0,0:0:0:0:
256,192,277037,1,8,0:0:0:0:
256,192,277095,1,0,0:0:0:0:
256,192,277152,1,8,0:0:0:0:
256,192,277210,1,8,0:0:0:0:
256,192,277268,1,0,0:0:0:0:
256,192,277325,1,0,0:0:0:0:
256,192,277383,1,8,0:0:0:0:
256,192,277441,1,0,0:0:0:0:
256,192,277498,1,8,0:0:0:0:
256,192,277556,1,0,0:0:0:0:
256,192,277614,1,8,0:0:0:0:
256,192,277672,1,8,0:0:0:0:
256,192,277729,1,0,0:0:0:0:
256,192,277787,1,0,0:0:0:0:
256,192,277845,1,8,0:0:0:0:
256,192,277902,1,0,0:0:0:0:
256,192,277960,1,8,0:0:0:0:
256,192,278018,1,0,0:0:0:0:
256,192,278075,1,8,0:0:0:0:
256,192,278133,1,0,0:0:0:0:
256,192,278191,1,8,0:0:0:0:
256,192,278248,1,8,0:0:0:0:
256,192,278306,1,8,0:0:0:0:
256,192,278364,1,0,0:0:0:0:
256,192,278422,1,8,0:0:0:0:
256,192,278479,1,0,0:0:0:0:
256,192,278537,1,8,0:0:0:0:
256,192,278595,1,8,0:0:0:0:
256,192,278652,1,0,0:0:0:0:
256,192,278710,1,0,0:0:0:0:
256,192,278768,1,8,0:0:0:0:
256,192,278825,1,0,0:0:0:0:
256,192,278883,1,8,0:0:0:0:
256,192,278941,1,0,0:0:0:0:
256,192,278998,1,8,0:0:0:0:
256,192,279056,1,8,0:0:0:0:
256,192,279114,1,0,0:0:0:0:
256,192,279172,1,0,0:0:0:0:
256,192,279229,1,8,0:0:0:0:
256,192,279287,1,0,0:0:0:0:
256,192,279345,1,8,0:0:0:0:
256,192,279402,1,0,0:0:0:0:
256,192,279460,1,8,0:0:0:0:
256,192,279518,1,8,0:0:0:0:
256,192,279575,1,0,0:0:0:0:
256,192,279633,1,8,0:0:0:0:
256,192,279691,1,0,0:0:0:0:
256,192,279748,1,0,0:0:0:0:
256,192,279806,1,8,0:0:0:0:
256,192,279864,1,0,0:0:0:0:
256,192,279922,1,8,0:0:0:0:
256,192,279979,1,8,0:0:0:0:
256,192,280037,1,8,0:0:0:0:
256,192,280095,1,8,0:0:0:0:
256,192,280152,1,0,0:0:0:0:
256,192,280210,1,0,0:0:0:0:
256,192,280268,1,0,0:0:0:0:
256,192,280325,1,0,0:0:0:0:
256,192,280383,1,8,0:0:0:0:
256,192,280614,5,8,0:0:0:0:
256,192,280672,1,0,0:0:0:0:
256,192,280729,1,8,0:0:0:0:
256,192,280787,1,0,0:0:0:0:
256,192,280845,1,8,0:0:0:0:
256,192,280902,1,0,0:0:0:0:
256,192,280960,1,8,0:0:0:0:
256,192,281018,1,0,0:0:0:0:
256,192,281075,1,8,0:0:0:0:
256,192,281133,1,0,0:0:0:0:
256,192,281191,1,8,0:0:0:0:
256,192,281248,1,0,0:0:0:0:
256,192,281306,1,8,0:0:0:0:
256,192,281364,1,8,0:0:0:0:
256,192,281422,1,8,0:0:0:0:
256,192,281479,1,0,0:0:0:0:
256,192,281537,1,8,0:0:0:0:
256,192,281595,1,0,0:0:0:0:
256,192,281652,1,8,0:0:0:0:
256,192,281710,1,0,0:0:0:0:
256,192,281768,1,8,0:0:0:0:
256,192,281825,1,0,0:0:0:0:
256,192,281883,1,8,0:0:0:0:
256,192,281941,1,8,0:0:0:0:
256,192,281998,1,8,0:0:0:0:
256,192,282056,1,0,0:0:0:0:
256,192,282114,1,8,0:0:0:0:
256,192,282172,1,0,0:0:0:0:
256,192,282229,1,8,0:0:0:0:
256,192,282287,1,8,0:0:0:0:
256,192,282345,1,8,0:0:0:0:
256,192,282402,1,8,0:0:0:0:
256,192,282460,1,0,0:0:0:0:
256,192,282518,1,0,0:0:0:0:
256,192,282575,1,8,0:0:0:0:
256,192,282633,1,0,0:0:0:0:
256,192,282691,1,8,0:0:0:0:
256,192,282748,1,0,0:0:0:0:
256,192,282806,1,8,0:0:0:0:
256,192,282864,1,0,0:0:0:0:
256,192,282922,1,8,0:0:0:0:
256,192,282979,1,8,0:0:0:0:
256,192,283037,1,8,0:0:0:0:
256,192,283095,1,8,0:0:0:0:
256,192,283152,5,0,0:0:0:0:
256,192,283210,1,0,0:0:0:0:
256,192,283268,1,8,0:0:0:0:
256,192,283325,1,0,0:0:0:0:
256,192,283383,1,8,0:0:0:0:
256,192,283441,1,8,0:0:0:0:
256,192,283498,1,8,0:0:0:0:
256,192,283556,1,0,0:0:0:0:
256,192,283614,1,8,0:0:0:0:
256,192,283672,1,8,0:0:0:0:
256,192,283729,1,8,0:0:0:0:
256,192,283787,1,8,0:0:0:0:
256,192,283845,1,0,0:0:0:0:
256,192,283902,1,0,0:0:0:0:
256,192,283960,1,0,0:0:0:0:
256,192,284018,1,0,0:0:0:0:
256,192,284080,1,0,0:0:0:0:
256,192,284137,5,0,0:0:0:0:
256,192,284195,1,0,0:0:0:0:
256,192,284253,1,0,0:0:0:0:
256,192,284310,1,0,0:0:0:0:
256,192,284368,1,0,0:0:0:0:
256,192,284426,1,0,0:0:0:0:
256,192,284483,1,0,0:0:0:0:
256,192,284541,1,0,0:0:0:0:
256,192,284599,1,0,0:0:0:0:
256,192,284656,1,0,0:0:0:0:
256,192,284714,1,0,0:0:0:0:
256,192,284772,1,0,0:0:0:0:
256,192,284830,1,0,0:0:0:0:
256,192,284887,1,0,0:0:0:0:
256,192,284945,1,0,0:0:0:0:
256,192,285003,1,8,0:0:0:0:
256,192,285464,5,0,0:0:0:0:
256,192,285522,5,0,0:0:0:0:
256,192,285580,5,0,0:0:0:0:
256,192,285637,5,0,0:0:0:0:
256,192,285695,5,8,0:0:0:0:
256,192,285753,5,8,0:0:0:0:
256,192,285810,5,8,0:0:0:0:
256,192,285868,5,8,0:0:0:0:
256,192,285926,5,0,0:0:0:0:
256,192,285983,5,0,0:0:0:0:
256,192,286041,5,0,0:0:0:0:
256,192,286099,5,0,0:0:0:0:
256,192,286156,5,8,0:0:0:0:
256,192,286214,5,8,0:0:0:0:
256,192,286272,5,8,0:0:0:0:
256,192,286330,5,8,0:0:0:0:
256,192,286387,5,0,0:0:0:0:
256,192,286849,5,8,0:0:0:0:
256,192,286906,5,8,0:0:0:0:
256,192,286964,5,8,0:0:0:0:
256,192,287022,5,8,0:0:0:0:
256,192,287080,5,0,0:0:0:0:
256,192,287137,5,0,0:0:0:0:
256,192,287195,5,0,0:0:0:0:
256,192,287253,5,0,0:0:0:0:
256,192,287310,5,8,0:0:0:0:
256,192,287368,5,8,0:0:0:0:
256,192,287426,5,0,0:0:0:0:
256,192,287483,5,0,0:0:0:0:
256,192,287541,5,8,0:0:0:0:
256,192,287599,5,8,0:0:0:0:
256,192,287656,5,0,0:0:0:0:
256,192,287714,5,0,0:0:0:0:
256,192,287772,5,8,0:0:0:0:
256,192,288233,5,0,0:0:0:0:
256,192,288291,5,0,0:0:0:0:
256,192,288349,5,8,0:0:0:0:
256,192,288406,5,8,0:0:0:0:
256,192,288464,5,8,0:0:0:0:
256,192,288522,5,8,0:0:0:0:
256,192,288580,5,0,0:0:0:0:
256,192,288637,5,0,0:0:0:0:
256,192,288695,5,8,0:0:0:0:
256,192,288753,5,8,0:0:0:0:
256,192,288810,5,8,0:0:0:0:
256,192,288868,5,8,0:0:0:0:
256,192,288926,5,0,0:0:0:0:
256,192,288983,5,0,0:0:0:0:
256,192,289041,5,0,0:0:0:0:
256,192,289099,5,0,0:0:0:0:
256,192,289156,5,8,0:0:0:0:
256,192,289272,5,0,0:0:0:0:
256,192,289387,5,0,0:0:0:0:
256,192,289503,5,0,0:0:0:0:
256,192,289618,5,8,0:0:0:0:
256,192,289676,5,8,0:0:0:0:
256,192,289733,5,8,0:0:0:0:
256,192,289791,5,8,0:0:0:0:
256,192,289849,5,8,0:0:0:0:
256,192,289906,5,8,0:0:0:0:
256,192,289964,5,8,0:0:0:0:
256,192,290022,5,8,0:0:0:0:
256,192,290080,5,0,0:0:0:0:
256,192,290137,5,0,0:0:0:0:
256,192,290195,5,0,0:0:0:0:
256,192,290253,5,0,0:0:0:0:
256,192,290310,5,0,0:0:0:0:
256,192,290368,5,0,0:0:0:0:
256,192,290426,5,0,0:0:0:0:
256,192,290483,5,0,0:0:0:0:
256,192,290541,5,8,0:0:0:0:
256,192,291003,5,0,0:0:0:0:
256,192,291060,5,0,0:0:0:0:
256,192,291118,5,8,0:0:0:0:
256,192,291176,5,8,0:0:0:0:
256,192,291233,5,8,0:0:0:0:
256,192,291291,5,8,0:0:0:0:
256,192,291349,5,8,0:0:0:0:
256,192,291406,5,8,0:0:0:0:
256,192,291464,5,0,0:0:0:0:
256,192,291522,5,0,0:0:0:0:
256,192,291580,5,0,0:0:0:0:
256,192,291637,5,0,0:0:0:0:
256,192,291695,5,0,0:0:0:0:
256,192,291753,5,0,0:0:0:0:
256,192,291810,5,0,0:0:0:0:
256,192,291868,5,0,0:0:0:0:
256,192,291926,5,8,0:0:0:0:
256,192,292387,5,8,0:0:0:0:
256,192,292445,5,8,0:0:0:0:
256,192,292503,5,8,0:0:0:0:
256,192,292560,5,8,0:0:0:0:
256,192,292618,5,0,0:0:0:0:
256,192,292676,5,0,0:0:0:0:
256,192,292733,5,0,0:0:0:0:
256,192,292791,5,0,0:0:0:0:
256,192,292849,5,8,0:0:0:0:
256,192,292906,5,8,0:0:0:0:
256,192,292964,5,8,0:0:0:0:
256,192,293022,5,8,0:0:0:0:
256,192,293080,5,0,0:0:0:0:
256,192,293137,5,0,0:0:0:0:
256,192,293195,5,0,0:0:0:0:
256,192,293253,5,0,0:0:0:0:
256,192,293310,5,8,0:0:0:0:
256,192,293772,5,0,0:0:0:0:
256,192,293830,5,0,0:0:0:0:
256,192,293887,5,0,0:0:0:0:
256,192,293945,5,0,0:0:0:0:
256,192,294003,5,8,0:0:0:0:
256,192,294060,5,8,0:0:0:0:
256,192,294118,5,8,0:0:0:0:
256,192,294176,5,8,0:0:0:0:
256,192,294233,5,0,0:0:0:0:
256,192,294291,5,0,0:0:0:0:
256,192,294349,5,0,0:0:0:0:
256,192,294406,5,0,0:0:0:0:
256,192,294464,5,0,0:0:0:0:
256,192,294522,5,0,0:0:0:0:
256,192,294580,5,0,0:0:0:0:
256,192,294637,5,0,0:0:0:0:
256,192,294695,5,8,0:0:0:0:
256,192,294724,1,8,0:0:0:0:
256,192,294926,5,0,0:0:0:0:
256,192,295156,5,0,0:0:0:0:
256,192,295233,5,0,0:0:0:0:
256,192,295310,5,0,0:0:0:0:
256,192,295387,5,0,0:0:0:0:
256,192,295464,5,0,0:0:0:0:
256,192,295541,5,0,0:0:0:0:
256,192,295618,5,0,0:0:0:0:
256,192,295695,5,0,0:0:0:0:
256,192,295772,5,0,0:0:0:0:
256,192,295849,5,0,0:0:0:0:
256,192,295926,5,0,0:0:0:0:
256,192,296003,5,0,0:0:0:0:
256,192,296080,5,8,0:0:0:0:
256,192,296541,5,8,0:0:0:0:
256,192,296618,5,8,0:0:0:0:
256,192,296695,5,0,0:0:0:0:
256,192,296772,5,0,0:0:0:0:
256,192,296849,5,0,0:0:0:0:
256,192,296926,5,0,0:0:0:0:
256,192,297003,5,8,0:0:0:0:
256,192,297080,5,8,0:0:0:0:
256,192,297156,5,8,0:0:0:0:
256,192,297233,5,8,0:0:0:0:
256,192,297310,5,0,0:0:0:0:
256,192,297387,5,0,0:0:0:0:
256,192,297464,5,8,0:0:0:0:
256,192,297926,5,8,0:0:0:0:
256,192,298003,5,8,0:0:0:0:
256,192,298080,5,0,0:0:0:0:
256,192,298156,5,0,0:0:0:0:
256,192,298233,5,0,0:0:0:0:
256,192,298310,5,0,0:0:0:0:
256,192,298387,5,0,0:0:0:0:
256,192,298464,5,0,0:0:0:0:
256,192,298541,5,0,0:0:0:0:
256,192,298618,5,0,0:0:0:0:
256,192,298695,5,0,0:0:0:0:
256,192,298772,5,0,0:0:0:0:
256,192,298849,5,8,0:0:0:0:
256,192,299310,5,0,0:0:0:0:
256,192,299387,5,0,0:0:0:0:
256,192,299464,5,0,0:0:0:0:
256,192,299541,5,0,0:0:0:0:
256,192,299618,5,0,0:0:0:0:
256,192,299695,5,0,0:0:0:0:
256,192,299772,5,8,0:0:0:0:
256,192,299849,5,8,0:0:0:0:
256,192,299926,5,8,0:0:0:0:
256,192,300003,5,8,0:0:0:0:
256,192,300080,5,0,0:0:0:0:
256,192,300156,5,0,0:0:0:0:
256,192,300233,5,8,0:0:0:0:
256,192,300349,1,0,0:0:0:0:
256,192,300464,1,0,0:0:0:0:
256,192,300580,1,0,0:0:0:0:
256,192,300695,5,0,0:0:0:0:
256,192,300772,5,8,0:0:0:0:
256,192,300849,5,8,0:0:0:0:
256,192,300926,5,8,0:0:0:0:
256,192,301003,5,8,0:0:0:0:
256,192,301080,5,8,0:0:0:0:
256,192,301156,5,0,0:0:0:0:
256,192,301233,5,0,0:0:0:0:
256,192,301310,5,0,0:0:0:0:
256,192,301387,5,0,0:0:0:0:
256,192,301464,5,0,0:0:0:0:
256,192,301541,5,0,0:0:0:0:
256,192,301618,5,8,0:0:0:0:
256,192,302080,5,8,0:0:0:0:
256,192,302156,5,8,0:0:0:0:
256,192,302233,5,8,0:0:0:0:
256,192,302310,5,8,0:0:0:0:
256,192,302387,5,0,0:0:0:0:
256,192,302464,5,0,0:0:0:0:
256,192,302541,5,0,0:0:0:0:
256,192,302618,5,0,0:0:0:0:
256,192,302695,5,8,0:0:0:0:
256,192,302772,5,8,0:0:0:0:
256,192,302849,5,0,0:0:0:0:
256,192,302926,5,0,0:0:0:0:
256,192,303003,5,8,0:0:0:0:
256,192,303464,5,8,0:0:0:0:
256,192,303541,5,8,0:0:0:0:
256,192,303618,1,0,0:0:0:0:
256,192,303695,1,0,0:0:0:0:
256,192,303772,5,0,0:0:0:0:
256,192,303849,5,0,0:0:0:0:
256,192,303926,5,0,0:0:0:0:
256,192,304003,5,0,0:0:0:0:
256,192,304080,5,8,0:0:0:0:
256,192,304156,5,8,0:0:0:0:
256,192,304233,5,0,0:0:0:0:
256,192,304310,5,0,0:0:0:0:
256,192,304387,5,0,0:0:0:0:
256,192,304849,1,8,0:0:0:0:
256,192,304926,1,8,0:0:0:0:
256,192,305003,1,8,0:0:0:0:
256,192,305080,1,8,0:0:0:0:
256,192,305156,1,0,0:0:0:0:
256,192,305233,1,0,0:0:0:0:
256,192,305310,1,8,0:0:0:0:
256,192,305387,1,8,0:0:0:0:
256,192,305464,1,8,0:0:0:0:
256,192,305541,1,8,0:0:0:0:
256,192,305618,1,0,0:0:0:0:
256,192,305695,1,0,0:0:0:0:
256,192,305772,5,12,0:0:0:0:
256,192,305926,5,12,0:0:0:0:
256,192,306080,5,12,0:0:0:0:
