osu file format v14

[General]
AudioFilename: audio.mp3
AudioLeadIn: 0
PreviewTime: 118320
Countdown: 0
SampleSet: Drum
StackLeniency: 0.3
Mode: 0
LetterboxInBreaks: 0
WidescreenStoryboard: 1

[Editor]
Bookmarks: 22371,88839,103601,118370,125755,191755,210216,239755,247139,261909,272755,276678,280370,306062,306100
DistanceSpacing: 0.3
BeatDivisor: 6
GridSize: 8
TimelineZoom: 2.999999

[Metadata]
Title:Hollow
TitleUnicode:Hollow
Artist:Rivers of Nihil
ArtistUnicode:Rivers of Nihil
Creator:SILENCE PLAYER
Version:Disillusion Incarnate
Source:osu!
Tags:where english owls know my name featured artist fa mappers guild mpg itswinter death metal progressive jazz deathstream rsi raiden
BeatmapID:2282512
BeatmapSetID:1091806

[Difficulty]
HPDrainRate:5
CircleSize:4
OverallDifficulty:9.9
ApproachRate:9.9
SliderMultiplier:2
SliderTickRate:1

[Events]
//Background and Video events
0,0,"summoned_by_aoiogataartist_dadk1ua-fullview_waifu2x_art_noise2_scale_tta_1.png",0,0
//Break Periods
//Storyboard Layer 0 (Background)
//Storyboard Layer 1 (Fail)
//Storyboard Layer 2 (Pass)
//Storyboard Layer 3 (Foreground)
//Storyboard Layer 4 (Overlay)
//Storyboard Sound Samples

[TimingPoints]
222,230.769230769231,4,2,0,5,1,0
7606,-333.333333333333,4,2,0,35,0,0
8009,-333.333333333333,4,2,0,5,0,0
8068,-333.333333333333,4,2,0,35,0,0
18625,-333.333333333333,4,2,0,5,0,0
18683,-333.333333333333,4,2,0,35,0,0
22318,-333.333333333333,4,2,0,5,0,0
22375,-100,4,3,1,65,0,0
29529,-100,4,3,9,65,0,0
29760,-100,4,3,1,65,0,0
35298,-100,4,3,8,65,0,0
35414,-100,4,3,9,65,0,0
35529,-100,4,3,1,65,0,0
35760,-100,4,3,9,65,0,0
35875,-100,4,3,1,65,0,0
35991,-100,4,3,8,65,0,0
36106,-100,4,3,1,65,0,0
47991,-100,4,3,9,65,0,0
48222,-66.6666666666667,4,3,1,65,0,0
48395,-66.6666666666667,4,3,1,5,0,0
48452,-66.6666666666667,4,3,1,65,0,0
49029,-100,6,3,1,5,0,0
49144,-100,6,3,1,70,0,0
49260,-100,6,3,1,5,0,0
49375,-100,4,3,1,65,0,0
49491,-100,6,3,1,5,0,0
49606,-100,6,3,1,70,0,0
49722,-100,6,3,1,5,0,0
49837,-100,6,3,1,70,0,0
49952,-100,6,3,1,5,0,0
50067,-100,6,3,1,70,0,0
51106,-100,6,3,1,5,0,0
51221,-100,6,3,1,70,0,0
51914,230.769230769231,6,3,1,70,1,0
51917,230.769230769231,6,3,1,70,1,0
52032,-100,6,3,1,5,0,0
52147,-100,6,3,1,70,0,0
52263,-100,6,3,1,5,0,0
52378,-100,6,3,1,70,0,0
52493,-100,6,3,1,5,0,0
52608,-100,6,3,1,70,0,0
52724,-100,6,3,1,5,0,0
52839,-100,6,3,1,70,0,0
53417,-100,6,3,1,5,0,0
53532,-100,6,3,1,70,0,0
53647,-100,6,3,1,5,0,0
53762,-100,6,3,1,70,0,0
53878,-100,6,3,1,5,0,0
53993,-100,6,3,1,70,0,0
54109,-100,6,3,1,5,0,0
54224,-100,6,3,1,70,0,0
54801,-100,6,3,1,5,0,0
54916,-100,6,3,1,70,0,0
55032,-100,6,3,1,5,0,0
55147,-100,6,3,1,70,0,0
55263,-100,6,3,1,5,0,0
55378,-100,6,3,1,70,0,0
55493,-100,6,3,1,5,0,0
55608,-100,6,3,1,70,0,0
56186,-100,6,3,1,5,0,0
56301,-100,6,3,1,70,0,0
56417,-100,6,3,1,5,0,0
56532,-100,6,3,1,70,0,0
56647,-100,6,3,1,5,0,0
56762,-100,6,3,1,70,0,0
56878,-100,6,3,1,5,0,0
56993,-100,6,3,1,70,0,0
57109,-100,6,3,1,5,0,0
57224,-100,6,3,1,70,0,0
57340,-100,6,3,1,5,0,0
57455,-100,6,3,1,70,0,0
57570,-100,6,3,1,5,0,0
57685,-100,6,3,1,70,0,0
57801,-100,6,3,1,5,0,0
57916,-100,6,3,1,70,0,0
58032,-100,6,3,1,5,0,0
58147,-100,6,3,1,70,0,0
58263,-100,6,3,1,5,0,0
58378,-100,6,3,1,70,0,0
58955,-100,6,3,1,5,0,0
59070,-100,6,3,1,70,0,0
59186,-100,6,3,1,5,0,0
59301,-100,6,3,1,70,0,0
59417,-100,6,3,1,5,0,0
59532,-100,6,3,1,70,0,0
59647,-100,6,3,1,5,0,0
59762,-100,6,3,1,70,0,0
60340,-100,6,3,1,5,0,0
60455,-100,6,3,1,70,0,0
60570,-100,6,3,1,5,0,0
60685,-100,6,3,1,70,0,0
60801,-100,6,3,1,5,0,0
60916,-100,6,3,1,70,0,0
61032,-100,6,3,1,5,0,0
61147,-100,6,3,1,70,0,0
61724,-100,6,3,1,5,0,0
61839,-100,6,3,1,70,0,0
61955,-100,6,3,1,5,0,0
62070,-100,6,3,1,70,0,0
62186,-100,6,3,1,5,0,0
62301,-100,6,3,1,70,0,0
62417,-100,6,3,1,5,0,0
62532,-100,6,3,1,70,0,0
63109,-100,6,3,1,5,0,0
63224,-100,6,3,1,70,0,0
63340,-100,6,3,1,5,0,0
63455,-100,6,3,1,70,0,0
63570,-100,6,3,1,5,0,0
63685,-100,6,3,1,70,0,0
63801,-100,6,3,1,5,0,0
63916,-100,6,3,1,70,0,0
64493,-100,6,3,1,5,0,0
64608,-100,6,3,1,70,0,0
64724,-100,6,3,1,5,0,0
64839,-100,6,3,1,70,0,0
64955,-100,6,3,1,5,0,0
65070,-100,6,3,1,70,0,0
65186,-100,6,3,1,5,0,0
65301,-100,6,3,1,70,0,0
65878,-100,6,3,1,5,0,0
65993,-100,6,3,1,70,0,0
66109,-100,6,3,1,5,0,0
66224,-100,6,3,1,70,0,0
66340,-100,6,3,1,5,0,0
66455,-100,6,3,1,70,0,0
66570,-100,6,3,1,5,0,0
66685,-100,6,3,1,70,0,0
67263,-100,6,3,1,5,0,0
67378,-100,6,3,1,70,0,0
67493,-100,6,3,1,5,0,0
67608,-100,6,3,1,70,0,0
67724,-100,6,3,1,5,0,0
67839,-100,6,3,1,70,0,0
67955,-100,6,3,1,5,0,0
68070,-100,6,3,1,70,0,0
68186,-100,6,3,1,5,0,0
68301,-100,6,3,1,70,0,0
68417,-100,6,3,1,5,0,0
68532,-100,6,3,1,70,0,0
68647,-100,6,3,1,5,0,0
68762,-100,6,3,1,70,0,0
68878,-100,6,3,1,5,0,0
68993,-100,6,3,1,70,0,0
69109,-100,6,3,1,5,0,0
69224,-100,6,3,1,70,0,0
69340,-100,6,3,1,5,0,0
69455,-100,6,3,1,70,0,0
70032,-100,6,3,1,5,0,0
70147,-100,6,3,1,70,0,0
70263,-100,6,3,1,5,0,0
70378,-100,6,3,1,70,0,0
70493,-100,6,3,1,5,0,0
70608,-100,6,3,1,70,0,0
70724,-100,6,3,1,5,0,0
70839,-100,6,3,1,70,0,0
71417,-100,6,3,1,5,0,0
71532,-100,6,3,1,70,0,0
71647,-100,6,3,1,5,0,0
71762,-100,6,3,1,70,0,0
71878,-100,6,3,1,5,0,0
71993,-100,6,3,1,70,0,0
72109,-100,6,3,1,5,0,0
72224,-100,6,3,1,70,0,0
72801,-100,6,3,1,5,0,0
72916,-100,6,3,1,70,0,0
73032,-100,6,3,1,5,0,0
73147,-100,6,3,1,70,0,0
73378,-100,6,3,8,70,0,0
73609,-100,6,3,1,70,0,0
73724,-100,6,3,8,70,0,0
73840,-100,6,3,9,70,0,0
74070,230.769230769231,4,3,1,60,1,0
100493,-100,4,3,8,60,0,0
100608,-100,4,3,10,60,0,0
100839,-100,4,3,1,60,0,0
103377,-100,4,3,8,60,0,0
103608,-100,4,3,1,60,0,0
107300,-200,4,2,1,60,0,0
107935,-200,4,2,1,5,0,0
107992,-200,4,2,1,60,0,0
109781,-200,4,2,1,5,0,0
109838,-200,4,2,1,60,0,0
110300,-200,4,3,8,60,0,0
110531,-200,4,3,1,60,0,0
110762,-200,4,3,9,60,0,0
110993,-200,4,3,1,60,0,0
112320,-200,4,2,1,5,0,0
112377,-200,4,2,1,60,0,0
112550,-200,4,2,1,5,0,0
112607,-200,4,2,1,60,0,0
112781,-200,4,2,1,5,0,0
112838,-200,4,2,1,60,0,0
117608,-200,4,2,8,80,0,0
117762,-200,4,2,9,80,0,0
117916,-200,4,2,1,80,0,0
118070,-200,4,2,9,80,0,0
118224,-200,4,2,10,80,0,0
118377,-200,4,2,1,60,0,1
121608,-100,4,2,1,60,0,1
125070,-100,4,2,8,60,0,1
125300,-100,4,2,1,60,0,1
125531,-100,4,2,9,60,0,1
125762,-100,4,2,1,60,0,1
125935,-100,4,2,1,5,0,1
125993,-100,4,2,1,60,0,1
133146,230.769230769231,6,2,1,80,1,0
153915,230.769230769231,6,2,1,80,1,0
153922,230.769230769231,4,2,1,80,1,0
155306,-80,4,2,1,70,0,0
159152,-100,4,2,1,70,0,0
159614,-83.3333333333333,4,2,1,70,0,0
159768,-71.4285714285714,4,2,1,70,0,0
159922,-62.5,4,2,1,70,0,0
161383,-62.5,4,2,8,70,0,0
161768,-62.5,4,2,9,70,0,0
162229,-62.5,4,2,1,70,0,0
162691,-100,4,2,1,70,0,0
164998,-100,4,3,8,70,0,0
165152,-100,4,2,1,70,0,0
165460,-100,4,3,8,70,0,0
165614,-100,4,3,9,70,0,0
165768,-100,4,3,10,70,0,0
165922,-100,4,2,1,70,0,0
172537,-100,4,3,8,70,0,0
172691,-100,4,3,9,70,0,0
172845,-100,4,3,1,70,0,0
172998,-100,4,3,9,70,0,0
173152,-100,4,3,10,70,0,0
173306,-100,4,3,1,70,0,0
180229,-100,4,3,8,70,0,0
180460,-100,4,3,9,70,0,0
180691,-100,4,2,1,80,0,1
187152,-100,4,3,8,80,0,1
187614,-100,4,3,9,80,0,1
188075,-100,4,2,1,80,0,1
191537,-100,4,3,8,80,0,1
191768,-100,4,2,1,80,0,1
195229,-100,4,2,9,80,0,1
195345,-100,4,2,10,80,0,1
195460,-90.9090909090909,4,2,1,70,0,0
198691,-100,4,2,1,70,0,0
209306,-100,4,2,8,70,0,0
209537,-100,4,2,9,70,0,0
209768,-100,4,2,1,70,0,0
221075,-100,4,2,8,70,0,0
221306,-100,4,2,1,70,0,0
224768,-100,4,3,8,70,0,0
224998,-100,4,2,1,70,0,0
226152,-100,4,2,9,70,0,0
226383,-100,4,2,1,70,0,0
228691,-200,4,2,1,70,0,0
229325,-200,4,2,1,5,0,0
229383,-200,4,2,1,70,0,0
230018,-200,4,2,1,5,0,0
230076,-200,4,2,1,70,0,0
230710,-200,4,2,1,5,0,0
230768,-200,4,2,1,70,0,0
231172,-200,4,2,1,5,0,0
231230,-200,4,2,1,70,0,0
231691,-200,4,3,8,70,0,0
231922,-200,4,2,1,70,0,0
232152,-200,4,2,9,70,0,0
232383,-200,4,2,1,70,0,0
233710,-200,4,2,1,5,0,0
233768,-200,4,2,1,70,0,0
233941,-200,4,2,1,5,0,0
233999,-200,4,2,1,70,0,0
234172,-200,4,2,1,5,0,0
234230,-200,4,2,1,70,0,0
238998,-200,4,2,8,80,0,0
239152,-200,4,2,9,80,0,0
239306,-200,4,2,1,80,0,0
239460,-200,4,2,9,80,0,0
239614,-200,4,2,10,80,0,0
239768,-200,4,2,1,80,0,1
242998,-100,4,2,1,80,0,1
246922,-100,4,3,8,80,0,1
247152,-100,4,2,1,80,0,1
247325,-100,4,2,1,5,0,1
247383,-100,4,2,1,80,0,1
250614,-100,4,3,8,80,0,1
250845,-100,4,2,1,80,0,1
254306,-100,4,2,8,80,0,1
254537,-100,4,2,1,80,0,0
261691,-100,4,3,8,80,0,0
261922,-100,4,2,1,80,0,1
264114,-100,4,3,8,80,0,1
264229,-100,4,3,1,80,0,1
264806,-100,4,3,8,80,0,1
264922,-100,4,3,9,80,0,1
265037,-100,4,3,10,80,0,1
265152,-100,4,3,1,80,0,1
265383,-100,4,3,9,80,0,1
265614,-100,4,2,1,80,0,0
268556,-100,4,2,1,5,0,0
268614,-100,4,2,1,80,0,0
268845,-100,4,3,10,80,0,0
269306,-100,4,2,1,80,0,0
276460,-100,4,3,8,80,0,0
276691,-100,4,2,1,80,0,1
276864,-100,4,2,1,5,0,1
276922,-100,4,2,1,80,0,1
280383,-66.6666666666667,4,2,1,80,0,1
280556,-66.6666666666667,4,2,1,5,0,1
280614,-100,4,2,1,80,0,1
283845,-100,4,2,8,80,0,1
284075,230.769230769231,4,2,8,80,1,8
284080,230.769230769231,6,3,1,80,1,0

[Colours]
Combo1 : 130,128,148
Combo2 : 208,145,171
Combo3 : 129,123,171

[HitObjects]
256,192,683,12,0,7548,2:0:0:0:
69,60,7606,6,0,L|186:43,1,105.219996795654,6|0,2:0|2:0,2:0:0:0:
195,25,8068,2,0,L|190:92,1,60.1999981689455,2|0,2:0|2:0,2:0:0:0:
320,223,8529,2,0,P|335:175|347:157,1,60.1999981689455,2|0,2:0|2:0,2:0:0:0:
240,270,8991,6,0,P|232:220|235:198,1,60.1999981689455,2|0,2:0|2:0,2:0:0:0:
291,379,9452,1,2,2:0:0:0:
190,285,9683,2,0,P|162:290|132:314,2,60.0699981689455,2|0|0,2:0|2:0|2:0,2:0:0:0:
55,168,10375,6,0,L|49:237,1,60.1999981689455,2|0,2:0|2:0,2:0:0:0:
177,384,10837,2,0,L|169:274,1,105.219996795654,2|0,2:0|2:0,2:0:0:0:
160,249,11298,5,6,2:0:0:0:
156,240,11760,2,0,L|226:247,1,60.1999981689455,2|0,2:0|2:0,2:0:0:0:
374,158,12222,2,0,L|257:172,1,105.219996795654,2|0,2:0|2:0,2:0:0:0:
248,178,12683,6,0,P|230:155|220:122,1,60.1999981689455,2|0,2:0|2:0,2:0:0:0:
224,284,13145,1,2,2:0:0:0:
319,221,13375,2,0,P|361:224|382:234,1,60.1999981689455,2|0,2:0|2:0,2:0:0:0:
457,342,13837,1,2,2:0:0:0:
381,285,14068,6,0,P|361:317|356:341,1,60.1999981689455,2|0,2:0|2:0,2:0:0:0:
259,318,14529,2,0,P|267:354|280:375,1,60.1999981689455,2|0,2:0|2:0,2:0:0:0:
512,234,14991,6,0,L|412:213,1,90.0399972534182,6|0,2:0|2:0,2:0:0:0:
335,107,15452,2,0,L|339:167,1,60.1999981689455,2|0,2:0|2:0,2:0:0:0:
472,50,15914,2,0,P|488:73|498:112,1,60.1999981689455,2|0,2:0|2:0,2:0:0:0:
334,32,16375,6,0,P|361:36|396:57,1,60.1999981689455,2|0,2:0|2:0,2:0:0:0:
273,210,16837,1,2,2:0:0:0:
364,143,17068,2,0,P|395:143|428:154,2,60.0699981689455,2|2|2,2:0|2:0|2:0,2:0:0:0:
413,312,17760,2,0,L|422:248,1,60.1999981689455,2|0,2:0|2:0,2:0:0:0:
276,219,18222,2,0,L|282:331,1,105.219996795654,2|0,2:0|2:0,2:0:0:0:
292,347,18683,5,6,2:0:0:0:
296,354,19145,1,2,2:0:0:0:
192,306,19375,2,0,P|163:304|127:322,2,60.0699981689455,2|2|2,2:0|2:0|2:0,2:0:0:0:
323,229,20068,2,0,L|318:299,1,60.1999981689455,2|2,2:0|2:0,2:0:0:0:
270,144,20529,5,6,2:0:0:0:
256,192,20587,12,0,22318,2:0:0:0:
163,40,22375,5,6,0:0:0:0:
146,57,22452,1,0,0:0:0:0:
137,79,22529,1,0,0:0:0:0:
133,102,22606,1,0,0:0:0:0:
132,126,22683,1,0,0:0:0:0:
136,149,22760,1,0,0:0:0:0:
145,170,22837,2,0,L|235:153,2,66.6666666666667,2|0|0,0:0|0:0|0:0,0:0:0:0:
241,255,23068,2,0,L|331:272,2,66.6666666666667
423,214,23298,5,10,0:0:0:0:
425,187,23375,1,0,0:0:0:0:
427,160,23452,1,0,0:0:0:0:
429,133,23529,1,0,0:0:0:0:
431,106,23606,1,0,0:0:0:0:
434,79,23683,1,0,0:0:0:0:
437,52,23760,2,0,L|515:62,2,66.6666666666667,2|0|0,0:0|0:0|0:0,0:0:0:0:
342,119,23991,2,0,L|264:129,2,66.6666666666667
215,1,24222,5,2,0:0:0:0:
212,27,24298,1,0,0:0:0:0:
209,53,24375,1,0,0:0:0:0:
207,79,24452,5,0,0:0:0:0:
162,65,24529,1,0,0:0:0:0:
110,77,24606,1,0,0:0:0:0:
80,113,24683,1,2,0:0:0:0:
77,152,24760,1,0,0:0:0:0:
96,179,24837,1,0,0:0:0:0:
102,211,24914,1,0,0:0:0:0:
91,242,24991,1,0,0:0:0:0:
59,254,25068,1,0,0:0:0:0:
29,238,25145,6,0,L|25:163,2,66.6666666666667,14|0|0,0:2|0:0|0:0,0:0:0:0:
140,304,25375,2,0,L|144:229,2,66.6666666666667,2|0|0,0:0|0:0|0:0,0:0:0:0:
247,173,25606,6,0,L|243:239,2,66.6666666666667,4|0|0,0:2|0:0|0:0,0:0:0:0:
348,256,25837,2,0,L|351:322,2,66.6666666666667,2|0|0,0:0|0:0|0:0,0:0:0:0:
458,172,26068,5,6,0:0:0:0:
460,152,26145,1,0,0:0:0:0:
462,132,26222,1,0,0:0:0:0:
479,112,26298,5,2,0:0:0:0:
476,92,26375,1,0,0:0:0:0:
473,72,26452,1,0,0:0:0:0:
447,44,26529,5,2,0:0:0:0:
407,35,26606,1,0,0:0:0:0:
368,45,26683,1,0,0:0:0:0:
339,72,26760,1,0,0:0:0:0:
330,111,26837,1,0,0:0:0:0:
343,148,26914,1,0,0:0:0:0:
362,174,26991,5,10,0:0:0:0:
345,224,27068,1,0,0:0:0:0:
299,251,27145,1,0,0:0:0:0:
246,241,27222,1,0,0:0:0:0:
214,198,27298,1,0,0:0:0:0:
167,171,27375,1,0,0:0:0:0:
114,180,27452,2,0,P|73:205|65:240,2,66.6666666666667,4|0|0,0:2|0:0|0:0,0:0:0:0:
182,341,27683,5,4,0:2:0:0:
214,307,27760,1,0,0:0:0:0:
259,298,27837,1,0,0:0:0:0:
304,308,27914,1,6,0:0:0:0:
335,342,27991,1,0,0:0:0:0:
379,356,28068,1,0,0:0:0:0:
424,345,28145,2,0,L|433:267,2,66.6666666666667
299,162,28375,5,2,0:0:0:0:
315,205,28452,1,0,0:0:0:0:
356,225,28529,1,0,0:0:0:0:
402,217,28606,1,2,0:0:0:0:
431,180,28683,1,0,0:0:0:0:
433,133,28760,1,0,0:0:0:0:
402,97,28837,6,0,L|329:90,2,66.6666666666667,10|0|0,0:0|0:0|0:0,0:0:0:0:
282,181,29068,2,0,L|215:187,2,66.6666666666667,2|0|0,0:0|0:0|0:0,0:0:0:0:
137,66,29298,5,8,2:0:0:0:
132,111,29356,1,8,2:0:0:0:
127,156,29414,1,8,2:0:0:0:
122,201,29472,1,8,2:0:0:0:
111,222,29529,2,0,L|54:212,3,50,8|8|8|8,0:0|0:0|0:0|0:0,0:0:0:0:
15,96,29760,5,6,0:0:0:0:
41,90,29837,1,0,0:0:0:0:
67,84,29914,1,0,0:0:0:0:
88,100,29991,5,2,0:0:0:0:
114,94,30068,1,0,0:0:0:0:
140,88,30145,1,0,0:0:0:0:
180,57,30222,5,4,0:2:0:0:
183,96,30298,1,0,0:0:0:0:
186,135,30375,1,0,0:0:0:0:
189,174,30452,1,0,0:0:0:0:
192,213,30529,1,0,0:0:0:0:
195,252,30606,1,0,0:0:0:0:
199,291,30683,5,10,0:0:0:0:
238,255,30760,1,0,0:0:0:0:
290,247,30837,1,0,0:0:0:0:
338,270,30914,1,0,0:0:0:0:
378,305,30991,1,0,0:0:0:0:
431,302,31068,1,0,0:0:0:0:
465,261,31145,2,0,L|470:182,2,66.6666666666667,2|0|0,0:0|0:0|0:0,0:0:0:0:
360,86,31375,5,4,0:2:0:0:
306,91,31452,1,0,0:0:0:0:
267,118,31529,1,0,0:0:0:0:
258,157,31606,1,2,0:0:0:0:
264,189,31683,1,0,0:0:0:0:
288,211,31760,1,0,0:0:0:0:
296,243,31837,1,0,0:0:0:0:
286,275,31914,1,0,0:0:0:0:
255,289,31991,1,0,0:0:0:0:
223,278,32068,5,2,0:0:0:0:
205,234,32145,1,0,0:0:0:0:
163,213,32222,1,0,0:0:0:0:
117,216,32298,1,0,0:0:0:0:
79,244,32375,1,0,0:0:0:0:
68,289,32452,1,0,0:0:0:0:
84,330,32529,5,10,0:0:0:0:
125,324,32606,1,0,0:0:0:0:
167,318,32683,1,0,0:0:0:0:
208,313,32760,1,0,0:0:0:0:
250,307,32837,1,0,0:0:0:0:
292,302,32914,1,0,0:0:0:0:
333,296,32991,6,0,L|326:226,2,66.6666666666667,4|0|0,0:2|0:0|0:0,0:0:0:0:
436,200,33222,2,0,L|443:130,2,66.6666666666667,2|0|0,0:0|0:0|0:0,0:0:0:0:
335,59,33452,6,0,L|342:129,2,66.6666666666667,4|0|0,0:2|0:0|0:0,0:0:0:0:
236,136,33683,2,0,L|229:206,2,66.6666666666667,2|0|0,0:0|0:0|0:0,0:0:0:0:
153,36,33914,5,2,0:0:0:0:
126,41,33991,1,0,0:0:0:0:
100,47,34068,1,0,0:0:0:0:
64,71,34145,5,2,0:0:0:0:
91,76,34222,1,0,0:0:0:0:
117,82,34299,1,0,0:0:0:0:
136,99,34375,6,0,L|129:195,2,66.6666666666667,10|0|0,0:0|0:0|0:0,0:0:0:0:
46,241,34606,1,2,0:0:0:0:
85,247,34683,1,0,0:0:0:0:
124,253,34760,1,0,0:0:0:0:
163,259,34837,1,2,0:0:0:0:
202,266,34914,1,0,0:0:0:0:
241,273,34991,1,0,0:0:0:0:
280,280,35068,2,0,L|273:360,2,66.6666666666667,4|0|0,0:2|0:0|0:0,0:0:0:0:
386,199,35298,5,8,0:0:0:0:
385,214,35356,1,8,0:0:0:0:
384,229,35414,1,8,0:0:0:0:
383,244,35472,1,8,0:0:0:0:
381,258,35529,2,0,L|374:337,1,50
487,348,35645,5,8,2:0:0:0:
486,328,35702,1,8,2:0:0:0:
485,307,35760,1,8,0:0:0:0:
484,286,35818,1,8,0:0:0:0:
483,266,35875,1,0,0:0:0:0:
482,245,35933,1,0,0:0:0:0:
481,224,35991,2,0,L|475:155,1,50,8|8,0:0|0:0,0:0:0:0:
380,54,36106,5,8,2:0:0:0:
377,84,36164,1,8,2:0:0:0:
374,114,36222,2,0,L|277:123,1,50
220,47,36337,5,8,2:0:0:0:
190,53,36395,1,8,2:0:0:0:
161,59,36452,1,8,2:0:0:0:
131,65,36510,1,8,2:0:0:0:
101,71,36568,2,0,L|96:142,1,50
102,244,36683,5,8,2:0:0:0:
271,163,36798,1,0,0:0:0:0:
277,197,36856,1,0,0:0:0:0:
283,231,36914,1,8,2:0:0:0:
243,347,37029,1,8,2:0:0:0:
178,245,37145,6,0,L|183:136,1,100,6|0,3:0|3:0,3:0:0:0:
338,36,37375,2,0,L|343:135,1,100,0|0,3:0|3:0,3:0:0:0:
292,269,37606,5,2,3:0:0:0:
251,274,37722,1,0,3:0:0:0:
212,280,37837,1,0,3:0:0:0:
172,286,37952,1,0,3:0:0:0:
0,170,38068,5,10,3:0:0:0:
41,175,38183,1,0,3:0:0:0:
80,181,38298,1,0,3:0:0:0:
120,187,38414,1,0,3:0:0:0:
258,77,38529,5,2,3:0:0:0:
217,82,38645,1,0,3:0:0:0:
178,88,38760,1,0,3:0:0:0:
174,97,38818,1,0,3:0:0:0:
170,106,38875,1,0,3:0:0:0:
166,115,38933,1,0,3:0:0:0:
161,126,38991,6,0,L|165:231,1,100,2|0,3:0|3:0,3:0:0:0:
301,299,39222,2,0,L|304:199,1,100,0|0,3:0|3:0,3:0:0:0:
394,33,39452,5,2,3:0:0:0:
399,72,39568,1,0,3:0:0:0:
404,111,39683,1,0,3:0:0:0:
411,104,39741,1,0,3:0:0:0:
418,98,39798,1,0,3:0:0:0:
426,92,39856,1,0,3:0:0:0:
434,86,39914,5,10,3:0:0:0:
437,125,40029,1,0,3:0:0:0:
440,165,40145,1,0,3:0:0:0:
443,204,40260,1,0,3:0:0:0:
273,356,40375,5,2,3:0:0:0:
276,317,40491,1,0,3:0:0:0:
279,278,40606,5,8,2:0:0:0:
455,346,40722,1,8,2:0:0:0:
430,199,40837,6,0,L|324:208,1,100,6|0,3:0|3:0,3:0:0:0:
166,304,41068,2,0,L|265:294,1,100,0|0,3:0|3:0,3:0:0:0:
201,125,41298,5,2,3:0:0:0:
210,203,41414,1,0,3:0:0:0:
120,185,41529,1,0,3:0:0:0:
116,175,41587,1,0,3:0:0:0:
112,165,41645,1,0,3:0:0:0:
108,155,41702,1,0,3:0:0:0:
104,145,41760,5,10,3:0:0:0:
117,76,41875,1,0,3:0:0:0:
224,48,41991,5,2,3:0:0:0:
237,117,42106,1,0,3:0:0:0:
344,14,42222,2,0,L|332:122,1,100,10|0,3:0|3:0,3:0:0:0:
441,210,42452,5,8,2:0:0:0:
253,134,42568,1,8,2:0:0:0:
300,324,42683,6,0,B|308:289|308:289|272:224,1,100,6|0,3:0|3:0,3:0:0:0:
170,193,42914,1,0,3:0:0:0:
164,219,43029,1,0,3:0:0:0:
170,381,43145,2,0,B|203:363|203:363|203:291,1,100,2|0,3:0|3:0,3:0:0:0:
100,343,43375,1,0,3:0:0:0:
97,333,43433,1,0,3:0:0:0:
95,323,43491,1,0,3:0:0:0:
93,313,43548,1,0,3:0:0:0:
91,303,43606,5,10,3:0:0:0:
99,253,43722,1,0,3:0:0:0:
107,203,43837,1,0,3:0:0:0:
115,153,43952,1,0,3:0:0:0:
215,34,44068,5,10,3:0:0:0:
223,84,44183,1,0,3:0:0:0:
231,134,44298,5,8,2:0:0:0:
41,99,44414,1,8,2:0:0:0:
163,24,44529,5,6,3:0:0:0:
189,29,44606,1,0,3:0:0:0:
215,34,44683,1,0,3:0:0:0:
241,61,44760,5,2,3:0:0:0:
267,56,44837,1,0,3:0:0:0:
293,51,44914,1,0,3:0:0:0:
324,18,44991,5,2,3:0:0:0:
321,57,45068,1,0,3:0:0:0:
318,96,45145,1,0,3:0:0:0:
316,135,45222,1,0,3:0:0:0:
314,174,45298,1,0,3:0:0:0:
312,214,45375,1,0,3:0:0:0:
294,242,45452,5,10,3:0:0:0:
323,214,45529,1,0,3:0:0:0:
361,202,45606,1,0,3:0:0:0:
401,210,45683,1,0,3:0:0:0:
433,233,45760,1,0,3:0:0:0:
450,269,45837,1,0,3:0:0:0:
452,308,45914,1,2,3:0:0:0:
438,338,45991,1,0,3:0:0:0:
407,352,46068,1,0,3:0:0:0:
380,350,46145,1,0,3:0:0:0:
358,334,46222,1,0,3:0:0:0:
350,315,46298,1,0,3:0:0:0:
353,292,46375,6,0,L|411:249,2,66.6666666666667,6|0|0,3:0|3:0|3:0,3:0:0:0:
267,233,46606,1,2,3:0:0:0:
240,236,46683,1,0,3:0:0:0:
213,239,46760,1,0,3:0:0:0:
186,242,46837,1,2,3:0:0:0:
159,245,46914,1,0,3:0:0:0:
132,249,46991,1,0,3:0:0:0:
102,243,47068,2,0,L|94:327,2,66.6666666666667,4|0|0,3:2|3:0|3:0,3:0:0:0:
90,136,47298,5,10,3:0:0:0:
117,139,47375,1,0,3:0:0:0:
144,143,47452,1,0,3:0:0:0:
174,137,47529,2,0,L|180:203,2,66.6666666666667,0|0|0,3:0|3:0|3:0,3:0:0:0:
86,0,47760,5,8,2:0:0:0:
82,24,47818,1,8,2:0:0:0:
79,48,47875,1,8,2:0:0:0:
76,72,47933,1,8,2:0:0:0:
44,93,47991,5,8,3:0:0:0:
46,107,48048,1,8,3:0:0:0:
48,121,48106,1,8,3:0:0:0:
50,135,48164,1,8,3:0:0:0:
70,159,48222,6,0,B|169:161|169:161|192:184|192:184|303:185,1,225.100008583069,6|0,3:0|3:0,3:0:0:0:
378,259,48452,2,0,B|341:226|341:226|84:221,1,301.000011444092,2|2,3:0|2:3,3:0:0:0:
58,242,48914,2,0,L|42:80,1,150.500005722046,2|0,3:0|3:0,3:0:0:0:
238,0,49145,6,0,L|220:169,1,150.500005722046,10|0,3:0|3:0,3:0:0:0:
469,147,49375,2,0,B|449:123|449:123|360:139,1,100,2|0,3:0|3:0,3:0:0:0:
252,259,49606,2,0,L|360:236,1,100,4|0,3:2|3:0,3:0:0:0:
485,353,49837,2,0,L|377:330,1,100,2|0,3:0|3:0,3:0:0:0:
310,372,50068,5,6,3:0:0:0:
375,100,50298,1,0,3:0:0:0:
202,372,50529,5,2,3:0:0:0:
137,100,50759,1,0,3:0:0:0:
472,193,50991,6,0,L|362:173,1,100,10|0,3:0|3:0,3:0:0:0:
190,246,51222,1,0,3:0:0:0:
212,241,51279,1,0,3:0:0:0:
236,237,51337,1,0,3:0:0:0:
259,233,51395,1,0,3:0:0:0:
282,230,51452,5,10,3:0:0:0:
0,105,51683,1,0,3:0:0:0:
151,376,51917,6,0,L|169:269,1,100,6|0,0:0|0:0,0:0:0:0:
142,22,52147,2,0,L|124:129,1,100
335,248,52378,6,0,L|235:231,1,100,2|0,0:0|0:0,0:0:0:0:
12,100,52609,2,0,L|111:116,1,100
348,157,52840,5,10,0:0:0:0:
349,167,53301,6,0,L|334:283,1,100,2|0,0:0|0:0,0:0:0:0:
178,384,53532,2,0,L|165:284,1,100
247,27,53763,6,0,L|232:143,1,100,2|0,0:0|0:0,0:0:0:0:
76,244,53994,2,0,L|63:144,1,100
50,59,54224,5,2,0:0:0:0:
43,48,54686,6,0,L|152:35,1,100,10|0,0:0|0:0,0:0:0:0:
282,226,54917,2,0,L|173:213,1,100
332,18,55147,6,0,L|344:141,1,100,2|0,0:0|0:0,0:0:0:0:
459,294,55378,2,0,L|468:194,1,100
481,106,55609,5,2,0:0:0:0:
487,97,56070,6,0,L|345:80,1,100,6|0,0:0|0:0,0:0:0:0:
270,195,56301,2,0,L|128:178,1,100
365,378,56532,6,0,L|378:255,1,100,10|0,0:0|0:0,0:0:0:0:
237,78,56763,2,0,L|247:177,1,100
8,131,56993,6,0,L|122:113,1,100,2|0,0:0|0:0,0:0:0:0:
316,222,57224,2,0,L|202:204,1,100
331,8,57455,6,0,L|345:145,1,100,6|0,0:0|0:0,0:0:0:0:
493,310,57686,2,0,L|503:210,1,100,2|0,0:0|0:0,0:0:0:0:
325,123,57917,6,0,L|314:250,1,100,2|0,0:0|0:0,0:0:0:0:
197,373,58147,2,0,L|188:273,1,100
167,31,58378,5,10,0:0:0:0:
173,17,58840,6,0,L|60:24,1,100,2|0,0:0|0:0,0:0:0:0:
0,199,59070,2,0,L|113:206,1,100
241,107,59301,6,0,L|351:121,1,100,2|0,0:0|0:0,0:0:0:0:
443,273,59532,2,0,L|333:259,1,100
252,249,59763,5,2,0:0:0:0:
475,145,59993,5,0,3:0:0:0:
474,155,60051,1,0,3:0:0:0:
473,165,60109,1,0,3:0:0:0:
472,175,60167,1,0,3:0:0:0:
471,184,60224,6,0,L|457:299,1,100,14|0,0:0|0:0,0:0:0:0:
73,127,60455,2,0,L|59:242,1,100,2|0,0:0|0:0,0:0:0:0:
356,370,60686,6,0,L|372:257,1,100,2|0,0:0|0:0,0:0:0:0:
183,37,60917,2,0,L|167:150,1,100,2|0,0:0|0:0,0:0:0:0:
151,232,61147,5,2,0:0:0:0:
146,245,61609,6,0,L|271:234,1,100,2|0,0:0|0:0,0:0:0:0:
346,146,61840,2,0,L|471:135,1,100
474,299,62070,6,0,L|349:288,1,100,2|0,0:0|0:0,0:0:0:0:
254,159,62301,2,0,L|129:148,1,100
11,258,62532,6,0,L|5:305,1,33.3333333333333,8|8,2:0|2:0,0:0:0:0:
212,370,62763,1,0,0:0:0:0:
70,119,62993,6,0,P|67:170|105:224,1,100,6|0,0:0|0:0,0:0:0:0:
146,338,63224,2,0,P|195:348|255:319,1,100
463,156,63455,6,0,P|417:133|352:147,1,100,2|0,0:0|0:0,0:0:0:0:
231,139,63686,2,0,P|201:180|205:246,1,100
312,378,63917,5,10,0:0:0:0:
323,383,64378,6,0,L|336:257,1,100,2|0,0:0|0:0,0:0:0:0:
470,169,64609,2,0,L|457:43,1,100
252,0,64840,6,0,L|261:134,1,100,2|0,0:0|0:0,0:0:0:0:
148,195,65070,2,0,L|139:329,1,100
135,384,65301,5,4,0:2:0:0:
121,380,65763,6,0,L|17:363,1,100,10|0,0:0|0:0,0:0:0:0:
10,145,65993,2,0,L|114:128,1,100
291,290,66224,6,0,L|187:273,1,100,2|0,0:0|0:0,0:0:0:0:
180,55,66454,2,0,L|284:38,1,100
370,15,66686,5,2,0:0:0:0:
380,22,67147,6,0,L|369:135,1,100,2|0,0:0|0:0,0:0:0:0:
491,271,67378,2,0,L|481:171,1,100
269,260,67609,6,0,L|403:272,1,100,10|0,0:0|0:0,0:0:0:0:
244,74,67840,2,0,L|110:86,1,100
134,313,68070,6,0,L|146:191,1,100,4|0,0:2|0:0,0:0:0:0:
14,72,68301,2,0,L|23:179,1,100
142,327,68532,6,0,L|243:309,1,100,6|0,0:0|0:0,0:0:0:0:
350,355,68763,2,0,L|451:337,1,100
512,195,68993,6,0,L|411:177,1,100,2|0,0:0|0:0,0:0:0:0:
304,223,69224,2,0,L|203:205,1,100,2|0,0:0|0:0,0:0:0:0:
23,171,69455,5,10,0:0:0:0:
11,158,69917,6,0,L|139:130,1,100,6|0,0:0|0:0,0:0:0:0:
293,344,70147,2,0,L|165:316,1,100,2|0,0:0|0:0,0:0:0:0:
339,42,70378,6,0,L|355:170,1,100,2|0,0:0|0:0,0:0:0:0:
97,331,70609,2,0,L|109:231,1,100,2|0,0:0|0:0,0:0:0:0:
148,37,71070,5,0,0:0:0:0:
146,52,71128,1,0,0:0:0:0:
144,67,71186,1,0,0:0:0:0:
142,81,71243,1,0,0:0:0:0:
140,96,71301,6,0,L|268:73,1,100,14|0,0:0|0:0,0:0:0:0:
362,161,71532,2,0,L|490:138,1,100
426,356,71763,6,0,L|416:251,1,100,2|0,0:0|0:0,0:0:0:0:
256,61,71993,2,0,L|246:166,1,100
236,258,72224,5,2,0:0:0:0:
241,274,72686,6,0,L|125:263,1,100,2|0,0:0|0:0,0:0:0:0:
0,118,72917,2,0,L|116:107,1,100
282,166,73147,5,8,2:0:0:0:
112,196,73263,1,8,2:0:0:0:
295,177,73378,5,8,0:0:0:0:
175,117,73493,1,8,0:0:0:0:
245,297,73609,5,8,2:0:0:0:
299,159,73724,1,8,0:0:0:0:
390,319,73840,5,8,0:0:0:0:
362,216,73955,1,8,0:0:0:0:
246,315,74070,6,0,B|214:332|214:332|151:306,1,100,6|0,3:0|3:0,3:0:0:0:
265,174,74300,5,0,3:0:0:0:
302,185,74416,1,0,3:0:0:0:
197,282,74531,5,2,3:0:0:0:
172,273,74646,1,0,3:0:0:0:
343,378,74762,5,0,3:0:0:0:
336,286,74877,1,0,3:0:0:0:
505,125,74993,6,0,L|497:235,1,100,10|0,3:0|3:0,0:0:0:0:
414,263,75223,5,0,3:0:0:0:
418,297,75339,1,0,3:0:0:0:
506,365,75454,5,2,3:0:0:0:
498,285,75570,1,0,3:0:0:0:
421,232,75685,5,0,3:0:0:0:
429,192,75800,1,0,3:0:0:0:
501,85,75916,6,0,L|397:73,1,100,2|0,0:0|0:0,0:0:0:0:
320,153,76146,5,0,3:0:0:0:
395,169,76262,1,0,3:0:0:0:
356,67,76377,5,2,3:0:0:0:
327,183,76493,1,0,3:0:0:0:
431,114,76608,1,0,3:0:0:0:
454,220,76723,1,0,3:0:0:0:
232,214,76839,6,0,L|223:103,1,101.2,10|0,3:0|3:0,3:0:0:0:
376,358,77070,2,0,L|385:247,1,101.2,10|0,3:0|3:0,3:0:0:0:
345,62,77300,2,0,L|334:183,1,101.2,10|0,3:0|3:0,3:0:0:0:
485,119,77531,5,8,3:0:0:0:
226,72,77646,1,8,3:0:0:0:
392,0,77762,5,2,3:0:0:0:
423,204,77877,1,8,3:0:0:0:
336,72,77993,1,10,3:0:0:0:
298,180,78108,1,0,3:0:0:0:
135,64,78223,5,2,3:0:0:0:
233,50,78339,1,0,3:0:0:0:
201,181,78454,5,0,3:0:0:0:
199,164,78570,1,0,3:0:0:0:
377,143,78685,6,0,L|359:268,1,100.333333333333,14|0,3:0|3:0,3:0:0:0:
235,304,78916,5,8,3:0:0:0:
457,265,79031,1,8,3:0:0:0:
383,375,79146,5,2,3:0:0:0:
363,292,79262,1,0,3:0:0:0:
275,219,79377,5,0,3:0:0:0:
270,242,79493,1,0,3:0:0:0:
132,348,79608,6,0,L|249:357,1,100,2|0,0:0|0:0,0:0:0:0:
196,226,79839,5,0,3:0:0:0:
193,248,79954,1,0,3:0:0:0:
62,162,80070,5,2,3:0:0:0:
102,151,80185,1,0,3:0:0:0:
231,53,80300,5,0,3:0:0:0:
157,36,80416,1,0,3:0:0:0:
106,229,80531,5,10,3:0:0:0:
83,131,80646,1,0,3:0:0:0:
195,260,80762,5,0,3:0:0:0:
208,163,80877,1,0,3:0:0:0:
302,262,80993,5,2,3:0:0:0:
282,266,81108,1,0,3:0:0:0:
237,354,81223,6,0,L|357:366,1,100,2|0,0:2|0:0,0:0:0:0:
173,230,81454,5,6,3:0:0:0:
166,315,81570,1,0,3:0:0:0:
45,370,81685,6,0,L|35:266,1,100
107,196,81916,5,2,3:0:0:0:
105,174,82031,1,0,3:0:0:0:
27,77,82146,6,0,L|21:189,1,100
194,197,82377,5,10,3:0:0:0:
187,149,82493,1,0,3:0:0:0:
126,88,82608,5,0,3:0:0:0:
129,66,82723,1,0,3:0:0:0:
264,2,82839,5,2,3:0:0:0:
246,90,82954,1,0,3:0:0:0:
347,151,83070,5,0,3:0:0:0:
342,119,83185,1,0,3:0:0:0:
430,33,83300,6,0,L|420:136,1,100,6|0,0:0|0:0,0:0:0:0:
512,224,83531,5,0,3:0:0:0:
502,138,83646,1,0,3:0:0:0:
348,167,83762,5,2,3:0:0:0:
342,196,83877,1,0,3:0:0:0:
394,274,83993,5,0,3:0:0:0:
396,305,84108,1,0,3:0:0:0:
210,238,84223,6,0,L|330:219,1,101.2,10|0,3:0|3:0,3:0:0:0:
468,377,84454,2,0,L|348:358,1,101.2,10|0,3:0|3:0,3:0:0:0:
416,149,84685,2,0,L|412:273,1,101.2,10|0,3:0|3:0,3:0:0:0:
262,327,84916,5,10,3:0:0:0:
500,281,85031,1,8,3:0:0:0:
347,184,85146,5,6,3:0:0:0:
362,342,85262,1,8,3:0:0:0:
359,173,85377,1,10,3:0:0:0:
345,349,85493,1,8,3:0:0:0:
157,209,85608,5,2,3:0:0:0:
238,189,85723,1,0,3:0:0:0:
178,326,85839,5,0,3:0:0:0:
142,317,85954,1,0,3:0:0:0:
46,146,86070,6,0,L|155:122,1,100,10|0,3:0|3:0,3:0:0:0:
280,289,86300,5,10,3:0:0:0:
107,265,86416,1,8,3:0:0:0:
218,158,86531,5,2,3:0:0:0:
240,162,86646,1,0,3:0:0:0:
328,247,86762,5,0,3:0:0:0:
290,240,86877,1,0,3:0:0:0:
363,96,86993,5,6,3:0:0:0:
386,172,87108,1,0,3:0:0:0:
469,124,87223,5,0,3:0:0:0:
472,104,87339,1,0,3:0:0:0:
353,19,87454,5,6,3:0:0:0:
338,99,87570,1,0,3:0:0:0:
253,150,87685,5,0,3:0:0:0:
231,75,87800,1,0,3:0:0:0:
54,241,87916,6,0,P|87:269|172:253,1,100,10|0,0:0|0:0,0:0:0:0:
144,27,88146,5,8,3:0:0:0:
140,67,88204,1,8,3:0:0:0:
136,107,88262,1,8,3:0:0:0:
132,147,88320,1,8,3:0:0:0:
128,186,88377,5,8,3:0:0:0:
240,147,88493,1,0,3:0:0:0:
311,229,88608,1,0,3:0:0:0:
387,191,88723,1,0,3:0:0:0:
411,371,88839,6,0,P|379:350|367:267,1,101.2,6|0,3:0|3:0,3:0:0:0:
508,120,89070,2,0,B|480:196|419:202|340:202|386:133|219:105|190:200|174:293|285:360|359:281,1,500,2|0,3:0|3:0,3:0:0:0:
370,104,89762,6,0,P|323:95|241:111,1,100,10|0,3:0|3:0,3:0:0:0:
133,248,89993,5,8,3:0:0:0:
165,126,90108,1,0,3:0:0:0:
119,275,90223,5,10,3:0:0:0:
53,155,90339,1,8,3:0:0:0:
268,201,90454,5,8,3:0:0:0:
275,246,90570,1,8,3:0:0:0:
370,313,90685,5,2,3:0:0:0:
379,279,90800,1,0,3:0:0:0:
455,197,90916,5,0,3:0:0:0:
465,271,91031,1,0,3:0:0:0:
393,354,91146,5,2,3:0:0:0:
371,343,91262,1,0,3:0:0:0:
297,281,91377,5,0,3:0:0:0:
275,292,91493,1,0,3:0:0:0:
146,372,91608,6,0,L|249:384,1,101.2,10|0,3:0|3:0,3:0:0:0:
142,231,91839,2,0,L|39:243,1,101.2,10|0,3:0|3:0,3:0:0:0:
285,281,92070,2,0,L|293:170,1,101.2,10|0,3:0|3:0,3:0:0:0:
438,295,92300,5,10,3:0:0:0:
210,239,92416,1,8,3:0:0:0:
375,96,92531,5,6,3:0:0:0:
405,218,92646,1,8,3:0:0:0:
264,75,92762,1,10,3:0:0:0:
233,253,92877,1,8,3:0:0:0:
92,96,92993,5,2,3:0:0:0:
184,58,93108,1,0,3:0:0:0:
250,164,93223,5,0,3:0:0:0:
225,158,93339,1,0,3:0:0:0:
348,14,93454,6,0,L|366:159,1,101.2,10|0,3:0|3:0,3:0:0:0:
501,61,93685,5,10,3:0:0:0:
264,49,93800,1,8,3:0:0:0:
320,186,93916,5,2,3:0:0:0:
372,157,94031,1,0,3:0:0:0:
485,263,94146,5,0,3:0:0:0:
413,249,94262,1,0,3:0:0:0:
443,84,94377,6,0,P|461:139|455:189,1,101.2,6|0,3:0|3:0,3:0:0:0:
382,319,94608,2,0,B|338:347|284:339|266:309|244:283|261:237|187:236|131:210|44:239|35:341|72:393|159:397|196:340,1,500,2|0,3:0|3:0,3:0:0:0:
338,239,95300,6,0,L|346:117,1,101.2,10|0,3:0|3:0,3:0:0:0:
260,19,95531,5,0,3:0:0:0:
249,49,95646,1,0,3:0:0:0:
93,55,95762,5,2,3:0:0:0:
145,30,95877,1,0,3:0:0:0:
241,138,95993,5,2,3:2:0:0:
164,123,96108,1,0,3:0:0:0:
16,232,96223,6,0,B|113:326|211:260|160:217|288:153|364:175|442:367|403:394|257:378|138:346|361:193|475:222|496:370,1,700,6|0,3:0|3:0,3:0:0:0:
253,384,97146,6,0,L|267:275,1,101.2,10|0,3:0|3:0,3:0:0:0:
365,194,97377,5,0,3:0:0:0:
361,164,97493,1,0,3:0:0:0:
233,67,97608,5,2,3:0:0:0:
313,32,97723,1,0,3:0:0:0:
413,132,97839,5,0,3:0:0:0:
357,119,97954,1,0,3:0:0:0:
210,222,98070,6,0,B|255:209|255:209|267:212|267:212|315:199,1,100,2|0,0:0|0:0,0:0:0:0:
391,287,98300,5,0,3:0:0:0:
327,314,98416,1,0,3:0:0:0:
221,265,98531,5,2,3:0:0:0:
190,262,98646,1,0,3:0:0:0:
116,348,98762,5,0,3:0:0:0:
131,339,98877,1,0,3:0:0:0:
54,187,98993,6,0,L|44:297,1,101.2,10|0,3:0|3:0,3:0:0:0:
214,155,99223,2,0,L|204:55,1,101.2,10|0,3:0|3:0,3:0:0:0:
185,292,99454,2,0,L|296:281,1,101.2,10|0,3:0|3:0,3:0:0:0:
380,172,99685,5,10,3:0:0:0:
347,353,99800,1,8,3:0:0:0:
484,274,99916,5,6,3:0:0:0:
298,296,100031,1,8,3:0:0:0:
494,254,100146,1,10,3:0:0:0:
296,177,100262,1,8,3:0:0:0:
472,64,100377,5,2,3:0:0:0:
497,147,100493,1,8,3:0:0:0:
372,190,100608,5,8,3:0:0:0:
376,161,100723,1,8,3:0:0:0:
501,276,100839,6,0,L|367:263,1,101.2,10|0,3:0|3:0,3:0:0:0:
310,176,101070,5,10,3:0:0:0:
298,359,101185,1,8,3:0:0:0:
213,258,101300,5,2,3:0:0:0:
188,249,101416,1,0,3:0:0:0:
112,357,101531,5,0,3:0:0:0:
171,340,101646,1,0,3:0:0:0:
49,162,101762,6,0,L|40:267,1,101.2,4|0,3:1|3:0,3:0:0:0:
201,346,101993,2,0,B|240:388|310:377|344:295|262:224|234:256|219:149|254:103|254:103|349:93|382:179,1,500,2|0,0:0|0:0,0:0:0:0:
395,274,102685,5,10,3:0:0:0:
256,353,102800,1,0,3:0:0:0:
405,262,102916,1,2,3:0:0:0:
199,208,103031,1,0,3:0:0:0:
395,22,103146,5,8,2:0:0:0:
391,62,103204,1,8,2:0:0:0:
387,102,103262,1,8,2:0:0:0:
383,142,103320,1,8,2:0:0:0:
403,169,103377,5,8,3:0:0:0:
405,193,103435,1,8,3:0:0:0:
407,217,103493,1,8,3:0:0:0:
409,241,103550,1,8,3:0:0:0:
432,268,103608,6,0,B|398:251|398:251|311:272,1,101.2,6|0,3:0|3:0,3:0:0:0:
144,370,103839,2,0,B|178:387|178:387|265:366,1,101.2,2|0,3:0|3:0,3:0:0:0:
455,168,104070,2,0,B|421:151|421:151|334:172,1,101.2,2|0,3:0|3:0,3:0:0:0:
149,275,104300,2,0,B|183:292|183:292|270:271,1,100.333333333333,2|0,3:0|3:0,3:0:0:0:
272,94,104531,5,8,3:0:0:0:
302,182,104646,1,8,3:0:0:0:
157,129,104762,2,0,L|163:45,3,50.0222222222223,0|0|0|0,3:0|3:0|3:0|3:0,3:0:0:0:
68,342,104993,5,6,3:0:0:0:
67,336,105050,1,0,3:0:0:0:
67,331,105108,1,0,3:0:0:0:
66,326,105166,1,0,3:0:0:0:
66,321,105223,1,0,3:0:0:0:
65,316,105281,1,0,3:0:0:0:
65,311,105339,1,0,3:0:0:0:
64,306,105396,1,0,3:0:0:0:
64,301,105454,1,2,3:0:0:0:
63,296,105512,1,0,3:0:0:0:
63,291,105570,1,0,3:0:0:0:
62,286,105627,1,0,3:0:0:0:
62,281,105685,1,0,3:0:0:0:
61,275,105743,1,0,3:0:0:0:
61,270,105800,1,0,3:0:0:0:
61,264,105858,1,0,3:0:0:0:
60,259,105916,1,2,3:0:0:0:
60,254,105973,1,0,3:0:0:0:
59,249,106031,1,0,3:0:0:0:
59,244,106089,1,0,3:0:0:0:
58,239,106146,1,0,3:0:0:0:
58,234,106204,1,0,3:0:0:0:
57,228,106262,1,0,3:0:0:0:
57,223,106320,1,0,3:0:0:0:
81,204,106377,5,14,3:0:0:0:
81,199,106435,1,0,3:0:0:0:
82,194,106493,1,0,3:0:0:0:
83,189,106550,1,0,3:0:0:0:
84,184,106608,1,0,3:0:0:0:
85,179,106666,1,0,3:0:0:0:
86,174,106723,1,0,3:0:0:0:
87,169,106781,1,0,3:0:0:0:
88,164,106839,5,10,3:0:0:0:
114,135,106896,1,0,3:0:0:0:
149,117,106954,2,0,P|175:118|212:131,1,50.6000000000001,0|0,3:0|3:0,3:0:0:0:
279,253,107070,5,10,3:0:0:0:
305,282,107127,1,0,3:0:0:0:
340,300,107185,2,0,P|366:299|403:286,1,50.6000000000001,0|0,3:0|3:0,3:0:0:0:
502,142,107300,6,0,B|462:110|364:135|408:154|324:212|232:149,1,275.266666666667,6|0,3:0|3:0,3:0:0:0:
228,137,107993,1,0,3:0:0:0:
426,22,108223,2,0,L|420:128,1,100.766666666667,10|0,3:0|3:0,3:0:0:0:
129,303,108685,6,0,B|175:263|175:263|318:298,1,200,6|2,3:0|3:0,3:0:0:0:
512,333,109377,2,0,B|513:271|513:271|386:239,1,175.8,6|0,3:0|3:0,3:0:0:0:
373,235,109839,1,2,3:0:0:0:
275,379,110070,5,8,2:0:0:0:
268,327,110127,1,8,2:0:0:0:
260,274,110185,1,8,2:0:0:0:
253,221,110243,1,8,2:0:0:0:
234,183,110300,5,8,0:0:0:0:
230,202,110358,1,8,0:0:0:0:
226,221,110416,1,8,0:0:0:0:
222,240,110473,1,8,0:0:0:0:
206,270,110531,5,8,2:0:0:0:
199,218,110589,1,8,2:0:0:0:
191,165,110646,1,8,2:0:0:0:
184,112,110704,1,8,2:0:0:0:
165,74,110762,5,8,3:0:0:0:
161,89,110820,1,8,3:0:0:0:
157,104,110877,1,8,3:0:0:0:
154,119,110935,1,8,3:0:0:0:
128,143,110993,5,2,3:0:0:0:
321,181,111146,1,2,3:0:0:0:
428,57,111300,1,2,3:0:0:0:
485,255,111454,6,0,B|428:301|353:307|305:251|305:251|281:318|228:334|163:330,1,375,6|0,3:0|3:0,3:0:0:0:
145,303,112377,6,0,L|144:212,1,75.4666666666667,6|0,3:0|3:0,3:0:0:0:
169,194,112608,2,0,L|169:268,1,75.4666666666667,6|0,3:0|3:0,3:0:0:0:
211,356,112839,5,6,3:0:0:0:
219,327,112896,1,0,3:0:0:0:
238,304,112954,1,0,3:0:0:0:
265,290,113012,1,0,3:0:0:0:
294,285,113070,1,0,3:0:0:0:
323,290,113127,1,0,3:0:0:0:
349,303,113185,1,0,3:0:0:0:
367,326,113243,1,0,3:0:0:0:
392,341,113300,1,2,3:0:0:0:
421,345,113358,1,0,3:0:0:0:
449,336,113416,1,0,3:0:0:0:
469,314,113473,1,0,3:0:0:0:
474,284,113531,2,0,L|467:247,3,25.1555555555556,0|0|0|0,3:0|3:0|3:0|3:0,3:0:0:0:
376,150,113762,5,10,3:0:0:0:
369,176,113820,1,0,3:0:0:0:
375,202,113877,1,0,3:0:0:0:
393,222,113935,1,0,3:0:0:0:
419,229,113993,1,0,3:0:0:0:
445,225,114050,1,0,3:0:0:0:
465,206,114108,1,0,3:0:0:0:
469,178,114166,1,0,3:0:0:0:
456,153,114223,5,10,3:0:0:0:
193,148,114454,1,0,3:0:0:0:
359,14,114685,6,0,L|356:84,1,50.6000000000001,6|0,3:0|3:0,3:0:0:0:
292,172,114916,2,0,L|295:242,1,50.6000000000001,2|0,3:0|3:0,3:0:0:0:
304,242,115377,5,2,3:0:0:0:
467,328,115608,2,0,B|449:302|449:302|371:308,1,100.766666666667,10|0,3:0|3:0,3:0:0:0:
251,371,116070,1,4,3:2:0:0:
228,274,116300,1,0,3:0:0:0:
77,383,116531,6,0,L|69:327,1,50.6000000000001,6|0,3:0|3:0,3:0:0:0:
211,214,116762,2,0,L|203:263,1,50.6000000000001,0|0,3:0|3:0,3:0:0:0:
69,222,116993,1,4,3:2:0:0:
71,192,117108,1,0,3:0:0:0:
73,162,117223,1,0,3:0:0:0:
75,131,117339,1,0,3:0:0:0:
161,32,117454,5,8,2:0:0:0:
215,78,117531,1,8,2:0:0:0:
216,149,117608,1,8,3:0:0:0:
146,172,117685,5,8,3:0:0:0:
140,157,117762,1,8,3:0:0:0:
141,139,117839,1,8,3:0:0:0:
150,123,117916,5,8,2:0:0:0:
216,149,117993,1,8,2:0:0:0:
284,115,118070,1,8,3:0:0:0:
296,46,118146,5,8,3:0:0:0:
290,33,118223,1,8,3:0:0:0:
279,24,118300,1,8,3:0:0:0:
266,20,118377,5,6,3:0:0:0:
241,30,118454,1,0,3:0:0:0:
224,51,118531,1,0,3:0:0:0:
216,76,118608,1,0,3:0:0:0:
217,102,118685,1,0,3:0:0:0:
228,125,118762,1,0,3:0:0:0:
250,139,118839,1,4,3:2:0:0:
260,159,118916,1,0,3:0:0:0:
262,182,118993,1,0,3:0:0:0:
256,204,119070,1,0,3:0:0:0:
242,222,119146,1,0,3:0:0:0:
222,234,119223,1,0,3:0:0:0:
198,236,119300,5,10,3:0:0:0:
182,210,119377,1,0,3:0:0:0:
156,194,119454,1,0,3:0:0:0:
126,190,119531,1,0,3:0:0:0:
97,200,119608,1,0,3:0:0:0:
73,218,119685,1,0,3:0:0:0:
63,246,119762,5,4,3:2:0:0:
66,285,119839,1,0,3:0:0:0:
90,316,119916,1,0,3:0:0:0:
127,328,119993,1,0,3:0:0:0:
166,326,120070,1,0,3:0:0:0:
195,299,120146,1,0,3:0:0:0:
213,263,120223,1,6,3:0:0:0:
245,239,120300,1,0,3:0:0:0:
284,232,120377,1,0,3:0:0:0:
322,243,120454,1,0,3:0:0:0:
346,274,120531,1,0,3:0:0:0:
350,313,120608,1,0,3:0:0:0:
334,349,120685,1,2,3:0:0:0:
297,366,120762,1,0,3:0:0:0:
257,360,120839,1,0,3:0:0:0:
234,326,120916,1,0,3:0:0:0:
237,286,120993,1,0,3:0:0:0:
263,255,121070,1,0,3:0:0:0:
300,242,121146,5,10,3:0:0:0:
324,219,121223,1,0,3:0:0:0:
333,187,121300,1,0,3:0:0:0:
327,154,121377,1,0,3:0:0:0:
307,127,121454,1,0,3:0:0:0:
275,115,121531,1,0,3:0:0:0:
241,117,121608,6,0,L|231:194,2,67.4666666666668,10|0|0,3:0|3:0|3:0,3:0:0:0:
135,56,121839,2,0,L|145:133,2,67.4666666666668,10|0|0,3:0|3:0|3:0,3:0:0:0:
302,1,122070,5,6,3:0:0:0:
303,20,122127,1,0,3:0:0:0:
305,40,122185,1,0,3:0:0:0:
307,60,122243,1,0,3:0:0:0:
309,79,122300,2,0,L|350:50,3,50.3111111111112,0|0|0|0,3:0|3:0|3:0|3:0,3:0:0:0:
470,141,122531,5,6,3:2:0:0:
444,125,122589,1,0,3:0:0:0:
414,126,122646,1,0,3:0:0:0:
388,141,122704,1,0,3:0:0:0:
375,168,122762,1,0,3:0:0:0:
377,198,122820,1,0,3:0:0:0:
394,221,122877,1,0,3:0:0:0:
421,232,122935,1,0,3:0:0:0:
451,230,122993,5,14,3:0:0:0:
473,256,123050,1,0,3:0:0:0:
480,290,123108,1,0,3:0:0:0:
471,324,123166,1,0,3:0:0:0:
445,346,123223,1,0,3:0:0:0:
410,350,123281,1,0,3:0:0:0:
378,334,123339,1,0,3:0:0:0:
365,301,123396,1,0,3:0:0:0:
371,266,123454,5,6,3:0:0:0:
356,223,123512,1,0,3:0:0:0:
314,205,123570,1,0,3:0:0:0:
269,205,123627,1,0,3:0:0:0:
230,227,123685,1,0,3:0:0:0:
203,263,123743,1,0,3:0:0:0:
159,272,123800,1,0,3:0:0:0:
115,259,123858,1,0,3:0:0:0:
98,216,123916,5,6,3:0:0:0:
99,206,123973,1,0,3:0:0:0:
102,196,124031,1,0,3:0:0:0:
106,187,124089,1,0,3:0:0:0:
111,179,124146,1,0,3:0:0:0:
117,171,124204,1,0,3:0:0:0:
125,165,124262,1,0,3:0:0:0:
134,160,124320,1,0,3:0:0:0:
143,156,124377,5,6,3:2:0:0:
173,189,124435,1,0,3:0:0:0:
217,197,124493,1,0,3:0:0:0:
257,179,124550,1,0,3:0:0:0:
279,139,124608,1,0,3:0:0:0:
274,93,124666,1,0,3:0:0:0:
240,63,124723,1,0,3:0:0:0:
195,57,124781,1,0,3:0:0:0:
156,80,124839,5,8,2:0:0:0:
157,134,124896,1,8,2:0:0:0:
158,189,124954,1,8,2:0:0:0:
159,244,125012,1,8,2:0:0:0:
160,299,125070,2,0,L|212:261,3,50.3111111111112,8|8|8|8,3:0|3:0|3:0|3:0,3:0:0:0:
352,189,125300,5,8,2:0:0:0:
348,232,125357,1,8,2:0:0:0:
344,275,125415,1,8,2:0:0:0:
340,319,125473,1,8,2:0:0:0:
336,363,125531,2,0,L|296:329,3,50,8|8|8|8,3:0|3:0|3:0|3:0,3:0:0:0:
445,370,125762,6,0,P|485:331|465:226,1,150.933333333333,6|0,3:0|3:0,3:0:0:0:
448,214,125993,1,0,3:0:0:0:
403,192,126050,1,8,2:0:0:0:
353,201,126108,1,0,3:0:0:0:
320,239,126166,1,8,2:0:0:0:
312,287,126223,1,2,3:0:0:0:
277,323,126281,1,8,2:0:0:0:
226,327,126339,1,0,3:0:0:0:
185,298,126396,1,8,2:0:0:0:
174,248,126454,1,0,3:0:0:0:
196,203,126512,1,8,2:0:0:0:
192,152,126570,1,0,3:0:0:0:
155,118,126627,1,8,2:0:0:0:
104,119,126685,5,2,3:0:0:0:
66,152,126743,1,8,2:0:0:0:
62,201,126800,1,0,3:0:0:0:
92,240,126858,1,8,2:0:0:0:
141,249,126916,1,0,3:0:0:0:
186,230,126973,1,8,2:0:0:0:
215,189,127031,1,0,3:0:0:0:
260,166,127089,1,8,2:0:0:0:
309,172,127146,1,2,3:0:0:0:
344,207,127204,1,8,2:0:0:0:
363,253,127262,1,0,3:0:0:0:
407,276,127320,1,8,2:0:0:0:
454,263,127377,1,0,3:0:0:0:
480,220,127435,1,8,2:0:0:0:
468,171,127493,1,0,3:0:0:0:
427,142,127550,1,8,2:0:0:0:
376,142,127608,5,6,3:0:0:0:
332,116,127666,1,8,2:0:0:0:
321,67,127723,1,0,3:0:0:0:
336,19,127781,1,8,2:0:0:0:
383,2,127839,1,0,3:0:0:0:
431,11,127896,1,8,2:0:0:0:
459,52,127954,1,0,3:0:0:0:
452,101,128012,1,8,2:0:0:0:
413,132,128070,2,0,L|352:118,3,50.3111111111112,6|8|0|8,3:0|2:0|3:0|2:0,3:0:0:0:
242,216,128300,2,0,L|303:202,3,50.3111111111112,0|8|0|8,3:0|2:0|3:0|2:0,3:0:0:0:
179,77,128531,5,0,3:0:0:0:
172,84,128589,1,8,2:0:0:0:
166,92,128646,1,0,3:0:0:0:
161,101,128704,1,8,2:0:0:0:
158,110,128762,1,0,3:0:0:0:
156,119,128820,1,8,2:0:0:0:
156,128,128877,1,0,3:0:0:0:
157,137,128935,1,8,2:0:0:0:
160,146,128993,5,8,2:0:0:0:
213,135,129050,1,8,2:0:0:0:
267,125,129108,1,8,2:0:0:0:
321,115,129166,1,8,2:0:0:0:
363,86,129223,6,0,L|349:155,3,50.3111111111112,0|0|0|0,3:0|3:0|3:0|3:0,3:0:0:0:
445,1,129454,5,6,3:0:0:0:
464,16,129512,1,0,3:0:0:0:
477,37,129570,1,0,3:0:0:0:
483,60,129627,1,0,3:0:0:0:
484,85,129685,1,0,3:0:0:0:
477,109,129743,1,0,3:0:0:0:
460,127,129800,1,0,3:0:0:0:
437,137,129858,1,0,3:0:0:0:
419,155,129916,1,4,3:2:0:0:
409,177,129973,1,0,3:0:0:0:
410,202,130031,1,0,3:0:0:0:
419,225,130089,1,0,3:0:0:0:
440,236,130146,2,0,P|471:237|496:225,3,50.3111111111112,2|0|0|0,3:0|3:0|3:0|3:0,3:0:0:0:
402,70,130377,5,14,3:0:0:0:
392,71,130435,1,0,3:0:0:0:
382,73,130493,1,0,3:0:0:0:
372,74,130550,1,0,3:0:0:0:
362,76,130608,1,2,3:0:0:0:
352,78,130666,1,0,3:0:0:0:
342,80,130723,1,0,3:0:0:0:
332,82,130781,1,0,3:0:0:0:
322,84,130839,5,4,3:2:0:0:
333,105,130896,1,0,3:0:0:0:
335,129,130954,1,0,3:0:0:0:
332,153,131012,1,0,3:0:0:0:
319,174,131070,1,0,3:0:0:0:
298,188,131127,1,0,3:0:0:0:
272,190,131185,1,0,3:0:0:0:
248,181,131243,1,0,3:0:0:0:
231,162,131300,1,4,3:2:0:0:
229,136,131358,1,0,3:0:0:0:
239,113,131416,1,0,3:0:0:0:
257,96,131473,1,0,3:0:0:0:
279,85,131531,5,2,3:0:0:0:
281,104,131589,1,0,3:0:0:0:
283,123,131646,1,0,3:0:0:0:
285,142,131704,1,0,3:0:0:0:
287,161,131762,1,4,3:2:0:0:
289,180,131820,1,0,3:0:0:0:
291,199,131877,1,0,3:0:0:0:
293,218,131935,1,0,3:0:0:0:
295,237,131993,1,0,3:0:0:0:
298,256,132050,1,0,3:0:0:0:
300,275,132108,1,0,3:0:0:0:
302,294,132166,1,0,3:0:0:0:
305,313,132223,5,14,3:0:0:0:
323,295,132281,1,0,3:0:0:0:
346,286,132339,1,0,3:0:0:0:
370,286,132396,1,0,3:0:0:0:
393,293,132454,1,0,3:0:0:0:
413,307,132512,1,0,3:0:0:0:
428,326,132570,1,0,3:0:0:0:
436,349,132627,1,0,3:0:0:0:
440,373,132685,5,8,3:0:0:0:
504,181,132916,1,8,3:0:0:0:
291,383,133146,5,6,3:0:0:0:
290,372,133203,1,0,3:0:0:0:
289,361,133261,1,0,3:0:0:0:
288,350,133319,1,0,3:0:0:0:
287,340,133376,1,0,3:0:0:0:
286,329,133434,1,0,3:0:0:0:
285,318,133492,1,0,3:0:0:0:
284,308,133549,1,0,3:0:0:0:
283,297,133607,1,2,3:0:0:0:
282,286,133665,1,0,3:0:0:0:
281,276,133722,1,0,3:0:0:0:
280,265,133780,1,0,3:0:0:0:
279,254,133838,1,0,3:0:0:0:
278,243,133896,1,0,3:0:0:0:
277,233,133953,1,0,3:0:0:0:
276,222,134011,1,0,3:0:0:0:
285,190,134069,1,10,3:0:0:0:
285,190,134530,5,6,3:0:0:0:
284,201,134588,1,0,3:0:0:0:
283,212,134646,1,0,3:0:0:0:
282,222,134703,1,0,3:0:0:0:
281,233,134761,1,0,3:0:0:0:
280,244,134819,1,0,3:0:0:0:
279,255,134876,1,0,3:0:0:0:
278,265,134934,1,0,3:0:0:0:
277,276,134992,1,4,3:2:0:0:
276,287,135049,1,0,3:0:0:0:
275,297,135107,1,0,3:0:0:0:
274,308,135165,1,0,3:0:0:0:
273,319,135222,1,0,3:0:0:0:
272,329,135280,1,0,3:0:0:0:
271,340,135338,1,0,3:0:0:0:
270,351,135396,1,0,3:0:0:0:
269,362,135453,1,2,3:0:0:0:
269,362,135915,5,6,3:0:0:0:
268,351,135972,1,0,3:0:0:0:
267,340,136030,1,0,3:0:0:0:
266,329,136088,1,0,3:0:0:0:
265,319,136146,1,0,3:0:0:0:
264,308,136203,1,0,3:0:0:0:
263,297,136261,1,0,3:0:0:0:
262,287,136319,1,0,3:0:0:0:
261,276,136376,1,4,3:2:0:0:
260,265,136434,1,0,3:0:0:0:
259,255,136492,1,0,3:0:0:0:
258,244,136549,1,0,3:0:0:0:
257,233,136607,1,0,3:0:0:0:
256,222,136665,1,0,3:0:0:0:
255,212,136722,1,0,3:0:0:0:
254,201,136780,1,0,3:0:0:0:
253,190,136838,1,2,3:0:0:0:
253,190,137299,5,6,3:0:0:0:
248,198,137357,1,0,3:0:0:0:
243,206,137415,1,0,3:0:0:0:
238,214,137472,1,0,3:0:0:0:
233,222,137530,1,0,3:0:0:0:
228,230,137588,1,0,3:0:0:0:
223,238,137646,1,0,3:0:0:0:
218,246,137703,1,0,3:0:0:0:
213,255,137761,5,14,3:2:0:0:
208,247,137819,1,0,3:0:0:0:
203,239,137876,1,0,3:0:0:0:
198,231,137934,1,0,3:0:0:0:
193,223,137992,1,0,3:0:0:0:
188,215,138049,1,0,3:0:0:0:
183,207,138107,1,0,3:0:0:0:
178,199,138165,1,0,3:0:0:0:
170,186,138222,5,2,3:0:0:0:
115,235,138338,1,2,3:0:0:0:
48,200,138453,1,2,3:0:0:0:
1,255,138569,1,2,3:0:0:0:
1,98,138684,5,6,3:0:0:0:
10,99,138742,1,0,3:0:0:0:
19,100,138799,1,0,3:0:0:0:
28,101,138857,1,0,3:0:0:0:
37,102,138915,1,0,3:0:0:0:
46,103,138972,1,0,3:0:0:0:
55,104,139030,1,0,3:0:0:0:
64,105,139088,1,0,3:0:0:0:
73,106,139146,1,4,3:2:0:0:
82,107,139203,1,0,3:0:0:0:
91,108,139261,1,0,3:0:0:0:
100,109,139319,1,0,3:0:0:0:
109,110,139376,1,0,3:0:0:0:
118,111,139434,1,0,3:0:0:0:
127,112,139492,1,0,3:0:0:0:
136,113,139549,1,0,3:0:0:0:
150,127,139607,1,10,3:0:0:0:
150,127,140069,6,0,L|144:52,1,50.6000000000001,6|0,3:0|3:0,3:0:0:0:
243,21,140184,2,0,L|239:70,1,50.6000000000001,2|0,3:0|3:0,3:0:0:0:
138,147,140299,1,0,3:0:0:0:
136,137,140357,1,0,3:0:0:0:
134,127,140415,1,0,3:0:0:0:
132,117,140472,1,0,3:0:0:0:
130,107,140530,1,4,3:2:0:0:
128,97,140588,1,0,3:0:0:0:
126,87,140646,1,0,3:0:0:0:
124,77,140703,1,0,3:0:0:0:
122,67,140761,1,0,3:0:0:0:
120,57,140819,1,0,3:0:0:0:
118,47,140876,1,0,3:0:0:0:
116,37,140934,1,0,3:0:0:0:
114,27,140992,1,2,3:0:0:0:
114,27,141453,5,14,3:0:0:0:
123,28,141511,1,0,3:0:0:0:
132,29,141569,1,0,3:0:0:0:
141,30,141626,1,0,3:0:0:0:
150,31,141684,1,0,3:0:0:0:
159,32,141742,1,0,3:0:0:0:
168,33,141799,1,0,3:0:0:0:
177,34,141857,1,0,3:0:0:0:
186,35,141915,1,4,3:2:0:0:
195,36,141972,1,0,3:0:0:0:
204,37,142030,1,0,3:0:0:0:
213,38,142088,1,0,3:0:0:0:
222,39,142146,1,0,3:0:0:0:
231,40,142203,1,0,3:0:0:0:
240,41,142261,1,0,3:0:0:0:
249,42,142319,1,0,3:0:0:0:
258,43,142376,1,2,3:0:0:0:
258,43,142838,5,6,3:0:0:0:
256,52,142896,1,0,3:0:0:0:
254,61,142953,1,0,3:0:0:0:
253,71,143011,1,0,3:0:0:0:
252,81,143069,1,0,3:0:0:0:
251,90,143126,1,0,3:0:0:0:
250,100,143184,1,0,3:0:0:0:
249,110,143242,1,0,3:0:0:0:
248,119,143299,5,4,3:2:0:0:
257,115,143357,1,0,3:0:0:0:
266,111,143415,1,0,3:0:0:0:
275,107,143472,1,0,3:0:0:0:
284,103,143530,1,0,3:0:0:0:
293,99,143588,1,0,3:0:0:0:
302,95,143646,1,0,3:0:0:0:
311,91,143703,1,0,3:0:0:0:
320,87,143761,6,0,L|316:131,1,34.6,8|8,2:0|2:0,3:0:0:0:
291,371,143992,1,2,3:0:0:0:
487,168,144222,5,6,3:0:0:0:
458,150,144299,1,0,3:0:0:0:
425,146,144376,1,0,3:0:0:0:
394,155,144453,1,0,3:0:0:0:
368,175,144530,1,0,3:0:0:0:
353,205,144607,1,0,3:0:0:0:
350,238,144684,1,2,3:0:0:0:
361,269,144761,1,0,3:0:0:0:
384,293,144838,1,0,3:0:0:0:
414,307,144915,1,0,3:0:0:0:
447,307,144992,1,0,3:0:0:0:
477,294,145069,1,0,3:0:0:0:
500,270,145146,1,10,3:0:0:0:
500,270,145607,5,2,3:0:0:0:
487,239,145684,1,0,3:0:0:0:
459,220,145761,1,0,3:0:0:0:
426,214,145838,1,0,3:0:0:0:
393,221,145915,1,0,3:0:0:0:
365,240,145992,1,0,3:0:0:0:
347,268,146069,1,2,3:0:0:0:
321,289,146146,1,0,3:0:0:0:
288,295,146222,1,0,3:0:0:0:
254,291,146299,1,0,3:0:0:0:
228,268,146376,1,0,3:0:0:0:
213,238,146453,1,0,3:0:0:0:
214,204,146530,1,2,3:0:0:0:
214,204,146992,5,10,3:0:0:0:
245,214,147069,1,0,3:0:0:0:
270,235,147146,1,0,3:0:0:0:
286,264,147222,1,0,3:0:0:0:
289,297,147299,1,0,3:0:0:0:
279,329,147376,1,0,3:0:0:0:
258,355,147453,1,2,3:0:0:0:
229,370,147530,1,0,3:0:0:0:
196,374,147607,1,0,3:0:0:0:
164,364,147684,1,0,3:0:0:0:
138,344,147761,1,0,3:0:0:0:
122,315,147838,1,0,3:0:0:0:
118,282,147915,1,2,3:0:0:0:
118,282,148376,5,2,3:0:0:0:
150,271,148453,1,0,3:0:0:0:
181,260,148530,1,0,3:0:0:0:
212,249,148607,1,0,3:0:0:0:
243,238,148684,1,0,3:0:0:0:
274,227,148761,1,0,3:0:0:0:
305,216,148838,5,10,3:0:0:0:
273,204,148915,1,0,3:0:0:0:
242,193,148992,1,0,3:0:0:0:
211,182,149069,1,0,3:0:0:0:
180,171,149146,1,0,3:0:0:0:
149,160,149222,1,0,3:0:0:0:
118,149,149299,5,2,3:0:0:0:
181,62,149415,1,0,3:0:0:0:
248,147,149530,1,0,3:0:0:0:
314,69,149646,1,0,3:0:0:0:
367,170,149761,5,6,3:0:0:0:
381,199,149838,1,0,3:0:0:0:
379,232,149915,1,0,3:0:0:0:
359,259,149992,1,0,3:0:0:0:
327,270,150069,1,0,3:0:0:0:
294,264,150146,1,0,3:0:0:0:
262,271,150222,1,2,3:0:0:0:
236,292,150299,1,0,3:0:0:0:
226,324,150376,1,0,3:0:0:0:
234,356,150453,1,0,3:0:0:0:
258,378,150530,1,0,3:0:0:0:
290,383,150607,1,0,3:0:0:0:
320,368,150684,1,10,3:0:0:0:
320,368,151146,5,2,3:0:0:0:
351,358,151222,1,0,3:0:0:0:
369,330,151299,1,0,3:0:0:0:
367,296,151376,1,0,3:0:0:0:
349,267,151453,1,0,3:0:0:0:
318,252,151530,1,0,3:0:0:0:
284,256,151607,1,2,3:0:0:0:
255,273,151684,1,0,3:0:0:0:
238,301,151761,1,0,3:0:0:0:
208,316,151838,1,0,3:0:0:0:
174,311,151915,1,0,3:0:0:0:
144,295,151992,1,0,3:0:0:0:
133,263,152069,1,2,3:0:0:0:
133,263,152530,5,14,3:0:0:0:
162,247,152607,1,0,3:0:0:0:
180,219,152684,1,0,3:0:0:0:
184,185,152761,1,0,3:0:0:0:
173,153,152838,1,0,3:0:0:0:
149,129,152915,1,0,3:0:0:0:
116,121,152992,1,2,3:0:0:0:
88,101,153069,1,0,3:0:0:0:
79,68,153146,1,0,3:0:0:0:
85,35,153222,1,0,3:0:0:0:
108,11,153299,1,0,3:0:0:0:
140,5,153376,1,0,3:0:0:0:
172,11,153453,1,2,3:0:0:0:
172,11,153922,5,2,3:0:0:0:
174,43,153998,1,0,3:0:0:0:
176,76,154075,1,0,3:0:0:0:
178,109,154152,1,0,3:0:0:0:
180,142,154229,1,0,3:0:0:0:
182,175,154306,1,0,3:0:0:0:
184,208,154383,5,2,3:0:0:0:
208,185,154460,1,0,3:0:0:0:
240,177,154537,1,0,3:0:0:0:
272,184,154614,1,0,3:0:0:0:
297,206,154691,1,0,3:0:0:0:
329,212,154768,1,0,3:0:0:0:
359,198,154845,6,0,P|387:169|396:128,1,67.4666666666668,10|0,3:0|3:0,3:0:0:0:
207,78,154998,2,0,P|218:116|249:145,1,67.4666666666668,8|0,3:0|3:0,3:0:0:0:
378,24,155152,2,0,P|338:14|298:26,1,67.4666666666668,8|0,3:0|3:0,3:0:0:0:
180,301,155306,6,0,L|301:286,1,84.3333333333334,8|0,3:0|3:0,3:0:0:0:
512,183,155460,2,0,L|391:168,1,84.3333333333334,8|0,3:0|3:0,3:0:0:0:
193,24,155614,2,0,L|314:9,1,84.3333333333334,8|0,3:0|3:0,3:0:0:0:
447,307,156691,5,6,3:0:0:0:
480,285,156768,1,0,3:0:0:0:
486,245,156845,1,0,3:0:0:0:
470,207,156922,1,0,3:0:0:0:
434,188,156998,1,0,3:0:0:0:
393,188,157075,1,0,3:0:0:0:
361,213,157152,1,2,3:0:0:0:
346,250,157229,1,0,3:0:0:0:
314,275,157306,1,0,3:0:0:0:
273,276,157383,1,0,3:0:0:0:
238,255,157460,1,0,3:0:0:0:
229,215,157537,1,0,3:0:0:0:
242,177,157614,5,10,3:0:0:0:
267,208,157691,1,0,3:0:0:0:
270,247,157768,1,0,3:0:0:0:
245,278,157845,1,0,3:0:0:0:
206,289,157922,1,0,3:0:0:0:
168,277,157998,1,0,3:0:0:0:
137,250,158075,1,2,3:0:0:0:
97,246,158152,1,0,3:0:0:0:
61,265,158229,1,0,3:0:0:0:
49,303,158306,1,0,3:0:0:0:
64,339,158383,1,0,3:0:0:0:
100,354,158460,1,0,3:0:0:0:
139,345,158537,1,2,3:0:0:0:
161,311,158614,1,0,3:0:0:0:
196,291,158691,1,0,3:0:0:0:
236,292,158768,1,0,3:0:0:0:
267,316,158845,1,0,3:0:0:0:
284,352,158922,1,0,3:0:0:0:
320,367,158998,1,2,3:0:0:0:
359,359,159075,1,0,3:0:0:0:
383,327,159152,6,0,P|392:288|386:248,1,67.4666666666668,0|0,3:0|3:0,3:0:0:0:
467,204,159306,2,0,P|445:170|413:146,1,67.4666666666668,0|0,3:0|3:0,3:0:0:0:
212,222,159460,6,0,P|227:239|280:253,1,67.4666666666668,10|0,3:0|3:0,3:0:0:0:
390,65,159614,2,0,P|367:69|329:108,1,80.9599975585939,0|0,3:0|3:0,3:0:0:0:
471,305,159768,2,0,P|459:281|403:249,1,94.4533304850262,4|0,3:2|3:0,3:0:0:0:
187,347,159922,6,0,L|298:327,1,107.946666666667,14|0,3:0|3:0,3:0:0:0:
467,204,160075,2,0,L|356:184,1,107.946666666667,10|0,3:0|3:0,3:0:0:0:
174,97,160229,2,0,L|285:77,1,107.946666666667,10|0,3:0|3:0,3:0:0:0:
431,16,160383,5,6,3:0:0:0:
465,35,160460,1,0,3:0:0:0:
485,69,160537,1,0,3:0:0:0:
487,108,160614,1,0,3:0:0:0:
471,144,160691,1,0,3:0:0:0:
436,163,160768,1,0,3:0:0:0:
396,160,160845,5,2,3:0:0:0:
359,130,160922,1,0,3:0:0:0:
312,128,160998,1,0,3:0:0:0:
269,148,161075,1,0,3:0:0:0:
251,191,161152,1,0,3:0:0:0:
255,237,161229,1,0,3:0:0:0:
292,264,161306,5,4,3:2:0:0:
292,264,161383,1,8,3:0:0:0:
324,255,161460,1,8,3:0:0:0:
356,246,161537,1,8,3:0:0:0:
388,237,161614,1,8,3:0:0:0:
420,228,161691,1,8,3:0:0:0:
464,204,161768,5,8,3:0:0:0:
462,221,161845,1,8,3:0:0:0:
460,238,161922,1,8,3:0:0:0:
458,255,161998,1,8,3:0:0:0:
456,273,162075,1,8,3:0:0:0:
454,290,162152,1,8,3:0:0:0:
475,307,162229,5,6,3:0:0:0:
447,352,162306,1,8,2:0:0:0:
395,366,162383,1,2,3:2:0:0:
343,353,162460,1,8,3:2:0:0:
311,309,162537,1,2,3:2:0:0:
312,255,162614,1,8,2:0:0:0:
343,211,162691,6,0,P|374:206|430:221,1,67.4666666666668,2|8,2:0|2:0,3:0:0:0:
448,128,162845,2,0,P|473:146|502:196,1,67.4666666666668,2|8,3:2|2:0,3:0:0:0:
512,305,162998,2,0,P|488:295|444:301,1,67.4666666666668,2|8,3:2|2:0,3:0:0:0:
330,363,163152,5,2,3:2:0:0:
270,368,163229,1,8,2:0:0:0:
226,327,163306,1,2,3:2:0:0:
226,266,163383,1,8,2:0:0:0:
256,214,163460,1,2,3:2:0:0:
260,154,163537,1,8,2:0:0:0:
230,101,163614,1,2,3:2:0:0:
172,82,163691,1,8,2:0:0:0:
113,96,163768,1,2,2:0:0:0:
77,144,163845,1,8,2:0:0:0:
75,204,163922,1,2,3:2:0:0:
116,245,163998,1,8,2:0:0:0:
168,255,164075,5,6,3:0:0:0:
168,255,164152,1,8,2:0:0:0:
194,199,164229,1,8,2:0:0:0:
247,171,164306,1,8,2:0:0:0:
307,171,164383,1,8,2:0:0:0:
357,204,164460,1,8,2:0:0:0:
374,252,164537,5,0,3:0:0:0:
374,252,164614,1,8,2:0:0:0:
427,247,164691,1,8,2:0:0:0:
459,204,164768,1,8,2:0:0:0:
455,156,164845,1,8,2:0:0:0:
415,124,164922,1,8,2:0:0:0:
365,142,164998,5,8,3:0:0:0:
365,156,165075,1,8,3:0:0:0:
366,170,165152,5,8,2:0:0:0:
309,123,165229,1,8,2:0:0:0:
236,131,165306,1,8,2:0:0:0:
185,184,165383,1,8,2:0:0:0:
179,254,165460,5,8,3:0:0:0:
180,273,165537,1,8,3:0:0:0:
182,292,165614,1,8,3:0:0:0:
184,311,165691,1,8,3:0:0:0:
186,330,165768,1,8,3:0:0:0:
188,349,165845,1,8,3:0:0:0:
158,383,165922,5,6,3:0:0:0:
125,381,165998,1,0,3:0:0:0:
101,357,166075,1,0,3:0:0:0:
95,324,166152,1,0,3:0:0:0:
108,293,166229,1,0,3:0:0:0:
134,273,166306,1,0,3:0:0:0:
150,243,166383,1,2,3:0:0:0:
143,210,166460,1,0,3:0:0:0:
120,185,166537,1,0,3:0:0:0:
86,181,166614,1,0,3:0:0:0:
55,194,166691,2,0,P|41:237|45:258,1,67.4666666666668,0|0,3:0|3:0,3:0:0:0:
184,338,166845,5,10,3:0:0:0:
224,338,166922,1,0,3:0:0:0:
258,319,166998,1,0,3:0:0:0:
275,283,167075,1,0,3:0:0:0:
267,243,167152,1,0,3:0:0:0:
239,213,167229,1,0,3:0:0:0:
199,205,167306,5,2,3:0:0:0:
179,177,167383,1,0,3:0:0:0:
175,143,167460,1,0,3:0:0:0:
194,116,167537,1,0,3:0:0:0:
223,101,167614,1,0,3:0:0:0:
256,105,167691,1,0,3:0:0:0:
282,125,167768,5,6,3:0:0:0:
296,169,167845,1,0,3:0:0:0:
335,193,167922,1,0,3:0:0:0:
381,193,167998,1,0,3:0:0:0:
418,165,168075,1,0,3:0:0:0:
429,119,168152,1,0,3:0:0:0:
412,75,168229,1,2,3:0:0:0:
371,52,168306,1,0,3:0:0:0:
324,55,168383,1,0,3:0:0:0:
286,83,168460,1,0,3:0:0:0:
272,127,168537,2,0,P|274:169|286:199,1,67.4666666666668,0|0,3:0|3:0,3:0:0:0:
374,293,168691,5,10,3:0:0:0:
370,332,168768,1,0,3:0:0:0:
345,363,168845,1,0,3:0:0:0:
305,369,168922,1,0,3:0:0:0:
270,350,168998,1,0,3:0:0:0:
245,318,169075,1,0,3:0:0:0:
207,303,169152,6,0,P|172:317|142:351,1,67.4666666666668,10|0,3:0|3:0,3:0:0:0:
13,204,169306,2,0,P|62:224|77:244,1,67.4666666666668,10|0,3:0|3:0,3:0:0:0:
198,92,169460,2,0,P|159:120|150:159,1,67.4666666666668,10|0,3:0|3:0,3:0:0:0:
326,247,169614,6,0,L|343:161,1,67.4666666666668,6|0,3:0|3:0,3:0:0:0:
245,20,169768,1,0,3:0:0:0:
217,48,169845,1,0,3:0:0:0:
212,87,169922,1,0,3:0:0:0:
226,123,169998,1,0,3:0:0:0:
262,138,170075,5,2,3:0:0:0:
293,103,170152,1,0,3:0:0:0:
337,90,170229,1,0,3:0:0:0:
383,97,170306,1,0,3:0:0:0:
417,128,170383,2,0,P|427:169|416:213,1,67.4666666666668,0|0,3:0|3:0,3:0:0:0:
262,305,170537,5,10,3:0:0:0:
246,261,170614,1,0,3:0:0:0:
257,215,170691,1,0,3:0:0:0:
295,188,170768,1,0,3:0:0:0:
341,182,170845,1,0,3:0:0:0:
382,203,170922,1,0,3:0:0:0:
408,240,170998,5,2,3:0:0:0:
446,249,171075,1,0,3:0:0:0:
482,231,171152,1,0,3:0:0:0:
490,191,171229,1,0,3:0:0:0:
473,154,171306,1,0,3:0:0:0:
435,141,171383,1,0,3:0:0:0:
397,155,171460,6,0,L|383:234,1,67.4666666666668,6|0,3:0|3:0,3:0:0:0:
366,344,171614,1,0,3:0:0:0:
354,311,171691,1,0,3:0:0:0:
331,286,171768,1,0,3:0:0:0:
300,274,171845,1,0,3:0:0:0:
265,273,171922,1,2,3:0:0:0:
234,284,171998,1,0,3:0:0:0:
208,304,172075,1,0,3:0:0:0:
193,333,172152,1,0,3:0:0:0:
187,365,172229,2,0,L|264:380,1,67.4666666666668,0|0,3:0|3:0,3:0:0:0:
426,216,172383,5,8,2:0:0:0:
362,169,172460,1,8,2:0:0:0:
282,173,172537,5,8,3:0:0:0:
283,186,172614,1,8,3:0:0:0:
284,199,172691,1,8,3:0:0:0:
285,212,172768,1,8,3:0:0:0:
286,227,172845,5,8,2:0:0:0:
238,291,172922,1,8,2:0:0:0:
159,280,172998,5,8,3:0:0:0:
157,265,173075,1,8,3:0:0:0:
155,251,173152,1,8,3:0:0:0:
153,237,173229,1,8,3:0:0:0:
151,223,173306,6,0,L|231:200,1,67.4666666666668,6|0,3:0|3:0,3:0:0:0:
295,384,173460,2,0,L|215:361,1,67.4666666666668,0|0,3:0|3:0,3:0:0:0:
313,185,173614,1,0,3:0:0:0:
333,202,173691,1,0,3:0:0:0:
349,222,173768,1,2,3:0:0:0:
358,246,173845,1,0,3:0:0:0:
364,271,173922,1,0,3:0:0:0:
365,297,173998,1,0,3:0:0:0:
362,323,174075,1,0,3:0:0:0:
354,348,174152,1,0,3:0:0:0:
337,368,174229,5,10,3:0:0:0:
326,336,174306,1,0,3:0:0:0:
303,311,174383,1,0,3:0:0:0:
271,300,174460,1,0,3:0:0:0:
237,301,174537,1,0,3:0:0:0:
206,313,174614,1,0,3:0:0:0:
185,339,174691,5,2,3:0:0:0:
144,362,174768,1,0,3:0:0:0:
98,352,174845,1,0,3:0:0:0:
70,314,174922,1,0,3:0:0:0:
68,267,174998,1,0,3:0:0:0:
96,229,175075,1,0,3:0:0:0:
140,214,175152,5,2,3:0:0:0:
168,259,175229,1,0,3:0:0:0:
219,271,175306,1,0,3:0:0:0:
267,248,175383,1,0,3:0:0:0:
287,198,175460,1,0,3:0:0:0:
272,146,175537,1,0,3:0:0:0:
223,123,175614,5,2,3:0:0:0:
198,177,175691,1,0,3:0:0:0:
140,193,175768,1,0,3:0:0:0:
87,164,175845,1,0,3:0:0:0:
78,104,175922,1,0,3:0:0:0:
114,57,175998,1,0,3:0:0:0:
173,46,176075,5,14,3:0:0:0:
189,82,176152,1,0,3:0:0:0:
224,101,176229,1,0,3:0:0:0:
263,99,176306,1,0,3:0:0:0:
294,74,176383,1,0,3:0:0:0:
301,34,176460,1,0,3:0:0:0:
287,0,176537,6,0,B|265:-7|265:-7|206:17,1,67.4666666666668,10|0,3:0|3:0,3:0:0:0:
86,122,176691,2,0,B|108:115|108:115|167:139,1,67.4666666666668,10|0,3:0|3:0,3:0:0:0:
281,215,176845,2,0,B|259:208|259:208|200:232,1,67.4666666666668,10|0,3:0|3:0,3:0:0:0:
46,356,176998,6,0,L|54:269,1,67.4666666666668,6|0,3:0|3:0,3:0:0:0:
206,196,177152,2,0,L|128:212,1,67.4666666666668,0|0,3:0|3:0,3:0:0:0:
61,179,177306,2,0,L|139:195,1,67.4666666666668,0|0,3:0|3:0,3:0:0:0:
293,266,177460,6,0,L|285:179,1,67.4666666666668,6|0,3:0|3:0,3:0:0:0:
144,105,177614,2,0,L|222:121,1,67.4666666666668,0|0,3:0|3:0,3:0:0:0:
61,262,177768,2,0,L|69:175,1,67.4666666666668,0|0,3:0|3:0,3:0:0:0:
233,55,177922,2,0,L|226:121,1,67.4666666666668,10|0,3:0|3:0,3:0:0:0:
20,51,178075,6,0,L|105:38,1,67.4666666666668,0|0,3:0|3:0,3:0:0:0:
222,223,178229,2,0,L|137:210,1,67.4666666666668,0|0,3:0|3:0,3:0:0:0:
307,56,178383,5,6,3:0:0:0:
314,81,178460,1,0,3:0:0:0:
322,106,178537,1,0,3:0:0:0:
330,131,178614,1,0,3:0:0:0:
355,152,178691,5,0,3:0:0:0:
347,177,178768,1,0,3:0:0:0:
312,199,178845,6,0,L|416:180,1,67.4666666666668,6|0,3:0|3:0,3:0:0:0:
493,293,178998,2,0,L|389:274,1,67.4666666666668,0|0,3:0|3:0,3:0:0:0:
295,354,179152,2,0,L|399:335,1,67.4666666666668,0|0,3:0|3:0,3:0:0:0:
447,198,179306,6,0,L|437:307,1,67.4666666666668,2|0,3:0|3:0,3:0:0:0:
279,327,179460,2,0,L|285:260,1,67.4666666666668,0|0,3:0|3:0,3:0:0:0:
388,90,179614,2,0,L|378:199,1,67.4666666666668,0|0,3:0|3:0,3:0:0:0:
218,261,179768,5,6,3:0:0:0:
218,261,179845,1,8,2:0:0:0:
176,217,179922,1,8,2:0:0:0:
172,157,179998,1,8,2:0:0:0:
193,101,180075,1,8,2:0:0:0:
246,74,180152,1,8,2:0:0:0:
306,72,180229,5,8,3:0:0:0:
304,91,180306,1,8,3:0:0:0:
302,110,180383,1,8,3:0:0:0:
329,152,180460,5,8,3:0:0:0:
331,171,180537,1,8,3:0:0:0:
333,190,180614,1,8,3:0:0:0:
312,226,180691,5,6,3:0:0:0:
345,267,180768,1,8,3:0:0:0:
397,279,180845,1,2,3:2:0:0:
448,263,180922,1,8,3:0:0:0:
474,217,180998,1,2,3:2:0:0:
467,164,181075,1,8,3:0:0:0:
427,127,181152,6,0,B|402:127|402:127|366:156,1,67.4666666666668,2|8,3:2|3:0,3:0:0:0:
324,50,181306,2,0,B|306:67|306:67|301:113,1,67.4666666666668,2|8,3:2|3:0,3:0:0:0:
196,68,181460,2,0,B|196:93|196:93|225:129,1,67.4666666666668,2|8,3:2|3:0,3:0:0:0:
308,249,181614,5,2,3:2:0:0:
308,295,181691,1,8,3:0:0:0:
281,333,181768,1,2,3:2:0:0:
235,343,181845,1,8,3:0:0:0:
228,327,181922,5,2,3:2:0:0:
182,337,181998,1,8,3:0:0:0:
139,318,182075,1,2,3:2:0:0:
119,276,182152,1,8,3:0:0:0:
128,253,182229,6,0,P|160:226|191:226,1,67.4666666666668,2|8,3:2|3:0,3:0:0:0:
296,368,182383,2,0,P|254:364|232:342,1,67.4666666666668,2|8,3:2|3:0,3:0:0:0:
333,158,182537,5,6,3:0:0:0:
392,151,182614,1,8,3:0:0:0:
443,181,182691,1,2,3:2:0:0:
466,236,182768,1,8,3:0:0:0:
458,295,182845,1,2,3:2:0:0:
422,343,182922,1,8,3:0:0:0:
365,359,182998,6,0,B|337:357|337:357|309:307,1,67.4666666666668,2|8,3:2|3:0,3:0:0:0:
230,328,183152,2,0,B|211:306|211:306|227:251,1,67.4666666666668,2|8,3:2|3:0,3:0:0:0:
156,210,183306,2,0,B|158:182|158:182|208:154,1,67.4666666666668,2|8,3:2|3:0,3:0:0:0:
443,181,183460,6,0,L|356:200,1,67.4666666666668,2|8,3:2|3:0,3:0:0:0:
248,65,183614,2,0,L|335:84,1,67.4666666666668,2|8,3:2|3:0,3:0:0:0:
221,195,183768,2,0,L|146:211,1,67.4666666666668,2|8,3:2|3:0,3:0:0:0:
54,95,183922,2,0,L|128:111,1,67.4666666666668,2|8,3:2|3:0,3:0:0:0:
33,253,184075,5,2,3:2:0:0:
24,234,184152,1,8,3:0:0:0:
21,214,184229,1,2,3:2:0:0:
23,194,184306,1,8,3:0:0:0:
28,174,184383,6,0,B|59:165|59:165|110:177,1,67.4666666666668,6|8,3:0|3:0,3:0:0:0:
266,125,184537,2,0,B|235:116|235:116|184:128,1,67.4666666666668,2|8,3:2|3:0,3:0:0:0:
190,311,184691,2,0,B|200:278|200:278|193:246,1,67.4666666666668,2|8,3:2|3:0,3:0:0:0:
98,99,184845,6,0,L|85:211,1,67.4666666666668,2|8,3:2|3:0,3:0:0:0:
260,282,184998,2,0,L|247:170,1,67.4666666666668,2|8,3:2|3:0,3:0:0:0:
42,304,185152,2,0,L|134:318,1,67.4666666666668,2|8,3:2|3:0,3:0:0:0:
256,181,185306,6,0,L|182:193,1,67.4666666666668,6|8,3:2|3:0,3:0:0:0:
307,347,185460,2,0,L|381:359,1,67.4666666666668,2|8,3:2|3:0,3:0:0:0:
467,199,185614,2,0,L|393:211,1,67.4666666666668,2|8,3:2|3:0,3:0:0:0:
463,371,185768,6,0,L|471:286,1,67.4666666666668,2|8,3:2|3:0,3:0:0:0:
351,151,185922,2,0,L|357:217,1,67.4666666666668,2|8,3:2|3:0,3:0:0:0:
229,373,186075,2,0,L|237:288,1,67.4666666666668,2|8,3:2|3:0,3:0:0:0:
459,142,186229,5,6,3:0:0:0:
459,142,186306,1,8,2:0:0:0:
461,195,186383,1,8,2:0:0:0:
435,242,186460,1,8,2:0:0:0:
384,260,186537,1,8,2:0:0:0:
331,253,186614,1,8,2:0:0:0:
297,211,186691,5,6,3:0:0:0:
297,211,186768,1,8,2:0:0:0:
251,161,186845,1,8,2:0:0:0:
185,150,186922,1,8,2:0:0:0:
131,188,186998,1,8,2:0:0:0:
108,250,187075,1,8,2:0:0:0:
134,311,187152,6,0,P|165:324|216:316,1,66.6666666666667,8|8,0:0|0:0,0:0:0:0:
282,353,187306,2,0,P|309:335|332:287,1,66.6666666666667,8|8,0:0|0:0,0:0:0:0:
127,104,187460,6,0,L|120:206,1,66.6666666666667,8|8,0:0|0:0,0:0:0:0:
395,222,187614,2,0,L|390:155,1,66.6666666666667,8|8,0:0|0:0,0:0:0:0:
186,239,187768,6,0,B|206:249|206:249|272:229,1,66.6666666666667,8|8,3:0|3:0,3:0:0:0:
317,75,187922,2,0,B|301:61|301:61|242:78,1,66.6666666666667,8|8,3:0|3:0,3:0:0:0:
331,318,188075,5,6,3:0:0:0:
367,347,188152,1,0,3:0:0:0:
413,350,188229,1,0,3:0:0:0:
456,332,188306,1,0,3:0:0:0:
472,288,188383,1,0,3:0:0:0:
462,242,188460,1,0,3:0:0:0:
426,212,188537,1,4,3:2:0:0:
397,175,188614,1,0,3:0:0:0:
400,128,188691,1,0,3:0:0:0:
428,91,188768,5,0,3:0:0:0:
474,116,188845,1,0,3:0:0:0:
482,168,188922,1,0,3:0:0:0:
454,213,188998,1,14,3:2:0:0:
401,221,189075,1,0,3:0:0:0:
353,197,189152,1,0,3:0:0:0:
299,203,189229,1,0,3:0:0:0:
265,244,189306,1,0,3:0:0:0:
265,297,189383,1,0,3:0:0:0:
301,336,189460,5,6,3:0:0:0:
367,331,189537,1,0,3:0:0:0:
399,272,189614,1,0,3:0:0:0:
380,208,189691,1,0,3:0:0:0:
319,179,189768,1,0,3:0:0:0:
255,183,189845,1,0,3:0:0:0:
201,222,189922,1,2,3:0:0:0:
177,283,189998,1,0,3:0:0:0:
114,306,190075,1,0,3:0:0:0:
49,289,190152,1,0,3:0:0:0:
16,230,190229,1,0,3:0:0:0:
30,164,190306,1,0,3:0:0:0:
81,121,190383,1,2,3:0:0:0:
147,121,190460,1,0,3:0:0:0:
195,166,190537,1,0,3:0:0:0:
260,176,190614,1,0,3:0:0:0:
321,149,190691,1,0,3:0:0:0:
336,83,190768,1,0,3:0:0:0:
307,22,190845,6,0,P|278:9|238:14,5,66.7733333333334,14|0|0|0|0|0,3:0|3:0|3:0|3:0|3:0|3:0,3:0:0:0:
160,128,191306,5,8,2:0:0:0:
156,163,191364,1,8,2:0:0:0:
152,198,191422,1,8,2:0:0:0:
149,232,191479,1,8,2:0:0:0:
162,268,191537,2,0,L|93:292,3,50.0222222222223,8|8|8|8,3:0|3:0|3:0|3:0,3:0:0:0:
39,211,191768,5,6,3:0:0:0:
51,189,191825,1,0,3:0:0:0:
79,168,191883,1,0,3:0:0:0:
123,162,191941,1,0,3:0:0:0:
166,184,191998,1,0,3:0:0:0:
211,215,192056,1,0,3:0:0:0:
271,215,192114,1,0,3:0:0:0:
309,168,192172,1,0,3:0:0:0:
305,108,192229,1,4,3:2:0:0:
323,61,192287,1,0,3:0:0:0:
359,44,192345,1,0,3:0:0:0:
393,49,192402,1,0,3:0:0:0:
415,69,192460,2,0,P|416:104|408:135,3,50.0222222222223,0|0|0|0,3:0|3:0|3:0|3:0,3:0:0:0:
322,172,192691,5,14,3:0:0:0:
313,184,192748,1,0,3:0:0:0:
306,208,192806,1,0,3:0:0:0:
310,247,192864,1,0,3:0:0:0:
345,282,192922,1,0,3:0:0:0:
397,294,192979,1,0,3:0:0:0:
454,276,193037,1,0,3:0:0:0:
481,216,193095,1,0,3:0:0:0:
462,149,193152,5,4,3:2:0:0:
395,113,193210,1,0,3:0:0:0:
325,122,193268,1,0,3:0:0:0:
280,167,193325,1,0,3:0:0:0:
224,190,193383,1,0,3:0:0:0:
171,173,193441,1,0,3:0:0:0:
154,131,193498,1,0,3:0:0:0:
164,92,193556,1,0,3:0:0:0:
187,73,193614,2,0,P|218:68|240:75,3,50.0222222222223,2|0|0|0,3:0|3:0|3:0|3:0,3:0:0:0:
338,179,193845,5,0,3:0:0:0:
346,202,193902,1,0,3:0:0:0:
345,232,193960,1,0,3:0:0:0:
330,264,194018,1,0,3:0:0:0:
296,284,194075,1,4,3:2:0:0:
250,283,194133,1,0,3:0:0:0:
209,252,194191,1,0,3:0:0:0:
155,240,194248,1,0,3:0:0:0:
99,263,194306,1,0,3:0:0:0:
85,334,194364,1,0,3:0:0:0:
136,384,194422,1,0,3:0:0:0:
207,377,194479,1,0,3:0:0:0:
250,316,194537,5,14,3:0:0:0:
246,240,194595,1,0,3:0:0:0:
186,201,194652,1,0,3:0:0:0:
120,209,194710,1,0,3:0:0:0:
66,233,194768,1,2,3:0:0:0:
26,203,194825,1,0,3:0:0:0:
13,153,194883,1,0,3:0:0:0:
42,110,194941,1,0,3:0:0:0:
86,93,194998,5,8,2:0:0:0:
145,101,195056,1,8,2:0:0:0:
204,109,195114,1,8,2:0:0:0:
263,118,195172,1,8,2:0:0:0:
291,93,195229,5,8,3:0:0:0:
267,85,195287,1,8,3:0:0:0:
243,77,195345,1,8,3:0:0:0:
219,69,195402,1,8,3:0:0:0:
172,47,195460,6,0,B|274:-5|363:68|315:97|433:137|512:77,1,367.253344523113,6|0,3:0|3:0,3:0:0:0:
477,180,195922,5,2,3:0:0:0:
476,206,195998,1,0,3:0:0:0:
475,232,196075,1,0,3:0:0:0:
474,258,196152,1,0,3:0:0:0:
473,284,196229,1,0,3:0:0:0:
472,310,196306,1,0,3:0:0:0:
488,349,196383,5,10,3:0:0:0:
471,319,196460,1,0,3:0:0:0:
441,303,196537,1,0,3:0:0:0:
408,298,196614,1,0,3:0:0:0:
377,312,196691,1,0,3:0:0:0:
356,337,196768,1,0,3:0:0:0:
348,369,196845,5,2,3:0:0:0:
310,381,196922,1,0,3:0:0:0:
273,365,196998,1,0,3:0:0:0:
256,328,197075,1,0,3:0:0:0:
260,288,197152,1,0,3:0:0:0:
284,256,197229,1,0,3:0:0:0:
320,240,197306,1,2,3:0:0:0:
342,206,197383,1,0,3:0:0:0:
344,166,197460,1,0,3:0:0:0:
327,129,197537,1,0,3:0:0:0:
292,109,197614,1,0,3:0:0:0:
252,115,197691,1,0,3:0:0:0:
222,142,197768,1,2,3:0:0:0:
182,148,197845,1,0,3:0:0:0:
149,124,197922,1,0,3:0:0:0:
145,84,197998,1,0,3:0:0:0:
165,49,198075,1,0,3:0:0:0:
201,32,198152,1,0,3:0:0:0:
240,35,198229,5,10,3:0:0:0:
251,66,198306,1,0,3:0:0:0:
277,85,198383,1,0,3:0:0:0:
309,93,198460,1,0,3:0:0:0:
341,87,198537,1,0,3:0:0:0:
366,65,198614,1,0,3:0:0:0:
373,32,198691,6,0,L|383:119,2,67.0333333333334,4|0|0,3:2|3:0|3:0,3:0:0:0:
471,110,198922,2,0,L|461:197,2,67.0333333333334,4|0|0,3:2|3:0|3:0,3:0:0:0:
368,261,199152,6,0,L|360:194,2,67.0333333333334,6|0|0,3:0|3:0|3:0,3:0:0:0:
458,360,199383,2,0,L|466:294,2,67.0333333333334,2|0|0,3:0|3:0|3:0,3:0:0:0:
370,380,199614,5,2,3:0:0:0:
354,343,199691,1,0,3:0:0:0:
321,320,199768,1,0,3:0:0:0:
281,312,199845,1,4,3:2:0:0:
242,322,199922,1,0,3:0:0:0:
212,348,199998,1,0,3:0:0:0:
193,383,200075,6,0,L|184:280,2,67.0333333333334,10|0|0,3:0|3:0|3:0,3:0:0:0:
14,241,200306,5,4,3:2:0:0:
47,242,200383,1,0,3:0:0:0:
75,258,200460,1,0,3:0:0:0:
93,286,200537,1,2,3:0:0:0:
100,318,200614,1,0,3:0:0:0:
96,351,200691,1,0,3:0:0:0:
76,377,200768,5,4,3:2:0:0:
38,362,200845,1,0,3:0:0:0:
24,324,200922,1,0,3:0:0:0:
34,285,200998,1,4,3:2:0:0:
60,255,201075,1,0,3:0:0:0:
98,242,201152,1,0,3:0:0:0:
136,251,201229,5,0,3:0:0:0:
164,288,201306,1,0,3:0:0:0:
207,304,201383,1,0,3:0:0:0:
253,298,201460,5,4,3:2:0:0:
275,256,201537,1,0,3:0:0:0:
318,239,201614,1,0,3:0:0:0:
363,249,201691,1,0,3:0:0:0:
394,283,201768,1,0,3:0:0:0:
398,329,201845,1,0,3:0:0:0:
380,372,201922,5,14,3:0:0:0:
252,112,202152,1,0,3:0:0:0:
188,358,202383,5,6,3:0:0:0:
300,241,202614,1,0,3:0:0:0:
469,373,202845,5,6,3:0:0:0:
465,353,202922,1,0,3:0:0:0:
461,333,202998,1,0,3:0:0:0:
425,325,203075,5,2,3:0:0:0:
429,305,203152,1,0,3:0:0:0:
433,285,203229,1,0,3:0:0:0:
463,258,203306,5,4,3:2:0:0:
460,218,203383,1,0,3:0:0:0:
434,186,203460,1,0,3:0:0:0:
394,177,203537,1,0,3:0:0:0:
356,190,203614,1,0,3:0:0:0:
334,223,203691,1,0,3:0:0:0:
332,263,203768,5,10,3:0:0:0:
316,306,203845,1,0,3:0:0:0:
272,321,203922,1,0,3:0:0:0:
227,307,203998,1,0,3:0:0:0:
203,266,204075,1,0,3:0:0:0:
214,220,204152,1,0,3:0:0:0:
248,188,204229,5,4,3:2:0:0:
259,135,204306,1,0,3:0:0:0:
244,83,204383,1,0,3:0:0:0:
197,56,204460,1,0,3:0:0:0:
143,62,204537,1,0,3:0:0:0:
108,102,204614,1,0,3:0:0:0:
98,154,204691,1,2,3:0:0:0:
123,200,204768,1,0,3:0:0:0:
129,253,204845,1,0,3:0:0:0:
94,293,204922,1,0,3:0:0:0:
41,298,204998,1,0,3:0:0:0:
2,261,205075,1,0,3:0:0:0:
2,207,205152,1,2,3:0:0:0:
35,165,205229,1,0,3:0:0:0:
86,150,205306,1,0,3:0:0:0:
136,167,205383,1,0,3:0:0:0:
166,211,205460,1,0,3:0:0:0:
216,229,205537,1,0,3:0:0:0:
268,221,205614,5,10,3:0:0:0:
290,188,205691,1,0,3:0:0:0:
293,148,205768,1,0,3:0:0:0:
278,110,205845,1,0,3:0:0:0:
245,86,205922,1,0,3:0:0:0:
205,82,205998,1,0,3:0:0:0:
169,99,206075,6,0,L|162:169,2,67.0333333333334,4|0|0,3:2|3:0|3:0,3:0:0:0:
70,194,206306,2,0,L|77:264,2,67.0333333333334,4|0|0,3:1|3:0|3:0,3:0:0:0:
178,312,206537,6,0,L|185:242,2,67.0333333333334,4|0|0,3:2|3:0|3:0,3:0:0:0:
75,384,206768,2,0,L|68:317,2,67.0333333333334,2|0|0,3:0|3:0|3:0,3:0:0:0:
228,381,206998,5,2,3:0:0:0:
237,342,207075,1,0,3:0:0:0:
261,310,207152,1,0,3:0:0:0:
297,294,207229,1,2,3:0:0:0:
336,296,207306,1,0,3:0:0:0:
370,316,207383,1,0,3:0:0:0:
394,347,207460,6,0,L|391:273,2,67.0333333333334,10|0|0,3:0|3:0|3:0,3:0:0:0:
473,222,207691,5,6,3:2:0:0:
470,251,207768,1,0,3:0:0:0:
452,279,207845,1,0,3:0:0:0:
419,285,207922,1,2,3:0:0:0:
387,274,207998,1,0,3:0:0:0:
367,246,208075,1,0,3:0:0:0:
365,212,208152,5,2,3:0:0:0:
333,223,208229,1,0,3:0:0:0:
301,235,208306,1,0,3:0:0:0:
269,247,208383,1,6,3:2:0:0:
237,259,208460,1,0,3:0:0:0:
206,271,208537,1,0,3:0:0:0:
175,283,208614,1,0,3:0:0:0:
144,295,208691,1,0,3:0:0:0:
113,308,208768,1,0,3:0:0:0:
82,297,208845,2,0,L|89:228,2,67.0333333333334,2|0|0,3:0|3:0|3:0,3:0:0:0:
205,153,209075,5,8,2:0:0:0:
212,203,209133,1,8,2:0:0:0:
219,253,209191,1,8,2:0:0:0:
225,303,209248,1,8,2:0:0:0:
217,322,209306,5,8,3:0:0:0:
252,325,209364,1,8,3:0:0:0:
287,328,209422,1,8,3:0:0:0:
321,331,209479,1,8,3:0:0:0:
338,321,209537,2,0,L|327:383,3,50,8|8|8|8,3:0|3:0|3:0|3:0,3:0:0:0:
460,357,209768,5,8,2:0:0:0:
462,335,209825,1,8,2:0:0:0:
465,311,209883,2,0,L|459:250,1,50.6000000000001,0|0,3:0|3:0,3:0:0:0:
320,57,209998,5,8,0:0:0:0:
315,107,210056,1,8,0:0:0:0:
310,157,210114,1,8,0:0:0:0:
306,207,210172,1,8,0:0:0:0:
301,252,210229,6,0,L|422:243,1,100,6|0,3:0|3:0,0:0:0:0:
512,151,210460,2,0,L|391:142,1,100,0|0,3:0|3:0,0:0:0:0:
220,299,210691,5,2,3:0:0:0:
269,310,210806,1,0,3:0:0:0:
318,322,210922,1,0,3:0:0:0:
367,333,211037,1,0,3:0:0:0:
504,199,211152,5,10,3:0:0:0:
455,210,211268,1,0,3:0:0:0:
406,222,211383,1,0,3:0:0:0:
357,233,211498,1,0,3:0:0:0:
220,101,211614,5,2,3:0:0:0:
269,112,211729,1,0,3:0:0:0:
318,124,211845,1,0,3:0:0:0:
367,135,211960,1,0,3:0:0:0:
118,34,212075,5,6,3:0:0:0:
123,73,212191,1,0,3:0:0:0:
128,112,212306,1,0,3:0:0:0:
133,152,212422,1,0,3:0:0:0:
137,191,212537,1,2,3:0:0:0:
141,230,212652,1,0,3:0:0:0:
145,270,212768,1,0,3:0:0:0:
149,310,212883,1,0,3:0:0:0:
351,191,212998,5,10,3:0:0:0:
312,196,213114,1,0,3:0:0:0:
273,200,213229,1,0,3:0:0:0:
234,205,213345,1,0,3:0:0:0:
207,327,213460,5,4,3:2:0:0:
246,322,213575,1,0,3:0:0:0:
285,318,213691,1,0,3:0:0:0:
282,308,213748,1,0,3:0:0:0:
279,298,213806,1,0,3:0:0:0:
276,288,213864,1,0,3:0:0:0:
273,278,213922,5,6,3:0:0:0:
312,285,214037,1,0,3:0:0:0:
351,292,214152,1,0,3:0:0:0:
390,299,214268,1,0,3:0:0:0:
501,205,214383,5,2,3:0:0:0:
462,212,214498,1,0,3:0:0:0:
423,219,214614,1,0,3:0:0:0:
384,226,214729,1,0,3:0:0:0:
210,103,214845,5,10,3:0:0:0:
249,110,214960,1,0,3:0:0:0:
288,117,215075,1,0,3:0:0:0:
327,124,215191,1,0,3:0:0:0:
442,23,215306,5,6,3:2:0:0:
403,30,215422,1,0,3:0:0:0:
364,37,215537,1,0,3:0:0:0:
325,44,215652,1,0,3:0:0:0:
229,187,215768,6,0,L|338:201,1,100.333333333333,6|0,3:0|3:0,3:0:0:0:
207,37,215998,2,0,L|98:51,1,100.333333333333,2|0,3:0|3:0,3:0:0:0:
27,171,216229,5,2,3:0:0:0:
30,211,216345,1,0,3:0:0:0:
34,250,216460,1,0,3:0:0:0:
40,242,216518,1,0,3:0:0:0:
46,234,216575,1,0,3:0:0:0:
53,226,216633,1,0,3:0:0:0:
60,218,216691,5,14,3:0:0:0:
204,384,216922,1,2,3:1:0:0:
219,77,217152,5,4,3:2:0:0:
174,301,217383,1,2,3:0:0:0:
369,120,217614,5,6,3:0:0:0:
373,146,217691,1,0,3:0:0:0:
377,172,217768,1,0,3:0:0:0:
381,198,217845,1,0,3:0:0:0:
385,224,217922,1,0,3:0:0:0:
389,249,217998,1,0,3:0:0:0:
393,275,218075,5,2,3:0:0:0:
370,241,218152,1,0,3:0:0:0:
331,230,218229,1,0,3:0:0:0:
291,234,218306,1,0,3:0:0:0:
260,259,218383,1,0,3:0:0:0:
248,297,218460,1,0,3:0:0:0:
250,336,218537,5,10,3:0:0:0:
224,374,218614,1,0,3:0:0:0:
177,378,218691,1,0,3:0:0:0:
138,351,218768,1,0,3:0:0:0:
127,305,218845,1,0,3:0:0:0:
146,262,218922,1,0,3:0:0:0:
189,247,218998,5,2,3:0:0:0:
217,201,219075,1,0,3:0:0:0:
210,147,219152,1,0,3:0:0:0:
170,110,219229,1,0,3:0:0:0:
116,108,219306,1,0,3:0:0:0:
74,141,219383,1,0,3:0:0:0:
59,192,219460,1,6,3:0:0:0:
76,242,219537,1,0,3:0:0:0:
124,265,219614,1,0,3:0:0:0:
176,253,219691,1,0,3:0:0:0:
211,213,219768,1,0,3:0:0:0:
263,202,219845,1,0,3:0:0:0:
313,220,219922,1,2,3:0:0:0:
333,268,219998,1,0,3:0:0:0:
321,320,220075,1,0,3:0:0:0:
276,349,220152,1,0,3:0:0:0:
224,335,220229,1,0,3:0:0:0:
200,287,220306,1,0,3:0:0:0:
212,235,220383,6,0,L|208:155,2,67.0333333333334,10|0|0,3:0|3:0|3:0,3:0:0:0:
293,112,220614,2,0,L|297:32,2,67.0333333333334,2|0|0,3:0|3:0|3:0,3:0:0:0:
427,42,220845,5,8,2:0:0:0:
423,86,220902,1,8,2:0:0:0:
419,131,220960,1,8,2:0:0:0:
415,176,221018,1,8,2:0:0:0:
436,203,221075,5,8,3:0:0:0:
440,222,221133,1,8,3:0:0:0:
444,241,221191,1,8,3:0:0:0:
448,260,221248,1,8,3:0:0:0:
471,287,221306,6,0,L|370:279,1,100.333333333333,6|0,3:0|3:0,3:0:0:0:
200,373,221537,2,0,L|301:365,1,100.333333333333,2|0,3:0|3:0,3:0:0:0:
399,378,221768,5,2,3:0:0:0:
442,185,221998,1,2,3:0:0:0:
111,375,222229,5,10,3:0:0:0:
70,185,222460,1,2,3:0:0:0:
256,283,222691,5,2,3:0:0:0:
256,14,222922,1,4,3:2:0:0:
438,269,223152,5,6,3:0:0:0:
434,249,223229,1,0,3:0:0:0:
430,229,223306,1,0,3:0:0:0:
426,209,223383,5,2,3:0:0:0:
474,25,223614,1,2,3:0:0:0:
512,109,223845,1,2,3:0:0:0:
86,209,224075,5,10,3:0:0:0:
38,25,224306,1,2,3:0:0:0:
229,345,224537,5,8,2:0:0:0:
222,295,224595,1,8,2:0:0:0:
215,245,224652,1,8,2:0:0:0:
208,195,224710,1,8,2:0:0:0:
178,167,224768,5,8,3:0:0:0:
180,142,224825,1,8,3:0:0:0:
182,116,224883,1,8,3:0:0:0:
184,90,224941,1,8,3:0:0:0:
211,64,224998,6,0,B|238:42|238:42|315:62,1,100.333333333333,6|0,3:0|3:0,3:0:0:0:
424,244,225229,2,0,B|397:266|397:266|320:246,1,100.333333333333,2|0,3:0|3:0,3:0:0:0:
193,37,225460,2,0,B|220:15|220:15|297:35,1,100.333333333333,2|0,3:0|3:0,3:0:0:0:
437,270,225691,2,0,B|410:292|410:292|333:272,1,100.333333333333,2|0,3:0|3:0,3:0:0:0:
486,2,225922,5,8,2:0:0:0:
489,51,225979,1,8,2:0:0:0:
492,101,226037,2,0,L|495:176,1,50.6000000000001,0|0,3:0|3:0,3:0:0:0:
369,233,226152,2,0,L|373:169,3,50.0222222222223,8|8|8|8,3:0|3:0|3:0|3:0,3:0:0:0:
512,300,226383,5,6,3:0:0:0:
507,300,226441,1,0,3:0:0:0:
502,301,226498,1,0,3:0:0:0:
497,301,226556,1,0,3:0:0:0:
492,302,226614,1,0,3:0:0:0:
487,302,226672,1,0,3:0:0:0:
482,303,226729,1,0,3:0:0:0:
477,303,226787,1,0,3:0:0:0:
472,304,226845,1,4,3:2:0:0:
467,304,226902,1,0,3:0:0:0:
462,305,226960,1,0,3:0:0:0:
457,305,227018,1,0,3:0:0:0:
452,306,227075,1,0,3:0:0:0:
447,306,227133,1,0,3:0:0:0:
442,307,227191,1,0,3:0:0:0:
437,307,227248,1,0,3:0:0:0:
432,308,227306,1,4,3:2:0:0:
427,308,227364,1,0,3:0:0:0:
422,309,227422,1,0,3:0:0:0:
417,309,227479,1,0,3:0:0:0:
412,310,227537,1,0,3:0:0:0:
407,310,227595,1,0,3:0:0:0:
402,311,227652,1,0,3:0:0:0:
397,312,227710,1,0,3:0:0:0:
381,329,227768,5,12,3:2:0:0:
376,328,227825,1,0,3:0:0:0:
371,327,227883,1,0,3:0:0:0:
366,326,227941,1,0,3:0:0:0:
361,325,227998,1,0,3:0:0:0:
356,324,228056,1,0,3:0:0:0:
351,323,228114,1,0,3:0:0:0:
346,322,228172,1,0,3:0:0:0:
326,328,228229,5,10,3:0:0:0:
289,355,228287,1,0,3:0:0:0:
243,358,228345,2,0,P|214:355|190:339,1,50.6000000000001,0|0,3:0|3:0,3:0:0:0:
166,200,228460,5,10,3:0:0:0:
121,189,228518,1,0,3:0:0:0:
77,204,228575,2,0,P|51:218|35:242,1,51.4666666666667,0|0,3:0|3:0,3:0:0:0:
31,378,228691,6,0,B|128:365|128:365|154:170,1,275.266666666667,6|0,3:0|3:0,3:0:0:0:
149,164,229383,1,0,3:0:0:0:
378,287,229614,2,0,B|343:315|343:315|211:284,1,175.366666666667,10|0,3:0|3:0,3:0:0:0:
107,337,230075,6,0,B|149:308|149:308|385:364,1,275.266666666667,6|0,3:0|3:0,3:0:0:0:
453,376,230768,2,0,B|422:343|422:343|435:192,1,175.366666666667,6|0,3:0|3:0,3:0:0:0:
450,187,231229,1,2,3:0:0:0:
315,69,231460,5,8,2:0:0:0:
320,121,231518,1,8,2:0:0:0:
325,172,231575,1,8,2:0:0:0:
330,224,231633,1,8,2:0:0:0:
346,255,231691,5,8,3:0:0:0:
326,243,231748,1,8,3:0:0:0:
306,231,231806,1,8,3:0:0:0:
286,219,231864,1,8,3:0:0:0:
260,185,231922,5,8,2:0:0:0:
265,237,231979,1,8,2:0:0:0:
270,288,232037,1,8,2:0:0:0:
275,340,232095,1,8,2:0:0:0:
291,371,232152,5,8,3:0:0:0:
271,359,232210,1,8,3:0:0:0:
251,347,232268,1,8,3:0:0:0:
231,335,232325,1,8,3:0:0:0:
209,298,232383,5,2,3:0:0:0:
101,378,232537,1,2,3:0:0:0:
6,285,232691,1,2,3:0:0:0:
107,89,232845,6,0,B|110:292|110:292|154:275|209:290|189:318|234:339|283:314,1,375.166666666667,6|0,3:0|3:0,3:0:0:0:
292,302,233768,6,0,L|296:210,1,75.0333333333334,4|0,3:2|3:0,3:0:0:0:
270,197,233998,2,0,L|266:271,1,75.0333333333334,4|0,3:2|3:0,3:0:0:0:
350,355,234229,5,6,3:0:0:0:
380,356,234287,1,0,3:0:0:0:
408,347,234345,1,0,3:0:0:0:
430,327,234402,1,0,3:0:0:0:
440,298,234460,1,0,3:0:0:0:
440,267,234518,1,0,3:0:0:0:
429,239,234575,1,0,3:0:0:0:
409,216,234633,1,0,3:0:0:0:
399,187,234691,1,2,3:0:0:0:
401,157,234748,1,0,3:0:0:0:
419,132,234806,1,0,3:0:0:0:
447,121,234864,1,0,3:0:0:0:
477,123,234922,2,0,L|481:164,3,25.0111111111111,0|0|0|0,3:0|3:0|3:0|3:0,3:0:0:0:
483,260,235152,5,10,3:0:0:0:
458,263,235210,1,0,3:0:0:0:
433,266,235268,1,0,3:0:0:0:
408,269,235325,1,0,3:0:0:0:
383,272,235383,1,0,3:0:0:0:
358,276,235441,1,0,3:0:0:0:
333,279,235498,1,0,3:0:0:0:
308,283,235556,1,0,3:0:0:0:
283,287,235614,5,8,3:0:0:0:
311,108,235845,1,8,3:0:0:0:
172,384,236075,6,0,L|164:312,1,50.1666666666667,6|0,3:0|3:0,3:0:0:0:
96,255,236306,2,0,L|101:205,1,50.1666666666667,2|0,3:0|3:0,3:0:0:0:
122,179,236768,1,2,3:0:0:0:
307,302,236998,6,0,B|284:327|284:327|200:303,1,100.333333333333,10|0,3:0|3:0,3:0:0:0:
386,228,237460,1,2,3:0:0:0:
400,339,237691,1,4,3:2:0:0:
510,169,237922,6,0,L|443:162,1,50.1666666666667,2|0,3:0|3:0,3:0:0:0:
326,85,238152,2,0,L|375:79,1,50.1666666666667,2|0,3:0|3:0,3:0:0:0:
311,211,238383,1,2,3:0:0:0:
266,205,238498,1,0,3:0:0:0:
221,199,238614,1,2,3:0:0:0:
176,193,238729,1,0,3:0:0:0:
94,90,238845,5,8,2:0:0:0:
38,147,238922,1,8,2:0:0:0:
57,223,238998,1,8,3:0:0:0:
127,252,239075,5,8,3:0:0:0:
133,240,239152,1,8,3:0:0:0:
135,226,239229,1,8,3:0:0:0:
133,212,239306,5,8,2:0:0:0:
165,138,239383,1,8,2:0:0:0:
243,122,239460,1,8,3:0:0:0:
314,157,239537,5,8,3:0:0:0:
320,168,239614,1,8,3:0:0:0:
322,181,239691,1,8,3:0:0:0:
323,196,239768,5,6,3:0:0:0:
298,218,239845,1,0,3:0:0:0:
285,248,239922,1,0,3:0:0:0:
288,280,239998,1,0,3:0:0:0:
306,308,240075,1,0,3:0:0:0:
336,322,240152,1,0,3:0:0:0:
369,320,240229,1,4,3:1:0:0:
395,300,240306,1,0,3:0:0:0:
402,267,240383,1,0,3:0:0:0:
424,242,240460,1,0,3:0:0:0:
455,231,240537,1,0,3:0:0:0:
487,239,240614,1,0,3:0:0:0:
507,260,240691,5,10,3:0:0:0:
491,289,240768,1,0,3:0:0:0:
459,298,240845,1,0,3:0:0:0:
426,289,240922,1,0,3:0:0:0:
405,263,240998,1,0,3:0:0:0:
402,229,241075,1,0,3:0:0:0:
415,198,241152,5,4,3:1:0:0:
413,157,241229,1,0,3:0:0:0:
390,123,241306,1,0,3:0:0:0:
353,106,241383,1,0,3:0:0:0:
313,113,241460,1,0,3:0:0:0:
280,135,241537,1,0,3:0:0:0:
264,171,241614,1,6,3:0:0:0:
232,195,241691,1,0,3:0:0:0:
192,199,241768,1,0,3:0:0:0:
156,179,241845,1,0,3:0:0:0:
140,142,241922,1,0,3:0:0:0:
150,103,241998,1,0,3:0:0:0:
181,77,242075,1,2,3:0:0:0:
220,73,242152,1,0,3:0:0:0:
254,93,242229,1,0,3:0:0:0:
290,109,242306,1,0,3:0:0:0:
329,102,242383,1,0,3:0:0:0:
357,73,242460,1,0,3:0:0:0:
358,33,242537,5,10,3:0:0:0:
338,6,242614,1,0,3:0:0:0:
304,1,242691,1,0,3:0:0:0:
271,9,242768,1,0,3:0:0:0:
250,35,242845,1,0,3:0:0:0:
217,41,242922,1,0,3:0:0:0:
188,24,242998,6,0,L|182:104,2,67.0333333333334,14|0|0,3:2|3:0|3:0,3:0:0:0:
93,124,243229,2,0,L|99:204,2,67.0333333333334,14|0|0,3:2|3:0|3:0,3:0:0:0:
204,211,243460,5,6,3:0:0:0:
201,230,243518,1,0,3:0:0:0:
199,250,243575,1,0,3:0:0:0:
197,269,243633,1,0,3:0:0:0:
194,289,243691,2,0,L|142:273,3,50.0222222222223,0|0|0|0,3:0|3:0|3:0|3:0,3:0:0:0:
72,374,243922,5,2,3:0:0:0:
53,367,243979,1,0,3:0:0:0:
40,351,244037,1,0,3:0:0:0:
35,331,244095,1,0,3:0:0:0:
35,311,244152,1,0,3:0:0:0:
41,291,244210,1,0,3:0:0:0:
51,273,244268,1,0,3:0:0:0:
65,259,244325,1,0,3:0:0:0:
84,252,244383,5,10,3:0:0:0:
110,229,244441,1,0,3:0:0:0:
121,196,244498,1,0,3:0:0:0:
114,161,244556,1,0,3:0:0:0:
89,136,244614,1,0,3:0:0:0:
54,130,244672,1,0,3:0:0:0:
22,143,244729,1,0,3:0:0:0:
6,174,244787,1,0,3:0:0:0:
5,209,244845,5,2,3:0:0:0:
30,239,244902,1,0,3:0:0:0:
69,247,244960,1,0,3:0:0:0:
108,238,245018,1,0,3:0:0:0:
140,214,245075,1,0,3:0:0:0:
176,196,245133,1,0,3:0:0:0:
216,196,245191,1,0,3:0:0:0:
252,211,245248,1,0,3:0:0:0:
271,246,245306,5,6,3:0:0:0:
274,255,245364,1,0,3:0:0:0:
276,264,245422,1,0,3:0:0:0:
276,273,245479,1,0,3:0:0:0:
275,283,245537,1,0,3:0:0:0:
274,293,245595,1,0,3:0:0:0:
271,302,245652,1,0,3:0:0:0:
268,311,245710,1,0,3:0:0:0:
264,320,245768,5,2,3:0:0:0:
225,342,245825,1,0,3:0:0:0:
179,340,245883,1,0,3:0:0:0:
145,309,245941,1,0,3:0:0:0:
137,265,245998,1,0,3:0:0:0:
153,222,246056,1,0,3:0:0:0:
190,196,246114,1,0,3:0:0:0:
234,189,246172,1,0,3:0:0:0:
275,203,246229,5,8,2:0:0:0:
282,257,246287,1,8,2:0:0:0:
290,311,246345,1,8,2:0:0:0:
297,364,246402,1,8,2:0:0:0:
311,383,246460,2,0,L|352:347,3,50.0222222222223,2|0|0|0,3:0|3:0|3:0|3:0,3:0:0:0:
492,168,246691,5,8,2:0:0:0:
485,222,246748,1,8,2:0:0:0:
477,276,246806,1,8,2:0:0:0:
470,329,246864,1,8,2:0:0:0:
456,348,246922,2,0,L|415:312,3,50.0222222222223,8|8|8|8,3:0|3:0|3:0|3:0,3:0:0:0:
337,197,247152,6,0,P|296:184|205:236,1,150.066666666667,6|0,3:0|3:0,3:0:0:0:
204,265,247383,1,0,3:0:0:0:
192,319,247441,1,8,2:0:0:0:
149,352,247498,1,2,3:0:0:0:
93,350,247556,1,8,2:0:0:0:
55,309,247614,1,2,3:0:0:0:
51,253,247672,1,8,2:0:0:0:
80,207,247729,1,2,3:0:0:0:
132,190,247787,1,8,2:0:0:0:
186,201,247845,1,2,3:0:0:0:
220,242,247902,1,8,2:0:0:0:
273,254,247960,1,2,3:0:0:0:
325,237,248018,1,8,2:0:0:0:
359,195,248075,5,2,3:0:0:0:
360,139,248133,1,8,2:0:0:0:
320,99,248191,1,2,3:0:0:0:
267,86,248248,1,8,2:0:0:0:
219,113,248306,1,2,3:0:0:0:
191,160,248364,1,8,2:0:0:0:
198,214,248422,1,2,3:0:0:0:
234,254,248479,1,8,2:0:0:0:
286,269,248537,1,2,3:0:0:0:
340,260,248595,1,8,2:0:0:0:
378,221,248652,1,2,3:0:0:0:
431,207,248710,1,8,2:0:0:0:
480,232,248768,1,2,3:0:0:0:
499,282,248825,1,8,2:0:0:0:
480,334,248883,1,2,3:0:0:0:
434,365,248941,1,8,2:0:0:0:
380,358,248998,5,6,3:2:0:0:
346,313,249056,1,8,2:0:0:0:
350,257,249114,1,2,3:0:0:0:
393,222,249172,1,8,2:0:0:0:
426,179,249229,1,2,3:0:0:0:
415,124,249287,1,8,2:0:0:0:
371,89,249345,1,2,3:0:0:0:
316,90,249402,1,8,2:0:0:0:
274,126,249460,2,0,L|281:191,3,50.0222222222223,6|8|2|8,3:2|2:0|3:0|2:0,3:0:0:0:
172,198,249691,2,0,L|165:263,3,50.0222222222223,2|8|2|8,3:0|2:0|3:0|2:0,3:0:0:0:
63,209,249922,5,8,3:0:0:0:
281,117,250037,1,8,3:0:0:0:
68,231,250152,5,8,3:0:0:0:
305,264,250268,1,8,3:0:0:0:
228,41,250383,5,8,2:0:0:0:
234,105,250441,1,8,2:0:0:0:
241,169,250498,1,8,2:0:0:0:
247,233,250556,1,8,2:0:0:0:
253,283,250614,6,0,L|204:263,3,50.0222222222223,8|8|8|8,3:0|3:0|3:0|3:0,3:0:0:0:
100,239,250845,5,6,3:0:0:0:
94,246,250902,1,0,3:0:0:0:
90,254,250960,1,0,3:0:0:0:
87,263,251018,1,0,3:0:0:0:
85,272,251075,1,0,3:0:0:0:
83,281,251133,1,0,3:0:0:0:
82,290,251191,1,0,3:0:0:0:
82,299,251248,1,0,3:0:0:0:
82,309,251306,1,2,3:0:0:0:
83,319,251364,1,0,3:0:0:0:
85,328,251422,1,0,3:0:0:0:
88,337,251479,1,0,3:0:0:0:
92,346,251537,2,0,P|128:354|155:344,3,50.0222222222223,0|0|0|0,3:0|3:0|3:0|3:0,3:0:0:0:
213,274,251768,5,10,3:0:0:0:
232,276,251825,1,0,3:0:0:0:
251,278,251883,1,0,3:0:0:0:
270,280,251941,1,0,3:0:0:0:
289,282,251998,1,0,3:0:0:0:
308,284,252056,1,0,3:0:0:0:
327,287,252114,1,0,3:0:0:0:
346,290,252172,1,0,3:0:0:0:
365,293,252229,6,0,L|351:350,3,50.0222222222223,2|0|0|0,3:0|3:0|3:0|3:0,3:0:0:0:
456,336,252460,2,0,L|470:393,3,50.0222222222223,0|0|0|0,3:0|3:0|3:0|3:0,3:0:0:0:
365,213,252691,6,0,L|353:284,1,50.6000000000001,8|0,2:0|3:0,3:0:0:0:
493,173,252806,2,0,L|487:118,1,50.6000000000001,8|0,2:0|3:0,3:0:0:0:
295,163,252922,2,0,L|372:203,1,50.6000000000001,8|0,2:0|3:0,3:0:0:0:
405,30,253037,2,0,L|381:97,1,50.6000000000001,8|0,2:0|3:0,3:0:0:0:
433,248,253152,6,0,L|422:192,1,50.6000000000001,8|0,2:0|3:0,3:0:0:0:
287,64,253268,2,0,L|276:146,1,50.6000000000001,8|0,2:0|3:0,3:0:0:0:
272,259,253383,2,0,L|351:248,1,50.6000000000001,8|0,2:0|3:0,3:0:0:0:
479,28,253498,2,0,L|400:17,1,50.6000000000001,8|0,2:0|3:0,3:0:0:0:
441,274,253614,5,8,2:0:0:0:
482,231,253672,1,0,3:0:0:0:
493,173,253729,1,8,2:0:0:0:
470,118,253787,1,0,3:0:0:0:
421,85,253845,1,8,2:0:0:0:
362,85,253902,1,0,3:0:0:0:
312,117,253960,1,8,2:0:0:0:
288,171,254018,1,0,3:0:0:0:
298,229,254075,5,8,2:0:0:0:
362,214,254133,1,8,2:0:0:0:
425,199,254191,1,8,2:0:0:0:
487,185,254248,1,8,2:0:0:0:
498,202,254306,2,0,L|488:270,3,50.0222222222223,8|8|8|8,3:0|3:0|3:0|3:0,3:0:0:0:
96,384,254537,5,6,3:0:0:0:
69,363,254614,1,0,3:0:0:0:
63,330,254691,1,0,3:0:0:0:
73,298,254768,1,0,3:0:0:0:
98,276,254845,1,0,3:0:0:0:
131,276,254922,1,0,3:0:0:0:
159,292,254998,1,2,3:0:0:0:
177,319,255075,1,0,3:0:0:0:
208,329,255152,1,0,3:0:0:0:
240,324,255229,1,0,3:0:0:0:
263,300,255306,1,0,3:0:0:0:
268,267,255383,1,0,3:0:0:0:
252,237,255460,5,10,3:0:0:0:
229,261,255537,1,0,3:0:0:0:
223,293,255614,1,0,3:0:0:0:
235,324,255691,1,0,3:0:0:0:
263,340,255768,1,0,3:0:0:0:
296,340,255845,1,0,3:0:0:0:
325,325,255922,1,2,3:0:0:0:
342,296,255998,1,0,3:0:0:0:
368,275,256075,1,0,3:0:0:0:
400,268,256152,1,0,3:0:0:0:
431,278,256229,1,0,3:0:0:0:
455,300,256306,1,0,3:0:0:0:
462,332,256383,5,6,3:0:0:0:
444,360,256460,1,0,3:0:0:0:
412,369,256537,1,0,3:0:0:0:
379,359,256614,1,0,3:0:0:0:
363,329,256691,1,0,3:0:0:0:
362,295,256768,1,0,3:0:0:0:
378,266,256845,1,2,3:0:0:0:
407,250,256922,1,0,3:0:0:0:
424,222,256998,1,0,3:0:0:0:
428,188,257075,1,0,3:0:0:0:
415,157,257152,1,0,3:0:0:0:
388,136,257229,1,0,3:0:0:0:
354,133,257306,6,0,L|346:200,2,67.0333333333334,10|0|0,3:0|3:0|3:0,3:0:0:0:
245,57,257537,2,0,L|253:124,2,67.0333333333334,0|0|0,3:0|3:0|3:0,3:0:0:0:
154,6,257768,5,8,2:0:0:0:
150,50,257825,1,8,2:0:0:0:
146,95,257883,1,8,2:0:0:0:
142,140,257941,1,8,2:0:0:0:
138,184,257998,1,8,2:0:0:0:
134,229,258056,1,8,2:0:0:0:
130,274,258114,1,8,2:0:0:0:
127,319,258172,1,8,2:0:0:0:
102,355,258229,5,6,3:0:0:0:
80,342,258287,1,0,3:0:0:0:
69,319,258345,1,0,3:0:0:0:
67,294,258402,1,0,3:0:0:0:
74,269,258460,1,0,3:0:0:0:
93,252,258518,1,0,3:0:0:0:
116,244,258575,1,0,3:0:0:0:
140,246,258633,1,0,3:0:0:0:
161,259,258691,2,0,L|154:312,3,50.0222222222223,2|0|0|0,3:0|3:0|3:0|3:0,3:0:0:0:
247,330,258922,2,0,L|254:383,3,50.0222222222223,0|0|0|0,3:0|3:0|3:0|3:0,3:0:0:0:
379,378,259152,5,10,3:0:0:0:
371,371,259210,1,0,3:0:0:0:
365,362,259268,2,0,P|361:331|365:304,1,50.6000000000001,0|0,3:0|3:0,3:0:0:0:
462,318,259383,5,0,3:0:0:0:
470,311,259441,1,0,3:0:0:0:
476,302,259498,2,0,P|480:271|476:244,1,51.4666666666667,0|0,3:0|3:0,3:0:0:0:
379,174,259614,5,2,3:0:0:0:
371,181,259672,1,0,3:0:0:0:
365,190,259729,2,0,P|361:221|365:248,1,51.4666666666667,0|0,3:0|3:0,3:0:0:0:
485,179,259845,5,4,3:2:0:0:
487,169,259902,1,0,3:0:0:0:
487,158,259960,1,0,3:0:0:0:
485,148,260018,1,0,3:0:0:0:
482,138,260075,5,6,3:0:0:0:
462,153,260133,1,0,3:0:0:0:
437,156,260191,1,0,3:0:0:0:
412,153,260248,1,0,3:0:0:0:
392,137,260306,2,0,L|387:75,3,50.0222222222223,0|0|0|0,3:0|3:0|3:0|3:0,3:0:0:0:
295,26,260537,5,2,3:0:0:0:
269,12,260595,1,0,3:0:0:0:
239,8,260652,1,0,3:0:0:0:
212,21,260710,1,0,3:0:0:0:
195,47,260768,1,0,3:0:0:0:
188,76,260825,1,0,3:0:0:0:
196,106,260883,1,0,3:0:0:0:
218,127,260941,1,0,3:0:0:0:
253,137,260998,2,0,L|262:84,3,50.0222222222223,10|0|0|0,3:0|3:0|3:0|3:0,3:0:0:0:
348,225,261229,2,0,L|339:172,3,50.0222222222223,0|0|0|0,3:0|3:0|3:0|3:0,3:0:0:0:
248,305,261460,5,8,2:0:0:0:
301,318,261518,1,8,2:0:0:0:
353,331,261575,1,8,2:0:0:0:
406,344,261633,1,8,2:0:0:0:
435,368,261691,2,0,L|431:293,3,50.0222222222223,8|8|8|8,3:0|3:0|3:0|3:0,3:0:0:0:
289,169,261922,6,0,P|266:234|326:304,1,150.066666666667,6|0,3:0|3:0,3:0:0:0:
350,298,262152,1,2,3:0:0:0:
404,290,262210,1,8,2:0:0:0:
442,251,262268,1,2,3:0:0:0:
446,195,262325,1,8,2:0:0:0:
423,144,262383,1,2,3:0:0:0:
373,120,262441,1,8,2:0:0:0:
319,127,262498,1,2,3:0:0:0:
279,165,262556,1,8,2:0:0:0:
225,179,262614,1,2,3:0:0:0:
170,169,262672,1,8,2:0:0:0:
138,124,262729,1,2,3:0:0:0:
143,68,262787,1,8,2:0:0:0:
175,23,262845,5,2,3:0:0:0:
227,8,262902,1,8,2:0:0:0:
278,27,262960,1,2,3:0:0:0:
301,76,263018,1,8,2:0:0:0:
304,130,263075,1,2,3:0:0:0:
270,174,263133,1,8,2:0:0:0:
217,190,263191,1,2,3:0:0:0:
173,221,263248,1,8,2:0:0:0:
160,274,263306,1,2,3:0:0:0:
177,326,263364,1,8,2:0:0:0:
223,355,263422,1,2,3:0:0:0:
277,354,263479,1,8,2:0:0:0:
317,316,263537,1,2,3:0:0:0:
326,261,263595,1,8,2:0:0:0:
300,212,263652,1,2,3:0:0:0:
248,197,263710,1,8,2:0:0:0:
194,206,263768,5,8,2:0:0:0:
138,226,263825,1,8,2:0:0:0:
81,246,263883,1,8,2:0:0:0:
24,267,263941,1,8,2:0:0:0:
5,293,263998,2,0,L|11:219,3,50.0222222222223,0|0|8|8,3:0|3:0|3:0|3:0,3:0:0:0:
125,97,264229,5,8,2:0:0:0:
123,147,264287,1,8,2:0:0:0:
122,197,264345,2,0,L|119:267,1,50.6000000000001,0|0,3:0|3:0,3:0:0:0:
218,350,264460,5,8,2:0:0:0:
271,335,264518,1,8,2:0:0:0:
323,321,264575,1,8,2:0:0:0:
376,307,264633,1,8,2:0:0:0:
417,323,264691,5,0,3:0:0:0:
413,298,264748,1,0,3:0:0:0:
409,273,264806,1,8,3:0:0:0:
405,248,264864,1,8,3:0:0:0:
382,229,264922,5,8,3:0:0:0:
383,209,264979,1,8,3:0:0:0:
384,188,265037,1,8,3:0:0:0:
385,167,265095,1,8,3:0:0:0:
407,143,265152,5,8,2:0:0:0:
402,103,265210,1,8,2:0:0:0:
398,62,265268,2,0,L|392:11,1,50.6000000000001,0|0,3:0|3:0,3:0:0:0:
263,2,265383,5,8,3:0:0:0:
260,16,265441,1,8,3:0:0:0:
258,30,265498,1,8,3:0:0:0:
256,44,265556,1,8,3:0:0:0:
254,58,265614,6,0,B|238:99|238:99|111:87,1,150.066666666667,6|0,3:0|3:0,3:0:0:0:
39,158,265845,2,0,B|62:131|62:131|214:145,1,150.066666666667,2|0,3:0|3:0,3:0:0:0:
232,224,266075,2,0,B|221:78|221:78|173:152,1,200.666666666667,2|0,3:0|3:0,3:0:0:0:
4,327,266537,6,0,B|55:291|55:291|213:334,1,200.666666666667,10|2,3:0|3:0,3:0:0:0:
441,298,266998,2,0,L|332:323,1,100.333333333333,2|0,3:0|3:0,3:0:0:0:
273,361,267229,2,0,L|370:338,1,100.333333333333,6|0,3:2|3:0,3:0:0:0:
508,170,267460,6,0,B|465:145|465:145|304:184,1,200.666666666667,6|2,3:0|3:0,3:0:0:0:
301,206,267922,2,0,B|314:62|314:62|346:117,1,200.666666666667,2|2,3:0|3:0,3:0:0:0:
441,332,268383,6,0,B|399:357|399:357|280:330,1,150.066666666667,10|0,3:0|3:0,3:0:0:0:
279,317,268614,1,0,3:0:0:0:
274,302,268672,1,0,3:0:0:0:
269,287,268729,1,0,3:0:0:0:
264,272,268787,1,0,3:0:0:0:
259,257,268845,5,8,3:0:0:0:
105,369,269075,1,8,3:0:0:0:
86,124,269306,5,6,3:0:0:0:
56,151,269383,1,0,3:0:0:0:
49,190,269460,1,0,3:0:0:0:
61,228,269537,1,0,3:0:0:0:
93,251,269614,1,0,3:0:0:0:
132,256,269691,1,0,3:0:0:0:
168,239,269768,1,2,3:0:0:0:
186,203,269845,1,0,3:0:0:0:
222,187,269922,1,0,3:0:0:0:
261,189,269998,1,0,3:0:0:0:
289,216,270075,1,0,3:0:0:0:
294,255,270152,1,0,3:0:0:0:
272,288,270229,5,10,3:0:0:0:
307,270,270306,1,0,3:0:0:0:
346,272,270383,1,0,3:0:0:0:
380,292,270460,1,0,3:0:0:0:
403,324,270537,1,0,3:0:0:0:
439,340,270614,1,0,3:0:0:0:
478,336,270691,1,2,3:0:0:0:
505,306,270768,1,0,3:0:0:0:
504,265,270845,1,0,3:0:0:0:
478,234,270922,1,0,3:0:0:0:
439,225,270998,1,0,3:0:0:0:
402,241,271075,1,0,3:0:0:0:
385,277,271152,5,6,3:0:0:0:
426,254,271229,1,0,3:0:0:0:
441,210,271306,1,0,3:0:0:0:
431,164,271383,1,0,3:0:0:0:
394,135,271460,1,0,3:0:0:0:
347,131,271537,1,0,3:0:0:0:
308,157,271614,1,2,3:0:0:0:
286,198,271691,1,0,3:0:0:0:
243,216,271768,1,0,3:0:0:0:
198,202,271845,1,0,3:0:0:0:
178,159,271922,1,0,3:0:0:0:
187,113,271998,1,0,3:0:0:0:
227,89,272075,5,10,3:0:0:0:
246,123,272152,1,0,3:0:0:0:
281,140,272229,1,0,3:0:0:0:
321,141,272306,1,0,3:0:0:0:
358,126,272383,1,0,3:0:0:0:
376,90,272460,1,0,3:0:0:0:
374,66,272537,6,0,L|378:0,2,67.0333333333334,10|0|0,3:0|3:0|3:0,3:0:0:0:
227,89,272768,2,0,L|232:170,2,67.0333333333334,10|0|0,3:0|3:0|3:0,3:0:0:0:
136,8,272998,5,6,3:0:0:0:
133,27,273056,1,0,3:0:0:0:
129,46,273114,1,0,3:0:0:0:
125,65,273172,1,0,3:0:0:0:
122,84,273229,2,0,L|70:58,3,50.0222222222223,0|0|0|0,3:0|3:0|3:0|3:0,3:0:0:0:
47,193,273460,5,2,3:0:0:0:
67,177,273518,1,0,3:0:0:0:
92,175,273575,1,0,3:0:0:0:
117,179,273633,1,0,3:0:0:0:
136,195,273691,1,0,3:0:0:0:
144,218,273748,1,0,3:0:0:0:
143,243,273806,1,0,3:0:0:0:
132,265,273864,1,0,3:0:0:0:
114,281,273922,5,10,3:0:0:0:
101,312,273979,1,0,3:0:0:0:
106,346,274037,1,0,3:0:0:0:
134,367,274095,1,0,3:0:0:0:
169,368,274152,1,0,3:0:0:0:
199,348,274210,1,0,3:0:0:0:
215,316,274268,1,0,3:0:0:0:
209,282,274325,1,0,3:0:0:0:
182,259,274383,5,2,3:0:0:0:
176,219,274441,1,0,3:0:0:0:
193,182,274498,1,0,3:0:0:0:
230,165,274556,1,0,3:0:0:0:
268,170,274614,1,0,3:0:0:0:
297,200,274672,1,0,3:0:0:0:
298,237,274729,1,0,3:0:0:0:
279,264,274787,1,0,3:0:0:0:
255,278,274845,6,0,L|247:221,3,50.0222222222223,4|0|0|0,3:2|3:0|3:0|3:0,3:0:0:0:
163,151,275075,2,0,L|171:94,3,50.0222222222223,4|0|0|0,3:2|3:0|3:0|3:0,3:0:0:0:
318,3,275306,5,2,3:0:0:0:
317,13,275364,1,0,3:0:0:0:
316,23,275422,1,0,3:0:0:0:
315,32,275479,1,0,3:0:0:0:
314,42,275537,1,0,3:0:0:0:
313,52,275595,1,0,3:0:0:0:
312,61,275652,1,0,3:0:0:0:
311,71,275710,1,0,3:0:0:0:
310,81,275768,5,8,2:0:0:0:
252,66,275825,1,8,2:0:0:0:
193,52,275883,1,8,2:0:0:0:
134,38,275941,1,8,2:0:0:0:
102,13,275998,2,0,L|107:78,3,50.0222222222223,4|0|0|0,3:2|3:0|3:0|3:0,3:0:0:0:
3,194,276229,5,8,2:0:0:0:
61,180,276287,1,8,2:0:0:0:
120,165,276345,1,8,2:0:0:0:
179,151,276402,1,8,2:0:0:0:
211,126,276460,2,0,L|206:191,3,50.0222222222223,8|8|8|8,3:0|3:0|3:0|3:0,3:0:0:0:
145,264,276691,6,0,P|206:289|297:228,1,150.066666666667,6|0,3:0|3:0,3:0:0:0:
301,212,276922,1,0,3:0:0:0:
304,157,276979,1,8,2:0:0:0:
280,107,277037,1,0,3:0:0:0:
229,84,277095,1,8,2:0:0:0:
174,83,277152,1,2,3:0:0:0:
128,114,277210,1,8,2:0:0:0:
109,165,277268,1,0,3:0:0:0:
113,219,277325,1,8,2:0:0:0:
148,261,277383,1,0,3:0:0:0:
202,272,277441,1,8,2:0:0:0:
253,254,277498,1,0,3:0:0:0:
289,212,277556,1,8,2:0:0:0:
341,193,277614,5,2,3:0:0:0:
395,203,277672,1,8,2:0:0:0:
435,239,277729,1,0,3:0:0:0:
446,293,277787,1,8,2:0:0:0:
426,344,277845,1,0,3:0:0:0:
378,370,277902,1,8,2:0:0:0:
323,359,277960,1,0,3:0:0:0:
284,319,278018,1,8,2:0:0:0:
276,268,278075,1,2,3:0:0:0:
296,227,278133,1,8,2:0:0:0:
296,181,278191,1,0,3:0:0:0:
275,141,278248,1,8,2:0:0:0:
234,121,278306,2,0,P|204:110|179:112,1,50,4|8,3:2|2:0,0:0:0:0:
110,277,278422,2,0,P|144:269|168:245,1,50,4|8,3:2|2:0,0:0:0:0:
75,103,278537,5,6,3:0:0:0:
65,114,278594,1,8,2:0:0:0:
58,127,278652,1,0,3:0:0:0:
55,141,278710,1,8,2:0:0:0:
53,156,278768,1,0,3:0:0:0:
52,170,278825,1,8,2:0:0:0:
55,184,278883,1,0,3:0:0:0:
61,197,278941,1,8,2:0:0:0:
69,209,278998,2,0,L|129:181,3,50,2|8|0|8,3:0|2:0|3:0|2:0,3:0:0:0:
222,246,279229,2,0,L|282:218,3,50,0|8|0|8,3:0|2:0|3:0|2:0,3:0:0:0:
394,198,279460,5,2,3:0:0:0:
413,203,279518,1,8,2:0:0:0:
427,217,279575,1,0,3:0:0:0:
437,234,279633,1,8,2:0:0:0:
443,253,279691,1,0,3:0:0:0:
442,272,279748,1,8,2:0:0:0:
434,290,279806,1,0,3:0:0:0:
421,304,279864,1,8,2:0:0:0:
405,315,279922,5,8,2:0:0:0:
347,324,279979,1,8,2:0:0:0:
288,333,280037,1,8,2:0:0:0:
229,342,280095,1,8,2:0:0:0:
197,351,280152,2,0,L|206:288,3,50.0222222222223,0|0|0|0,3:0|3:0|3:0|3:0,3:0:0:0:
110,49,280383,6,0,B|111:135|111:135|96:170|96:170|99:279,1,225.000008583069,6|0,3:0|0:0,0:0:0:0:
103,298,280614,1,8,3:0:0:0:
165,255,280672,1,0,3:0:0:0:
239,256,280729,1,8,3:0:0:0:
298,302,280787,1,0,3:0:0:0:
352,354,280845,1,8,3:0:0:0:
425,350,280902,1,0,3:0:0:0:
478,297,280960,1,8,3:0:0:0:
480,221,281018,1,0,3:0:0:0:
423,172,281075,1,8,3:0:0:0:
347,164,281133,1,0,3:0:0:0:
287,210,281191,1,8,3:0:0:0:
213,203,281248,1,0,3:0:0:0:
161,145,281306,6,0,L|139:75,1,50,14|0,3:0|3:0,3:0:0:0:
414,52,281422,2,0,L|402:111,1,50,8|0,3:0|3:0,3:0:0:0:
140,262,281537,2,0,L|118:192,1,50,14|0,3:0|3:0,3:0:0:0:
487,195,281652,2,0,L|475:254,1,50,8|0,3:0|3:0,3:0:0:0:
221,339,281768,6,0,L|236:268,1,50,14|0,3:0|3:0,3:0:0:0:
354,26,281883,2,0,L|371:99,1,50,8|0,3:0|3:0,3:0:0:0:
371,342,281998,2,0,L|348:266,1,50,14|0,3:0|3:0,3:0:0:0:
235,20,282114,2,0,L|218:93,1,50,8|0,3:0|3:0,3:0:0:0:
140,262,282229,5,14,3:0:0:0:
85,271,282287,1,0,3:0:0:0:
33,251,282345,1,8,3:0:0:0:
9,201,282402,1,0,3:0:0:0:
15,146,282460,1,10,3:0:0:0:
57,111,282518,1,0,3:0:0:0:
110,100,282575,1,8,3:0:0:0:
158,125,282633,1,0,3:0:0:0:
182,174,282691,1,10,3:0:0:0:
231,196,282748,1,0,3:0:0:0:
285,185,282806,1,8,3:0:0:0:
313,137,282864,1,0,3:0:0:0:
309,81,282922,5,12,3:2:0:0:
274,46,282979,1,0,3:0:0:0:
224,39,283037,1,8,3:0:0:0:
179,61,283095,1,0,3:0:0:0:
157,105,283152,1,12,3:2:0:0:
165,154,283210,1,0,3:0:0:0:
203,185,283268,1,8,3:0:0:0:
218,231,283325,1,0,3:0:0:0:
196,271,283383,5,14,3:0:0:0:
139,290,283441,1,0,3:0:0:0:
86,265,283498,1,8,3:0:0:0:
74,206,283556,1,0,3:0:0:0:
102,154,283614,5,8,0:0:0:0:
170,131,283672,1,8,0:0:0:0:
238,107,283729,1,8,0:0:0:0:
307,84,283787,1,8,0:0:0:0:
329,83,283845,2,0,L|336:141,3,50.0222222222223,8|8|8|8,3:0|3:0|3:0|3:0,3:0:0:0:
494,188,284080,5,6,3:0:0:0:
474,203,284137,1,0,3:0:0:0:
451,211,284195,1,0,3:0:0:0:
426,211,284253,1,0,3:0:0:0:
402,202,284310,1,0,3:0:0:0:
383,186,284368,1,0,3:0:0:0:
371,165,284426,1,0,3:0:0:0:
366,140,284483,1,0,3:0:0:0:
370,116,284541,1,4,3:2:0:0:
381,94,284599,1,0,3:0:0:0:
400,77,284656,1,0,3:0:0:0:
423,68,284714,1,0,3:0:0:0:
448,67,284772,1,0,3:0:0:0:
471,74,284830,1,0,3:0:0:0:
491,89,284887,1,0,3:0:0:0:
505,109,284945,1,0,3:0:0:0:
512,143,285003,1,10,0:0:0:0:
512,143,285464,5,6,3:0:0:0:
506,167,285522,1,0,3:0:0:0:
489,186,285580,1,0,3:0:0:0:
465,194,285637,1,0,3:0:0:0:
439,195,285695,1,0,3:0:0:0:
416,184,285753,1,0,3:0:0:0:
391,182,285810,1,0,3:0:0:0:
366,188,285868,1,0,3:0:0:0:
346,203,285926,1,4,3:2:0:0:
333,224,285983,1,0,3:0:0:0:
328,248,286041,1,0,3:0:0:0:
332,272,286099,1,0,3:0:0:0:
348,290,286156,1,0,3:0:0:0:
370,300,286214,1,0,3:0:0:0:
395,299,286272,1,0,3:0:0:0:
418,289,286330,1,0,3:0:0:0:
430,267,286387,1,2,3:0:0:0:
430,267,286849,5,14,3:0:0:0:
425,242,286906,1,0,3:0:0:0:
407,224,286964,1,0,3:0:0:0:
382,216,287022,1,0,3:0:0:0:
356,217,287080,1,0,3:0:0:0:
334,228,287137,1,0,3:0:0:0:
320,249,287195,1,0,3:0:0:0:
298,262,287253,1,0,3:0:0:0:
273,266,287310,1,4,3:2:0:0:
249,257,287368,1,0,3:0:0:0:
229,241,287426,1,0,3:0:0:0:
222,217,287483,1,0,3:0:0:0:
227,192,287541,1,0,3:0:0:0:
221,167,287599,1,0,3:0:0:0:
204,148,287656,1,0,3:0:0:0:
180,138,287714,1,0,3:0:0:0:
154,137,287772,1,2,3:0:0:0:
154,137,288233,5,6,3:0:0:0:
151,156,288291,1,0,0:0:0:0:
148,175,288349,1,0,0:0:0:0:
145,194,288406,1,0,0:0:0:0:
142,213,288464,1,0,0:0:0:0:
140,233,288522,1,0,0:0:0:0:
138,253,288580,1,0,0:0:0:0:
136,272,288637,1,0,0:0:0:0:
134,292,288695,5,10,0:0:0:0:
174,271,288753,1,0,0:0:0:0:
218,268,288810,1,0,0:0:0:0:
259,286,288868,1,0,0:0:0:0:
282,324,288926,1,0,0:0:0:0:
322,342,288983,1,0,0:0:0:0:
367,338,289041,1,0,0:0:0:0:
402,309,289099,1,0,0:0:0:0:
412,265,289156,5,0,3:0:0:0:
405,185,289272,1,0,3:0:0:0:
398,105,289387,1,0,0:0:0:0:
391,25,289503,1,0,0:0:0:0:
219,96,289618,5,6,0:0:0:0:
238,125,289676,1,0,0:0:0:0:
271,132,289733,1,0,0:0:0:0:
304,120,289791,1,0,0:0:0:0:
321,89,289849,1,0,0:0:0:0:
314,55,289906,1,0,0:0:0:0:
286,32,289964,1,0,0:0:0:0:
250,30,290022,1,0,0:0:0:0:
217,44,290080,1,2,0:0:0:0:
198,73,290137,1,0,0:0:0:0:
193,107,290195,1,0,0:0:0:0:
171,134,290253,1,0,0:0:0:0:
139,148,290310,1,0,0:0:0:0:
104,141,290368,1,0,0:0:0:0:
83,112,290426,1,0,0:0:0:0:
83,77,290483,1,0,0:0:0:0:
116,47,290541,1,10,0:0:0:0:
116,47,291003,5,6,3:0:0:0:
153,59,291060,1,0,3:0:0:0:
175,92,291118,1,0,3:0:0:0:
176,132,291176,1,0,3:0:0:0:
157,166,291233,1,0,3:0:0:0:
121,184,291291,1,0,3:0:0:0:
96,215,291349,1,0,3:0:0:0:
86,253,291406,1,0,3:0:0:0:
96,291,291464,1,2,3:0:0:0:
122,321,291522,1,0,3:0:0:0:
161,328,291580,1,0,3:0:0:0:
199,318,291637,1,0,3:0:0:0:
226,288,291695,1,0,3:0:0:0:
264,275,291753,1,0,3:0:0:0:
301,286,291810,1,0,3:0:0:0:
323,319,291868,1,0,3:0:0:0:
323,359,291926,1,2,3:0:0:0:
323,359,292387,5,14,3:0:0:0:
290,373,292445,1,0,3:0:0:0:
254,369,292503,1,0,3:0:0:0:
226,348,292560,1,0,3:0:0:0:
211,315,292618,1,0,3:0:0:0:
210,279,292676,1,0,3:0:0:0:
224,247,292733,1,0,3:0:0:0:
248,221,292791,1,0,3:0:0:0:
281,209,292849,1,4,3:2:0:0:
300,180,292906,1,0,3:0:0:0:
303,144,292964,1,0,3:0:0:0:
291,110,293022,1,0,3:0:0:0:
268,82,293080,1,0,3:0:0:0:
234,73,293137,1,0,3:0:0:0:
198,74,293195,1,0,3:0:0:0:
170,95,293253,1,0,3:0:0:0:
158,127,293310,1,2,3:0:0:0:
158,127,293772,5,6,3:0:0:0:
163,156,293830,1,0,3:0:0:0:
182,177,293887,1,0,3:0:0:0:
210,187,293945,1,0,3:0:0:0:
240,187,294003,1,0,3:0:0:0:
266,173,294060,1,0,3:0:0:0:
281,146,294118,1,0,3:0:0:0:
304,126,294176,1,0,3:0:0:0:
332,117,294233,1,2,3:0:0:0:
362,119,294291,1,0,3:0:0:0:
387,135,294349,1,0,3:0:0:0:
401,160,294406,1,0,3:0:0:0:
400,190,294464,1,0,3:0:0:0:
385,216,294522,1,0,3:0:0:0:
358,230,294580,1,0,3:0:0:0:
328,227,294637,1,0,3:0:0:0:
304,207,294695,6,0,L|306:161,1,33.3333333333333,8|8,0:0|0:0,0:0:0:0:
483,12,294926,1,0,3:0:0:0:
239,125,295156,5,6,3:0:0:0:
216,149,295233,1,0,3:0:0:0:
209,181,295310,1,0,3:0:0:0:
220,212,295387,1,0,3:0:0:0:
243,235,295464,1,0,3:0:0:0:
274,245,295541,1,0,3:0:0:0:
307,240,295618,1,2,3:0:0:0:
335,221,295695,1,0,3:0:0:0:
368,217,295772,1,0,3:0:0:0:
400,225,295849,1,0,3:0:0:0:
420,251,295926,1,0,3:0:0:0:
426,283,296003,1,0,3:0:0:0:
418,315,296080,1,10,3:0:0:0:
418,315,296541,5,4,3:1:0:0:
389,331,296618,1,0,3:0:0:0:
355,337,296695,1,0,3:0:0:0:
323,326,296772,1,0,3:0:0:0:
298,304,296849,1,0,3:0:0:0:
289,273,296926,1,0,3:0:0:0:
269,246,297003,1,4,3:1:0:0:
237,235,297080,1,0,3:0:0:0:
203,239,297156,1,0,3:0:0:0:
180,263,297233,1,0,3:0:0:0:
171,296,297310,1,0,3:0:0:0:
184,326,297387,1,0,3:0:0:0:
211,345,297464,1,4,3:2:0:0:
211,345,297926,5,10,3:0:0:0:
239,326,298003,1,0,3:0:0:0:
243,293,298080,1,0,3:0:0:0:
232,261,298156,1,0,3:0:0:0:
204,242,298233,1,0,3:0:0:0:
171,235,298310,1,0,3:0:0:0:
139,246,298387,1,4,3:1:0:0:
115,269,298464,1,0,3:0:0:0:
84,282,298541,1,0,3:0:0:0:
50,282,298618,1,0,3:0:0:0:
19,267,298695,1,0,3:0:0:0:
2,237,298772,1,0,3:0:0:0:
1,203,298849,1,4,3:2:0:0:
1,203,299310,5,2,3:0:0:0:
16,181,299387,1,0,0:0:0:0:
40,169,299464,1,0,0:0:0:0:
65,163,299541,1,0,0:0:0:0:
91,166,299618,1,0,0:0:0:0:
114,178,299695,1,0,0:0:0:0:
170,229,299772,5,10,3:0:0:0:
191,245,299849,1,0,0:0:0:0:
217,249,299926,1,0,0:0:0:0:
243,247,300003,1,0,0:0:0:0:
267,236,300080,1,0,0:0:0:0:
285,217,300157,1,0,0:0:0:0:
288,145,300233,5,4,0:1:0:0:
208,138,300349,1,0,0:0:0:0:
128,131,300464,1,0,0:0:0:0:
48,124,300580,1,0,0:0:0:0:
92,357,300695,5,6,3:0:0:0:
137,367,300772,1,0,3:0:0:0:
182,358,300849,1,0,3:0:0:0:
212,322,300926,1,0,3:0:0:0:
217,275,301003,1,0,3:0:0:0:
192,235,301080,1,0,3:0:0:0:
190,188,301156,1,2,3:0:0:0:
215,148,301233,1,0,3:0:0:0:
259,134,301310,1,0,3:0:0:0:
303,148,301387,1,0,3:0:0:0:
331,185,301464,1,0,3:0:0:0:
331,231,301541,1,0,3:0:0:0:
302,268,301618,1,10,3:0:0:0:
302,268,302080,5,6,3:0:0:0:
293,313,302156,1,0,3:0:0:0:
316,353,302233,1,0,3:0:0:0:
360,366,302310,1,0,3:0:0:0:
404,352,302387,1,0,3:0:0:0:
424,309,302464,1,0,3:0:0:0:
412,263,302541,1,2,3:0:0:0:
373,235,302618,1,0,3:0:0:0:
360,190,302695,1,0,3:0:0:0:
377,146,302772,1,0,3:0:0:0:
419,126,302849,1,0,3:0:0:0:
464,134,302926,1,0,3:0:0:0:
490,172,303003,1,2,3:0:0:0:
490,172,303464,5,14,3:0:0:0:
438,186,303541,1,0,3:0:0:0:
386,200,303618,1,0,3:0:0:0:
334,214,303695,1,0,3:0:0:0:
282,228,303772,1,0,3:0:0:0:
230,242,303849,1,0,3:0:0:0:
178,256,303926,1,2,3:0:0:0:
124,250,304003,1,0,3:0:0:0:
98,203,304080,1,0,3:0:0:0:
106,151,304156,1,0,3:0:0:0:
150,121,304233,1,0,3:0:0:0:
202,130,304310,1,0,3:0:0:0:
233,173,304387,1,2,3:0:0:0:
233,173,304849,5,2,3:0:0:0:
281,196,304926,1,0,3:0:0:0:
333,188,305003,1,0,3:0:0:0:
370,150,305080,1,0,3:0:0:0:
370,97,305156,1,0,3:0:0:0:
338,53,305233,1,0,3:0:0:0:
285,43,305310,1,2,3:0:0:0:
236,65,305387,1,0,3:0:0:0:
204,108,305464,1,0,3:0:0:0:
152,122,305541,1,0,3:0:0:0:
102,102,305618,1,0,3:0:0:0:
81,52,305695,1,0,3:0:0:0:
104,4,305772,5,8,3:0:0:0:
295,124,305926,1,8,3:0:0:0:
443,9,306080,1,8,3:0:0:0:
