osu file format v14

[General]
AudioFilename: audio.mp3
AudioLeadIn: 0
PreviewTime: -1
Countdown: 1
SampleSet: Normal
StackLeniency: 0.7
Mode: 0
LetterboxInBreaks: 0
WidescreenStoryboard: 1

[Editor]
DistanceSpacing: 1
BeatDivisor: 4
GridSize: 8
TimelineZoom: 1

[Metadata]
Title:A Love Note (CM Remix)
TitleUnicode:A Love Note (CM Remix)
Artist:River Flows In You
ArtistUnicode:River Flows In You
Creator:allianceninja
Version:Insane
Source:
Tags:river flows in you yiruma
BeatmapID:1232308
BeatmapSetID:582308

[Difficulty]
HPDrainRate:7
CircleSize:4
OverallDifficulty:7
ApproachRate:9
SliderMultiplier:1.5
SliderTickRate:2

[Events]
//Background and Video events
//Break Periods
2,66800,69260
//Storyboard Layer 0 (Background)
//Storyboard Layer 1 (Fail)
//Storyboard Layer 2 (Pass)
//Storyboard Layer 3 (Foreground)
//Storyboard Sound Samples

[TimingPoints]
44850.8591549296,428.571428571429,4,1,0,100,1,0

[HitObjects]
256,192,305,5,2,0:0:0:0:
152,112,708,1,0,0:0:0:0:
104,216,979,1,0,0:0:0:0:
360,248,1350,1,0,0:0:0:0:
352,160,1561,1,0,0:0:0:0:
304,96,1779,1,0,0:0:0:0:
224,88,2019,5,2,0:0:0:0:
184,232,2422,1,0,0:0:0:0:
272,272,2636,1,0,0:0:0:0:
248,88,3065,1,0,0:0:0:0:
336,136,3279,1,0,0:0:0:0:
184,168,3614,5,2,0:0:0:0:
336,248,4029,1,0,0:0:0:0:
232,232,4458,1,0,0:0:0:0:
400,144,4886,1,0,0:0:0:0:
248,296,5340,5,2,0:0:0:0:
352,264,5743,1,0,0:0:0:0:
384,152,6172,1,0,0:0:0:0:
264,144,6575,5,2,0:0:0:0:
192,104,6789,1,2,0:0:0:0:
112,120,7004,1,2,0:0:0:0:
168,208,7376,1,0,0:0:0:0:
296,152,7805,5,2,0:0:0:0:
368,120,8019,1,2,0:0:0:0:
384,200,8233,1,2,0:0:0:0:
224,272,8448,1,2,0:0:0:0:
160,104,8662,1,2,0:0:0:0:
256,40,9130,6,0,L|392:160,1,150
384,224,9827,1,2,0:0:0:0:
296,256,10042,1,2,0:0:0:0:
136,144,10256,1,2,0:0:0:0:
248,104,10697,5,0,0:0:0:0:
416,144,11126,1,0,0:0:0:0:
304,160,11511,5,2,0:0:0:0:
256,296,11725,1,2,0:0:0:0:
112,120,11939,1,2,0:0:0:0:
336,96,12330,1,0,0:0:0:0:
456,160,12773,1,0,0:0:0:0:
168,80,13590,5,2,0:0:0:0:
288,48,13805,1,2,0:0:0:0:
216,184,14019,1,2,0:0:0:0:
336,160,14233,1,2,0:0:0:0:
144,120,14658,5,2,0:0:0:0:
256,248,14872,1,2,0:0:0:0:
304,80,15086,1,2,0:0:0:0:
256,64,15498,2,2,P|328:96|328:96,2,75
256,232,16269,5,2,0:0:0:0:
216,128,16483,1,2,0:0:0:0:
296,72,16698,1,2,0:0:0:0:
216,152,16912,2,2,B|312:240|312:216|352:96|464:272,1,300
320,120,18198,1,0,0:0:0:0:
112,120,18561,1,0,0:0:0:0:
224,56,19001,5,2,0:0:0:0:
264,64,19162,2,2,P|344:96|344:96,2,75
224,64,19805,1,2,0:0:0:0:
168,80,20019,1,2,0:0:0:0:
128,120,20233,1,2,0:0:0:0:
376,208,20662,5,0,0:0:0:0:
248,256,21090,1,0,0:0:0:0:
184,144,21493,5,2,0:0:0:0:
256,64,21707,1,2,0:0:0:0:
320,152,21922,1,2,0:0:0:0:
168,168,22327,5,0,0:0:0:0:
48,192,22698,1,0,0:0:0:0:
200,88,23100,5,2,0:0:0:0:
320,64,23314,1,2,0:0:0:0:
296,176,23529,1,2,0:0:0:0:
256,304,23983,5,0,0:0:0:0:
168,232,24412,1,0,0:0:0:0:
200,112,24783,6,2,L|304:120,2,75
216,192,25590,5,0,0:0:0:0:
328,168,26002,1,2,0:0:0:0:
336,240,26216,1,2,0:0:0:0:
192,240,26431,1,2,0:0:0:0:
312,128,26645,1,2,0:0:0:0:
248,296,26859,1,2,0:0:0:0:
240,120,27073,1,2,0:0:0:0:
344,184,27288,1,2,0:0:0:0:
296,96,27502,6,2,P|208:112|208:112,1,75
224,176,27902,6,2,P|144:192|144:192,1,75
160,256,28321,6,2,P|72:280|72:280,1,75
392,224,28746,5,2,0:0:0:0:
320,128,28961,1,2,0:0:0:0:
224,112,29323,5,2,0:0:0:0:
144,240,29538,1,2,0:0:0:0:
312,224,29752,1,2,0:0:0:0:
256,96,29966,1,2,0:0:0:0:
408,160,30181,1,2,0:0:0:0:
264,200,30395,1,2,0:0:0:0:
208,80,30609,1,2,0:0:0:0:
96,184,30823,1,2,0:0:0:0:
248,232,31033,5,2,0:0:0:0:
352,96,31223,1,2,0:0:0:0:
376,224,31432,1,2,0:0:0:0:
232,96,31606,1,2,0:0:0:0:
216,232,31788,1,2,0:0:0:0:
96,168,32002,1,2,0:0:0:0:
200,80,32216,1,2,0:0:0:0:
344,120,32645,5,2,0:0:0:0:
328,200,32859,1,2,0:0:0:0:
280,256,33073,1,2,0:0:0:0:
208,272,33288,1,2,0:0:0:0:
136,240,33502,1,2,0:0:0:0:
120,168,33716,1,2,0:0:0:0:
128,96,33930,1,2,0:0:0:0:
432,168,34272,5,2,0:0:0:0:
296,72,34482,1,2,0:0:0:0:
352,240,34697,1,2,0:0:0:0:
200,176,34911,1,2,0:0:0:0:
232,336,35125,1,2,0:0:0:0:
72,216,35339,1,2,0:0:0:0:
256,128,35554,1,2,0:0:0:0:
128,88,35966,5,2,0:0:0:0:
256,40,36181,1,2,0:0:0:0:
136,208,36395,1,2,0:0:0:0:
312,256,36609,1,2,0:0:0:0:
224,104,36823,1,2,0:0:0:0:
248,280,37038,1,2,0:0:0:0:
96,216,37231,1,2,0:0:0:0:
272,160,37428,1,2,0:0:0:0:
136,64,37619,5,2,0:0:0:0:
280,48,37845,1,2,0:0:0:0:
144,176,38055,1,2,0:0:0:0:
288,160,38282,1,2,0:0:0:0:
152,288,38513,1,2,0:0:0:0:
296,272,38850,1,0,0:0:0:0:
416,256,39279,5,2,0:0:0:0:
312,176,39493,1,2,0:0:0:0:
312,176,39600,1,2,0:0:0:0:
312,176,39708,1,2,0:0:0:0:
248,112,39922,2,2,P|200:144|184:184,1,75
208,224,40350,1,0,0:0:0:0:
304,248,40565,1,0,0:0:0:0:
432,288,40963,5,2,0:0:0:0:
384,184,41178,1,0,0:0:0:0:
384,184,41285,1,0,0:0:0:0:
384,184,41392,1,0,0:0:0:0:
216,208,41579,1,0,0:0:0:0:
296,128,41743,1,0,0:0:0:0:
176,160,41958,1,0,0:0:0:0:
168,264,42172,1,8,0:0:0:0:
352,96,42600,5,0,0:0:0:0:
280,208,42815,1,0,0:0:0:0:
280,208,42922,1,0,0:0:0:0:
280,208,43029,1,0,0:0:0:0:
296,224,43243,2,0,P|368:176|368:168,1,75
280,80,43672,1,0,0:0:0:0:
128,48,43886,1,0,0:0:0:0:
248,152,44100,5,2,0:0:0:0:
400,72,44282,1,2,0:0:0:0:
312,232,44496,1,2,0:0:0:0:
184,184,44701,1,2,0:0:0:0:
280,152,44916,1,2,0:0:0:0:
224,160,45130,1,0,0:0:0:0:
368,104,45493,5,0,0:0:0:0:
224,112,45922,5,0,0:0:0:0:
320,160,46136,1,0,0:0:0:0:
320,160,46243,1,0,0:0:0:0:
320,160,46350,1,0,0:0:0:0:
224,200,46544,1,0,0:0:0:0:
320,264,46758,1,0,0:0:0:0:
408,192,46972,1,0,0:0:0:0:
368,72,47187,1,8,0:0:0:0:
216,152,47599,5,2,0:0:0:0:
304,200,47795,1,0,0:0:0:0:
312,200,47903,1,0,0:0:0:0:
320,200,48010,1,0,0:0:0:0:
368,168,48172,2,0,L|416:96,3,75,0|8|0|8,0:0|0:0|0:0|0:0,0:0:0:0:
280,72,49169,5,2,0:0:0:0:
192,80,49383,1,2,0:0:0:0:
128,144,49598,1,2,0:0:0:0:
128,240,49812,1,2,0:0:0:0:
200,312,50026,1,2,0:0:0:0:
320,312,50241,1,2,0:0:0:0:
384,224,50455,1,2,0:0:0:0:
384,120,50669,1,2,0:0:0:0:
256,72,50850,5,2,0:0:0:0:
168,160,51065,1,2,0:0:0:0:
280,240,51279,1,2,0:0:0:0:
216,80,51493,1,2,0:0:0:0:
160,232,51708,1,0,0:0:0:0:
304,152,52136,1,0,0:0:0:0:
120,48,52565,1,0,0:0:0:0:
296,240,52993,1,12,0:0:0:0:
232,184,53397,6,0,L|392:200,1,150
408,320,54172,5,2,0:0:0:0:
320,296,54385,1,0,0:0:0:0:
304,288,54493,1,0,0:0:0:0:
288,280,54600,1,0,0:0:0:0:
240,192,54815,1,0,0:0:0:0:
256,72,55029,1,0,0:0:0:0:
200,160,55212,1,0,0:0:0:0:
288,208,55391,1,0,0:0:0:0:
184,232,55779,5,2,0:0:0:0:
288,208,55993,1,0,0:0:0:0:
288,208,56100,1,0,0:0:0:0:
288,208,56208,1,0,0:0:0:0:
304,104,56422,1,0,0:0:0:0:
136,64,56636,1,2,0:0:0:0:
192,160,56850,1,2,0:0:0:0:
48,216,57064,1,2,0:0:0:0:
128,64,57278,5,2,0:0:0:0:
200,224,57493,1,2,0:0:0:0:
320,56,57707,1,2,0:0:0:0:
352,248,57921,1,2,0:0:0:0:
432,136,58135,1,2,0:0:0:0:
432,272,58350,1,2,0:0:0:0:
192,104,58779,5,0,0:0:0:0:
216,192,59208,1,2,0:0:0:0:
256,208,59364,2,0,L|296:208,2,37.5
208,200,59792,1,0,0:0:0:0:
160,160,60007,1,0,0:0:0:0:
168,96,60221,1,0,0:0:0:0:
224,64,60435,1,0,0:0:0:0:
280,184,60600,1,0,0:0:0:0:
384,224,60815,5,0,0:0:0:0:
432,160,61029,1,0,0:0:0:0:
432,136,61136,1,0,0:0:0:0:
432,112,61243,1,0,0:0:0:0:
288,64,61459,1,0,0:0:0:0:
248,168,61671,1,0,0:0:0:0:
168,72,61886,1,0,0:0:0:0:
128,200,62100,5,0,0:0:0:0:
248,272,62315,1,2,0:0:0:0:
328,160,62529,1,2,0:0:0:0:
200,72,62691,1,2,0:0:0:0:
192,200,62906,1,2,0:0:0:0:
320,136,63120,1,2,0:0:0:0:
312,264,63334,1,2,0:0:0:0:
192,200,63548,1,2,0:0:0:0:
136,328,63763,5,2,0:0:0:0:
96,160,63977,1,2,0:0:0:0:
272,216,64136,1,2,0:0:0:0:
440,280,64350,1,2,0:0:0:0:
376,96,64565,1,2,0:0:0:0:
264,168,64779,1,2,0:0:0:0:
104,88,64993,1,4,0:0:0:0:
240,208,65315,1,4,0:0:0:0:
416,128,65743,1,4,0:0:0:0:
216,72,66172,1,4,0:0:0:0:
256,216,66600,1,4,0:0:0:0:
312,192,69860,5,0,0:0:0:0:
248,184,70243,1,0,0:0:0:0:
208,128,70672,1,0,0:0:0:0:
144,112,70886,1,0,0:0:0:0:
144,112,70993,1,0,0:0:0:0:
144,112,71100,1,0,0:0:0:0:
96,176,71315,1,0,0:0:0:0:
176,192,71529,1,0,0:0:0:0:
232,256,71726,1,0,0:0:0:0:
248,336,71938,1,0,0:0:0:0:
352,208,72279,5,0,0:0:0:0:
336,120,72493,1,0,0:0:0:0:
328,104,72600,1,0,0:0:0:0:
312,88,72708,1,0,0:0:0:0:
232,64,72922,1,0,0:0:0:0:
232,152,73136,6,0,L|176:232,3,75
120,192,73993,1,0,0:0:0:0:
96,88,74208,1,0,0:0:0:0:
192,56,74422,1,0,0:0:0:0:
224,64,74529,1,0,0:0:0:0:
256,72,74636,1,0,0:0:0:0:
288,80,74743,1,0,0:0:0:0:
320,88,74850,1,0,0:0:0:0:
288,240,75065,1,0,0:0:0:0:
344,144,75222,1,0,0:0:0:0:
152,272,75445,1,0,0:0:0:0:
112,152,75600,1,0,0:0:0:0:
248,128,75815,1,0,0:0:0:0:
264,112,75922,1,0,0:0:0:0:
280,96,76029,1,0,0:0:0:0:
344,160,76243,1,0,0:0:0:0:
328,232,76458,2,0,L|264:248,1,37.5
248,184,76779,2,0,L|304:176,1,37.5
144,160,77315,1,0,0:0:0:0:
216,144,77529,1,0,0:0:0:0:
216,144,77636,1,0,0:0:0:0:
216,144,77743,1,0,0:0:0:0:
280,104,77958,1,0,0:0:0:0:
328,232,78134,2,0,L|264:248,1,37.5
248,184,78455,2,0,L|304:176,1,37.5
168,64,78974,1,0,0:0:0:0:
184,144,79176,1,0,0:0:0:0:
200,176,79283,1,0,0:0:0:0:
208,216,79391,1,0,0:0:0:0:
96,216,79585,1,0,0:0:0:0:
96,96,79799,1,0,0:0:0:0:
208,72,80013,1,0,0:0:0:0:
280,184,80178,1,0,0:0:0:0:
304,280,80393,5,0,0:0:0:0:
384,224,80607,1,0,0:0:0:0:
400,128,80821,1,0,0:0:0:0:
352,80,81045,1,0,0:0:0:0:
288,72,81139,1,0,0:0:0:0:
224,88,81258,1,0,0:0:0:0:
184,136,81386,1,0,0:0:0:0:
176,200,81480,1,0,0:0:0:0:
184,304,81678,5,0,0:0:0:0:
272,256,81893,1,2,0:0:0:0:
232,160,82107,1,2,0:0:0:0:
160,136,82269,1,2,0:0:0:0:
256,56,82484,1,2,0:0:0:0:
232,192,82698,1,2,0:0:0:0:
368,160,82912,1,2,0:0:0:0:
192,200,83126,1,2,0:0:0:0:
328,64,83341,5,2,0:0:0:0:
144,80,83555,1,2,0:0:0:0:
280,160,83743,1,2,0:0:0:0:
128,216,83928,1,2,0:0:0:0:
160,80,84118,1,0,0:0:0:0:
264,184,84332,1,0,0:0:0:0:
304,72,84546,1,0,0:0:0:0:
192,128,84762,1,0,0:0:0:0:
288,216,84975,1,0,0:0:0:0:
248,72,85157,1,0,0:0:0:0:
248,128,85565,5,0,0:0:0:0:
168,200,85779,1,0,0:0:0:0:
176,232,85886,1,0,0:0:0:0:
192,256,85993,1,0,0:0:0:0:
328,192,86208,1,0,0:0:0:0:
272,120,86422,1,0,0:0:0:0:
304,96,86636,2,0,L|376:56,3,75
264,160,87459,1,0,0:0:0:0:
200,136,87674,5,0,0:0:0:0:
200,224,87888,1,0,0:0:0:0:
288,224,88102,1,0,0:0:0:0:
304,144,88507,1,0,0:0:0:0:
376,144,88886,1,0,0:0:0:0:
280,160,89100,1,0,0:0:0:0:
248,144,89208,1,0,0:0:0:0:
224,128,89315,1,0,0:0:0:0:
192,104,89529,5,0,0:0:0:0:
40,136,89743,1,0,0:0:0:0:
160,264,89958,1,0,0:0:0:0:
168,128,90172,1,0,0:0:0:0:
296,96,90353,1,0,0:0:0:0:
272,224,90541,1,0,0:0:0:0:
360,264,90708,1,0,0:0:0:0:
384,216,90815,1,0,0:0:0:0:
400,160,90922,1,0,0:0:0:0:
376,120,91136,2,0,P|336:96|288:96,1,75
248,152,91565,5,0,0:0:0:0:
112,96,91779,1,0,0:0:0:0:
128,192,91993,1,0,0:0:0:0:
280,88,92208,1,0,0:0:0:0:
344,144,92422,1,0,0:0:0:0:
352,192,92529,1,0,0:0:0:0:
328,240,92636,1,0,0:0:0:0:
200,248,92850,1,0,0:0:0:0:
368,128,93057,1,0,0:0:0:0:
208,64,93267,5,0,0:0:0:0:
432,192,93494,1,0,0:0:0:0:
160,192,93708,1,0,0:0:0:0:
432,88,93885,1,0,0:0:0:0:
280,224,94099,1,0,0:0:0:0:
192,32,94313,1,0,0:0:0:0:
112,256,94528,1,0,0:0:0:0:
312,96,94742,1,0,0:0:0:0:
48,48,95100,5,0,0:0:0:0:
256,192,95480,5,0,0:0:0:0:
456,336,95863,5,0,0:0:0:0:
320,152,96279,1,0,0:0:0:0:
80,104,96708,1,0,0:0:0:0:
304,40,97136,1,0,0:0:0:0:
160,272,97565,1,0,0:0:0:0:
184,80,97993,1,0,0:0:0:0:
312,216,98422,1,0,0:0:0:0:
128,224,98850,1,0,0:0:0:0:
320,48,99279,5,0,0:0:0:0:
168,288,99675,1,0,0:0:0:0:
376,200,100103,1,0,0:0:0:0:
160,112,100532,1,0,0:0:0:0:
344,96,100960,1,0,0:0:0:0:
248,192,101389,1,0,0:0:0:0:
80,80,102094,5,0,0:0:0:0:
272,64,102600,1,0,0:0:0:0:
328,152,102922,1,0,0:0:0:0:
176,104,103396,1,0,0:0:0:0:
240,240,103779,1,0,0:0:0:0:
344,96,104208,1,0,0:0:0:0:
344,96,104422,1,0,0:0:0:0:
224,144,104636,1,0,0:0:0:0:
320,152,105065,5,0,0:0:0:0:
320,152,105493,1,0,0:0:0:0:
240,112,105880,1,0,0:0:0:0:
184,144,106094,1,0,0:0:0:0:
160,200,106308,1,0,0:0:0:0:
320,152,106722,1,0,0:0:0:0:
320,152,107100,1,0,0:0:0:0:
272,56,107529,5,0,0:0:0:0:
336,56,107743,1,0,0:0:0:0:
392,88,107958,1,0,0:0:0:0:
160,168,108386,1,0,0:0:0:0:
200,248,108815,1,0,0:0:0:0:
216,136,109519,5,0,0:0:0:0:
392,112,109936,1,0,0:0:0:0:
296,280,110361,1,0,0:0:0:0:
280,64,110789,1,0,0:0:0:0:
208,248,111172,1,0,0:0:0:0:
320,216,111600,1,0,0:0:0:0:
176,168,112029,1,0,0:0:0:0:
368,80,112458,1,0,0:0:0:0:
384,192,112850,5,0,0:0:0:0:
88,176,113241,1,0,0:0:0:0:
256,280,113653,1,0,0:0:0:0:
184,96,114065,1,0,0:0:0:0:
336,200,114493,1,0,0:0:0:0:
320,216,115565,5,0,0:0:0:0:
320,216,115779,1,0,0:0:0:0:
320,216,115993,1,0,0:0:0:0:
320,216,116208,1,0,0:0:0:0:
344,160,116636,1,0,0:0:0:0:
136,128,117386,6,0,L|216:128,2,75
344,160,118243,1,0,0:0:0:0:
136,240,118672,1,0,0:0:0:0:
48,128,119149,1,0,0:0:0:0:
152,112,119363,1,0,0:0:0:0:
240,160,119577,1,0,0:0:0:0:
272,232,119958,1,0,0:0:0:0:
384,160,120386,1,0,0:0:0:0:
280,312,120815,5,0,0:0:0:0:
336,232,121029,1,0,0:0:0:0:
160,120,121243,1,0,0:0:0:0:
288,160,121672,1,0,0:0:0:0:
288,160,121993,1,0,0:0:0:0:
176,144,124565,5,0,0:0:0:0:
352,184,124886,1,0,0:0:0:0:
352,184,125315,1,0,0:0:0:0:
352,184,125636,1,0,0:0:0:0:
256,192,127886,8,0,131529,0:0:0:0:
