osu file format v14

[General]
AudioFilename: audio.mp3
AudioLeadIn: 0
PreviewTime: 38341
Countdown: 0
SampleSet: Soft
StackLeniency: 0.7
Mode: 0
LetterboxInBreaks: 0
WidescreenStoryboard: 1

[Editor]
Bookmarks: 19291,38491,57691,76891,96091,115291,134491,153691,172891,192091
DistanceSpacing: 0.7
BeatDivisor: 4
GridSize: 16
TimelineZoom: 0.9999979

[Metadata]
Title:Synergy
TitleUnicode:Synergy
Artist:Ritorikal
ArtistUnicode:Ritorikal
Creator:Hinsvar
Version:Normal
Source:
Tags:Electronic Instrumental Chill Trap Bass Rebels Recordings Release
BeatmapID:3571457
BeatmapSetID:1742868

[Difficulty]
HPDrainRate:3
CircleSize:2.5
OverallDifficulty:4
ApproachRate:6
SliderMultiplier:2.15999999999998
SliderTickRate:1

[Events]
//Background and Video events
0,0,"synergy.jpg",0,0
//Break Periods
2,77091,85441
2,86691,95041
//Storyboard Layer 0 (Background)
//Storyboard Layer 1 (Fail)
//Storyboard Layer 2 (Pass)
//Storyboard Layer 3 (Foreground)
//Storyboard Layer 4 (Overlay)
//Storyboard Sound Samples

[TimingPoints]
91,600.000000000001,4,2,1,50,1,0
19291,-111.111111111111,4,2,1,50,0,0
38491,-100,4,2,1,70,0,0
75991,-100,4,2,1,60,0,0
76441,-100,4,2,1,65,0,0
76891,-100,4,2,1,60,0,0
96091,-111.111111111111,4,2,2,60,0,0
115291,-100,4,2,1,70,0,0
153691,-95.2380952380952,4,2,1,80,0,1
172891,-95.2380952380952,4,2,1,90,0,1
191191,-95.2380952380952,4,2,1,80,0,1
191641,-95.2380952380952,4,2,1,85,0,1
192091,-100,4,2,1,90,0,0

[Colours]
Combo1 : 219,113,116
Combo2 : 92,234,245
Combo3 : 209,167,143
Combo4 : 120,134,211

[HitObjects]
475,352,19291,5,4,0:0:0:0:
459,138,19891,2,0,P|435:101|398:60,1,97.1999970336907,2|0,0:0|0:0,0:0:0:0:
294,41,20491,2,0,P|225:39|135:52,2,145.799995550536,2|2|0,0:0|0:0|0:0,0:0:0:0:
303,147,21691,2,0,P|230:156|158:154,1,145.799995550536,2|0,0:0|0:0,0:0:0:0:
161,328,22591,2,0,P|233:318|305:320,1,145.799995550536,2|0,0:0|0:0,0:0:0:0:
473,371,23491,2,0,P|476:321|471:273,2,97.1999970336907,2|0|2,0:0|0:0|0:0,0:0:0:0:
294,245,24691,6,0,P|291:195|296:147,1,97.1999970336907,2|0,0:0|0:0,0:0:0:0:
404,149,25291,2,0,P|421:92|480:31,2,145.799995550536,2|2|0,0:0|0:0|0:0,0:0:0:0:
296,149,26491,2,0,P|272:80|220:31,1,145.799995550536,2|0,0:0|0:0,0:0:0:0:
71,124,27391,2,0,P|23:178|6:248,1,145.799995550536,2|0,0:0|0:0,0:0:0:0:
180,271,28291,2,0,P|188:319|190:372,2,97.1999970336906,2|0|2,0:0|0:0|0:0,0:0:0:0:
332,120,29491,6,0,P|334:71|342:23,1,97.1999970336906,2|0,0:0|0:0,0:0:0:0:
450,37,30091,2,0,P|489:82|494:167,2,145.799995550536,2|2|0,0:0|0:0|0:0,0:0:0:0:
393,127,31291,2,0,P|373:183|302:230,1,145.799995550536,2|0,0:0|0:0,0:0:0:0:
156,325,32191,2,0,P|94:288|67:222,1,145.799995550536,2|0,0:0|0:0,0:0:0:0:
104,50,33091,2,0,P|149:36|204:33,2,97.1999970336906,2|0|2,0:0|0:0|0:0,0:0:0:0:
262,193,34291,6,0,P|307:207|362:210,1,97.1999970336906,2|0,0:0|0:0,0:0:0:0:
425,128,34891,2,0,P|382:76|317:30,2,145.799995550536,2|2|0,0:0|0:0|0:0,0:0:0:0:
459,229,36091,1,2,0:0:0:0:
392,312,36391,1,2,0:0:0:0:
392,312,38491,6,0,P|338:312|264:332,1,107.999999999999,6|2,3:2|0:0,0:0:0:0:
237,348,38941,2,0,P|225:269|206:185,1,161.999999999999,2|2,0:3|0:0,0:0:0:0:
114,245,39691,1,8,0:1:0:0:
20,190,39991,2,0,P|17:152|39:83,1,107.999999999999,2|2,3:2|0:0,0:0:0:0:
68,41,40441,1,2,3:2:0:0:
237,96,40891,6,0,P|288:102|340:76,1,107.999999999999,2|2,3:2|0:3,0:0:0:0:
442,52,41491,6,0,P|478:63|506:83,2,71.9999999999993,2|2|2,0:0|0:0|0:0,0:0:0:0:
422,128,42091,5,8,0:1:0:0:
466,225,42391,6,0,P|423:256|364:277,1,107.999999999999,2|2,3:2|0:0,0:0:0:0:
319,286,42841,1,2,3:2:0:0:
153,219,43291,6,0,P|113:253|104:322,1,107.999999999999,2|2,3:2|0:0,0:0:0:0:
102,359,43741,2,0,P|179:359|277:368,1,161.999999999999,0|2,0:0|0:3,0:0:0:0:
343,292,44491,1,8,0:1:0:0:
299,193,44791,2,0,P|254:161|217:117,1,107.999999999999,2|2,3:2|0:0,0:0:0:0:
204,69,45241,1,2,3:2:0:0:
374,17,45691,6,0,P|398:66|410:122,1,107.999999999999,2|2,3:2|0:3,0:0:0:0:
330,191,46291,6,0,L|252:205,2,71.9999999999993,2|2|2,3:2|3:2|3:2,0:0:0:0:
344,268,46891,5,8,0:1:0:0:
434,327,47191,6,0,L|470:216,1,107.999999999999,2|2,3:2|0:0,0:0:0:0:
487,173,47641,1,2,3:2:0:0:
348,60,48091,6,0,P|295:69|227:52,1,107.999999999999,6|2,3:2|0:0,0:0:0:0:
190,43,48541,2,0,P|111:30|25:50,1,161.999999999999,2|2,0:3|0:0,0:0:0:0:
88,139,49291,1,8,0:1:0:0:
59,243,49591,2,0,P|50:295|48:359,1,107.999999999999,2|8,3:2|0:0,0:0:0:0:
100,365,50041,1,2,3:2:0:0:
273,323,50491,6,0,P|270:269|261:215,1,107.999999999999,10|2,3:2|0:3,0:0:0:0:
225,114,51091,6,0,L|148:96,2,71.9999999999993,8|2|2,0:0|0:0|0:0,0:0:0:0:
289,68,51691,5,8,0:1:0:0:
393,42,51991,6,0,P|436:73|461:138,1,107.999999999999,2|8,3:2|0:0,0:0:0:0:
460,175,52441,1,2,3:2:0:0:
283,202,52891,6,0,P|239:233|214:298,1,107.999999999999,10|2,3:2|0:0,0:0:0:0:
177,320,53341,2,0,P|116:280|87:191,1,161.999999999999,0|2,0:0|0:3,0:0:0:0:
180,144,54091,1,8,0:1:0:0:
255,66,54391,2,0,P|208:36|147:40,1,107.999999999999,2|8,3:2|0:0,0:0:0:0:
109,61,54841,1,2,3:2:0:0:
48,228,55291,6,0,L|61:345,1,107.999999999999,10|2,3:2|0:3,0:0:0:0:
165,358,55891,2,0,L|173:291,1,53.9999999999995,8|0,0:0|0:0,0:0:0:0:
179,251,56191,1,2,3:2:0:0:
256,175,56491,1,8,0:1:0:0:
333,251,56791,2,0,P|386:264|434:236,1,107.999999999999,2|8,3:2|0:0,0:0:0:0:
448,188,57241,1,2,3:2:0:0:
354,35,57691,6,0,P|325:65|256:85,1,107.999999999999,6|2,3:2|0:0,0:0:0:0:
209,78,58141,2,0,P|220:172|190:254,1,161.999999999999,2|2,0:3|0:0,0:0:0:0:
129,315,58891,1,8,0:1:0:0:
56,235,59191,2,0,P|45:188|45:121,1,107.999999999999,2|2,3:2|0:0,0:0:0:0:
55,75,59641,1,2,3:2:0:0:
222,137,60091,6,0,P|247:95|294:48,1,107.999999999999,2|2,3:2|0:3,0:0:0:0:
371,123,60691,6,0,P|365:160|368:204,2,71.9999999999993,2|2|2,0:0|0:0|0:0,0:0:0:0:
400,49,61291,5,8,0:1:0:0:
480,121,61591,6,0,P|490:172|497:248,1,107.999999999999,2|2,3:2|0:0,0:0:0:0:
498,281,62041,1,2,3:2:0:0:
338,360,62491,6,0,P|293:331|229:308,1,107.999999999999,2|2,3:2|0:0,0:0:0:0:
226,259,62941,2,0,P|285:236|349:155,1,161.999999999999,0|2,0:0|0:3,0:0:0:0:
303,62,63691,1,8,0:1:0:0:
202,21,63991,2,0,P|180:61|166:124,1,107.999999999999,2|2,3:2|0:0,0:0:0:0:
159,175,64441,1,2,3:2:0:0:
229,338,64891,6,0,P|174:344|114:361,1,107.999999999999,2|2,3:2|0:3,0:0:0:0:
79,258,65491,6,0,P|44:253|8:239,2,71.9999999999993,2|2|2,3:2|3:2|3:2,0:0:0:0:
96,180,66091,5,8,0:1:0:0:
19,103,66391,6,0,P|62:76|135:76,1,107.999999999999,2|2,3:2|0:0,0:0:0:0:
164,99,66841,1,2,3:2:0:0:
330,35,67291,6,0,L|313:162,1,107.999999999999,6|2,3:2|0:0,0:0:0:0:
291,190,67741,2,0,L|350:363,1,161.999999999999,2|2,0:3|0:0,0:0:0:0:
448,368,68491,1,8,0:1:0:0:
506,277,68791,2,0,P|455:266|417:217,1,107.999999999999,2|8,3:2|0:0,0:0:0:0:
409,171,69241,1,2,3:2:0:0:
231,150,69691,6,0,P|203:106|210:44,1,107.999999999999,10|2,3:2|0:3,0:0:0:0:
101,30,70291,6,0,P|64:31|30:42,2,71.9999999999993,10|2|2,0:0|0:0|0:0,0:0:0:0:
108,108,70891,5,8,0:1:0:0:
36,188,71191,6,0,P|83:211|148:206,1,107.999999999999,2|8,3:2|0:0,0:0:0:0:
184,182,71641,1,2,3:2:0:0:
349,246,72091,6,0,P|372:293|367:358,1,107.999999999999,10|2,3:2|0:0,0:0:0:0:
323,375,72541,2,0,P|274:352|254:250,1,161.999999999999,0|2,0:0|0:3,0:0:0:0:
291,152,73291,1,8,0:1:0:0:
398,149,73591,2,0,P|418:99|420:41,1,107.999999999999,2|2,3:2|0:0,0:0:0:0:
366,37,74041,1,2,3:2:0:0:
187,45,74491,6,0,P|189:98|209:148,1,107.999999999999,10|2,3:2|0:3,0:0:0:0:
137,229,75091,2,0,P|164:245|199:253,1,53.9999999999995,8|0,0:0|0:0,0:0:0:0:
239,248,75391,1,2,3:2:0:0:
320,176,75691,1,8,0:0:0:0:
425,197,75991,6,0,P|448:271|447:364,1,161.999999999999,2|2,0:0|0:0,0:0:0:0:
270,368,76891,5,6,0:0:0:0:
256,192,86491,5,6,0:0:0:0:
242,16,96091,5,12,0:0:0:0:
326,212,96691,2,0,P|317:265|292:320,1,97.1999970336906,8|2,0:0|0:0,0:0:0:0:
205,355,97291,2,0,P|130:358|70:320,1,145.799995550536,10|2,0:0|0:0,0:0:0:0:
43,276,97891,1,8,0:0:0:0:
54,169,98191,1,2,0:0:0:0:
135,99,98491,6,0,P|210:96|270:134,1,145.799995550536,8|2,0:0|0:0,0:0:0:0:
297,178,99091,1,8,0:0:0:0:
364,261,99391,2,0,P|439:264|499:226,2,145.799995550536,2|2|8,0:0|0:0|0:0,0:0:0:0:
303,349,100591,1,2,0:0:0:0:
235,265,100891,5,8,0:0:0:0:
370,99,101491,2,0,P|350:54|297:30,1,97.1999970336906,8|2,0:0|0:0,0:0:0:0:
199,30,102091,2,0,P|130:35|52:47,1,145.799995550536,10|2,0:0|0:0,0:0:0:0:
40,98,102691,1,8,0:0:0:0:
140,133,102991,1,2,0:0:0:0:
246,133,103291,6,0,P|315:128|393:116,1,145.799995550536,8|2,0:0|0:0,0:0:0:0:
405,65,103891,1,8,0:0:0:0:
496,121,104191,2,0,P|507:193|512:265,2,145.799995550536,2|2|8,0:0|0:0|0:0,0:0:0:0:
399,167,105391,1,2,0:0:0:0:
306,112,105691,5,12,0:0:0:0:
141,248,106291,2,0,P|135:292|136:348,1,97.1999970336906,8|2,0:0|0:0,0:0:0:0:
239,369,106891,2,0,P|245:308|241:221,1,145.799995550536,10|2,0:0|0:0,0:0:0:0:
232,170,107491,1,8,0:0:0:0:
316,105,107791,1,2,0:0:0:0:
419,133,108091,6,0,P|413:194|417:281,1,145.799995550536,8|2,0:0|0:0,0:0:0:0:
426,332,108691,1,8,0:0:0:0:
324,366,108991,2,0,P|269:323|176:345,2,145.799995550536,2|2|8,0:0|0:0|0:0,0:0:0:0:
426,332,110191,1,2,0:0:0:0:
492,248,110491,6,0,P|487:161|463:48,1,194.399994067381,8|8,0:1|0:0,0:0:0:0:
366,97,111391,1,10,0:3:0:0:
281,30,111691,2,0,L|178:55,1,97.1999970336906,8|8,0:1|0:3,0:0:0:0:
166,158,112291,2,0,L|63:183,1,97.1999970336906,8|8,0:1|0:3,0:0:0:0:
57,287,112891,5,8,0:1:0:0:
256,365,113491,1,8,0:1:0:0:
455,287,114091,1,8,0:1:0:0:
396,196,114391,1,10,0:3:0:0:
308,257,114691,1,8,0:1:0:0:
367,345,114991,1,10,0:3:0:0:
256,365,115291,5,6,3:2:0:0:
40,355,115891,2,0,P|12:311|37:256,1,107.999999999999,2|0,0:0|0:0,0:0:0:0:
101,182,116491,2,0,P|103:133|98:73,1,107.999999999999,10|0,0:0|0:0,0:0:0:0:
206,72,117091,2,0,P|204:121|209:181,2,107.999999999999,2|2|0,0:0|0:0|0:0,0:0:0:0:
306,31,117991,2,0,P|329:46|351:75,1,53.9999999999995,2|0,3:2|0:0,0:0:0:0:
378,111,118291,6,0,P|427:113|487:108,1,107.999999999999,6|0,3:2|0:0,0:0:0:0:
507,213,118891,2,0,P|480:254|455:308,1,107.999999999999,8|2,0:0|0:0,0:0:0:0:
352,274,119491,2,0,P|329:230|294:181,1,107.999999999999,2|0,0:0|0:0,0:0:0:0:
208,118,120091,5,6,3:2:0:0:
19,223,120691,2,0,P|22:319|127:357,1,215.999999999998,2|10,0:0|0:0,0:0:0:0:
151,254,121591,1,0,0:0:0:0:
257,238,121891,2,0,P|272:187|271:126,2,107.999999999999,2|2|0,0:0|0:0|0:0,0:0:0:0:
304,335,122791,2,0,P|338:323|356:304,1,53.9999999999995,2|0,3:2|0:0,0:0:0:0:
389,273,123091,6,0,P|443:264|498:264,1,107.999999999999,6|0,3:2|0:0,0:0:0:0:
473,157,123691,2,0,P|419:156|365:147,1,107.999999999999,10|0,0:0|0:0,0:0:0:0:
258,138,124291,2,0,P|204:147|149:147,1,107.999999999999,2|0,0:0|0:0,0:0:0:0:
174,254,124891,5,6,3:2:0:0:
31,91,125491,2,0,P|98:27|226:39,2,215.999999999998,10|10|2,0:0|0:0|0:0,0:0:0:0:
28,197,126991,2,0,P|78:188|121:144,1,107.999999999999,2|8,0:0|0:0,0:0:0:0:
226,139,127591,2,0,P|241:165|267:183,1,53.9999999999995,2|0,3:2|0:0,0:0:0:0:
309,159,127891,6,0,L|337:55,1,107.999999999999,6|0,3:2|0:0,0:0:0:0:
445,52,128491,2,0,L|473:156,1,107.999999999999,10|0,0:0|0:0,0:0:0:0:
455,262,129091,1,10,0:0:0:0:
347,268,129391,1,0,0:0:0:0:
243,237,129691,6,0,P|169:237|81:286,1,161.999999999999,6|0,3:2|0:0,0:0:0:0:
61,320,130291,1,8,0:0:0:0:
155,372,130591,1,2,0:0:0:0:
262,368,130891,2,0,P|305:338|334:290,1,107.999999999999,8|2,0:0|0:0,0:0:0:0:
395,202,131491,2,0,P|394:148|372:97,1,107.999999999999,8|2,0:0|0:0,0:0:0:0:
279,48,132091,5,8,0:0:0:0:
175,77,132391,2,0,L|124:60,1,53.9999999999995,2|0,3:2|0:0,0:0:0:0:
72,41,132691,2,0,L|43:144,1,107.999999999999,6|0,3:2|0:0,0:0:0:0:
122,217,133291,2,0,L|225:190,1,107.999999999999,10|0,0:0|0:0,0:0:0:0:
303,265,133891,1,10,0:0:0:0:
274,369,134191,1,2,0:0:0:0:
378,343,134491,5,6,3:2:0:0:
466,145,135091,2,0,P|421:119|354:117,1,107.999999999999,2|0,0:0|0:0,0:0:0:0:
289,38,135691,2,0,P|237:37|178:69,1,107.999999999999,10|0,0:0|0:0,0:0:0:0:
130,154,136291,2,0,P|78:154|19:122,2,107.999999999999,2|2|0,0:0|0:0|0:0,0:0:0:0:
203,233,137191,2,0,P|196:262|189:304,1,53.9999999999995,2|0,3:2|0:0,0:0:0:0:
171,335,137491,6,0,L|63:356,1,107.999999999999,6|0,3:2|0:0,0:0:0:0:
32,251,138091,2,0,L|115:178,1,107.999999999999,8|2,0:0|0:0,0:0:0:0:
141,75,138691,2,0,L|249:54,1,107.999999999999,2|0,0:0|0:0,0:0:0:0:
305,145,139291,5,6,3:2:0:0:
493,39,139891,2,0,P|487:154|493:271,1,215.999999999998,2|10,0:0|0:0,0:0:0:0:
436,347,140791,1,0,0:0:0:0:
329,321,141091,2,0,P|291:281|245:249,2,107.999999999999,2|2|0,0:0|0:0|0:0,0:0:0:0:
388,230,141991,2,0,P|381:203|382:168,1,53.9999999999995,2|0,3:2|0:0,0:0:0:0:
327,168,142291,6,0,P|325:119|335:60,1,107.999999999999,6|0,3:2|0:0,0:0:0:0:
232,27,142891,2,0,P|190:53|134:74,1,107.999999999999,10|0,0:0|0:0,0:0:0:0:
154,180,143491,2,0,P|197:202|243:240,1,107.999999999999,2|0,0:0|0:0,0:0:0:0:
258,347,144091,5,6,3:2:0:0:
58,264,144691,2,0,P|57:131|100:53,2,215.999999999998,10|10|2,0:0|0:0|0:0,0:0:0:0:
160,298,146191,1,2,0:0:0:0:
232,217,146491,1,8,0:0:0:0:
332,260,146791,2,0,P|363:269|390:268,1,53.9999999999995,2|0,3:2|0:0,0:0:0:0:
425,303,147091,6,0,P|471:287|493:229,1,107.999999999999,4|2,3:2|0:0,0:0:0:0:
410,165,147691,2,0,P|364:149|342:91,1,107.999999999999,10|0,0:0|0:0,0:0:0:0:
421,24,148291,1,10,0:0:0:0:
497,100,148591,1,0,0:0:0:0:
509,207,148891,6,0,P|498:284|450:370,1,161.999999999999,6|0,3:2|0:0,0:0:0:0:
405,356,149491,1,8,0:0:0:0:
313,299,149791,1,2,0:0:0:0:
206,281,150091,2,0,P|197:232|192:169,1,107.999999999999,8|2,0:0|0:0,0:0:0:0:
295,141,150691,2,0,P|290:87|281:34,1,107.999999999999,8|2,0:0|0:0,0:0:0:0:
388,23,151291,5,8,0:0:0:0:
452,109,151591,2,0,P|426:126|399:129,1,53.9999999999995,2|0,3:2|0:0,0:0:0:0:
393,183,151891,2,0,P|426:226|446:282,1,107.999999999999,6|0,3:2|0:0,0:0:0:0:
377,360,152491,1,10,0:0:0:0:
377,360,153691,6,0,P|340:323|279:297,1,113.399996539306,6|2,3:2|0:0,0:0:0:0:
227,298,154141,1,2,0:3:0:0:
227,298,154291,2,0,P|175:320|135:360,1,113.399996539306,2|2,0:0|0:0,0:0:0:0:
37,301,154891,1,8,0:1:0:0:
122,225,155191,2,0,P|133:169|123:109,1,113.399996539306,2|2,3:2|0:0,0:0:0:0:
97,64,155641,1,2,3:2:0:0:
281,31,156091,6,0,L|400:52,1,113.399996539306,2|2,3:2|0:3,0:0:0:0:
326,143,156691,6,0,L|248:156,2,75.5999976928705,2|2|2,0:0|0:0|0:0,0:0:0:0:
336,221,157291,5,8,0:1:0:0:
353,333,157591,6,0,L|468:349,1,113.399996539306,2|2,3:2|0:0,0:0:0:0:
511,314,158041,1,2,3:2:0:0:
432,143,158491,6,0,P|412:98|400:30,1,113.399996539306,2|2,3:2|0:0,0:0:0:0:
347,35,158941,1,2,0:0:0:0:
347,35,159091,2,0,P|337:90|315:142,1,113.399996539306,2|2,0:0|0:3,0:0:0:0:
221,206,159691,1,8,0:1:0:0:
107,196,159991,2,0,L|49:302,1,113.399996539306,2|2,3:2|0:0,0:0:0:0:
79,345,160441,1,2,3:2:0:0:
265,351,160891,6,0,L|210:251,1,113.399996539306,2|2,3:2|0:3,0:0:0:0:
213,138,161491,6,0,L|245:64,2,75.5999976928705,2|2|2,3:2|3:2|3:2,0:0:0:0:
136,158,162091,5,8,0:1:0:0:
27,127,162391,6,0,P|15:69|41:21,1,113.399996539306,2|2,3:2|0:0,0:0:0:0:
95,31,162841,1,2,3:2:0:0:
278,68,163291,6,0,P|337:80|390:76,1,113.399996539306,6|2,3:2|0:0,0:0:0:0:
396,137,163741,1,2,0:3:0:0:
396,137,163891,2,0,P|338:156|295:186,1,113.399996539306,8|2,0:0|0:0,0:0:0:0:
254,291,164491,1,8,0:1:0:0:
346,356,164791,2,0,P|403:336|446:306,1,113.399996539306,2|8,3:2|0:0,0:0:0:0:
488,267,165241,1,2,3:2:0:0:
336,157,165691,6,0,P|322:103|316:31,1,113.399996539306,2|2,3:2|0:3,0:0:0:0:
203,32,166291,6,0,P|164:43|126:38,2,75.5999976928705,8|2|2,0:0|0:0|0:0,0:0:0:0:
219,110,166891,5,8,0:1:0:0:
200,222,167191,6,0,P|150:215|79:249,1,113.399996539306,2|8,3:2|0:0,0:0:0:0:
63,286,167641,1,2,3:2:0:0:
236,352,168091,6,0,P|286:359|357:325,1,113.399996539306,2|2,3:2|0:0,0:0:0:0:
373,288,168541,1,2,0:0:0:0:
373,288,168691,2,0,L|350:172,1,113.399996539306,8|2,0:0|0:3,0:0:0:0:
243,215,169291,1,8,0:1:0:0:
141,165,169591,2,0,L|164:49,1,113.399996539306,2|8,3:2|0:0,0:0:0:0:
219,44,170041,1,2,3:2:0:0:
406,47,170491,6,0,P|446:86|466:159,1,113.399996539306,2|2,3:2|0:3,0:0:0:0:
429,246,171091,2,0,L|358:239,1,56.6999982696529,8|0,0:0|0:0,0:0:0:0:
327,206,171391,1,2,3:2:0:0:
261,113,171691,1,8,0:1:0:0:
169,46,171991,2,0,L|64:99,1,113.399996539306,2|8,3:2|0:0,0:0:0:0:
53,152,172441,1,2,3:2:0:0:
237,218,172891,6,0,P|215:276|208:345,1,113.399996539306,6|2,3:2|0:0,0:0:0:0:
155,338,173341,1,2,0:3:0:0:
155,338,173491,2,0,P|146:307|136:280,2,56.6999982696529,10|2|2,0:0|0:0|0:0,0:0:0:0:
42,350,174091,1,8,0:1:0:0:
17,239,174391,2,0,P|28:187|72:133,1,113.399996539306,2|10,3:2|0:0,0:0:0:0:
112,111,174841,1,2,3:2:0:0:
288,48,175291,6,0,P|302:104|342:154,1,113.399996539306,2|2,3:2|0:0,0:0:0:0:
345,262,175891,6,0,P|309:267|265:290,2,75.5999976928705,10|2|2,0:0|0:0|0:0,0:0:0:0:
373,336,176491,5,8,0:1:0:0:
484,316,176791,6,0,P|497:270|497:197,1,113.399996539306,2|10,3:2|0:0,0:0:0:0:
490,148,177241,1,2,3:2:0:0:
338,37,177691,6,0,P|325:83|325:156,1,113.399996539306,2|2,3:2|0:0,0:0:0:0:
323,209,178141,1,2,0:0:0:0:
323,209,178291,2,0,P|351:218|377:223,2,56.6999982696529,10|2|2,0:0|0:3|0:3,0:0:0:0:
211,188,178891,1,8,0:1:0:0:
115,248,179191,2,0,P|114:312|142:356,1,113.399996539306,2|10,3:2|0:0,0:0:0:0:
195,360,179641,1,2,3:2:0:0:
313,214,180091,6,0,P|339:164|336:109,1,113.399996539306,2|2,3:2|0:3,0:0:0:0:
272,17,180691,2,0,L|198:30,1,56.6999982696529,10|2,0:0|0:0,0:0:0:0:
173,64,180991,1,2,3:2:0:0:
60,48,181291,1,8,0:1:0:0:
42,160,181591,2,0,L|157:175,1,113.399996539306,2|10,3:2|0:0,0:0:0:0:
175,227,182041,1,2,3:2:0:0:
357,174,182491,6,0,L|470:160,1,113.399996539306,6|2,3:2|0:0,0:0:0:0:
495,217,182941,1,2,0:3:0:0:
495,217,183091,2,0,P|502:248|508:290,2,56.6999982696529,10|2|2,0:0|0:0|0:0,0:0:0:0:
396,272,183691,1,8,0:1:0:0:
294,323,183991,2,0,P|275:277|281:210,1,113.399996539306,2|10,3:2|0:0,0:0:0:0:
291,158,184441,1,2,3:2:0:0:
112,102,184891,6,0,P|131:148|125:215,1,113.399996539306,2|2,3:2|0:3,0:0:0:0:
221,272,185491,6,0,L|207:366,2,75.5999976928705,10|2|2,0:0|0:0|0:0,0:0:0:0:
235,193,186091,5,8,0:1:0:0:
319,113,186391,6,0,P|375:96|437:107,1,113.399996539306,2|10,3:2|0:0,0:0:0:0:
456,154,186841,1,2,3:2:0:0:
405,316,187291,6,0,P|349:333|287:322,1,113.399996539306,2|2,3:2|0:0,0:0:0:0:
251,300,187741,1,2,0:0:0:0:
251,300,187891,2,0,P|220:291|185:291,2,56.6999982696529,10|2|2,0:0|0:3|0:3,0:0:0:0:
321,210,188491,1,8,0:1:0:0:
382,114,188791,2,0,P|326:97|264:108,1,113.399996539306,2|10,3:2|0:0,0:0:0:0:
229,141,189241,1,2,3:2:0:0:
66,48,189691,6,0,P|52:102|58:174,1,113.399996539306,2|2,3:2|0:3,0:0:0:0:
162,195,190291,2,0,P|169:227|166:258,1,56.6999982696529,10|2,0:0|0:0,0:0:0:0:
160,307,190591,1,2,3:2:0:0:
51,272,190891,1,8,0:1:0:0:
54,159,191191,6,0,P|113:95|196:92,1,170.099994808959,2|2,0:0|0:0,0:0:0:0:
360,148,192091,5,2,0:0:0:0:
