osu file format v14

[General]
AudioFilename: audio.mp3
AudioLeadIn: 0
PreviewTime: 38341
Countdown: 0
SampleSet: Soft
StackLeniency: 0.7
Mode: 0
LetterboxInBreaks: 0
WidescreenStoryboard: 1

[Editor]
Bookmarks: 19291,38491,57691,76891,96091,115291,134491,153691,172891,192091
DistanceSpacing: 1.6
BeatDivisor: 6
GridSize: 16
TimelineZoom: 1.899998

[Metadata]
Title:Synergy
TitleUnicode:Synergy
Artist:Ritorikal
ArtistUnicode:Ritorikal
Creator:Hinsvar
Version:Hard
Source:
Tags:Electronic Instrumental Chill Trap Bass Rebels Recordings Release
BeatmapID:3570156
BeatmapSetID:1742868

[Difficulty]
HPDrainRate:4
CircleSize:3
OverallDifficulty:6
ApproachRate:8
SliderMultiplier:2.39999999999999
SliderTickRate:1

[Events]
//Background and Video events
0,0,"synergy.jpg",0,0
//Break Periods
2,77091,85741
2,86691,95341
//Storyboard Layer 0 (Background)
//Storyboard Layer 1 (Fail)
//Storyboard Layer 2 (Pass)
//Storyboard Layer 3 (Foreground)
//Storyboard Layer 4 (Overlay)
//Storyboard Sound Samples

[TimingPoints]
91,600.000000000001,4,2,1,50,1,0
19291,-111.111111111111,4,2,1,50,0,0
38491,-100,4,2,1,70,0,0
75991,-100,4,2,1,60,0,0
76441,-100,4,2,1,65,0,0
76891,-100,4,2,1,60,0,0
96091,-111.111111111111,4,2,2,60,0,0
115291,-100,4,2,1,70,0,0
153691,-90.9090909090909,4,2,1,80,0,1
172891,-90.9090909090909,4,2,1,90,0,1
191191,-90.9090909090909,4,2,1,80,0,1
191641,-90.9090909090909,4,2,1,85,0,1
192091,-100,4,2,1,90,0,0

[Colours]
Combo1 : 219,113,116
Combo2 : 92,234,245
Combo3 : 209,167,143
Combo4 : 120,134,211

[HitObjects]
48,146,19291,5,4,0:0:0:0:
48,146,19891,2,0,P|91:123|136:71,1,107.999996704101,2|0,0:0|0:0,0:0:0:0:
299,39,20491,2,0,P|354:98|391:187,2,161.999995056152,2|2|0,0:0|0:0|0:0,0:0:0:0:
184,169,21691,2,0,P|155:244|152:325,1,161.999995056152,2|0,0:0|0:0,0:0:0:0:
425,364,22591,2,0,P|453:288|456:207,1,161.999995056152,2|0,0:0|0:0,0:0:0:0:
219,66,23491,2,0,P|167:66|109:85,2,107.999996704101,2|0|2,0:0|0:0|0:0,0:0:0:0:
219,66,24691,6,0,P|234:117|235:171,1,107.999996704101,2|0,0:0|0:0,0:0:0:0:
174,333,25291,2,0,P|92:319|9:314,2,161.999995056152,2|2|0,0:0|0:0|0:0,0:0:0:0:
340,287,26491,2,0,P|422:273|505:268,1,161.999995056152,2|0,0:0|0:0,0:0:0:0:
317,40,27391,2,0,P|399:54|482:59,1,161.999995056152,2|0,0:0|0:0,0:0:0:0:
199,150,28291,2,0,P|250:153|316:170,2,107.999996704101,2|0|2,0:0|0:0|0:0,0:0:0:0:
199,150,29491,6,0,P|211:97|215:43,1,107.999996704101,2|0,0:0|0:0,0:0:0:0:
94,168,30091,2,0,P|116:257|125:337,2,161.999995056152,2|2|0,0:0|0:0|0:0,0:0:0:0:
8,17,31291,2,0,P|88:61|163:90,1,161.999995056152,2|0,0:0|0:0,0:0:0:0:
359,269,32191,2,0,P|433:238|504:198,1,161.999995056152,2|0,0:0|0:0,0:0:0:0:
278,39,33091,2,0,P|249:84|244:147,2,107.999996704101,2|0|2,0:0|0:0|0:0,0:0:0:0:
278,39,34291,6,0,P|271:92|242:137,1,107.999996704101,2|0,0:0|0:0,0:0:0:0:
311,319,34891,2,0,P|251:266|164:211,2,161.999995056152,2|2|0,0:0|0:0|0:0,0:0:0:0:
477,270,36091,6,0,P|480:248|489:219,2,35.9999989013671,2|2|2,0:0|0:0|0:0,0:0:0:0:
475,305,36391,1,2,0:0:0:0:
475,305,38491,6,0,P|420:313|363:365,1,120,6|2,3:2|0:0,0:0:0:0:
275,364,38941,1,2,0:3:0:0:
199,304,39091,2,0,P|193:278|191:238,1,59.9999999999998,2|2,0:0|0:0,0:0:0:0:
282,215,39391,2,0,P|288:189|290:149,1,59.9999999999998,2|2,0:0|0:0,0:0:0:0:
228,81,39691,1,8,0:1:0:0:
228,81,39991,2,0,L|160:69,2,59.9999999999998,2|0|2,3:2|0:0|0:0,0:0:0:0:
303,21,40441,2,0,L|371:9,2,59.9999999999998,2|0|2,3:2|0:0|0:0,0:0:0:0:
377,106,40891,5,2,3:2:0:0:
377,106,40966,1,2,0:3:0:0:
377,106,41041,2,0,L|411:111,2,29.9999999999999,2|2|2,0:3|0:3|0:3,0:0:0:0:
378,201,41341,1,2,0:0:0:0:
304,262,41491,6,0,P|275:278|207:279,2,79.9999999999997,2|2|2,0:0|0:0|0:0,0:0:0:0:
435,285,42091,5,8,0:1:0:0:
435,285,42391,6,0,P|448:307|468:325,2,39.9999999999998,2|2|2,3:2|0:0|0:0,0:0:0:0:
460,253,42691,5,2,0:0:0:0:
495,164,42841,2,0,P|497:133|493:95,2,59.9999999999998,2|0|2,3:2|0:0|0:0,0:0:0:0:
403,85,43291,6,0,P|382:61|352:37,1,59.9999999999998,2|0,3:2|0:0,0:0:0:0:
289,107,43591,2,0,P|309:130|339:154,1,59.9999999999998,2|0,0:0|0:0,0:0:0:0:
359,240,43891,1,2,0:0:0:0:
268,263,44041,1,2,0:3:0:0:
268,263,44116,1,2,0:3:0:0:
268,263,44191,2,0,L|228:264,3,29.9999999999999,2|2|2|2,0:3|0:3|0:3|0:3,0:0:0:0:
215,248,44491,1,8,0:1:0:0:
215,248,44791,2,0,P|215:281|211:319,2,59.9999999999998,2|0|2,3:2|0:0|0:0,0:0:0:0:
187,156,45241,2,0,P|187:123|191:85,2,59.9999999999998,2|0|2,3:2|0:0|0:0,0:0:0:0:
112,217,45691,5,2,3:2:0:0:
60,139,45841,1,2,0:3:0:0:
60,139,45916,1,2,0:3:0:0:
60,139,45991,2,0,P|64:124|78:100,3,29.9999999999999,2|2|2|2,0:3|0:3|0:3|0:3,0:0:0:0:
60,82,46291,6,0,P|77:47|115:13,2,79.9999999999997,2|2|2,3:2|3:2|3:2,0:0:0:0:
181,123,46891,5,8,0:1:0:0:
181,123,47191,6,0,L|250:112,2,59.9999999999998,2|2|2,3:2|0:3|0:0,0:0:0:0:
124,200,47641,1,2,3:2:0:0:
175,280,47791,2,0,L|244:291,1,59.9999999999998,2|2,0:0|0:3,0:0:0:0:
318,358,48091,6,0,L|329:235,1,120,6|2,3:2|0:0,0:0:0:0:
373,152,48541,1,2,0:3:0:0:
398,59,48691,2,0,P|363:55|333:70,1,59.9999999999998,8|2,0:0|0:0,0:0:0:0:
265,123,48991,2,0,P|235:127|207:117,1,59.9999999999998,2|2,0:0|0:0,0:0:0:0:
146,49,49291,1,8,0:1:0:0:
146,49,49591,2,0,L|82:24,2,59.9999999999998,2|0|8,3:2|0:0|0:0,0:0:0:0:
107,137,50041,2,0,L|51:160,2,59.9999999999998,2|0|2,3:2|0:0|0:0,0:0:0:0:
90,255,50491,5,10,3:2:0:0:
90,255,50566,1,2,0:3:0:0:
90,255,50641,2,0,L|72:305,2,29.9999999999999,2|2|2,0:3|0:3|0:3,0:0:0:0:
168,309,50941,1,2,0:0:0:0:
266,364,51091,6,0,L|255:284,2,79.9999999999997,8|2|2,0:0|0:0|0:0,0:0:0:0:
397,352,51691,5,8,0:1:0:0:
397,352,51991,6,0,L|444:360,2,39.9999999999998,2|2|2,3:2|0:0|0:0,0:0:0:0:
364,328,52291,5,8,0:0:0:0:
342,234,52441,2,0,P|348:208|363:177,2,59.9999999999998,2|0|2,3:2|0:0|0:0,0:0:0:0:
278,145,52891,6,0,P|270:115|257:89,1,59.9999999999998,10|0,3:2|0:0,0:0:0:0:
337,26,53191,2,0,P|344:55|357:81,1,59.9999999999998,2|0,0:0|0:0,0:0:0:0:
451,62,53491,1,8,0:0:0:0:
486,162,53641,1,2,0:3:0:0:
486,162,53716,1,2,0:3:0:0:
486,162,53791,2,0,L|476:209,3,29.9999999999999,2|2|2|2,0:3|0:3|0:3|0:3,0:0:0:0:
477,224,54091,1,8,0:1:0:0:
477,224,54391,2,0,P|479:260|489:296,2,59.9999999999998,2|0|8,3:2|0:0|0:0,0:0:0:0:
388,298,54841,2,0,P|386:268|380:238,2,59.9999999999998,2|0|2,3:2|0:0|0:0,0:0:0:0:
330,375,55291,5,10,3:2:0:0:
251,322,55441,1,2,0:3:0:0:
251,322,55516,1,2,0:3:0:0:
251,322,55591,2,0,L|261:285,3,29.9999999999999,2|2|2|2,0:3|0:3|0:3|0:3,0:0:0:0:
260,263,55891,2,0,P|260:237|249:205,1,59.9999999999998,8|0,0:0|0:0,0:0:0:0:
157,175,56191,2,0,P|142:196|132:228,1,59.9999999999998,2|0,3:2|0:0,0:0:0:0:
41,245,56491,1,8,0:1:0:0:
41,245,56791,2,0,P|32:274|35:318,2,59.9999999999998,2|2|8,3:2|0:3|0:0,0:0:0:0:
15,152,57241,1,2,3:2:0:0:
38,58,57391,2,0,P|64:43|93:36,1,59.9999999999998,2|2,0:0|0:3,0:0:0:0:
217,11,57691,6,0,P|274:22|339:54,1,120,6|2,3:2|0:0,0:0:0:0:
348,142,58141,1,2,0:3:0:0:
305,228,58291,2,0,P|304:260|315:303,1,59.9999999999998,2|2,0:0|0:0,0:0:0:0:
405,283,58591,2,0,P|406:251|395:208,1,59.9999999999998,2|2,0:0|0:0,0:0:0:0:
496,243,58891,1,8,0:1:0:0:
496,243,59191,2,0,L|507:181,2,59.9999999999998,2|0|2,3:2|0:0|0:0,0:0:0:0:
400,223,59641,2,0,L|411:161,2,59.9999999999998,2|0|2,3:2|0:0|0:0,0:0:0:0:
307,190,60091,5,2,3:2:0:0:
307,190,60166,1,2,0:3:0:0:
307,190,60241,2,0,L|312:150,2,29.9999999999999,2|2|2,0:3|0:3|0:3,0:0:0:0:
226,243,60541,1,2,0:0:0:0:
144,192,60691,6,0,P|120:163|103:119,2,79.9999999999997,2|2|2,0:0|0:0|0:0,0:0:0:0:
165,323,61291,5,8,0:1:0:0:
165,323,61591,6,0,P|156:341|149:361,2,39.9999999999998,2|2|2,3:2|0:0|0:0,0:0:0:0:
203,336,61891,5,2,0:0:0:0:
311,362,62041,2,0,P|299:332|297:294,2,59.9999999999998,2|0|2,3:2|0:0|0:0,0:0:0:0:
406,366,62491,6,0,L|471:358,1,59.9999999999998,2|0,3:2|0:0,0:0:0:0:
499,268,62791,2,0,L|434:260,1,59.9999999999998,2|0,0:0|0:0,0:0:0:0:
350,225,63091,1,2,0:0:0:0:
351,129,63241,1,2,0:3:0:0:
351,129,63316,1,2,0:3:0:0:
351,129,63391,2,0,P|351:109|357:85,3,29.9999999999999,2|2|2|2,0:3|0:3|0:3|0:3,0:0:0:0:
346,69,63691,1,8,0:1:0:0:
346,69,63991,2,0,P|333:36|308:10,2,59.9999999999998,2|0|2,3:2|0:0|0:0,0:0:0:0:
224,45,64441,2,0,P|234:73|253:97,2,59.9999999999998,2|0|2,3:2|0:0|0:0,0:0:0:0:
133,11,64891,5,2,3:2:0:0:
68,81,65041,1,2,0:3:0:0:
68,81,65116,1,2,0:3:0:0:
68,81,65191,2,0,L|41:107,3,29.9999999999999,2|2|2|2,0:3|0:3|0:3|0:3,0:0:0:0:
56,130,65491,6,0,L|44:216,2,79.9999999999997,2|2|2,3:2|3:2|3:2,0:0:0:0:
183,173,66091,5,8,0:1:0:0:
183,173,66391,6,0,L|190:244,2,59.9999999999998,2|2|2,3:2|0:3|0:0,0:0:0:0:
219,83,66841,1,2,3:2:0:0:
303,37,66991,2,0,L|362:31,1,59.9999999999998,2|2,0:0|0:3,0:0:0:0:
424,129,67291,6,0,L|297:125,1,120,6|2,3:2|0:0,0:0:0:0:
276,217,67741,1,2,0:3:0:0:
347,280,67891,2,0,P|376:266|384:234,1,59.9999999999998,10|2,0:0|0:0,0:0:0:0:
480,241,68191,2,0,P|498:214|489:182,1,59.9999999999998,2|2,0:0|0:0,0:0:0:0:
430,122,68491,1,8,0:1:0:0:
430,122,68791,2,0,L|485:88,2,59.9999999999998,2|0|8,3:2|0:0|0:0,0:0:0:0:
369,196,69241,2,0,L|370:260,2,59.9999999999998,2|0|2,3:2|0:0|0:0,0:0:0:0:
339,109,69691,5,10,3:2:0:0:
339,109,69766,1,2,0:3:0:0:
339,109,69841,2,0,L|348:66,2,29.9999999999999,2|2|2,0:3|0:3|0:3,0:0:0:0:
238,123,70141,1,2,0:0:0:0:
147,153,70291,6,0,L|64:143,2,79.9999999999997,10|2|2,0:0|0:0|0:0,0:0:0:0:
266,217,70891,5,8,0:1:0:0:
266,217,71191,6,0,L|271:266,2,39.9999999999998,2|2|2,3:2|0:0|0:0,0:0:0:0:
230,220,71491,5,8,0:0:0:0:
144,263,71641,2,0,L|133:336,2,59.9999999999998,2|0|2,3:2|0:0|0:0,0:0:0:0:
114,170,72091,6,0,P|86:177|49:160,1,59.9999999999998,10|0,3:2|0:0,0:0:0:0:
16,79,72391,2,0,P|23:51|57:27,1,59.9999999999998,2|0,0:0|0:0,0:0:0:0:
133,71,72691,1,8,0:0:0:0:
223,27,72841,1,2,0:3:0:0:
223,27,72916,1,2,0:3:0:0:
223,27,72991,2,0,L|229:56,3,29.9999999999999,2|2|2|2,0:3|0:3|0:3|0:3,0:0:0:0:
264,60,73291,1,8,0:1:0:0:
264,60,73591,2,0,L|330:24,2,59.9999999999998,2|0|2,3:2|0:0|0:0,0:0:0:0:
207,145,74041,2,0,L|141:109,2,59.9999999999998,2|0|2,3:2|0:0|0:0,0:0:0:0:
290,191,74491,5,10,3:2:0:0:
381,245,74641,1,2,0:3:0:0:
381,245,74716,1,2,0:3:0:0:
381,245,74791,2,0,L|417:234,3,29.9999999999999,2|2|2|2,0:3|0:3|0:3|0:3,0:0:0:0:
438,229,75091,2,0,L|454:296,1,59.9999999999998,8|0,0:0|0:0,0:0:0:0:
372,342,75391,2,0,L|313:355,1,59.9999999999998,2|0,3:2|0:0,0:0:0:0:
255,278,75691,1,8,0:0:0:0:
255,278,75991,6,0,P|175:317|80:285,1,179.999999999999,2|2,0:0|0:0,0:0:0:0:
162,18,76891,5,6,0:0:0:0:
256,192,86491,5,6,0:0:0:0:
468,350,96091,5,12,0:0:0:0:
468,350,96691,2,0,P|424:328|358:322,1,107.999996704101,8|2,0:0|0:0,0:0:0:0:
282,301,97141,1,2,0:3:0:0:
239,225,97291,2,0,P|176:255|103:320,1,161.999995056152,10|2,0:0|0:0,0:0:0:0:
44,375,97891,1,8,0:0:0:0:
50,202,98191,2,0,P|51:172|47:146,1,53.9999983520506,2|0,0:0|0:0,0:0:0:0:
35,51,98491,6,0,P|112:73|197:80,1,161.999995056152,8|2,0:0|0:0,0:0:0:0:
210,164,99091,1,8,0:0:0:0:
280,321,99391,2,0,P|357:299|442:292,1,161.999995056152,2|2,0:0|0:0,0:0:0:0:
455,208,99991,1,2,0:0:0:0:
418,39,100291,2,0,P|373:60|340:121,1,107.999996704101,8|2,0:0|0:0,0:0:0:0:
169,108,100891,5,8,0:0:0:0:
169,108,101491,2,0,P|141:62|94:39,1,107.999996704101,8|2,0:0|0:0,0:0:0:0:
37,105,101941,1,2,0:3:0:0:
33,191,102091,2,0,P|102:237|162:198,1,161.999995056152,10|2,0:0|0:0,0:0:0:0:
242,168,102691,1,8,0:0:0:0:
371,53,102991,6,0,L|373:15,2,35.9999989013671,2|2|2,0:0|0:3|0:3,0:0:0:0:
353,84,103291,6,0,L|381:247,1,161.999995056152,8|2,0:0|0:0,0:0:0:0:
392,329,103891,1,8,0:0:0:0:
227,276,104191,2,0,L|199:113,1,161.999995056152,2|2,0:0|0:0,0:0:0:0:
188,31,104791,1,2,0:0:0:0:
45,128,105091,2,0,L|29:239,1,107.999996704101,8|2,0:0|0:0,0:0:0:0:
189,360,105691,5,12,0:0:0:0:
189,360,106291,2,0,P|168:311|173:254,1,107.999996704101,8|2,0:0|0:0,0:0:0:0:
254,229,106741,1,2,0:3:0:0:
227,146,106891,2,0,P|216:85|305:82,1,161.999995056152,10|2,0:0|0:0,0:0:0:0:
370,119,107491,1,8,0:0:0:0:
503,260,107791,2,0,P|482:262|444:249,1,53.9999983520506,2|0,0:0|0:0,0:0:0:0:
374,211,108091,6,0,P|339:280|323:371,1,161.999995056152,8|2,0:0|0:0,0:0:0:0:
237,349,108691,1,8,0:0:0:0:
171,189,108991,2,0,P|136:119|120:29,1,161.999995056152,2|2,0:0|0:0,0:0:0:0:
34,51,109591,1,2,0:0:0:0:
7,221,109891,2,0,P|39:256|110:267,1,107.999996704101,8|2,0:0|0:0,0:0:0:0:
258,356,110491,6,0,L|248:301,3,53.9999983520506,8|8|8|8,0:1|0:3|0:3|0:3,0:0:0:0:
251,215,111091,2,0,L|263:178,7,26.9999991760253,8|8|8|8|10|8|8|8,0:0|0:3|0:3|0:3|0:3|0:3|0:3|0:3,0:0:0:0:
270,164,111691,6,0,L|209:174,1,53.9999983520506,8|8,0:1|0:3,0:0:0:0:
152,114,111991,2,0,L|142:53,1,53.9999983520506,8|8,0:3|0:3,0:0:0:0:
220,22,112291,2,0,L|281:12,1,53.9999983520506,8|8,0:1|0:3,0:0:0:0:
338,72,112591,2,0,L|348:133,1,53.9999983520506,8|8,0:3|0:3,0:0:0:0:
398,194,112891,6,0,L|441:203,7,26.9999991760253,8|8|8|8|10|8|8|8,0:1|0:3|0:3|0:3|0:3|0:3|0:3|0:3,0:0:0:0:
424,226,113491,2,0,L|397:231,7,26.9999991760253,8|8|8|8|10|8|8|8,0:1|0:3|0:3|0:3|0:3|0:3|0:3|0:3,0:0:0:0:
375,248,114091,6,0,B|357:304|357:304|386:368,1,107.999996704101,8|10,0:1|0:3,0:0:0:0:
134,348,114691,2,0,B|155:304|155:304|137:248,1,107.999996704101,8|10,0:1|0:3,0:0:0:0:
256,80,115291,6,0,L|256:139,1,59.9999999999998,6|0,3:2|0:0,0:0:0:0:
256,230,115591,2,0,L|256:289,1,59.9999999999998,2|0,0:0|0:0,0:0:0:0:
327,345,115891,2,0,P|363:312|373:239,1,120,2|0,0:0|0:0,0:0:0:0:
353,54,116491,2,0,P|306:39|238:67,1,120,10|0,0:0|0:0,0:0:0:0:
87,176,117091,2,0,P|98:224|156:269,2,120,2|2|0,0:0|0:0|0:0,0:0:0:0:
242,63,117991,2,0,P|261:90|272:131,1,59.9999999999998,2|0,3:2|0:0,0:0:0:0:
359,129,118291,6,0,P|400:88|432:24,1,120,6|0,3:2|0:0,0:0:0:0:
360,239,118891,2,0,P|375:295|414:354,1,120,8|2,0:0|0:0,0:0:0:0:
264,184,119491,2,0,P|207:168|136:173,1,120,2|0,0:0|0:0,0:0:0:0:
26,350,120091,6,0,P|35:319|39:273,1,59.9999999999998,6|0,3:2|0:0,0:0:0:0:
134,292,120391,2,0,P|138:321|146:350,1,59.9999999999998,2|0,0:0|0:0,0:0:0:0:
241,367,120691,2,0,P|295:346|372:334,1,120,2|0,0:0|0:0,0:0:0:0:
203,198,121291,2,0,P|144:187|88:165,1,120,10|0,0:0|0:0,0:0:0:0:
265,41,121891,2,0,P|323:30|379:8,2,120,2|2|0,0:0|0:0|0:0,0:0:0:0:
442,167,122791,2,0,P|413:155|390:133,1,59.9999999999998,2|0,3:2|0:0,0:0:0:0:
283,135,123091,6,0,P|317:206|327:263,1,120,6|0,3:2|0:0,0:0:0:0:
109,253,123691,2,0,P|153:187|197:150,1,120,10|0,0:0|0:0,0:0:0:0:
298,343,124291,2,0,P|219:337|165:317,1,120,2|0,0:0|0:0,0:0:0:0:
63,142,124891,6,0,P|59:109|64:75,1,59.9999999999998,6|0,3:2|0:0,0:0:0:0:
153,50,125191,2,0,P|157:83|152:117,1,59.9999999999998,2|0,0:0|0:0,0:0:0:0:
245,139,125491,2,0,P|297:114|300:53,1,120,10|0,0:0|0:0,0:0:0:0:
493,34,126091,2,0,P|458:167|485:276,1,239.999999999999,10|2,0:0|0:0,0:0:0:0:
319,371,126991,1,2,0:0:0:0:
196,222,127291,1,8,0:0:0:0:
48,344,127591,2,0,P|48:317|43:283,1,59.9999999999998,2|0,3:2|0:0,0:0:0:0:
24,191,127891,6,0,P|78:180|136:149,1,120,6|0,3:2|0:0,0:0:0:0:
284,29,128491,2,0,P|336:57|394:70,1,120,10|0,0:0|0:0,0:0:0:0:
477,243,129091,2,0,P|483:275|479:308,1,59.9999999999998,10|0,0:0|0:0,0:0:0:0:
389,335,129391,2,0,P|383:303|387:270,1,59.9999999999998
257,217,129691,6,0,P|287:304|255:388,1,179.999999999999,6|0,3:2|0:0,0:0:0:0:
163,369,130291,2,0,L|102:357,1,59.9999999999998,8|0,0:0|0:0,0:0:0:0:
90,261,130591,2,0,L|31:249,1,59.9999999999998,2|0,0:0|0:0,0:0:0:0:
155,190,130891,2,0,P|148:125|144:56,1,120,8|2,0:0|0:0,0:0:0:0:
367,70,131491,2,0,P|363:130|356:190,1,120,8|2,0:0|0:0,0:0:0:0:
208,368,132091,6,0,L|270:356,1,59.9999999999998,8|0,0:0|0:0,0:0:0:0:
304,268,132391,2,0,L|242:256,1,59.9999999999998,2|0,3:2|0:0,0:0:0:0:
139,195,132691,2,0,P|139:253|102:310,1,120,6|0,3:2|0:0,0:0:0:0:
255,146,133291,2,0,P|255:88|218:31,1,120,10|0,0:0|0:0,0:0:0:0:
370,195,133891,1,10,0:0:0:0:
270,359,134191,1,2,0:0:0:0:
495,363,134491,6,0,P|464:352|432:350,1,59.9999999999998,6|0,3:2|0:0,0:0:0:0:
448,253,134791,2,0,P|479:264|511:266,1,59.9999999999998,2|0,0:0|0:0,0:0:0:0:
498,170,135091,2,0,P|484:114|473:38,1,120,2|0,0:0|0:0,0:0:0:0:
282,32,135691,2,0,L|157:23,1,120,10|0,0:0|0:0,0:0:0:0:
162,216,136291,2,0,L|281:207,2,120,2|2|0,0:0|0:0|0:0,0:0:0:0:
355,118,137191,2,0,P|389:119|418:128,1,59.9999999999998,2|0,3:2|0:0,0:0:0:0:
423,221,137491,6,0,P|394:271|372:356,1,120,6|0,3:2|0:0,0:0:0:0:
161,362,138091,2,0,P|143:304|113:252,1,120,8|2,0:0|0:0,0:0:0:0:
192,51,138691,2,0,P|248:67|306:34,1,120,2|0,0:0|0:0,0:0:0:0:
345,253,139291,6,0,P|322:235|304:196,1,59.9999999999998,6|0,3:2|0:0,0:0:0:0:
211,218,139591,2,0,P|200:190|203:148,1,59.9999999999998,2|0,0:0|0:0,0:0:0:0:
115,115,139891,2,0,P|61:137|42:210,1,120,2|0,0:0|0:0,0:0:0:0:
180,322,140491,2,0,P|226:357|298:337,1,120,10|0,0:0|0:0,0:0:0:0:
326,161,141091,2,0,P|333:103|280:50,2,120,2|2|0,0:0|0:0|0:0,0:0:0:0:
474,322,141991,2,0,P|481:289|491:259,1,59.9999999999998,2|0,3:2|0:0,0:0:0:0:
502,169,142291,6,0,P|494:115|475:50,1,120,6|0,3:2|0:0,0:0:0:0:
336,233,142891,2,0,P|344:179|363:114,1,120,10|0,0:0|0:0,0:0:0:0:
210,285,143491,2,0,P|202:231|183:166,1,120,2|0,0:0|0:0,0:0:0:0:
45,16,144091,6,0,P|72:25|114:16,1,59.9999999999998,6|0,3:2|0:0,0:0:0:0:
104,123,144391,2,0,P|77:114|35:123,1,59.9999999999998,2|0,0:0|0:0,0:0:0:0:
33,213,144691,2,0,P|54:267|66:341,1,120,10|0,0:0|0:0,0:0:0:0:
250,378,145291,2,0,P|262:260|284:126,1,239.999999999999,10|2,0:0|0:0,0:0:0:0:
435,24,146191,1,2,0:0:0:0:
511,200,146491,1,8,0:0:0:0:
401,357,146791,2,0,P|372:367|338:368,1,59.9999999999998,2|0,3:2|0:0,0:0:0:0:
322,230,147091,6,0,P|376:257|444:266,1,120,4|2,3:2|0:0,0:0:0:0:
484,80,147691,2,0,P|430:53|362:44,1,120,10|0,0:0|0:0,0:0:0:0:
162,97,148291,2,0,P|194:111|233:110,1,59.9999999999998,10|0,0:0|0:0,0:0:0:0:
299,193,148591,2,0,P|269:195|242:208,1,59.9999999999998
146,203,148891,6,0,P|106:285|93:379,1,179.999999999999,6|0,3:2|0:0,0:0:0:0:
189,374,149491,2,0,P|197:345|209:315,1,59.9999999999998,8|0,0:0|0:0,0:0:0:0:
304,317,149791,2,0,P|315:345|323:374,1,59.9999999999998,2|0,0:0|0:0,0:0:0:0:
418,376,150091,2,0,L|500:287,1,120,8|2,0:0|0:0,0:0:0:0:
499,96,150691,2,0,L|418:8,1,120,8|2,0:0|0:0,0:0:0:0:
225,76,151291,6,0,P|211:100|207:146,1,59.9999999999998,8|0,0:0|0:0,0:0:0:0:
283,189,151591,2,0,P|296:164|301:119,1,59.9999999999998,2|0,3:2|0:0,0:0:0:0:
397,142,151891,2,0,P|411:194|379:265,1,120,6|0,3:2|0:0,0:0:0:0:
220,346,152491,2,0,P|167:332|122:268,1,120,10|0,0:0|0:0,0:0:0:0:
132,90,153091,2,0,P|170:51|248:44,1,120,2|0,0:0|0:0,0:0:0:0:
424,130,153691,6,0,P|452:147|481:170,1,66.0000020141599,6|0,3:2|0:0,0:0:0:0:
417,253,153991,2,0,P|388:235|359:212,1,66.0000020141599,2|2,0:0|0:3,0:0:0:0:
278,280,154291,2,0,L|287:359,2,66.0000020141599,2|2|2,0:0|0:0|0:0,0:0:0:0:
177,247,154741,1,2,0:0:0:0:
133,156,154891,1,8,0:1:0:0:
133,156,155191,2,0,P|136:118|133:90,2,66.0000020141599,2|0|2,3:2|0:0|0:0,0:0:0:0:
243,83,155641,2,0,P|261:55|275:25,2,66.0000020141599,2|0|2,3:2|0:0|0:0,0:0:0:0:
311,175,156091,5,2,3:2:0:0:
311,175,156166,1,2,0:3:0:0:
311,175,156241,2,0,P|332:167|355:150,2,33.00000100708,2|2|2,0:3|0:3|0:3,0:0:0:0:
405,243,156541,1,2,0:0:0:0:
504,173,156691,6,0,P|506:221|518:265,2,88.0000026855466,2|2|2,0:0|0:0|0:0,0:0:0:0:
428,53,157291,5,8,0:1:0:0:
432,58,157591,6,0,P|434:33|442:11,2,44.0000013427733,2|2|2,3:2|0:0|0:0,0:0:0:0:
388,62,157891,5,2,0:0:0:0:
269,52,158041,2,0,P|283:86|294:132,2,66.0000020141599,2|0|2,3:2|0:0|0:0,0:0:0:0:
172,94,158491,6,0,P|158:128|147:174,1,66.0000020141599,2|0,3:2|0:0,0:0:0:0:
206,252,158791,1,2,0:0:0:0:
206,252,158941,1,2,0:0:0:0:
136,331,159091,1,2,0:0:0:0:
41,283,159241,1,2,0:3:0:0:
41,283,159316,1,2,0:3:0:0:
41,283,159391,2,0,L|34:240,3,33.00000100708,2|2|2|2,0:3|0:3|0:3|0:3,0:0:0:0:
36,221,159691,1,8,0:1:0:0:
36,221,159991,2,0,L|48:139,2,66.0000020141599,2|0|2,3:2|0:0|0:0,0:0:0:0:
147,177,160441,2,0,L|137:111,2,66.0000020141599,2|0|2,3:2|0:0|0:0,0:0:0:0:
252,165,160891,5,2,3:2:0:0:
216,269,161041,1,2,0:3:0:0:
216,269,161116,1,2,0:3:0:0:
216,269,161191,2,0,L|225:300,3,33.00000100708,2|2|2|2,0:3|0:3|0:3|0:3,0:0:0:0:
244,327,161491,6,0,L|151:354,2,88.0000026855466,2|2|2,3:2|3:2|3:2,0:0:0:0:
388,348,162091,5,8,0:1:0:0:
388,348,162391,6,0,L|383:279,2,66.0000020141599,2|2|2,3:2|0:3|0:0,0:0:0:0:
492,368,162841,1,2,3:2:0:0:
486,262,162991,2,0,L|481:196,1,66.0000020141599,2|2,0:0|0:3,0:0:0:0:
402,124,163291,6,0,P|378:153|334:165,1,66.0000020141599,6|0,3:2|0:0,0:0:0:0:
248,185,163591,2,0,P|210:188|170:165,1,66.0000020141599,2|2,0:0|0:3,0:0:0:0:
87,137,163891,2,0,P|58:113|46:69,2,66.0000020141599,8|2|0,0:0|0:0|0:0,0:0:0:0:
151,52,164341,1,2,0:0:0:0:
256,85,164491,1,8,0:1:0:0:
256,85,164791,2,0,L|323:68,2,66.0000020141599,2|0|8,3:2|0:0|0:0,0:0:0:0:
295,183,165241,2,0,L|362:200,2,66.0000020141599,2|0|2,3:2|0:0|0:0,0:0:0:0:
207,238,165691,5,2,3:2:0:0:
207,238,165766,1,2,0:3:0:0:
207,238,165841,2,0,L|200:283,2,33.00000100708,2|2|2,0:3|0:3|0:3,0:0:0:0:
127,159,166141,1,2,0:0:0:0:
24,184,166291,6,0,L|45:281,2,88.0000026855466,8|2|2,0:0|0:0|0:0,0:0:0:0:
54,47,166891,5,8,0:1:0:0:
54,47,167191,6,0,L|48:91,2,44.0000013427733,2|2|2,3:2|0:0|0:0,0:0:0:0:
98,53,167491,5,8,0:0:0:0:
208,101,167641,2,0,L|193:32,2,66.0000020141599,2|0|2,3:2|0:0|0:0,0:0:0:0:
313,94,168091,6,0,L|298:158,1,66.0000020141599,2|0,3:2|0:0,0:0:0:0:
388,224,168391,1,2,0:0:0:0:
388,224,168541,1,2,0:0:0:0:
394,329,168691,1,8,0:0:0:0:
284,310,168841,1,2,0:3:0:0:
284,310,168916,1,2,0:3:0:0:
284,310,168991,2,0,L|279:272,3,33.00000100708,2|2|2|2,0:3|0:3|0:3|0:3,0:0:0:0:
282,247,169291,1,8,0:1:0:0:
282,247,169591,2,0,P|247:250|214:240,2,66.0000020141599,2|0|8,3:2|0:0|0:0,0:0:0:0:
373,194,170041,2,0,P|392:165|400:130,2,66.0000020141599,2|0|2,3:2|0:0|0:0,0:0:0:0:
279,142,170491,5,2,3:2:0:0:
219,60,170641,1,2,0:3:0:0:
219,60,170716,1,2,0:3:0:0:
219,60,170791,2,0,P|231:41|247:27,3,33.00000100708,2|2|2|2,0:3|0:3|0:3|0:3,0:0:0:0:
272,24,171091,2,0,P|300:41|341:40,1,66.0000020141599,8|0,0:0|0:0,0:0:0:0:
434,11,171391,2,0,P|433:43|454:78,1,66.0000020141599,2|0,3:2|0:0,0:0:0:0:
389,161,171691,1,8,0:1:0:0:
389,161,171991,2,0,L|312:141,2,66.0000020141599,2|2|8,3:2|0:3|0:0,0:0:0:0:
476,220,172441,1,2,3:2:0:0:
437,318,172591,2,0,L|373:336,1,66.0000020141599,2|2,0:0|0:3,0:0:0:0:
266,269,172891,6,0,P|265:233|276:199,1,66.0000020141599,6|2,3:2|0:0,0:0:0:0:
325,112,173191,2,0,P|289:113|255:102,1,66.0000020141599,2|2,0:0|0:0,0:0:0:0:
165,58,173491,2,0,P|166:94|155:128,1,66.0000020141599,10|2,0:0|0:0,0:0:0:0:
65,175,173791,1,2,0:0:0:0:
70,280,173941,1,2,0:0:0:0:
156,350,174091,1,8,0:1:0:0:
156,350,174391,2,0,P|194:352|232:335,1,66.0000020141599,2|2,3:2|0:0,0:0:0:0:
283,257,174691,1,10,0:0:0:0:
221,171,174841,2,0,P|189:161|157:163,2,66.0000020141599,2|2|2,3:2|0:0|0:0,0:0:0:0:
120,47,175291,5,2,3:2:0:0:
120,47,175366,1,2,0:3:0:0:
120,47,175441,2,0,P|125:62|133:87,2,33.00000100708,2|2|2,0:3|0:3|0:3,0:0:0:0:
222,23,175741,1,2,0:0:0:0:
300,94,175891,6,0,P|322:57|335:4,2,88.0000026855466,10|2|2,0:0|0:0|0:0,0:0:0:0:
362,226,176491,5,8,0:1:0:0:
362,226,176791,6,0,P|380:215|407:208,2,44.0000013427733,2|2|2,3:2|0:0|0:0,0:0:0:0:
343,266,177091,5,10,0:0:0:0:
241,293,177241,2,0,P|213:273|172:260,2,66.0000020141599,2|2|2,3:2|0:0|0:0,0:0:0:0:
270,190,177691,6,0,P|259:155|244:122,1,66.0000020141599,2|2,3:2|0:0,0:0:0:0:
165,69,177991,1,2,0:0:0:0:
165,69,178141,1,2,0:0:0:0:
64,100,178291,1,10,0:0:0:0:
40,209,178441,1,2,0:3:0:0:
40,209,178516,1,2,0:3:0:0:
40,209,178591,2,0,P|34:224|30:255,3,33.00000100708,2|2|2|2,0:3|0:3|0:3|0:3,0:0:0:0:
41,277,178891,1,8,0:1:0:0:
41,277,179191,2,0,P|60:315|81:341,1,66.0000020141599,2|2,3:2|0:0,0:0:0:0:
167,283,179491,1,10,0:0:0:0:
266,319,179641,2,0,P|252:359|249:392,2,66.0000020141599,2|2|2,3:2|0:0|0:0,0:0:0:0:
358,268,180091,5,2,3:2:0:0:
420,185,180241,1,2,0:3:0:0:
420,185,180316,1,2,0:3:0:0:
420,185,180391,2,0,L|409:142,3,33.00000100708,2|2|2|2,0:3|0:3|0:3|0:3,0:0:0:0:
406,120,180691,2,0,L|414:49,1,66.0000020141599,10|2,0:0|0:0,0:0:0:0:
317,21,180991,1,2,3:2:0:0:
317,21,181141,1,2,0:0:0:0:
217,43,181291,1,8,0:1:0:0:
217,43,181591,2,0,P|179:34|145:40,2,66.0000020141599,2|2|10,3:2|0:3|0:0,0:0:0:0:
175,140,182041,1,2,3:2:0:0:
133,237,182191,2,0,P|171:246|205:240,1,66.0000020141599,2|2,0:0|0:3,0:0:0:0:
284,143,182491,6,0,L|295:217,1,66.0000020141599,6|2,3:2|0:0,0:0:0:0:
339,304,182791,2,0,L|411:325,1,66.0000020141599,2|2,0:0|0:3,0:0:0:0:
483,253,183091,2,0,L|504:181,1,66.0000020141599,10|2,0:0|0:3,0:0:0:0:
432,108,183391,1,2,0:0:0:0:
328,126,183541,1,2,0:0:0:0:
291,227,183691,1,8,0:1:0:0:
291,227,183991,2,0,P|254:228|219:208,1,66.0000020141599,2|2,3:2|0:0,0:0:0:0:
122,220,184291,1,10,0:0:0:0:
68,128,184441,2,0,P|69:91|49:56,2,66.0000020141599,2|2|2,3:2|0:0|0:0,0:0:0:0:
179,112,184891,5,2,3:2:0:0:
179,112,184966,1,2,0:3:0:0:
179,112,185041,2,0,P|180:90|183:68,2,33.00000100708,2|2|2,0:3|0:3|0:3,0:0:0:0:
223,208,185341,1,2,0:0:0:0:
298,281,185491,6,0,L|313:373,2,88.0000026855466,10|2|2,0:0|0:0|0:0,0:0:0:0:
442,271,186091,5,8,0:1:0:0:
442,271,186391,6,0,L|448:316,2,44.0000013427733,2|2|2,3:2|0:0|0:0,0:0:0:0:
435,226,186691,5,10,0:0:0:0:
340,178,186841,2,0,P|307:171|260:176,2,66.0000020141599,2|2|2,3:2|0:0|0:0,0:0:0:0:
323,282,187291,6,0,P|290:288|257:287,1,66.0000020141599,2|2,3:2|0:0,0:0:0:0:
172,346,187591,1,2,0:0:0:0:
172,346,187741,1,2,0:0:0:0:
108,261,187891,1,10,0:0:0:0:
168,176,188041,1,2,0:3:0:0:
168,176,188116,1,2,0:3:0:0:
168,176,188191,2,0,P|176:157|176:139,3,33.00000100708,2|2|2|2,0:3|0:3|0:3|0:3,0:0:0:0:
165,119,188491,1,8,0:1:0:0:
165,119,188791,2,0,P|155:86|151:49,1,66.0000020141599,2|2,3:2|0:0,0:0:0:0:
279,125,189091,1,10,0:0:0:0:
381,101,189241,2,0,P|391:68|395:31,2,66.0000020141599,2|2|2,3:2|0:0|0:0,0:0:0:0:
484,124,189691,5,2,3:2:0:0:
422,211,189841,1,2,0:3:0:0:
422,211,189916,1,2,0:3:0:0:
422,211,189991,2,0,L|387:203,3,33.00000100708,2|2|0|0,0:3|0:3|0:0|0:0,0:0:0:0:
357,198,190291,2,0,L|369:274,1,66.0000020141599,10|0,0:0|0:0,0:0:0:0:
286,330,190591,1,2,3:2:0:0:
286,330,190741,1,2,0:0:0:0:
188,289,190891,1,8,0:1:0:0:
188,289,191191,6,0,P|150:188|161:100,1,198.00000604248,2|0,0:0|0:0,0:0:0:0:
444,41,192091,5,2,0:0:0:0:
