osu file format v14

[General]
AudioFilename: audio.mp3
AudioLeadIn: 0
PreviewTime: 38341
Countdown: 0
SampleSet: Soft
StackLeniency: 0.7
Mode: 0
LetterboxInBreaks: 0
WidescreenStoryboard: 1

[Editor]
Bookmarks: 19291,38491,57691,76891,96091,115291,134491,153691,172891,192091
DistanceSpacing: 1
BeatDivisor: 4
GridSize: 16
TimelineZoom: 0.9999979

[Metadata]
Title:Synergy
TitleUnicode:Synergy
Artist:Ritorikal
ArtistUnicode:Ritorikal
Creator:Hinsvar
Version:Easy
Source:
Tags:Electronic Instrumental Chill Trap Bass Rebels Recordings Release
BeatmapID:3571669
BeatmapSetID:1742868

[Difficulty]
HPDrainRate:2
CircleSize:2
OverallDifficulty:2
ApproachRate:4
SliderMultiplier:1.83999999999998
SliderTickRate:1

[Events]
//Background and Video events
0,0,"synergy.jpg",0,0
//Break Periods
2,77091,85171
2,86691,94771
//Storyboard Layer 0 (Background)
//Storyboard Layer 1 (Fail)
//Storyboard Layer 2 (Pass)
//Storyboard Layer 3 (Foreground)
//Storyboard Layer 4 (Overlay)
//Storyboard Sound Samples

[TimingPoints]
91,600.000000000001,4,2,1,50,1,0
38491,-100,4,2,1,70,0,0
75991,-100,4,2,1,60,0,0
76441,-100,4,2,1,65,0,0
76891,-100,4,2,1,60,0,0
96091,-100,4,2,2,60,0,0
115291,-100,4,2,1,70,0,0
153691,-95.2380952380952,4,2,1,80,0,1
172891,-95.2380952380952,4,2,1,90,0,1
191191,-95.2380952380952,4,2,1,80,0,1
191641,-95.2380952380952,4,2,1,85,0,1
192091,-100,4,2,1,90,0,0

[Colours]
Combo1 : 219,113,116
Combo2 : 92,234,245
Combo3 : 209,167,143
Combo4 : 120,134,211

[HitObjects]
169,346,19291,5,4,0:0:0:0:
352,335,19891,2,0,P|363:292|368:242,1,91.999999999999,2|0,0:0|0:0,0:0:0:0:
280,176,20491,2,0,P|278:108|301:32,2,137.999999999999,2|2|0,0:0|0:0|0:0,0:0:0:0:
204,227,21691,2,0,P|135:225|69:243,1,137.999999999999,2|0,0:0|0:0,0:0:0:0:
53,92,22591,2,0,P|121:93|187:75,1,137.999999999999,2|0,0:0|0:0,0:0:0:0:
324,141,23491,2,0,P|370:153|423:154,2,91.999999999999,2|0|2,0:0|0:0|0:0,0:0:0:0:
141,169,24691,6,0,P|129:215|128:268,1,91.999999999999,2|0,0:0|0:0,0:0:0:0:
211,297,25291,2,0,P|255:270|342:238,2,137.999999999999,2|2|0,0:0|0:0|0:0,0:0:0:0:
137,352,26491,2,0,P|92:325|6:293,1,137.999999999999,2|0,0:0|0:0,0:0:0:0:
52,148,27391,2,0,P|97:175|183:207,1,137.999999999999,2|0,0:0|0:0,0:0:0:0:
298,115,28291,2,0,P|306:69|308:22,2,91.999999999999,2|0|2,0:0|0:0|0:0,0:0:0:0:
468,185,29491,6,0,P|460:231|458:278,1,91.999999999999,2|0,0:0|0:0,0:0:0:0:
386,334,30091,2,0,P|317:348|255:303,2,137.999999999999,2|2|0,0:0|0:0|0:0,0:0:0:0:
370,243,31291,2,0,P|310:204|299:128,1,137.999999999999,2|0,0:0|0:0,0:0:0:0:
175,50,32191,2,0,P|115:88|104:164,1,137.999999999999,2|0,0:0|0:0,0:0:0:0:
55,295,33091,2,0,P|88:320|154:329,2,91.999999999999,2|0|2,0:0|0:0|0:0,0:0:0:0:
218,210,34291,6,0,P|262:218|299:245,1,91.999999999999,2|0,0:0|0:0,0:0:0:0:
390,261,34891,2,0,P|422:184|429:112,2,137.999999999999,2|2|0,0:0|0:0|0:0,0:0:0:0:
333,333,36091,1,2,0:0:0:0:
241,341,36391,1,2,0:0:0:0:
241,341,38491,6,0,P|233:265|217:186,2,137.999999999999,6|2|2,3:2|0:3|0:0,0:0:0:0:
149,356,39691,1,8,0:1:0:0:
81,293,39991,2,0,P|88:217|105:138,1,137.999999999999,2|2,3:2|3:2,0:0:0:0:
200,41,40891,6,0,P|290:72|384:74,1,183.999999999998,2|2,3:2|0:0,0:0:0:0:
491,219,42091,1,8,0:1:0:0:
405,252,42391,2,0,P|353:301|312:363,1,137.999999999999,2|2,3:2|3:2,0:0:0:0:
163,361,43291,6,0,P|106:322|59:271,2,137.999999999999,2|0|2,3:2|0:0|0:3,0:0:0:0:
238,307,44491,1,8,0:1:0:0:
283,227,44791,2,0,P|270:159|272:90,1,137.999999999999,2|2,3:2|3:2,0:0:0:0:
134,28,45691,5,2,3:2:0:0:
38,184,46291,2,0,B|75:237|75:237|77:296|77:296|127:347,1,183.999999999998,2|8,3:2|0:1,0:0:0:0:
210,355,47191,2,0,L|355:336,1,137.999999999999,2|2,3:2|3:2,0:0:0:0:
344,188,48091,6,0,L|489:207,2,137.999999999999,6|2|2,3:2|0:3|0:0,0:0:0:0:
263,232,49291,1,8,0:1:0:0:
196,168,49591,2,0,P|177:113|233:61,1,137.999999999999,2|2,3:2|3:2,0:0:0:0:
377,34,50491,6,0,P|459:82|465:165,1,183.999999999998,10|8,3:2|0:0,0:0:0:0:
377,325,51691,1,8,0:1:0:0:
335,243,51991,2,0,P|272:216|197:226,1,137.999999999999,2|2,3:2|3:2,0:0:0:0:
150,80,52891,6,0,P|81:88|21:134,2,137.999999999999,10|0|2,3:2|0:0|0:3,0:0:0:0:
230,34,54091,1,8,0:1:0:0:
308,81,54391,2,0,L|295:222,1,137.999999999999,2|2,3:2|3:2,0:0:0:0:
280,369,55291,5,10,3:2:0:0:
149,214,55891,2,0,P|112:206|47:207,1,91.999999999999,8|2,0:0|3:2,0:0:0:0:
8,283,56491,1,8,0:1:0:0:
51,364,56791,2,0,P|115:360|194:340,1,137.999999999999,2|2,3:2|3:2,0:0:0:0:
299,241,57691,6,0,P|362:245|386:312,2,137.999999999999,6|2|2,3:2|0:3|0:0,0:0:0:0:
229,167,58891,1,8,0:1:0:0:
131,194,59191,2,0,P|65:188|42:127,1,137.999999999999,2|2,3:2|3:2,0:0:0:0:
159,29,60091,6,0,L|347:64,1,183.999999999998,2|2,3:2|0:0,0:0:0:0:
391,239,61291,1,8,0:1:0:0:
470,191,61591,2,0,P|486:143|483:56,1,137.999999999999,2|2,3:2|3:2,0:0:0:0:
332,35,62491,6,0,P|312:100|318:168,2,137.999999999999,2|0|2,3:2|0:0|0:3,0:0:0:0:
242,13,63691,1,8,0:1:0:0:
178,79,63991,2,0,P|113:97|39:97,1,137.999999999999,2|2,3:2|3:2,0:0:0:0:
55,249,64891,5,2,3:2:0:0:
193,369,65491,2,0,B|205:305|205:305|240:259|240:259|235:189,1,183.999999999998,2|8,3:2|0:1,0:0:0:0:
153,155,66391,2,0,P|164:89|198:26,1,137.999999999999,2|2,3:2|3:2,0:0:0:0:
340,79,67291,6,0,P|407:87|479:55,2,137.999999999999,6|2|2,3:2|0:3|0:0,0:0:0:0:
303,163,68491,1,8,0:1:0:0:
227,215,68791,2,0,P|235:282|203:354,1,137.999999999999,2|2,3:2|3:2,0:0:0:0:
58,366,69691,6,0,P|46:289|40:170,1,183.999999999998,10|10,3:2|0:0,0:0:0:0:
158,42,70891,1,8,0:1:0:0:
243,75,71191,2,0,P|253:137|256:220,1,137.999999999999,2|2,3:2|3:2,0:0:0:0:
369,313,72091,6,0,P|431:303|514:300,2,137.999999999999,10|0|2,3:2|0:0|0:3,0:0:0:0:
349,222,73291,1,8,0:1:0:0:
439,208,73591,2,0,P|463:147|447:73,1,137.999999999999,2|2,3:2|3:2,0:0:0:0:
304,30,74491,5,10,3:2:0:0:
120,31,75091,2,0,P|104:71|100:136,1,91.999999999999,8|2,0:0|3:2,0:0:0:0:
32,182,75691,1,8,0:0:0:0:
58,270,75991,2,0,P|103:321|174:357,1,137.999999999999,2|2,0:0|0:0,0:0:0:0:
256,233,76891,5,6,0:0:0:0:
256,192,86491,5,6,0:0:0:0:
256,151,96091,5,12,0:0:0:0:
319,323,96691,2,0,P|365:332|416:330,1,91.999999999999,8|2,0:0|0:0,0:0:0:0:
427,240,97291,2,0,P|448:181|491:109,2,137.999999999999,10|2|2,0:0|0:0|0:0,0:0:0:0:
335,227,98491,2,0,P|328:158|310:92,1,137.999999999999,8|2,0:0|0:0,0:0:0:0:
167,40,99391,2,0,P|110:79|62:128,1,137.999999999999,2|2,0:0|0:0,0:0:0:0:
46,279,100291,2,0,P|76:318|110:342,1,91.999999999999,8|2,0:0|0:0,0:0:0:0:
191,282,100891,5,8,0:0:0:0:
373,256,101491,2,0,P|345:219|308:192,1,91.999999999999,8|2,0:0|0:0,0:0:0:0:
244,126,102091,2,0,L|85:122,2,137.999999999999,10|2|2,0:0|0:0|0:0,0:0:0:0:
314,66,103291,2,0,L|473:70,1,137.999999999999,8|2,0:0|0:0,0:0:0:0:
508,210,104191,2,0,L|504:369,1,137.999999999999,2|2,0:0|0:0,0:0:0:0:
352,341,105091,2,0,L|354:244,1,91.999999999999,8|2,0:0|0:0,0:0:0:0:
355,157,105691,5,12,0:0:0:0:
212,41,106291,2,0,P|167:42|106:74,1,91.999999999999,8|2,0:0|0:0,0:0:0:0:
131,151,106891,2,0,P|77:201|43:269,2,137.999999999999,10|2|2,0:0|0:0|0:0,0:0:0:0:
179,229,108091,2,0,P|168:301|184:376,1,137.999999999999,8|2,0:0|0:0,0:0:0:0:
331,364,108991,2,0,P|343:296|333:229,1,137.999999999999,2|2,0:0|0:0,0:0:0:0:
335,76,109891,2,0,P|376:52|424:39,1,91.999999999999,8|2,0:0|0:0,0:0:0:0:
465,119,110491,5,8,0:1:0:0:
459,303,111091,1,8,0:0:0:0:
369,300,111391,1,10,0:3:0:0:
279,301,111691,2,0,P|228:256|196:189,2,137.999999999999,8|8|8,0:1|0:3|0:3,0:0:0:0:
322,219,112891,5,8,0:1:0:0:
294,37,113491,1,8,0:1:0:0:
110,49,114091,2,0,P|80:130|110:232,1,183.999999999998,8|8,0:1|0:1,0:0:0:0:
175,279,114991,1,10,0:3:0:0:
247,222,115291,5,6,3:2:0:0:
419,284,115891,2,0,P|420:239|405:177,1,91.999999999999,2|0,0:0|0:0,0:0:0:0:
446,108,116491,2,0,P|373:49|268:24,2,183.999999999998,10|2|0,0:0|0:0|0:0,0:0:0:0:
410,193,117991,1,2,3:2:0:0:
319,178,118291,6,0,P|280:156|245:114,1,91.999999999999,6|0,3:2|0:0,0:0:0:0:
196,45,118891,1,8,0:0:0:0:
86,192,119491,1,2,0:0:0:0:
196,339,120091,6,0,P|240:296|257:162,1,183.999999999998,6|2,3:2|0:0,0:0:0:0:
362,24,121291,2,0,L|469:54,1,91.999999999999,10|0,0:0|0:0,0:0:0:0:
477,136,121891,2,0,L|491:329,1,183.999999999998,2|0,0:0|0:0,0:0:0:0:
405,355,122791,1,2,3:2:0:0:
327,305,123091,6,0,L|323:212,1,91.999999999999,6|0,3:2|0:0,0:0:0:0:
320,121,123691,1,10,0:0:0:0:
157,34,124291,1,2,0:0:0:0:
34,171,124891,6,0,P|22:260|19:362,2,183.999999999998,6|10|10,3:2|0:0|0:0,0:0:0:0:
213,128,126691,2,0,P|219:175|225:239,2,91.999999999999,2|2|8,0:0|0:0|0:0,0:0:0:0:
258,48,127591,1,2,3:2:0:0:
322,113,127891,6,0,P|365:121|413:108,1,91.999999999999,6|0,3:2|0:0,0:0:0:0:
486,56,128491,1,10,0:0:0:0:
472,239,129091,1,10,0:0:0:0:
383,264,129391,1,0,0:0:0:0:
293,240,129691,6,0,P|211:259|158:342,1,183.999999999998,6|8,3:2|0:0,0:0:0:0:
66,339,130591,1,2,0:0:0:0:
12,265,130891,1,8,0:0:0:0:
32,82,131491,1,8,0:0:0:0:
207,26,132091,5,8,0:0:0:0:
263,98,132391,1,2,3:2:0:0:
308,178,132691,2,0,P|317:226|322:281,2,91.999999999999,6|0|10,3:2|0:0|0:0,0:0:0:0:
486,223,133891,2,0,P|490:177|499:132,1,91.999999999999,10|2,0:0|0:0,0:0:0:0:
442,59,134491,5,6,3:2:0:0:
260,27,135091,2,0,P|212:32|165:52,1,91.999999999999,2|0,0:0|0:0,0:0:0:0:
194,137,135691,2,0,P|94:133|12:77,2,183.999999999998,10|2|0,0:0|0:0|0:0,0:0:0:0:
271,186,137191,1,2,3:2:0:0:
218,261,137491,6,0,P|212:309|212:364,1,91.999999999999,6|0,3:2|0:0,0:0:0:0:
303,361,138091,1,8,0:0:0:0:
476,300,138691,1,2,0:0:0:0:
465,116,139291,6,0,P|389:67|285:53,1,183.999999999998,6|2,3:2|0:0,0:0:0:0:
114,34,140491,2,0,P|73:47|38:104,1,91.999999999999,10|0,0:0|0:0,0:0:0:0:
35,175,141091,2,0,P|122:166|186:97,1,183.999999999998,2|0,0:0|0:0,0:0:0:0:
261,149,141991,1,2,3:2:0:0:
310,226,142291,6,0,P|305:269|294:325,1,91.999999999999,6|0,3:2|0:0,0:0:0:0:
208,346,142891,1,10,0:0:0:0:
34,283,143491,1,2,0:0:0:0:
197,198,144091,6,0,P|204:109|182:10,2,183.999999999998,6|10|10,3:2|0:0|0:0,0:0:0:0:
369,261,145891,2,0,P|358:308|358:371,2,91.999999999999,2|2|8,0:0|0:0|0:0,0:0:0:0:
440,202,146791,1,2,3:2:0:0:
511,143,147091,6,0,P|508:97|498:52,1,91.999999999999,4|2,3:2|0:0,0:0:0:0:
408,33,147691,1,10,0:0:0:0:
224,32,148291,1,10,0:0:0:0:
135,56,148591,1,0,0:0:0:0:
106,143,148891,6,0,L|303:181,1,183.999999999998,6|8,3:2|0:0,0:0:0:0:
262,266,149791,1,2,0:0:0:0:
173,290,150091,1,8,0:0:0:0:
342,362,150691,1,8,0:0:0:0:
494,258,151291,5,8,0:0:0:0:
423,198,151591,1,2,3:2:0:0:
411,106,151891,2,0,P|431:65|464:31,2,91.999999999999,6|0|10,3:2|0:0|0:0,0:0:0:0:
114,353,153691,6,0,P|92:309|58:275,1,96.599997052001,6|2,3:2|0:0,0:0:0:0:
60,179,154291,2,0,P|104:157|138:123,1,96.599997052001,2|2,0:0|0:0,0:0:0:0:
200,50,154891,1,8,0:1:0:0:
254,129,155191,2,0,P|261:208|281:273,1,144.899995578001,2|2,3:2|3:2,0:0:0:0:
410,362,156091,6,0,P|422:324|429:263,1,96.599997052001,2|2,3:2|0:3,0:0:0:0:
423,171,156691,1,2,0:0:0:0:
284,36,157291,1,8,0:1:0:0:
198,80,157591,2,0,P|171:147|166:223,1,144.899995578001,2|2,3:2|3:2,0:0:0:0:
110,368,158491,6,0,P|72:351|33:307,1,96.599997052001,2|2,3:2|0:0,0:0:0:0:
16,215,159091,2,0,P|32:177|76:138,1,96.599997052001,2|2,0:0|0:3,0:0:0:0:
162,178,159691,1,8,0:1:0:0:
236,115,159991,2,0,P|308:136|327:199,1,144.899995578001,2|2,3:2|3:2,0:0:0:0:
255,339,160891,6,0,L|353:355,1,96.599997052001,2|2,3:2|0:3,0:0:0:0:
445,334,161491,2,0,B|442:267|442:267|480:217|480:217|474:154,1,193.199994104002,2|8,3:2|0:1,0:0:0:0:
420,73,162391,2,0,P|354:53|276:90,1,144.899995578001,2|2,3:2|3:2,0:0:0:0:
158,173,163291,6,0,L|54:150,1,96.599997052001,6|2,3:2|0:0,0:0:0:0:
40,245,163891,2,0,L|144:268,1,96.599997052001,8|2,0:0|0:0,0:0:0:0:
198,338,164491,1,8,0:1:0:0:
290,366,164791,2,0,P|318:314|337:219,1,144.899995578001,2|2,3:2|3:2,0:0:0:0:
186,175,165691,6,0,P|172:130|178:81,1,96.599997052001,2|2,3:2|0:3,0:0:0:0:
257,27,166291,1,8,0:0:0:0:
443,78,166891,1,8,0:1:0:0:
494,159,167191,2,0,P|497:234|480:303,1,144.899995578001,2|2,3:2|3:2,0:0:0:0:
328,347,168091,6,0,P|286:331|227:321,1,96.599997052001,2|2,3:2|0:0,0:0:0:0:
142,348,168691,2,0,P|123:306|88:258,1,96.599997052001,8|2,0:0|0:3,0:0:0:0:
26,196,169291,1,8,0:1:0:0:
40,100,169591,2,0,L|188:75,1,144.899995578001,2|2,3:2|3:2,0:0:0:0:
335,27,170491,6,0,P|355:73|362:132,1,96.599997052001,2|2,3:2|0:3,0:0:0:0:
282,174,171091,2,0,P|289:221|309:265,1,96.599997052001,8|2,0:0|3:2,0:0:0:0:
379,332,171691,1,8,0:1:0:0:
468,295,171991,2,0,P|487:231|488:151,1,144.899995578001,2|2,3:2|3:2,0:0:0:0:
353,68,172891,6,0,P|305:68|252:43,1,96.599997052001,6|2,3:2|0:0,0:0:0:0:
164,34,173491,1,10,0:0:0:0:
114,116,173791,1,2,0:0:0:0:
25,155,174091,1,8,0:1:0:0:
34,251,174391,2,0,P|77:306|163:335,1,144.899995578001,2|2,3:2|3:2,0:0:0:0:
287,262,175291,6,0,P|331:257|373:228,1,96.599997052001,2|2,3:2|0:3,0:0:0:0:
421,144,175891,1,10,0:0:0:0:
263,31,176491,1,8,0:1:0:0:
170,58,176791,2,0,P|155:124|158:212,1,144.899995578001,2|2,3:2|3:2,0:0:0:0:
233,340,177691,6,0,P|277:324|333:311,1,96.599997052001,2|2,3:2|0:0,0:0:0:0:
403,370,178291,2,0,P|441:343|492:316,1,96.599997052001,10|2,0:0|0:3,0:0:0:0:
509,225,178891,1,8,0:1:0:0:
500,128,179191,2,0,P|451:86|364:48,1,144.899995578001,2|2,3:2|3:2,0:0:0:0:
219,48,180091,6,0,P|198:88|183:150,1,96.599997052001,2|2,3:2|0:3,0:0:0:0:
259,199,180691,2,0,P|279:239|294:301,1,96.599997052001,10|2,0:0|3:2,0:0:0:0:
261,380,181291,1,8,0:1:0:0:
164,371,181591,2,0,P|108:328|23:309,1,144.899995578001,2|2,3:2|3:2,0:0:0:0:
24,150,182491,6,0,P|50:110|98:78,1,96.599997052001,6|2,3:2|0:0,0:0:0:0:
171,31,183091,1,10,0:0:0:0:
267,36,183391,1,2,0:0:0:0:
313,120,183691,1,8,0:1:0:0:
287,213,183991,2,0,P|298:290|320:368,1,144.899995578001,2|2,3:2|3:2,0:0:0:0:
475,364,184891,6,0,P|486:321|488:257,1,96.599997052001,2|2,3:2|0:3,0:0:0:0:
485,172,185491,1,10,0:0:0:0:
328,58,186091,1,8,0:1:0:0:
242,102,186391,2,0,P|178:99|121:42,1,144.899995578001,2|2,3:2|3:2,0:0:0:0:
24,171,187291,6,0,P|21:219|27:280,1,96.599997052001,2|2,3:2|0:0,0:0:0:0:
105,319,187891,2,0,P|125:275|152:235,1,96.599997052001,10|2,0:0|0:3,0:0:0:0:
216,163,188491,1,8,0:1:0:0:
226,66,188791,2,0,P|295:42|384:45,1,144.899995578001,2|2,3:2|3:2,0:0:0:0:
475,158,189691,6,0,P|478:208|462:265,1,96.599997052001,2|2,3:2|0:3,0:0:0:0:
393,314,190291,2,0,P|343:317|286:301,1,96.599997052001,10|2,0:0|3:2,0:0:0:0:
264,215,190891,1,8,0:1:0:0:
186,157,191191,2,0,P|114:161|58:211,1,144.899995578001,2|2,0:0|0:0,0:0:0:0:
37,356,192091,5,2,0:0:0:0:
