osu file format v14

[General]
AudioFilename: audio.mp3
AudioLeadIn: 0
PreviewTime: 164378
Countdown: 0
SampleSet: None
StackLeniency: 0.7
Mode: 0
LetterboxInBreaks: 0
WidescreenStoryboard: 1

[Editor]
Bookmarks: 22921,24510,29278,30868,32457,49146,61861,74576,87292,111133,123848,139742,152457,165173,190603,203318,216033
DistanceSpacing: 1.7
BeatDivisor: 4
GridSize: 4
TimelineZoom: 1.7

[Metadata]
Title:Hajimari no Toki
TitleUnicode:ハジマリノトキ
Artist:Rita, Asari*, Tezuka Ryouko
ArtistUnicode:理多, あさり☆, 手塚りょうこ
Creator:lxyn
Version:AaaaaAaAAAAAAAAAA
Source:鬼まり。
Tags:
BeatmapID:1494532
BeatmapSetID:701786

[Difficulty]
HPDrainRate:5
CircleSize:4.2
OverallDifficulty:8
ApproachRate:9.6
SliderMultiplier:3.4
SliderTickRate:1

[Events]
//Background and Video events
0,0,"rsz_160082303_p0.png",0,0
//Break Periods
//Storyboard Layer 0 (Background)
//Storyboard Layer 1 (Fail)
//Storyboard Layer 2 (Pass)
//Storyboard Layer 3 (Foreground)
//Storyboard Sound Samples

[TimingPoints]
-125,397.350993377483,4,3,1,50,1,0
6232,-546.448087431694,4,3,1,50,0,0
19941,-100,4,3,1,50,0,0
22126,-100,4,3,1,50,0,1
33252,-100,4,3,1,50,0,0
49146,-200,4,3,1,50,0,0
87292,-100,4,3,1,50,0,1
111133,-100,4,3,1,50,0,0
165173,-100,4,3,1,50,0,1
190603,-100,4,3,1,50,0,0

[Colours]
Combo1 : 241,163,154
Combo2 : 196,45,45
Combo3 : 215,81,81
Combo4 : 236,108,108

[HitObjects]
256,192,3848,12,0,5835,0:0:0:0:
200,372,6232,6,0,B|195:372|195:372|191:323|220:247|236:216|236:216|232:236|216:247|240:283|256:291|256:291|252:275|268:259|268:259|308:279|364:271|404:235|404:235|380:243|380:207|320:243|264:208|264:208|308:179|360:191|384:147|376:115|400:99|400:99|376:119|328:111|328:167|260:176|260:176|288:115|332:67|280:43|288:30|292:-21|292:-21|292:18|240:39|228:91|240:172|240:172|200:139|195:83|179:95|155:79|147:43|147:43|159:91|135:135|175:155|220:192|220:192|163:211|143:183|103:187|91:175|91:175|103:183|115:239|151:219|195:231|187:259|187:259|212:263|228:232|228:232,1,1991.04010329493
88,180,19941,5,0,0:0:0:0:
88,180,20040,1,0,0:0:0:0:
88,180,20139,2,0,L|100:264,1,85
193,177,20338,2,0,L|205:92,1,85
184,6,20537,5,0,0:0:0:0:
452,222,20835,5,0,0:0:0:0:
452,222,21133,5,0,0:0:0:0:
129,345,21331,5,0,0:0:0:0:
92,208,21729,2,0,L|8:220,1,85
95,313,21928,2,0,L|180:325,1,85
408,104,22126,6,0,P|371:125|351:162,1,85
205,190,22325,2,0,P|241:210|283:209,1,85
380,322,22524,1,0,0:0:0:0:
380,322,22623,1,0,0:0:0:0:
380,322,22722,2,0,P|379:279|357:244,1,85
192,108,22921,2,0,P|220:188|296:192,1,170
464,127,23219,1,0,0:0:0:0:
464,127,23318,1,0,0:0:0:0:
464,127,23418,1,0,0:0:0:0:
464,127,23517,2,0,L|380:116,1,85
124,232,23716,6,0,P|113:190|126:150,1,85
38,27,23915,2,0,P|78:37|107:68,1,85
259,58,24114,1,0,0:0:0:0:
259,58,24213,1,0,0:0:0:0:
259,58,24312,2,0,P|228:87|187:96,1,85
96,332,24510,2,0,B|132:304|127:223|91:250|86:169|122:141,1,170
408,116,24808,1,0,0:0:0:0:
408,116,24908,2,0,L|324:104,1,85
188,196,25106,2,0,L|272:184,1,85
456,44,25305,6,0,P|486:72|498:113,1,85
379,303,25504,1,0,0:0:0:0:
379,303,25603,1,0,0:0:0:0:
379,303,25702,2,0,L|367:387,1,85
120,219,25901,5,0,0:0:0:0:
120,219,26000,1,0,0:0:0:0:
120,219,26100,2,0,L|132:303,1,85
412,124,26298,5,0,0:0:0:0:
412,124,26398,1,0,0:0:0:0:
95,50,26596,5,0,0:0:0:0:
95,50,26696,1,0,0:0:0:0:
432,196,26894,5,0,0:0:0:0:
432,196,27093,6,0,L|348:208,1,85
260,16,27292,2,0,L|272:100,1,85
80,187,27490,2,0,L|164:176,1,85
252,368,27689,2,0,L|240:284,1,85
428,196,27888,1,0,0:0:0:0:
428,196,27987,1,0,0:0:0:0:
428,196,28086,2,0,L|344:208,1,85
28,192,28285,1,0,0:0:0:0:
28,192,28384,1,0,0:0:0:0:
28,192,28484,6,0,P|71:191|107:213,1,85
248,168,28682,2,0,P|227:203|190:223,1,85
160,365,28881,1,0,0:0:0:0:
160,365,28980,1,0,0:0:0:0:
160,365,29080,2,0,P|140:327|141:285,1,85
244,36,29278,2,0,L|219:234,1,170
72,100,29576,1,0,0:0:0:0:
72,100,29676,1,0,0:0:0:0:
72,100,29775,1,0,0:0:0:0:
72,100,29874,2,0,L|57:-10,1,85
328,128,30073,6,0,P|339:168|326:208,1,85
413,332,30272,2,0,P|373:322|344:291,1,85
193,301,30471,1,0,0:0:0:0:
193,301,30570,1,0,0:0:0:0:
192,301,30669,2,0,P|223:272|264:263,1,85
356,28,30867,2,0,B|320:56|325:137|361:110|366:191|330:219,1,170
179,175,31166,1,0,0:0:0:0:
179,175,31265,2,0,L|264:164,1,85
508,96,31464,2,0,L|398:81,1,85
76,60,31663,6,0,P|46:88|34:129,1,85
120,268,31861,1,0,0:0:0:0:
120,268,31961,1,0,0:0:0:0:
120,268,32060,2,0,B|163:306|215:281|215:281|267:256|310:294,1,170
424,284,32358,1,0,0:0:0:0:
424,284,32457,2,0,P|423:242|401:206,1,85
229,29,32656,1,0,0:0:0:0:
229,29,32755,1,0,0:0:0:0:
229,29,32855,1,0,0:0:0:0:
224,113,32954,1,0,0:0:0:0:
257,191,33054,1,0,0:0:0:0:
290,268,33153,1,0,0:0:0:0:
280,352,33252,6,0,P|252:272|176:268,1,170
7,332,33550,1,0,0:0:0:0:
7,332,33649,2,0,L|91:343,1,85
374,257,33848,2,0,L|290:268,1,85,0|0,2:0|2:0,2:0:0:0:
176,288,34047,2,0,P|177:246|199:210,1,85
164,128,34245,1,0,0:0:0:0:
164,128,34345,1,0,0:0:0:0:
164,128,34444,2,0,P|200:107|243:108,1,85
296,37,34643,2,0,P|331:58|352:95,1,85
496,192,34841,6,0,B|468:156|387:161|414:197|333:202|305:166,1,170
452,348,35139,1,0,0:0:0:0:
452,348,35239,2,0,L|441:260,1,85
368,20,35437,2,0,L|357:107,1,85
368,220,35636,2,0,P|326:219|290:197,1,85
208,232,35834,1,0,0:0:0:0:
208,232,35934,1,0,0:0:0:0:
208,232,36033,2,0,P|187:195|188:152,1,85
117,100,36232,2,0,P|138:64|175:43,1,85
380,88,36431,6,0,P|352:168|276:172,1,170
107,108,36729,1,0,0:0:0:0:
107,108,36828,2,0,L|191:97,1,85
474,182,37027,2,0,L|389:171,1,85,0|0,2:0|2:0,2:0:0:0:
296,84,37225,2,0,P|295:126|273:162,1,85
308,244,37423,1,0,0:0:0:0:
308,244,37523,1,0,0:0:0:0:
308,244,37622,2,0,P|271:264|228:263,1,85
176,334,37821,2,0,P|140:312|119:275,1,85
224,84,38020,6,0,L|199:282,1,170
52,148,38318,1,0,0:0:0:0:
52,148,38418,2,0,L|37:38,1,85
236,72,38616,2,0,L|221:182,1,85
212,276,38815,2,0,P|254:275|290:253,1,85
462,156,39014,1,0,0:0:0:0:
462,156,39113,1,0,0:0:0:0:
462,156,39212,2,0,P|440:120|403:99,1,85
234,0,39411,2,0,P|213:36|214:79,1,85
288,248,39610,1,0,0:0:0:0:
