osu file format v14

[General]
AudioFilename: audio.ogg
AudioLeadIn: 0
PreviewTime: 243612
Countdown: 0
SampleSet: Soft
StackLeniency: 0.7
Mode: 0
LetterboxInBreaks: 0
WidescreenStoryboard: 1

[Editor]
Bookmarks: 14487,46587,81087,100287,129087,163587,182787,199287,229887,244887,280887
DistanceSpacing: 0.4
BeatDivisor: 4
GridSize: 4
TimelineZoom: 2.799999

[Metadata]
Title:Beyond the Eternity
TitleUnicode:Beyond the Eternity
Artist:Rita x MintJam
ArtistUnicode:Rita × MintJam
Creator:GimBab
Version:Expert
Source:
Tags:japanese rock terra a2c Dailycare Morinaga I luv nathan
BeatmapID:3915464
BeatmapSetID:1899573

[Difficulty]
HPDrainRate:6
CircleSize:4
OverallDifficulty:8
ApproachRate:9.5
SliderMultiplier:1.9
SliderTickRate:1

[Events]
//Background and Video events
0,0,"bg2.jpg",0,0
//Break Periods
//Storyboard Layer 0 (Background)
//Storyboard Layer 1 (Fail)
//Storyboard Layer 2 (Pass)
//Storyboard Layer 3 (Foreground)
//Storyboard Layer 4 (Overlay)
//Storyboard Sound Samples

[TimingPoints]
-213,300,6,2,0,20,1,0
12987,-100,6,2,0,20,0,0
13287,-100,6,2,0,20,0,0
13587,-100,6,2,0,20,0,0
13887,-100,6,2,0,20,0,0
14187,-100,6,2,0,50,0,0
14487,-100,6,2,0,50,0,0
30387,-250,6,2,0,50,0,0
32187,-125,6,2,0,60,0,0
32487,-125,6,2,0,50,0,0
46587,-100,6,2,0,60,0,0
64587,-100,6,2,0,60,0,0
65037,-125,6,2,0,60,0,0
65487,-166.666666666667,6,2,0,60,0,0
65787,-83.3333333333333,6,2,0,60,0,0
66087,-83.3333333333333,6,2,0,60,0,0
66387,-125,6,2,0,60,0,0
66837,-166.666666666667,6,2,0,60,0,0
67287,-250,6,2,0,60,0,0
67587,-100,6,2,0,60,0,0
68187,-125,6,2,0,60,0,0
68637,-166.666666666667,6,2,0,60,0,0
69087,-250.000000000001,6,2,0,60,0,0
69387,-125,6,2,0,60,0,0
69687,-125,6,2,0,60,0,0
69987,-166.666666666667,6,2,0,60,0,0
70437,-250.000000000001,6,2,0,60,0,0
70887,-500.000000000005,6,2,0,60,0,0
71787,300,3,2,0,60,1,0
71787,-166.666666666667,3,2,0,60,0,0
72687,300,4,2,0,60,1,0
72687,-83.3333333333333,4,2,0,60,0,0
73137,-100,4,2,0,60,0,0
73887,300,3,2,0,60,1,0
73887,-125,3,2,0,60,0,0
74787,300,5,2,0,60,1,0
75387,-100,5,2,0,60,0,0
76287,300,4,2,0,65,1,0
79887,-100,4,2,0,50,0,0
80487,-500,4,2,0,35,0,0
81087,-83.3333333333333,4,2,0,80,0,1
81387,-83.3333333333333,4,2,0,75,0,1
89337,-83.3333333333333,4,2,0,80,0,1
90987,-83.3333333333333,4,2,0,75,0,1
100287,300,6,2,0,65,1,0
100287,-125,6,2,0,65,0,0
107487,-100,6,2,0,70,0,0
114687,-125,6,2,0,62,0,0
129087,-100,6,2,0,72,0,0
154287,300,3,2,0,72,1,0
154287,-83.3333333333333,3,2,0,72,0,0
155187,300,4,2,0,72,1,0
155187,-83.3333333333333,4,2,0,72,0,0
156387,300,3,2,0,72,1,0
156387,-83.3333333333333,3,2,0,72,0,0
157287,300,5,2,0,72,1,0
158787,300,4,2,0,80,1,0
158787,-83.3333333333333,4,2,0,80,0,0
162387,-333.333333333333,4,2,0,60,0,0
162687,-333.333333333333,4,2,0,25,0,0
162987,-333.333333333333,4,2,0,20,0,0
163587,-83.3333333333333,4,2,0,83,0,1
182787,300,6,2,0,77,1,0
182787,-100,6,2,0,77,0,0
197187,300,7,2,0,77,1,0
197337,-166.666666666667,7,2,0,65,0,0
198987,-125,7,2,0,65,0,0
199137,-125,7,2,0,77,0,0
199287,300,6,2,0,77,1,0
199287,-100,6,2,0,77,0,0
220887,-100,6,2,0,83,0,0
228087,-100,6,2,0,88,0,0
229887,-100,6,2,0,72,0,0
242487,-100,6,2,0,77,0,0
243537,-100,6,2,0,77,0,0
244737,-100,6,2,0,50,0,0
244887,300,4,2,0,45,1,0
244887,-166.666666666667,4,2,0,45,0,0
245187,-166.666666666667,4,2,0,60,0,0
249987,-125,4,2,0,60,0,0
252087,-100,4,2,0,60,0,0
252537,-100,4,2,0,65,0,0
252837,-100,4,2,0,70,0,0
252987,-100,4,2,0,80,0,0
253137,-83.3333333333333,4,2,0,80,0,1
253737,-83.3333333333333,4,2,0,85,0,1
254262,-83.3333333333333,4,2,0,80,0,1
254487,-83.3333333333333,4,2,0,83,0,1
261687,-83.3333333333333,4,2,0,90,0,1
278487,-83.3333333333333,4,2,0,83,0,1
280887,300,6,2,0,80,1,0
280887,-100,6,2,0,80,0,0
295737,-90.9090909090909,6,2,0,80,0,0
296187,-83.3333333333333,6,2,0,80,0,0
296637,-76.9230769230769,6,2,0,80,0,0
297087,-71.4285714285714,6,2,0,80,0,0
298887,-166.666666666667,6,2,0,80,0,0
299037,-166.666666666667,6,2,0,70,0,0
300612,-166.666666666667,6,2,0,80,0,0
301587,300,4,2,0,80,1,0
301887,-100,4,2,0,70,0,0
303987,-100,4,2,0,80,0,0
304512,-100,4,2,0,5,0,0
304587,300,4,2,0,80,1,0
304662,-100,4,2,0,40,0,0
309087,-100,4,2,0,40,0,0
312387,-100,4,2,0,40,0,0
314937,-100,4,2,0,5,0,0

[Colours]
Combo1 : 60,69,91
Combo2 : 84,122,122
Combo3 : 136,100,100
Combo4 : 140,96,124

[HitObjects]
256,192,1587,12,0,11187,0:0:0:0:
256,192,12987,12,6,14187,3:0:0:0:
232,236,14487,5,2,0:0:0:0:
232,97,14637,1,0,1:0:0:0:
313,209,14787,1,2,0:0:0:0:
181,166,14937,1,0,1:0:0:0:
312,124,15087,6,0,P|358:136|405:146,1,95,2|0,3:2|0:0,0:0:0:0:
296,292,15387,2,0,P|250:280|203:270,1,95,2|0,3:2|3:0,0:0:0:0:
388,240,15687,2,0,P|376:286|366:333,1,95,2|0,1:2|0:0,0:0:0:0:
236,184,15987,6,0,P|232:160|227:137,2,47.5,2|0|0,3:2|0:0|0:0,0:0:0:0:
296,372,16287,2,0,P|260:287|171:264,1,190,0|0,3:0|0:0,0:0:0:0:
192,368,16737,1,0,1:0:0:0:
48,148,16887,2,0,P|94:159|140:167,1,95,2|0,3:2|0:0,0:0:0:0:
272,280,17187,2,0,P|225:268|179:260,1,95,0|0,3:0|3:0,0:0:0:0:
84,248,17487,1,2,1:2:0:0:
244,184,17637,1,2,0:0:0:0:
28,52,17787,6,0,P|63:136|152:159,1,190,6|0,3:0|0:0,0:0:0:0:
0,208,18237,1,2,1:2:0:0:
224,40,18387,2,0,L|132:60,1,95,2|0,0:0|1:0,0:0:0:0:
228,232,18687,6,0,P|235:185|246:138,1,95,2|0,3:2|0:0,0:0:0:0:
276,328,18987,2,0,P|231:344|186:358,1,95,2|0,3:2|3:0,0:0:0:0:
335,238,19287,2,0,P|371:268|406:300,1,95,2|0,1:2|0:0,0:0:0:0:
488,84,19587,6,0,P|489:60|494:37,2,47.5,2|0|0,3:2|0:0|0:0,0:0:0:0:
260,192,19887,2,0,P|309:115|401:107,1,190,2|0,3:2|0:0,0:0:0:0:
164,220,20337,1,0,1:0:0:0:
172,28,20487,2,0,P|180:74|186:121,1,95,2|0,3:2|0:0,0:0:0:0:
347,303,20787,2,0,P|358:256|371:211,1,95,0|0,3:0|3:0,0:0:0:0:
440,384,21087,1,2,1:2:0:0:
236,292,21237,1,0,0:0:0:0:
464,168,21387,1,6,0:0:0:0:
54,55,21687,5,2,3:2:0:0:
76,148,21837,1,2,1:2:0:0:
168,126,21987,1,0,3:0:0:0:
147,34,22137,1,2,1:2:0:0:
48,244,22287,5,2,3:2:0:0:
140,216,22437,1,2,0:0:0:0:
328,92,22587,5,2,1:2:0:0:
236,64,22737,1,0,3:0:0:0:
124,120,22887,5,2,1:2:0:0:
105,25,23037,1,0,0:0:0:0:
252,168,23187,6,0,P|219:257|207:351,1,190,2|0,3:2|0:0,0:0:0:0:
140,208,23637,2,0,P|131:161|117:115,2,95,2|0|0,1:2|0:0|1:0,0:0:0:0:
348,352,24087,6,0,P|311:268|221:258,1,190,2|0,3:2|3:0,0:0:0:0:
408,220,24537,1,2,1:2:0:0:
260,340,24687,1,0,0:0:0:0:
132,200,24837,1,2,0:0:0:0:
232,56,24987,6,0,P|228:103|222:150,1,95,2|0,3:2|0:0,0:0:0:0:
348,340,25287,2,0,P|351:292|357:245,1,95,0|0,0:0|1:0,0:0:0:0:
260,232,25587,1,0,0:0:0:0:
252,328,25737,1,0,1:0:0:0:
356,332,25887,6,0,P|402:324|450:320,1,95,2|0,3:2|0:0,0:0:0:0:
216,144,26187,2,0,P|169:151|121:155,1,95,0|0,3:0|3:0,0:0:0:0:
28,180,26487,1,2,1:2:0:0:
16,84,26637,1,0,0:0:0:0:
111,59,26787,6,0,P|186:110|172:199,1,190,2|0,3:2|0:0,0:0:0:0:
368,88,27237,1,0,1:0:0:0:
284,288,27387,2,0,P|288:240|295:193,1,95,2|2,0:0|1:2,0:0:0:0:
400,368,27687,6,0,P|474:317|460:228,1,190,2|0,3:2|1:0,0:0:0:0:
368,100,28137,1,0,0:0:0:0:
228,256,28287,2,0,P|274:248|322:244,1,95,0|0,1:0|3:0,0:0:0:0:
164,132,28587,6,0,P|117:124|69:120,1,95,6|0,3:2|0:0,0:0:0:0:
256,168,28887,2,0,P|286:131|313:92,1,95,2|0,3:2|1:0,0:0:0:0:
179,230,29187,2,0,P|195:274|215:317,1,95,2|0,0:0|1:0,0:0:0:0:
308,84,29487,6,0,P|276:119|249:158,1,95,2|0,3:2|3:0,0:0:0:0:
68,112,29787,2,0,P|114:121|161:125,1,95,2|0,3:2|0:0,0:0:0:0:
212,305,30087,2,0,P|197:259|176:217,1,95,0|0,1:0|3:0,0:0:0:0:
116,336,30387,6,0,B|317:443|247:174|448:281,1,380,4|0,0:1|0:0,0:0:0:0:
305,86,32187,6,0,L|335:234,1,152,6|4,0:0|0:3,0:0:0:0:
476,368,32637,2,0,L|506:219,1,152,10|4,0:3|0:3,0:0:0:0:
416,180,33087,1,4,0:3:0:0:
428,276,33237,1,0,0:0:0:0:
496,116,33387,2,0,L|420:128,1,76,8|0,0:3|0:0,0:0:0:0:
288,36,33687,2,0,L|364:48,1,76,8|0,0:3|0:0,0:0:0:0:
328,240,33987,6,0,P|254:248|200:198,1,152,6|4,0:3|0:3,0:0:0:0:
4,88,34437,2,0,P|57:37|131:46,1,152,10|4,0:3|0:3,0:0:0:0:
205,109,34887,1,4,0:3:0:0:
220,16,35037,1,0,0:0:0:0:
104,204,35187,2,0,L|92:128,1,76,8|0,0:3|0:0,0:0:0:0:
192,212,35487,2,0,L|180:288,1,76,8|4,0:3|0:3,0:0:0:0:
20,336,35787,6,0,P|95:343|166:370,1,152,6|4,0:3|0:3,0:0:0:0:
332,172,36237,2,0,P|256:179|185:206,1,152,10|4,0:3|0:3,0:0:0:0:
112,268,36687,1,4,0:3:0:0:
96,176,36837,1,0,0:0:0:0:
176,36,36987,2,0,L|166:111,1,76,8|0,0:3|0:0,0:0:0:0:
20,240,37287,2,0,L|10:164,1,76,8|0,0:3|0:0,0:0:0:0:
272,8,37587,6,0,L|250:158,1,152,6|4,0:3|0:3,0:0:0:0:
192,360,38037,2,0,L|170:209,1,152,10|4,0:3|0:3,0:0:0:0:
88,156,38487,1,4,0:3:0:0:
84,252,38637,1,12,0:3:0:0:
164,304,38787,2,0,P|201:308|238:317,1,76,8|4,0:3|0:3,0:0:0:0:
340,188,39087,2,0,P|302:192|265:201,1,76,4|8,0:3|0:3,0:0:0:0:
352,360,39387,6,0,P|424:373|484:329,1,152,6|4,0:3|0:3,0:0:0:0:
320,128,39837,2,0,P|247:114|187:158,1,152,10|4,0:3|0:3,0:0:0:0:
404,288,40287,2,0,L|416:212,1,76,4|0,0:3|0:0,0:0:0:0:
248,108,40587,1,8,0:3:0:0:
265,201,40737,1,0,0:0:0:0:
412,280,40887,1,8,0:3:0:0:
391,372,41037,1,4,0:3:0:0:
200,320,41187,6,0,L|188:244,2,76,6|0|4,0:3|0:0|0:3,0:0:0:0:
336,232,41637,1,10,0:3:0:0:
336,232,41712,1,0,0:0:0:0:
336,232,41787,2,0,P|298:224|262:214,1,76,0|4,0:0|0:3,0:0:0:0:
420,184,42087,1,4,0:3:0:0:
420,276,42237,1,0,0:0:0:0:
152,144,42387,2,0,P|189:136|225:126,1,76,8|0,0:3|0:0,0:0:0:0:
68,96,42687,1,8,0:3:0:0:
68,188,42837,1,4,0:3:0:0:
192,288,42987,6,0,P|200:214|155:155,1,152,6|4,0:3|0:3,0:0:0:0:
4,72,43437,2,0,P|40:83|77:89,1,76,10|0,0:3|0:0,0:0:0:0:
0,240,43737,1,4,0:3:0:0:
272,268,43887,2,0,P|217:251|161:241,1,114,4|0,0:3|0:0,0:0:0:0:
152,240,44187,2,0,L|166:314,1,76,8|0,0:3|0:0,0:0:0:0:
352,376,44487,1,8,0:3:0:0:
376,284,44637,1,4,0:3:0:0:
336,184,44787,6,0,L|350:109,2,76,6|0|4,0:3|0:0|0:3,0:0:0:0:
156,112,45237,2,0,P|200:54|273:60,1,152,10|4,0:3|0:3,0:0:0:0:
180,204,45687,2,0,P|142:195|105:188,1,76,4|0,0:3|0:0,0:0:0:0:
248,140,45987,2,0,P|285:131|322:124,1,76,8|4,0:3|0:3,0:0:0:0:
392,196,46287,1,8,0:3:0:0:
512,88,46437,1,2,0:0:0:0:
512,88,46512,1,2,0:0:0:0:
512,88,46587,6,0,P|421:96|364:24,1,190,4|0,3:1|3:0,0:0:0:0:
459,5,47037,1,0,1:0:0:0:
264,0,47187,2,0,P|274:46|283:93,1,95,0|0,0:0|3:0,0:0:0:0:
152,320,47487,2,0,P|144:273|134:226,1,95,2|0,0:0|3:0,0:0:0:0:
40,208,47787,1,2,1:2:0:0:
24,300,47937,1,0,1:0:0:0:
119,324,48087,2,0,P|166:331|212:343,1,95,2|0,0:0|1:0,0:0:0:0:
403,316,48387,6,0,P|465:248|443:159,1,190,2|0,3:2|3:0,0:0:0:0:
272,0,48837,2,0,P|210:67|232:156,1,190,0|0,1:0|3:0,0:0:0:0:
312,212,49287,1,2,0:0:0:0:
320,116,49437,1,2,3:2:0:0:
236,168,49587,2,0,P|189:159|142:153,1,95,0|0,1:0|3:0,0:0:0:0:
48,140,49887,1,2,1:2:0:0:
28,44,50037,1,0,0:0:0:0:
120,72,50187,6,0,L|88:260,1,190,2|0,3:2|3:0,0:0:0:0:
212,368,50637,2,0,L|196:274,2,95,0|0|0,1:0|0:0|3:0,0:0:0:0:
292,188,51087,2,0,P|356:249|320:331,1,190,2|2,0:0|1:2,0:0:0:0:
152,172,51537,1,0,1:0:0:0:
295,107,51687,1,2,0:0:0:0:
280,264,51837,1,0,1:0:0:0:
144,164,51987,6,0,L|236:183,1,95,2|0,3:2|0:0,0:0:0:0:
304,104,52287,1,0,3:0:0:0:
472,290,52437,2,0,P|430:209|339:202,1,190,0|0,1:0|3:0,0:0:0:0:
204,84,52887,2,0,P|211:130|217:178,1,95,2|2,0:0|3:2,0:0:0:0:
356,376,53187,2,0,P|367:330|381:284,1,95,2|0,1:2|3:0,0:0:0:0:
268,340,53487,1,2,1:2:0:0:
184,248,53637,1,2,0:0:0:0:
152,363,53787,6,0,P|62:370|15:293,1,190,2|0,3:2|3:0,0:0:0:0:
232,360,54237,1,0,1:0:0:0:
227,216,54387,1,0,0:0:0:0:
104,292,54537,1,0,3:0:0:0:
300,284,54687,2,0,P|346:292|392:303,1,95,2|0,0:0|3:0,0:0:0:0:
308,92,54987,1,2,1:2:0:0:
320,188,55137,1,0,0:0:0:0:
472,364,55287,1,2,1:2:0:0:
484,268,55437,1,0,3:0:0:0:
388,288,55587,6,0,P|341:280|295:267,1,95,2|0,3:2|0:0,0:0:0:0:
168,288,55887,1,2,3:2:0:0:
92,184,56037,2,0,P|19:239|27:329,1,190,2|2,1:2|3:2,0:0:0:0:
164,376,56487,2,0,P|167:328|174:281,1,95,2|2,0:0|3:2,0:0:0:0:
128,52,56787,1,0,1:0:0:0:
98,177,56937,1,0,3:0:0:0:
223,206,57087,1,2,1:2:0:0:
253,81,57237,1,0,3:0:0:0:
175,127,57387,6,0,P|83:107|-11:100,1,190,2|0,3:2|3:0,0:0:0:0:
160,296,57837,2,0,P|252:275|347:268,1,190,0|0,1:0|3:0,0:0:0:0:
248,16,58287,2,0,L|259:110,1,95,2|0,0:0|3:0,0:0:0:0:
352,276,58587,1,2,1:2:0:0:
447,260,58737,1,0,1:0:0:0:
431,165,58887,1,2,0:0:0:0:
336,180,59037,1,0,1:0:0:0:
232,307,59187,6,0,P|326:308|410:350,1,190,2|0,3:2|3:0,0:0:0:0:
192,160,59637,2,0,P|97:160|13:202,1,190,0|0,1:0|3:0,0:0:0:0:
208,384,60087,2,0,L|218:289,1,95,2|0,0:0|3:0,0:0:0:0:
112,216,60387,1,2,1:2:0:0:
98,120,60537,1,0,3:0:0:0:
212,176,60687,1,0,1:0:0:0:
227,81,60837,1,0,1:0:0:0:
299,144,60987,6,0,P|391:134|460:196,1,190,6|2,3:2|0:0,0:0:0:0:
236,280,61437,2,0,P|228:233|219:186,2,95,0|0|2,1:0|0:0|0:0,0:0:0:0:
0,368,61887,6,0,P|91:378|160:316,1,190,2|0,0:0|1:0,0:0:0:0:
288,348,62337,1,0,3:0:0:0:
356,240,62487,2,0,P|310:252|263:259,1,95,2|0,1:2|0:0,0:0:0:0:
32,180,62787,6,0,P|44:225|54:272,1,95,2|0,3:2|0:0,0:0:0:0:
180,188,63087,2,0,P|163:232|145:276,1,95,2|0,3:2|1:0,0:0:0:0:
296,279,63387,2,0,P|257:306|217:331,1,95,2|0,0:0|3:0,0:0:0:0:
480,196,63687,6,0,P|482:148|491:102,1,95,2|0,0:0|0:0,0:0:0:0:
351,140,63987,2,0,P|380:102|414:69,1,95,2|0,1:2|0:0,0:0:0:0:
278,21,64287,2,0,P|323:6|370:0,1,95,2|0,1:2|0:0,0:0:0:0:
464,336,64587,6,0,P|405:264|314:266,1,190,6|2,3:2|0:0,0:0:0:0:
68,120,65037,6,0,P|115:62|188:63,1,152,2|0,1:2|1:0,0:0:0:0:
240,216,65487,6,0,L|228:300,1,85.4999973907472,2|0,0:0|0:0,0:0:0:0:
240,296,65787,6,0,P|199:367|118:368,1,170.999994781494,2|0,1:2|0:0,0:0:0:0:
44,220,66087,2,0,P|86:149|167:148,1,170.999994781494,2|0,1:2|0:0,0:0:0:0:
152,292,66387,6,0,P|77:275|2:268,1,152,2|0,3:2|3:0,0:0:0:0:
320,176,66837,6,0,P|375:188|432:193,1,113.999996520996,2|2,1:2|0:0,0:0:0:0:
228,36,67287,6,0,L|236:92,1,57,2|0,0:0|0:0,0:0:0:0:
316,96,67587,6,0,P|320:48|301:6,1,95,2|0,1:2|3:0,0:0:0:0:
160,140,67887,2,0,P|155:187|174:229,1,95,2|0,1:2|0:0,0:0:0:0:
308,368,68187,6,0,P|379:344|455:336,1,152,2|2,3:2|0:0,0:0:0:0:
152,152,68637,6,0,P|98:133|41:127,1,113.999996520996,0|0,1:0|3:0,0:0:0:0:
216,292,69087,6,0,P|218:263|225:235,1,57,2|0,0:0|0:0,0:0:0:0:
236,224,69387,6,0,P|224:168|215:111,1,114,2|0,1:2|0:0,0:0:0:0:
124,128,69687,2,0,P|135:183|144:240,1,114,2|0,1:2|0:0,0:0:0:0:
32,304,69987,6,0,P|88:306|141:327,1,113.999996520996,2|2,3:2|0:0,0:0:0:0:
464,144,70437,6,0,P|426:148|390:159,1,76,2|0,1:2|3:0,0:0:0:0:
300,292,70887,6,0,L|328:288,1,28.5,2|0,0:0|0:0,0:0:0:0:
344,284,71187,5,2,1:2:0:0:
248,212,71337,1,0,0:0:0:0:
280,384,71487,1,2,1:2:0:0:
440,220,71787,6,0,P|444:163|456:107,2,113.999996520996,2|2|2,3:2|3:2|1:2,0:0:0:0:
180,320,72687,6,0,P|235:308|292:301,1,113.999996520996,2|0,3:2|0:0,0:0:0:0:
292,301,72912,1,0,3:2:0:0:
292,301,72987,1,0,3:0:0:0:
356,156,73137,6,0,P|309:146|262:140,1,95,2|8,3:2|3:0,0:0:0:0:
168,152,73437,1,4,0:3:0:0:
156,56,73587,1,2,1:3:0:0:
252,44,73737,1,2,3:2:0:0:
262,140,73887,6,0,P|269:178|277:215,1,76,2|0,3:2|0:0,0:0:0:0:
392,332,74187,2,0,P|355:319|319:307,1,76,2|0,3:2|1:0,0:0:0:0:
161,349,74487,2,0,P|190:323|218:298,1,76,2|0,1:2|0:0,0:0:0:0:
380,228,74787,5,2,3:2:0:0:
176,212,74937,1,0,0:0:0:0:
164,208,75012,1,0,3:2:0:0:
152,204,75087,1,0,3:0:0:0:
320,72,75237,1,2,3:2:0:0:
276,288,75387,6,0,P|268:334|264:382,1,95,0|4,0:0|0:3,0:0:0:0:
356,348,75687,1,0,1:0:0:0:
176,280,75837,1,4,3:0:0:0:
232,104,75987,2,0,P|239:57|243:9,1,95,8|4,3:0|0:3,0:0:0:0:
72,180,76287,5,2,3:2:0:0:
56,88,76437,1,0,0:0:0:0:
148,72,76587,1,2,3:2:0:0:
164,164,76737,2,0,L|179:257,1,95,2|0,0:0|3:0,0:0:0:0:
92,116,77037,2,0,P|183:129|254:70,1,190,2|2,0:0|0:0,0:0:0:0:
376,44,77487,6,0,B|368:20|371:-4|371:-4|360:16|337:25,1,95,2|0,3:2|0:0,0:0:0:0:
464,16,77787,1,2,3:2:0:0:
264,160,77937,2,0,P|252:113|244:67,1,95,2|0,0:0|3:0,0:0:0:0:
460,8,78237,2,0,P|472:55|480:101,1,95,2|0,0:0|1:0,0:0:0:0:
396,200,78537,1,2,0:0:0:0:
208,340,78687,5,2,3:2:0:0:
184,248,78837,1,0,0:0:0:0:
308,136,78987,5,2,1:2:0:0:
332,44,79137,1,0,3:0:0:0:
156,124,79287,5,0,1:0:0:0:
336,280,79437,1,0,1:0:0:0:
404,88,79587,5,4,1:3:0:0:
108,296,79737,1,4,1:3:0:0:
484,376,79887,5,2,1:0:0:0:
412,120,80487,6,0,L|404:176,1,56.9999982604981,4|2,1:2|0:0,0:0:0:0:
140,236,81087,6,0,P|211:152|320:161,1,227.999993041992,4|4,1:2|0:3,0:0:0:0:
52,48,81537,2,0,P|64:103|74:159,1,113.999996520996,12|0,0:3|0:0,0:0:0:0:
48,256,81837,1,4,0:3:0:0:
224,364,81987,2,0,P|235:308|248:252,1,113.999996520996,2|0,1:2|3:0,0:0:0:0:
248,252,82212,1,0,3:0:0:0:
248,252,82287,5,4,0:3:0:0:
184,184,82437,1,4,0:3:0:0:
340,332,82587,1,0,3:0:0:0:
488,148,82737,2,0,P|416:64|307:73,1,227.999993041992,10|4,0:3|0:3,0:0:0:0:
156,276,83187,1,2,1:3:0:0:
360,212,83337,2,0,L|416:200,2,56.9999982604981,4|0|8,0:3|3:0|3:0,0:0:0:0:
224,340,83637,5,4,0:3:0:0:
96,208,83787,1,0,0:0:0:0:
276,160,83937,1,12,0:3:0:0:
144,24,84087,2,0,P|159:78|170:134,1,113.999996520996,0|4,3:0|0:3,0:0:0:0:
256,368,84387,2,0,P|264:311|276:255,1,113.999996520996,2|0,1:2|0:0,0:0:0:0:
276,255,84612,1,0,3:0:0:0:
276,255,84687,6,0,B|154:215|185:326|63:286,1,227.999993041992,4|0,0:3|0:0,0:0:0:0:
272,140,85137,2,0,B|393:100|362:211|484:171,1,227.999993041992,10|4,0:3|0:3,0:0:0:0:
440,88,85587,1,6,1:2:0:0:
316,224,85737,1,8,1:3:0:0:
168,164,85887,6,0,P|169:107|197:58,1,113.999996520996,4|0,3:2|3:0,0:0:0:0:
248,244,86187,2,0,P|198:271|142:271,1,113.999996520996,4|12,0:3|0:3,0:0:0:0:
277,134,86487,2,0,P|325:163|353:212,1,113.999996520996,0|8,3:0|0:3,0:0:0:0:
332,324,86787,1,2,1:2:0:0:
500,172,86937,1,0,3:0:0:0:
372,196,87087,6,0,P|316:184|266:156,1,113.999996520996,4|4,0:3|0:3,0:0:0:0:
121,309,87387,2,0,P|159:266|207:237,1,113.999996520996,0|10,0:0|0:3,0:0:0:0:
148,35,87687,2,0,P|165:90|166:146,1,113.999996520996,4|0,0:3|3:0,0:0:0:0:
300,336,87987,2,0,P|307:279|318:223,1,113.999996520996,2|0,1:3|3:0,0:0:0:0:
318,223,88212,1,4,0:3:0:0:
317,222,88287,6,0,P|236:148|127:163,1,227.999993041992,8|8,0:3|0:3,0:0:0:0:
184,352,88737,2,0,P|236:330|291:316,1,113.999996520996,4|0,3:0|0:0,0:0:0:0:
112,248,89037,2,0,P|59:226|4:212,1,113.999996520996,8|2,0:3|1:2,0:0:0:0:
236,28,89337,6,0,P|219:140|204:253,1,227.999993041992,6|4,1:2|3:0,0:0:0:0:
120,156,89787,1,10,1:3:0:0:
308,220,89937,2,0,P|328:167|321:111,1,113.999996520996,2|0,1:0|3:0,0:0:0:0:
144,32,90237,2,0,P|123:84|130:140,1,113.999996520996,6|2,1:0|1:2,0:0:0:0:
140,156,90687,6,0,B|116:100|132:32|180:12|180:12|160:36|156:72,1,227.999993041992,6|0,1:2|3:0,0:0:0:0:
228,184,91137,2,0,P|336:205|423:137,1,227.999993041992,12|8,0:3|0:3,0:0:0:0:
464,332,91587,2,0,P|408:319|351:312,1,113.999996520996,2|0,1:2|3:0,0:0:0:0:
351,312,91812,1,0,3:0:0:0:
351,312,91887,5,12,3:3:0:0:
172,372,92037,1,8,0:3:0:0:
64,212,92187,1,4,0:3:0:0:
244,153,92337,2,0,P|235:209|229:266,1,113.999996520996,10|0,0:3|0:0,0:0:0:0:
96,128,92637,2,0,P|104:71|110:14,1,113.999996520996,4|2,0:3|1:3,0:0:0:0:
199,219,92937,6,0,P|118:143|7:138,1,227.999993041992,0|4,0:0|0:3,0:0:0:0:
196,88,93387,1,0,0:0:0:0:
56,220,93537,1,12,0:3:0:0:
240,275,93687,1,0,3:0:0:0:
164,196,93837,1,8,0:3:0:0:
140,300,93987,2,0,P|195:287|251:279,1,113.999996520996,2|0,1:2|3:0,0:0:0:0:
251,279,94212,1,4,0:3:0:0:
251,279,94287,6,0,P|259:165|277:52,1,227.999993041992,4|4,3:0|0:3,0:0:0:0:
480,152,94737,2,0,P|471:265|453:378,1,227.999993041992,10|12,0:3|0:3,0:0:0:0:
416,88,95187,1,6,1:2:0:0:
315,343,95337,1,0,0:0:0:0:
315,343,95412,1,0,3:2:0:0:
315,342,95487,6,0,P|367:321|423:315,1,113.999996520996,4|4,3:2|3:0,0:0:0:0:
492,136,95787,1,0,0:0:0:0:
188,260,95937,2,0,P|135:238|79:232,1,113.999996520996,12|0,0:3|3:0,0:0:0:0:
16,52,96237,1,4,0:3:0:0:
316,168,96387,1,2,1:2:0:0:
196,24,96537,2,0,L|201:80,1,56.9999982604981,0|0,3:0|3:0,0:0:0:0:
212,172,96687,5,6,3:1:0:0:
12,64,97737,1,2,0:0:0:0:
12,64,97812,1,2,0:0:0:0:
12,64,97887,5,4,3:1:0:0:
200,16,98037,1,0,0:0:0:0:
248,204,98187,1,0,1:3:0:0:
60,251,98337,2,0,P|52:195|40:139,1,113.999996520996,12|0,0:3|0:0,0:0:0:0:
20,332,98637,1,4,0:3:0:0:
196,32,98787,2,0,P|203:88|215:144,1,113.999996520996,2|4,1:2|0:3,0:0:0:0:
215,144,99012,1,0,3:2:0:0:
215,144,99087,5,4,3:0:0:0:
300,188,99237,1,4,0:3:0:0:
292,96,99387,1,0,1:0:0:0:
112,104,99537,2,0,L|56:92,2,56.9999982604981,4|8|0,0:3|0:3|1:0,0:0:0:0:
224,240,99837,1,4,1:3:0:0:
16,164,99987,1,4,0:3:0:0:
276,32,100137,1,0,1:3:0:0:
468,248,100287,6,0,P|419:192|345:187,1,152,4|0,3:2|0:0,0:0:0:0:
148,80,100737,2,0,P|207:35|280:46,1,152,4|4,0:3|0:3,0:0:0:0:
372,280,101187,2,0,L|358:355,1,76,0|0,1:0|3:0,0:0:0:0:
212,200,101487,2,0,L|226:125,1,76,4|0,0:3|0:0,0:0:0:0:
144,316,101787,2,0,L|69:330,1,76,0|0,1:0|0:0,0:0:0:0:
64,232,102087,6,0,P|43:162|94:110,1,152,0|0,3:0|0:0,0:0:0:0:
272,248,102537,2,0,P|292:317|241:369,1,152,4|8,0:3|0:3,0:0:0:0:
120,28,102987,2,0,P|157:35|195:39,1,76,0|8,1:0|0:3,0:0:0:0:
332,176,103287,2,0,P|294:168|256:164,1,76,4|2,0:3|0:3,0:0:0:0:
396,28,103587,2,0,P|433:35|471:39,1,76,0|2,1:0|0:3,0:0:0:0:
471,39,103812,1,4,0:3:0:0:
471,39,103887,6,0,L|491:189,1,152,0|0,3:0|0:0,0:0:0:0:
280,368,104337,2,0,L|300:217,1,152,4|4,0:3|0:3,0:0:0:0:
452,336,104787,2,0,L|376:324,1,76,0|0,1:0|3:0,0:0:0:0:
240,140,105087,2,0,L|316:128,1,76,4|0,0:3|0:0,0:0:0:0:
176,344,105387,2,0,L|100:332,1,76,0|0,1:0|0:0,0:0:0:0:
28,364,105612,1,2,0:3:0:0:
28,364,105687,6,0,P|-6:297|2:223,1,152,0|4,3:0|3:0,0:0:0:0:
164,16,106137,2,0,P|198:82|189:156,1,152,12|4,0:3|3:0,0:0:0:0:
16,72,106587,1,4,1:0:0:0:
108,92,106737,2,0,L|146:99,2,38,0|2|2,3:0|3:2|1:0,0:0:0:0:
44,168,107037,1,12,0:3:0:0:
197,135,107187,1,2,1:0:0:0:
92,18,107337,1,4,0:3:0:0:
112,104,107487,6,0,L|125:201,1,95,6|0,1:2|0:0,0:0:0:0:
124,198,107712,1,0,3:2:0:0:
124,198,107787,1,0,1:0:0:0:
240,356,107937,2,0,P|182:284|91:292,1,190,12|4,0:3|0:3,0:0:0:0:
144,376,108387,1,0,1:0:0:0:
222,198,108537,1,0,0:0:0:0:
222,198,108612,1,0,1:2:0:0:
222,198,108687,1,4,0:3:0:0:
28,220,108837,1,0,3:0:0:0:
127,264,108987,2,0,P|175:259|222:252,1,95,0|0,1:0|0:0,0:0:0:0:
480,324,109287,6,0,P|405:269|313:281,1,190,4|0,3:0|1:0,0:0:0:0:
240,348,109737,2,0,P|215:307|210:260,1,95,12|0,0:3|0:0,0:0:0:0:
336,376,110037,1,4,0:3:0:0:
384,212,110187,2,0,P|408:252|413:299,1,95,0|0,1:0|0:0,0:0:0:0:
413,299,110412,1,0,1:2:0:0:
413,299,110487,1,4,0:3:0:0:
284,184,110637,1,0,3:0:0:0:
360,116,110787,2,0,L|453:131,1,95,0|0,1:0|3:0,0:0:0:0:
272,68,111012,1,0,1:0:0:0:
264,84,111087,6,0,P|196:21|105:33,1,190,4|0,3:2|1:0,0:0:0:0:
304,192,111537,2,0,P|372:129|463:141,1,190,12|4,0:3|0:3,0:0:0:0:
164,124,111987,2,0,P|175:170|183:216,1,95,0|0,1:0|0:0,0:0:0:0:
380,320,112287,2,0,P|388:273|400:228,1,95,4|0,0:3|3:0,0:0:0:0:
152,356,112587,2,0,L|246:346,1,95,0|0,1:0|3:0,0:0:0:0:
240,351,112887,6,0,P|151:370|89:303,1,190,4|0,3:2|1:0,0:0:0:0:
324,188,113337,2,0,P|412:206|474:139,1,190,12|4,0:3|0:3,0:0:0:0:
168,36,113787,2,0,L|179:130,1,95,0|12,1:0|0:3,0:0:0:0:
193,160,114012,1,8,0:3:0:0:
220,178,114087,1,4,0:3:0:0:
252,184,114162,1,4,0:3:0:0:
284,177,114237,1,4,0:3:0:0:
309,155,114312,1,0,0:0:0:0:
325,125,114387,1,4,1:2:0:0:
244,16,114537,1,0,0:0:0:0:
244,16,114612,1,0,0:0:0:0:
244,16,114687,6,0,P|168:27|93:34,1,152,6|4,0:0|0:3,0:0:0:0:
304,196,115137,2,0,P|379:184|454:177,1,152,10|4,0:3|0:3,0:0:0:0:
504,96,115587,1,4,0:3:0:0:
412,92,115737,1,0,0:0:0:0:
324,132,115887,2,0,L|304:57,1,76,0|0,1:0|0:0,0:0:0:0:
164,144,116187,1,8,0:3:0:0:
176,48,116337,1,0,0:0:0:0:
252,112,116487,6,0,P|249:187|237:263,1,152,6|4,0:3|0:3,0:0:0:0:
0,168,116937,2,0,P|3:93|15:17,1,152,10|0,0:3|1:0,0:0:0:0:
92,72,117387,1,4,0:3:0:0:
152,0,117537,1,0,0:0:0:0:
184,88,117687,2,0,L|272:104,1,76,0|0,1:0|0:0,0:0:0:0:
112,248,117987,1,0,1:0:0:0:
168,172,118137,1,4,0:3:0:0:
208,260,118287,6,0,L|284:272,2,76,6|0|4,0:3|0:0|0:3,0:0:0:0:
368,228,118737,2,0,P|310:271|319:343,1,152,10|4,0:3|0:3,0:0:0:0:
412,368,119187,1,4,0:3:0:0:
452,280,119337,1,0,0:0:0:0:
376,220,119487,2,0,P|338:224|300:227,1,76,0|0,1:0|0:0,0:0:0:0:
148,176,119787,1,8,0:3:0:0:
108,88,119937,1,0,0:0:0:0:
180,24,120087,5,6,0:3:0:0:
242,203,120237,1,2,0:3:0:0:
56,168,120387,1,4,0:3:0:0:
156,132,120537,2,0,P|231:128|307:120,1,152,10|0,0:3|1:0,0:0:0:0:
376,192,120987,1,4,0:3:0:0:
400,96,121137,1,8,0:3:0:0:
192,208,121287,1,0,1:0:0:0:
216,304,121437,1,0,1:0:0:0:
288,236,121587,1,8,0:3:0:0:
148,120,121737,1,0,1:0:0:0:
148,120,121812,1,4,0:3:0:0:
148,120,121887,6,0,L|72:108,2,76,6|0|4,0:3|0:0|0:3,0:0:0:0:
312,272,122337,2,0,P|268:213|196:221,1,152,10|4,0:3|0:3,0:0:0:0:
292,132,122787,1,4,0:3:0:0:
120,296,122937,1,0,0:0:0:0:
80,120,123087,2,0,P|88:157|94:194,1,76,0|0,1:0|0:0,0:0:0:0:
216,368,123387,2,0,P|223:330|233:294,1,76,8|4,0:3|0:3,0:0:0:0:
184,224,123687,5,6,0:3:0:0:
288,348,123837,1,0,0:0:0:0:
343,195,123987,1,4,0:3:0:0:
272,256,124137,2,0,P|197:243|121:236,1,152,10|0,0:3|1:0,0:0:0:0:
28,256,124587,1,4,0:3:0:0:
12,164,124737,1,0,0:0:0:0:
104,144,124887,2,0,L|180:132,1,76,0|0,1:0|0:0,0:0:0:0:
356,288,125187,1,0,1:0:0:0:
376,196,125337,1,4,0:3:0:0:
395,104,125487,6,0,P|322:115|271:64,1,152,6|4,0:3|0:3,0:0:0:0:
120,0,125937,2,0,P|127:37|133:74,1,76,10|0,0:3|0:0,0:0:0:0:
164,232,126237,1,4,0:3:0:0:
264,152,126387,2,0,L|188:140,1,76,4|0,0:3|0:0,0:0:0:0:
348,32,126687,1,0,1:0:0:0:
440,20,126837,1,0,0:0:0:0:
452,112,126987,1,8,0:3:0:0:
360,124,127137,1,4,0:3:0:0:
340,219,127287,6,0,P|413:212|467:262,1,152,6|4,0:3|0:3,0:0:0:0:
280,356,127737,2,0,P|269:280|255:206,1,152,10|4,0:3|0:3,0:0:0:0:
272,76,128187,1,4,0:3:0:0:
244,204,128337,1,0,0:0:0:0:
152,192,128487,1,0,1:0:0:0:
136,100,128637,1,4,1:3:0:0:
64,164,128787,1,8,0:3:0:0:
0,315,129087,6,0,P|89:300|143:372,1,190,4|0,3:1|3:0,0:0:0:0:
240,196,129537,2,0,P|231:149|227:102,1,95,0|0,1:0|0:0,0:0:0:0:
376,160,129837,1,0,3:0:0:0:
312,308,129987,2,0,L|218:292,1,95,2|4,0:0|3:0,0:0:0:0:
152,220,130287,1,2,1:3:0:0:
132,128,130437,1,0,1:0:0:0:
248,68,130587,1,2,3:0:0:0:
228,160,130737,1,0,0:0:0:0:
320,136,130887,6,0,L|413:120,1,95,2|0,3:2|0:0,0:0:0:0:
296,228,131187,1,0,3:0:0:0:
512,364,131337,2,0,P|454:293|364:304,1,190,0|0,1:0|3:0,0:0:0:0:
272,324,131787,1,2,3:2:0:0:
392,208,131937,1,2,3:2:0:0:
188,164,132087,2,0,P|195:210|203:257,1,95,0|0,1:0|3:0,0:0:0:0:
424,380,132387,1,2,1:3:0:0:
456,288,132537,1,0,0:0:0:0:
364,304,132687,6,0,L|176:336,1,190,2|0,3:0|3:0,0:0:0:0:
4,244,133137,2,0,P|16:289|27:336,2,95,0|0|0,1:0|0:0|3:0,0:0:0:0:
32,152,133587,2,0,P|78:143|123:127,1,95,2|4,0:0|3:0,0:0:0:0:
240,244,133887,2,0,P|193:232|146:228,1,95,2|0,1:3|1:0,0:0:0:0:
40,160,134187,1,2,3:0:0:0:
12,252,134337,1,0,1:0:0:0:
80,324,134487,6,0,L|91:229,1,95,2|0,3:2|0:0,0:0:0:0:
224,156,134787,1,0,3:0:0:0:
272,240,134937,2,0,P|357:267|416:199,1,190,0|0,1:0|3:0,0:0:0:0:
476,44,135387,1,2,3:2:0:0:
488,140,135537,1,0,3:2:0:0:
360,128,135687,1,2,1:2:0:0:
380,48,135837,1,4,1:3:0:0:
300,68,135987,2,0,P|253:79|207:87,1,95,2|4,0:3|1:3,0:0:0:0:
56,252,136287,6,0,P|102:174|192:181,1,190,2|0,3:0|3:0,0:0:0:0:
28,28,136737,2,0,P|35:74|42:121,1,95,0|0,1:0|0:0,0:0:0:0:
140,248,137037,1,0,3:0:0:0:
288,368,137187,2,0,P|299:322|312:276,1,95,2|0,1:2|3:0,0:0:0:0:
192,188,137487,1,2,1:3:0:0:
88,308,137637,1,0,0:0:0:0:
80,196,137787,1,2,1:3:0:0:
200,300,137937,1,0,3:0:0:0:
132,240,138087,6,0,L|38:221,2,95,2|0|2,3:0|0:0|3:2,0:0:0:0:
264,352,138537,2,0,P|219:271|258:188,1,190,2|2,1:3|3:2,0:0:0:0:
176,128,138987,1,2,0:3:0:0:
316,268,139137,1,2,3:2:0:0:
420,96,139287,2,0,P|373:104|326:111,1,95,0|0,1:0|3:0,0:0:0:0:
260,180,139587,1,2,1:3:0:0:
244,52,139737,1,0,1:0:0:0:
496,0,139887,6,0,P|483:94|477:188,1,190,2|0,3:0|3:0,0:0:0:0:
252,364,140337,2,0,P|264:269|270:175,1,190,0|0,1:0|3:0,0:0:0:0:
468,288,140787,2,0,L|373:276,1,95,2|4,0:0|3:0,0:0:0:0:
192,212,141087,2,0,P|183:165|171:119,1,95,2|0,1:3|1:0,0:0:0:0:
380,36,141387,2,0,P|368:82|361:129,1,95,2|0,3:0|1:0,0:0:0:0:
264,260,141687,6,0,P|199:195|110:213,1,190,2|0,3:2|3:0,0:0:0:0:
356,120,142137,2,0,P|420:55|509:73,1,190,0|0,1:0|3:0,0:0:0:0:
348,232,142587,1,2,0:3:0:0:
344,216,142737,1,0,3:0:0:0:
148,128,142887,1,2,1:3:0:0:
271,155,143037,1,0,3:0:0:0:
512,268,143187,1,0,1:0:0:0:
419,288,143337,1,0,1:0:0:0:
268,336,143487,6,0,P|234:249|273:165,1,190,6|2,3:2|0:0,0:0:0:0:
128,44,143937,2,0,P|136:90|141:137,2,95,0|0|2,1:0|0:0|0:0,0:0:0:0:
56,264,144387,6,0,P|107:189|197:198,1,190,2|0,0:0|1:0,0:0:0:0:
24,124,144837,1,0,3:0:0:0:
144,272,144987,1,2,1:2:0:0:
280,84,145137,1,2,0:0:0:0:
280,84,145212,1,2,0:0:0:0:
280,84,145287,6,0,P|234:96|187:103,1,95,2|0,3:2|0:0,0:0:0:0:
212,264,145587,2,0,P|178:230|148:193,1,95,2|0,3:2|1:0,0:0:0:0:
22,295,145887,2,0,P|34:249|51:204,1,95,2|0,0:0|3:0,0:0:0:0:
228,348,146187,6,0,P|273:335|320:328,1,95,0|0,1:0|3:0,0:0:0:0:
296,168,146487,2,0,P|329:201|359:238,1,95,2|0,1:2|0:0,0:0:0:0:
486,137,146787,2,0,P|473:182|456:227,1,95,2|0,1:2|0:0,0:0:0:0:
456,227,147012,1,0,3:2:0:0:
456,227,147087,5,6,3:2:0:0:
304,176,147237,1,0,0:0:0:0:
424,70,147387,1,2,0:0:0:0:
380,252,147537,2,0,P|384:204|392:157,1,95,2|0,1:2|0:0,0:0:0:0:
444,312,147837,1,0,1:0:0:0:
360,336,147987,2,0,L|266:321,1,95,2|0,0:0|3:0,0:0:0:0:
80,368,148287,1,2,1:3:0:0:
44,280,148437,1,0,0:0:0:0:
68,188,148587,2,0,L|161:173,1,95,2|0,1:3|0:0,0:0:0:0:
161,173,148812,1,2,0:0:0:0:
161,172,148887,6,0,P|71:187|12:118,1,190,2|0,3:2|3:0,0:0:0:0:
248,228,149337,2,0,P|250:180|255:133,1,95,2|0,1:2|0:0,0:0:0:0:
104,104,149637,1,2,0:0:0:0:
156,272,149787,1,2,0:0:0:0:
275,142,149937,1,0,0:0:0:0:
181,171,150087,2,0,L|86:160,1,95,2|0,1:3|3:0,0:0:0:0:
252,240,150387,2,0,L|346:229,1,95,2|0,1:3|0:0,0:0:0:0:
464,280,150687,5,2,3:0:0:0:
336,224,150837,1,0,0:0:0:0:
468,128,150987,1,2,0:0:0:0:
320,0,151137,2,0,P|288:61|306:128,1,142.5,0|0,1:0|0:0,0:0:0:0:
300,140,151437,1,0,3:0:0:0:
448,352,151587,2,0,P|479:290|461:223,1,142.5,2|0,0:0|0:0,0:0:0:0:
468,212,151887,2,0,P|420:207|375:191,1,95,2|0,1:3|0:0,0:0:0:0:
204,260,152187,2,0,P|247:241|294:234,1,95,2|0,1:3|0:0,0:0:0:0:
352,312,152487,5,2,3:0:0:0:
224,168,152637,1,0,0:0:0:0:
164,352,152787,1,2,0:0:0:0:
20,232,152937,2,0,P|71:186|139:199,1,142.5,2|0,1:2|0:0,0:0:0:0:
152,192,153237,1,0,3:0:0:0:
40,352,153387,1,2,0:0:0:0:
248,276,153537,1,0,3:0:0:0:
248,276,153612,1,0,1:0:0:0:
248,276,153687,5,4,1:3:0:0:
314,216,153837,5,8,1:3:0:0:
164,248,153987,1,4,1:3:0:0:
266,363,154137,1,8,1:3:0:0:
248,276,154287,6,0,P|252:219|264:163,1,113.999996520996,6|0,1:2|0:0,0:0:0:0:
264,163,154512,1,0,1:2:0:0:
264,163,154587,1,2,3:2:0:0:
128,24,154737,1,0,0:0:0:0:
128,24,154812,1,0,3:2:0:0:
128,24,154887,2,0,P|123:80|111:136,1,113.999996520996,2|0,1:2|0:0,0:0:0:0:
76,228,155187,5,2,1:3:0:0:
16,152,155337,2,0,L|4:96,2,56.9999982604981,0|0|0,3:0|3:0|3:0,0:0:0:0:
132,304,155637,1,2,1:3:0:0:
280,240,155787,2,0,P|224:228|167:219,1,113.999996520996,0|4,0:0|0:3,0:0:0:0:
44,316,156087,1,2,1:3:0:0:
111,136,156237,1,2,1:2:0:0:
220,296,156387,6,0,P|275:284|332:275,1,113.999996520996,2|0,1:3|0:0,0:0:0:0:
392,76,156687,2,0,P|374:130|353:183,1,113.999996520996,2|0,3:2|0:0,0:0:0:0:
496,336,156987,2,0,P|457:293|422:248,1,113.999996520996,2|0,1:2|0:0,0:0:0:0:
264,208,157287,5,2,1:3:0:0:
444,156,157437,1,0,3:0:0:0:
460,152,157512,1,0,3:0:0:0:
472,148,157587,1,0,3:0:0:0:
400,336,157737,1,2,1:3:0:0:
260,200,157887,2,0,P|255:152|245:106,1,95,0|4,0:0|0:3,0:0:0:0:
152,80,158187,1,0,1:0:0:0:
172,172,158337,1,4,1:3:0:0:
312,364,158487,1,12,0:3:0:0:
332,272,158637,1,8,0:3:0:0:
96,232,158787,5,6,3:2:0:0:
160,308,158937,1,0,0:0:0:0:
192,216,159087,1,2,1:2:0:0:
140,72,159237,2,0,L|28:88,1,113.999996520996,2|0,0:3|0:0,0:0:0:0:
252,128,159537,2,0,L|364:112,1,113.999996520996,2|0,0:3|1:0,0:0:0:0:
144,200,159837,1,2,0:3:0:0:
396,344,159987,6,0,P|352:274|270:272,1,170.999994781494,6|0,3:2|0:0,0:0:0:0:
260,264,160287,1,2,1:2:0:0:
144,216,160437,2,0,P|155:271|164:328,1,113.999996520996,2|0,0:3|0:0,0:0:0:0:
340,188,160737,2,0,P|328:132|319:75,1,113.999996520996,2|0,0:3|1:0,0:0:0:0:
96,32,161037,1,2,0:3:0:0:
96,32,161112,1,0,3:2:0:0:
96,32,161187,5,6,3:2:0:0:
26,101,161337,1,4,0:3:0:0:
119,126,161487,1,2,1:3:0:0:
332,200,161637,1,0,3:2:0:0:
332,200,161712,1,4,0:3:0:0:
332,200,161787,5,2,1:3:0:0:
402,269,161937,1,2,1:3:0:0:
309,294,162087,1,4,1:3:0:0:
244,76,162237,1,0,1:0:0:0:
244,76,162312,1,0,1:2:0:0:
244,76,162387,6,2,L|251:19,3,56.9999982604981,6|2|2|2,1:1|0:1|0:1|0:1,0:1:0:0:
472,224,163587,6,0,P|413:133|305:145,1,227.999993041992,6|0,3:1|1:0,0:0:0:0:
128,324,164037,2,0,P|181:304|238:303,1,113.999996520996,2|0,0:1|0:0,0:0:0:0:
408,304,164337,1,0,0:0:0:0:
180,184,164487,2,0,P|171:127|156:72,1,113.999996520996,2|2,1:0|0:0,0:0:0:0:
156,72,164712,1,0,3:2:0:0:
156,72,164787,5,2,3:1:0:0:
284,224,164937,1,2,0:0:0:0:
76,156,165087,1,2,1:0:0:0:
228,0,165237,2,0,P|208:112|193:225,1,227.999993041992,2|0,0:1|3:0,0:0:0:0:
176,324,165687,1,0,1:0:0:0:
144,68,165837,2,0,L|136:11,2,56.9999982604981,2|4|0,0:1|0:3|3:0,0:0:0:0:
100,260,166137,5,2,0:1:0:0:
240,144,166287,1,2,1:0:0:0:
36,52,166437,1,2,0:0:0:0:
196,236,166587,1,2,3:1:0:0:
275,5,166737,1,2,0:0:0:0:
172,100,166887,2,0,L|58:86,1,113.999996520996,2|2,1:0|0:0,0:0:0:0:
52,76,167112,1,0,3:0:0:0:
44,63,167187,6,0,P|62:175|71:289,1,227.999993041992,2|2,3:1|1:0,0:0:0:0:
352,372,167637,2,0,P|333:259|324:145,1,227.999993041992,2|2,0:1|0:0,0:0:0:0:
356,24,168087,1,4,1:0:0:0:
226,167,168237,1,0,0:0:0:0:
414,214,168387,6,0,L|526:231,1,113.999996520996,4|0,3:1|0:0,0:0:0:0:
292,239,168687,2,0,P|187:264|128:174,1,227.999993041992,2|2,1:0|3:1,0:0:0:0:
256,72,169137,1,2,0:0:0:0:
24,36,169287,2,0,P|37:91|48:147,1,113.999996520996,2|0,1:0|0:0,0:0:0:0:
168,372,169587,6,0,P|181:316|198:262,1,113.999996520996,0|0,3:0|3:0,0:0:0:0:
420,116,169887,2,0,P|327:172|331:281,1,227.999993041992,2|2,1:0|1:0,0:0:0:0:
423,224,170337,1,4,0:3:0:0:
304,72,170487,1,4,1:2:0:0:
287,77,170562,1,0,0:0:0:0:
270,79,170637,1,0,0:0:0:0:
252,77,170712,1,0,0:0:0:0:
236,72,170787,6,0,B|113:22|155:143|22:89,1,227.999993041992,6|0,3:1|1:0,0:0:0:0:
11,99,171237,2,0,P|0:45|22:-6,1,113.999996520996,2|0,0:1|0:0,0:0:0:0:
192,144,171537,2,0,P|204:198|181:250,1,113.999996520996,2|2,0:1|1:2,0:0:0:0:
144,56,171837,2,0,B|218:40|218:40|274:93|274:93|352:77,1,227.999993041992,6|0,0:1|0:0,0:0:0:0:
96,140,172287,1,2,3:1:0:0:
320,280,172437,2,0,L|346:169,1,113.999996520996,6|4,1:0|3:0,0:0:0:0:
172,256,172737,2,0,L|198:366,1,113.999996520996,2|0,1:0|1:0,0:0:0:0:
200,361,172962,1,0,1:0:0:0:
202,355,173037,1,0,1:0:0:0:
204,349,173112,1,0,0:0:0:0:
206,343,173187,6,0,B|240:294|228:227|181:195|181:195|198:221|200:252,1,227.999993041992,6|0,3:1|1:0,0:0:0:0:
120,352,173637,2,0,P|65:363|19:332,1,113.999996520996,2|0,0:1|3:0,0:0:0:0:
0,204,173937,1,2,0:1:0:0:
80,104,174087,2,0,P|134:92|180:123,1,113.999996520996,2|2,1:0|0:0,0:0:0:0:
180,123,174312,1,4,0:3:0:0:
180,123,174387,5,2,3:1:0:0:
328,104,174537,1,2,3:2:0:0:
116,176,174687,1,2,1:0:0:0:
272,340,174837,2,0,P|279:283|291:227,1,113.999996520996,2|0,0:1|0:0,0:0:0:0:
176,112,175137,2,0,P|122:92|67:77,1,113.999996520996,2|0,3:1|1:0,0:0:0:0:
288,32,175437,2,0,P|315:24|343:20,2,56.9999982604981,2|4|0,0:1|0:3|3:0,0:0:0:0:
196,192,175737,5,2,0:1:0:0:
152,0,175887,1,2,1:0:0:0:
336,112,176037,1,2,0:0:0:0:
208,292,176187,1,2,3:1:0:0:
164,104,176337,1,2,3:2:0:0:
372,192,176487,2,0,L|485:203,1,113.999996520996,2|2,1:0|0:0,0:0:0:0:
352,348,176787,6,0,P|343:234|320:122,1,227.999993041992,2|2,3:1|1:0,0:0:0:0:
64,156,177237,2,0,P|72:269|95:381,1,227.999993041992,2|2,0:1|3:2,0:0:0:0:
208,248,177687,1,2,1:2:0:0:
132,64,177837,1,8,0:3:0:0:
132,64,177912,1,4,0:3:0:0:
132,64,177987,6,0,P|76:76|19:84,1,113.999996520996,2|0,3:1|0:0,0:0:0:0:
56,168,178287,1,2,1:0:0:0:
220,332,178437,2,0,P|276:320|333:312,1,113.999996520996,2|0,0:1|0:0,0:0:0:0:
296,228,178737,1,2,3:1:0:0:
144,304,178887,1,0,1:0:0:0:
408,360,179037,1,2,0:1:0:0:
408,360,179112,1,4,0:3:0:0:
408,359,179187,6,0,P|412:302|419:245,1,113.999996520996,2|2,3:1|0:0,0:0:0:0:
264,212,179487,1,2,1:0:0:0:
352,180,179637,1,2,0:0:0:0:
208,33,179787,2,0,P|203:89|196:146,1,113.999996520996,2|2,3:1|0:0,0:0:0:0:
408,359,180087,2,0,P|412:302|419:245,1,113.999996520996,6|0,1:0|0:0,0:0:0:0:
423,235,180312,1,2,0:2:0:0:
431,227,180387,5,6,3:1:0:0:
336,272,180537,1,0,0:0:0:0:
288,120,180687,1,2,1:0:0:0:
383,75,180837,1,2,0:1:0:0:
352,180,180987,2,0,P|296:168|239:163,1,113.999996520996,0|2,0:0|0:0,0:0:0:0:
92,344,181287,2,0,P|147:332|204:327,1,113.999996520996,0|2,1:0|3:2,0:0:0:0:
204,327,181512,1,0,0:0:0:0:
204,327,181587,5,4,3:0:0:0:
272,260,181737,1,4,0:3:0:0:
72,156,181887,1,4,1:2:0:0:
92,252,182037,1,4,0:3:0:0:
297,352,182187,5,8,0:3:0:0:
299,340,182262,1,8,0:3:0:0:
300,328,182337,1,8,0:3:0:0:
302,316,182412,1,8,0:3:0:0:
304,304,182487,1,4,0:3:0:0:
305,291,182562,1,4,0:3:0:0:
307,279,182637,1,4,0:3:0:0:
308,267,182712,1,4,0:3:0:0:
310,254,182787,6,0,P|303:160|307:65,1,190,6|0,3:1|1:0,0:0:0:0:
124,116,183237,2,0,P|170:123|218:127,1,95,2|0,0:1|0:0,0:0:0:0:
400,64,183537,1,2,3:1:0:0:
455,247,183687,2,0,P|406:171|315:169,1,190,2|2,1:0|3:2,0:0:0:0:
360,256,184137,1,2,0:1:0:0:
228,240,184287,2,0,P|216:194|212:146,1,95,2|0,1:2|0:0,0:0:0:0:
276,328,184587,6,0,B|173:294|213:404|106:369,1,190,0|0,3:1|1:0,0:0:0:0:
0,168,185037,2,0,L|94:179,1,95,2|0,0:1|0:0,0:0:0:0:
188,208,185337,1,0,3:0:0:0:
8,384,185487,2,0,P|30:296|118:276,1,190,2|0,1:0|3:0,0:0:0:0:
212,304,185937,1,2,0:1:0:0:
300,144,186087,2,0,L|288:238,1,95,2|0,1:0|0:0,0:0:0:0:
248,76,186387,6,0,P|338:89|405:26,1,190,2|2,3:1|1:0,0:0:0:0:
488,240,186837,2,0,L|394:224,1,95,2|0,0:1|0:0,0:0:0:0:
216,180,187137,1,0,3:0:0:0:
296,352,187287,2,0,P|300:304|300:257,1,95,2|0,1:2|0:0,0:0:0:0:
200,288,187587,1,2,3:2:0:0:
320,148,187737,1,0,0:0:0:0:
136,24,187887,2,0,P|131:71|131:118,1,95,2|0,1:0|0:0,0:0:0:0:
200,232,188187,6,0,P|141:160|49:157,1,190,2|2,3:1|1:0,0:0:0:0:
316,344,188637,2,0,P|374:272|466:269,1,190,2|0,0:1|3:0,0:0:0:0:
280,132,189087,2,0,P|285:179|289:226,1,95,6|0,1:2|0:0,0:0:0:0:
420,372,189387,1,14,0:3:0:0:
422,362,189462,1,4,0:3:0:0:
424,352,189537,1,4,0:3:0:0:
426,342,189612,1,4,0:3:0:0:
428,332,189687,1,2,1:0:0:0:
368,172,189837,1,0,3:0:0:0:
276,324,189987,6,0,B|342:309|342:309|364:260|364:260|431:246,1,190,6|0,3:1|3:0,0:0:0:0:
276,232,190437,1,8,0:3:0:0:
220,48,190587,2,0,L|204:141,1,95,2|4,1:2|0:3,0:0:0:0:
72,332,190887,2,0,L|56:238,1,95,2|4,3:2|0:3,0:0:0:0:
168,248,191187,1,2,1:2:0:0:
28,116,191337,1,4,0:3:0:0:
204,40,191487,2,0,L|298:28,1,95,2|0,0:1|3:0,0:0:0:0:
216,328,191787,6,0,P|125:336|70:264,1,190,2|2,3:1|3:2,0:0:0:0:
276,148,192237,2,0,L|264:242,1,95,4|0,0:3|1:0,0:0:0:0:
312,328,192537,1,4,0:3:0:0:
136,196,192687,2,0,L|44:176,1,95,2|4,3:2|0:3,0:0:0:0:
208,76,192987,2,0,L|300:56,1,95,0|4,1:0|0:3,0:0:0:0:
116,96,193287,2,0,L|104:1,1,95,2|0,0:1|3:0,0:0:0:0:
208,64,193587,6,0,L|173:250,1,190,6|0,3:1|3:0,0:0:0:0:
28,384,194037,2,0,L|11:290,1,95,4|2,0:3|1:2,0:0:0:0:
0,196,194337,1,4,0:3:0:0:
188,156,194487,1,0,3:0:0:0:
129,339,194637,1,4,0:3:0:0:
103,236,194787,2,0,P|150:228|196:216,1,95,2|0,1:2|0:0,0:0:0:0:
384,124,195087,2,0,P|337:116|291:104,1,95,2|0,0:0|3:0,0:0:0:0:
136,48,195387,5,6,3:1:0:0:
340,252,195537,1,4,0:3:0:0:
376,108,195687,1,0,1:0:0:0:
100,192,195837,1,0,1:0:0:0:
308,344,195987,2,0,L|401:327,1,95,8|0,1:3|1:0,0:0:0:0:
468,148,196287,1,2,1:3:0:0:
455,133,196362,1,12,0:3:0:0:
437,125,196437,1,8,0:3:0:0:
418,121,196512,1,8,0:3:0:0:
399,123,196587,1,8,0:3:0:0:
381,130,196662,1,4,0:3:0:0:
366,142,196737,1,4,0:3:0:0:
356,158,196812,1,4,0:3:0:0:
350,176,196887,2,0,L|363:270,1,95,2|0,0:0|0:0,0:0:0:0:
432,340,197187,5,4,0:1:0:0:
464,248,197337,2,0,L|408:233,2,56.9999982604981,2|0|2,0:0|0:0|0:0,0:0:0:0:
284,384,197787,2,0,L|339:369,1,56.9999982604981,2|0,0:0|0:0,0:0:0:0:
203,269,198087,2,0,L|147:254,1,56.9999982604981,2|0,0:0|0:0,0:0:0:0:
164,348,198387,1,2,0:0:0:0:
284,312,198537,1,2,0:0:0:0:
248,192,198687,1,2,0:0:0:0:
128,228,198837,1,0,0:0:0:0:
203,269,198987,2,0,L|212:194,1,76,2|2,0:0|0:3,0:0:0:0:
212,193,199212,1,2,2:3:0:0:
212,193,199287,6,0,P|140:136|57:171,1,190,6|2,3:1|3:2,0:0:0:0:
256,292,199737,2,0,P|302:283|349:277,1,95,0|2,0:0|3:2,0:0:0:0:
412,200,200037,1,0,0:0:0:0:
140,324,200187,2,0,P|135:276|127:230,1,95,2|0,1:0|0:0,0:0:0:0:
116,220,200412,2,0,P|127:149|135:78,1,142.5,2|2,0:1|0:1,0:0:0:0:
312,184,200787,2,0,P|265:175|218:169,1,95,2|2,3:2|0:1,0:0:0:0:
32,112,201087,5,2,0:0:0:0:
210,24,201237,2,0,B|242:-4|242:-4|222:94,1,142.5,2|0,0:1|0:0,0:0:0:0:
144,140,201537,1,2,0:1:0:0:
139,129,201612,1,2,0:1:0:0:
137,116,201687,2,0,L|128:69,1,47.5,2|0,3:2|0:0,0:0:0:0:
224,176,201837,2,0,L|215:222,4,47.5,2|2|0|0|2,0:1|0:1|1:0|0:0|0:1,0:0:0:0:
76,288,202287,2,0,B|173:239|148:354|250:304,1,190,2|2,3:1|3:1,0:0:0:0:
308,236,202737,1,2,0:1:0:0:
108,364,202887,5,2,0:1:0:0:
108,364,202962,1,0,0:0:0:0:
108,364,203037,1,0,0:0:0:0:
68,204,203187,1,2,3:2:0:0:
227,250,203337,1,2,3:1:0:0:
0,256,203487,1,2,3:2:0:0:
38,95,203637,1,2,0:1:0:0:
158,209,203787,2,0,P|168:256|175:303,1,95,2|2,1:0|0:1,0:0:0:0:
312,88,204087,2,0,P|301:134|294:181,1,95,2|2,3:2|3:1,0:0:0:0:
268,272,204387,1,2,0:0:0:0:
204,124,204537,1,2,3:1:0:0:
488,336,204687,6,0,P|446:255|356:251,1,190,2|2,0:1|3:2,0:0:0:0:
500,172,205137,1,2,0:1:0:0:
396,332,205287,1,2,3:2:0:0:
310,162,205437,1,2,3:1:0:0:
424,72,205587,2,0,P|420:119|412:166,1,95,2|2,1:0|0:1,0:0:0:0:
200,24,205887,2,0,B|255:-19|316:28|304:108|236:120|196:92|196:92|156:64|92:72|64:120,1,380,2|6,3:1|0:0,0:0:0:0:
144,172,206637,1,0,0:0:0:0:
87,37,206787,5,2,3:2:0:0:
232,56,206937,1,2,0:1:0:0:
60,216,207087,1,2,3:1:0:0:
0,60,207237,2,0,L|94:71,1,95,2|2,0:1|1:2,0:0:0:0:
0,148,207537,1,2,0:1:0:0:
204,76,207687,1,2,3:2:0:0:
292,292,207837,2,0,P|235:221|145:235,1,190,2|2,0:1|0:1,0:0:0:0:
368,372,208287,5,2,0:0:0:0:
384,248,208437,1,2,0:1:0:0:
188,184,208587,1,2,3:2:0:0:
204,308,208737,1,2,0:1:0:0:
295,284,208887,2,0,P|343:279|389:268,1,95,2|0,3:2|0:0,0:0:0:0:
232,216,209187,1,2,1:0:0:0:
468,340,209337,1,2,0:1:0:0:
456,136,209487,2,0,P|411:212|324:191,1,190,2|2,3:2|3:2,0:0:0:0:
512,64,209937,1,0,3:0:0:0:
512,64,210012,1,0,3:0:0:0:
512,64,210087,5,2,0:1:0:0:
512,224,210237,1,2,0:1:0:0:
380,140,210387,1,2,3:2:0:0:
468,144,210537,2,0,B|500:184|500:184|368:144,1,190,2|2,0:1|0:1,0:0:0:0:
512,76,210987,1,2,1:0:0:0:
284,192,211137,1,2,0:1:0:0:
512,240,211287,1,2,3:2:0:0:
288,96,211437,2,0,B|256:56|256:56|388:96,1,190,2|0,0:1|0:0,0:0:0:0:
276,184,211887,5,2,0:0:0:0:
172,56,212037,2,0,L|164:9,2,47.5,2|0|2,0:1|0:0|3:2,0:0:0:0:
128,208,212337,1,4,0:3:0:0:
280,88,212487,1,2,3:1:0:0:
88,44,212637,1,4,0:3:0:0:
120,300,212787,1,2,1:0:0:0:
200,132,212937,1,2,1:2:0:0:
14,146,213087,1,4,1:3:0:0:
200,264,213237,1,4,0:3:0:0:
200,264,213312,1,4,0:3:0:0:
199,264,213387,2,0,P|245:256|293:254,1,95,2|2,1:0|0:0,0:0:0:0:
308,264,213612,1,2,0:0:0:0:
308,264,213687,6,0,P|334:176|275:107,1,190,6|2,0:1|3:2,0:0:0:0:
456,28,214137,2,0,P|443:73|436:120,1,95,4|2,0:3|3:2,0:0:0:0:
400,276,214437,1,4,0:3:0:0:
244,196,214587,2,0,B|128:162|187:262|71:229,1,190,2|2,1:0|3:2,0:0:0:0:
208,368,215037,2,0,P|211:320|219:273,1,95,2|2,0:1|3:2,0:0:0:0:
104,148,215337,1,2,0:1:0:0:
296,260,215487,5,2,0:1:0:0:
180,108,215637,1,2,0:1:0:0:
136,312,215787,1,2,3:2:0:0:
324,184,215937,5,2,0:1:0:0:
440,32,216087,1,2,3:1:0:0:
484,236,216237,1,2,0:1:0:0:
392,152,216387,2,0,L|375:58,1,95,2|0,1:0|0:0,0:0:0:0:
244,196,216687,2,0,L|227:289,1,95,2|0,3:2|0:0,0:0:0:0:
332,368,216987,1,2,3:2:0:0:
356,244,217137,1,0,3:0:0:0:
236,284,217287,5,2,0:1:0:0:
60,360,217437,1,2,0:1:0:0:
60,360,217512,1,0,0:0:0:0:
60,360,217587,1,2,3:2:0:0:
40,268,217737,1,2,0:1:0:0:
204,116,217887,1,2,3:2:0:0:
184,208,218037,1,2,0:1:0:0:
112,144,218187,2,0,L|17:155,1,95,2|2,1:0|0:1,0:0:0:0:
164,24,218487,2,0,L|258:35,1,95,2|0,3:1|0:0,0:0:0:0:
96,236,218787,1,2,3:1:0:0:
56,44,218937,1,2,3:1:0:0:
272,180,219087,5,2,0:1:0:0:
392,132,219237,1,2,0:1:0:0:
256,272,219387,1,2,3:2:0:0:
384,264,219537,1,2,0:1:0:0:
204,348,219687,1,2,3:1:0:0:
328,384,219837,1,2,0:1:0:0:
508,184,219987,5,2,1:2:0:0:
464,376,220137,1,2,0:1:0:0:
360,136,220287,1,2,3:1:0:0:
384,324,220437,1,2,0:0:0:0:
220,132,220587,1,2,3:1:0:0:
304,304,220737,1,2,3:1:0:0:
304,304,220812,1,0,0:0:0:0:
304,303,220887,6,0,P|364:236|332:152,1,190,6|2,0:1|3:1,0:0:0:0:
136,264,221337,2,0,P|182:256|230:252,1,95,2|0,0:1|3:0,0:0:0:0:
80,128,221637,1,2,0:1:0:0:
80,128,221712,1,2,0:1:0:0:
80,128,221787,1,2,1:0:0:0:
292,40,221937,2,0,P|245:32|197:28,1,95,2|2,0:1|3:2,0:0:0:0:
344,204,222237,2,0,P|353:109|371:16,1,190,0|0,0:0|0:0,0:0:0:0:
371,16,222612,1,0,0:0:0:0:
371,16,222687,5,2,0:1:0:0:
444,172,222837,1,2,0:1:0:0:
284,52,222987,1,2,3:1:0:0:
504,0,223137,2,0,L|496:94,1,95,2|0,0:1|0:0,0:0:0:0:
420,276,223437,1,2,0:1:0:0:
440,184,223587,1,2,1:0:0:0:
332,304,223737,1,2,0:1:0:0:
488,348,223887,1,2,3:2:0:0:
352,212,224037,2,0,P|264:188|199:252,1,190,2|2,0:0|0:0,0:0:0:0:
199,252,224412,1,0,0:0:0:0:
199,252,224487,5,6,0:0:0:0:
268,368,224637,1,0,0:0:0:0:
288,276,224787,1,2,3:1:0:0:
132,176,224937,1,2,0:1:0:0:
99,268,225087,1,0,3:0:0:0:
64,108,225237,1,2,0:1:0:0:
200,240,225387,1,2,1:0:0:0:
18,292,225537,1,2,0:1:0:0:
156,80,225687,2,0,P|73:117|71:207,1,190,2|2,3:2|3:1,0:0:0:0:
196,304,226137,2,0,L|206:257,2,47.5,2|2|2,0:1|0:1|0:1,0:0:0:0:
132,376,226437,5,2,0:1:0:0:
372,120,226587,1,2,3:1:0:0:
144,168,226737,1,2,0:1:0:0:
384,324,226887,1,2,3:1:0:0:
448,220,227037,1,0,0:0:0:0:
96,272,227187,1,2,1:2:0:0:
296,276,227337,2,0,P|293:229|269:189,1,95,2|2,0:1|3:2,0:0:0:0:
116,240,227637,2,0,P|118:286|142:326,1,95,2|2,0:1|3:2,0:0:0:0:
216,108,227937,1,2,3:1:0:0:
216,108,228012,1,2,3:2:0:0:
216,108,228087,6,0,B|186:105|166:87|166:87|145:122|118:147|118:147|92:128|57:133,1,190,2|2,0:1|3:1,0:0:0:0:
208,208,228537,1,0,3:0:0:0:
304,168,228687,2,0,L|315:73,1,95,2|0,3:1|0:0,0:0:0:0:
315,73,228912,1,0,0:0:0:0:
315,73,228987,1,4,1:2:0:0:
88,16,229137,6,0,L|92:47,3,31.6666666666667,2|4|8|0,0:1|0:3|1:3|0:0,0:0:0:0:
288,272,229437,2,0,L|335:265,1,47.5,8|8,0:3|0:3,0:0:0:0:
200,284,229587,1,2,1:0:0:0:
400,188,229737,1,4,0:3:0:0:
444,384,229887,6,0,L|256:356,1,190,4|0,0:0|3:0,0:0:0:0:
296,268,230337,2,0,L|280:174,1,95,0|4,3:0|0:3,0:0:0:0:
240,84,230637,1,0,1:0:0:0:
184,168,230787,2,0,P|94:176|50:98,1,190,4|0,0:3|1:0,0:0:0:0:
0,220,231237,1,0,0:0:0:0:
144,4,231387,2,0,L|132:98,1,95,2|0,3:2|0:0,0:0:0:0:
120,116,231612,1,4,0:3:0:0:
120,116,231687,6,0,L|308:88,1,190,4|0,0:3|0:0,0:0:0:0:
392,140,232137,2,0,L|408:46,1,95,4|0,0:3|0:0,0:0:0:0:
304,184,232437,1,0,1:0:0:0:
332,0,232587,1,8,0:3:0:0:
478,117,232737,1,4,0:3:0:0:
300,196,232887,2,0,L|205:184,1,95,2|0,1:2|0:0,0:0:0:0:
132,252,233187,1,8,0:3:0:0:
304,108,233337,1,0,3:0:0:0:
24,56,233487,6,0,P|110:66|114:154,1,190,4|0,3:0|3:0,0:0:0:0:
224,276,233937,1,4,0:3:0:0:
312,96,234087,2,0,P|266:108|219:115,1,95,4|0,0:3|1:0,0:0:0:0:
28,240,234387,2,0,P|73:252|120:259,1,95,4|0,0:3|0:0,0:0:0:0:
160,352,234687,1,0,1:0:0:0:
296,212,234837,1,0,0:0:0:0:
60,112,234987,2,0,L|71:206,1,95,2|0,3:2|0:0,0:0:0:0:
272,324,235287,6,0,L|283:229,2,95,4|0|0,0:3|3:0|0:0,0:0:0:0:
52,124,235737,2,0,P|90:205|180:207,1,190,4|0,0:3|1:0,0:0:0:0:
40,280,236187,1,4,0:3:0:0:
244,112,236337,1,8,0:3:0:0:
244,112,236412,1,4,0:3:0:0:
244,112,236487,2,0,L|149:123,1,95,2|0,1:2|1:0,0:0:0:0:
288,216,236787,1,8,0:3:0:0:
184,32,236937,1,0,3:0:0:0:
368,88,237087,5,4,3:1:0:0:
424,172,237237,1,0,0:0:0:0:
468,81,237387,1,0,3:0:0:0:
280,20,237537,2,0,L|299:208,1,190,4|0,0:3|1:0,0:0:0:0:
380,384,237987,2,0,L|389:289,1,95,4|0,0:3|0:0,0:0:0:0:
276,328,238287,1,0,1:0:0:0:
468,352,238437,1,0,0:0:0:0:
504,156,238587,2,0,L|410:171,1,95,2|0,3:2|0:0,0:0:0:0:
410,171,238812,1,0,3:2:0:0:
410,171,238887,5,4,0:3:0:0:
480,60,239037,1,0,3:0:0:0:
436,280,239187,1,0,0:0:0:0:
216,220,239337,2,0,P|246:135|336:130,1,190,4|0,0:3|1:0,0:0:0:0:
136,8,239787,2,0,L|145:103,1,95,4|0,0:3|0:0,0:0:0:0:
44,184,240087,1,2,1:2:0:0:
299,209,240237,1,0,0:0:0:0:
128,356,240387,2,0,L|119:261,1,95,0|0,3:0|3:0,0:0:0:0:
24,168,240687,6,0,P|117:184|212:192,1,190,4|0,3:2|3:0,0:0:0:0:
344,372,241137,2,0,P|297:363|249:359,1,95,4|0,0:3|0:0,0:0:0:0:
192,288,241437,1,2,1:2:0:0:
408,200,241587,2,0,P|400:246|394:294,1,95,4|0,0:3|0:0,0:0:0:0:
344,104,241887,2,0,P|388:87|432:68,1,95,2|0,1:2|0:0,0:0:0:0:
292,207,242187,2,0,P|255:176|217:148,1,95,2|0,1:2|0:0,0:0:0:0:
480,268,242487,5,4,1:2:0:0:
284,196,242637,1,0,0:0:0:0:
512,88,242787,1,4,0:3:0:0:
268,8,242937,1,8,0:3:0:0:
268,8,243012,1,4,0:3:0:0:
268,8,243087,5,0,1:0:0:0:
460,0,243237,1,0,1:0:0:0:
468,192,243387,1,0,1:0:0:0:
280,208,243537,2,0,L|272:161,1,47.5,8|4,0:3|0:3,0:0:0:0:
268,140,243687,5,2,0:0:0:0:
204,320,244737,6,0,L|196:289,2,31.6666666666667,2|2|0,0:0|0:0|0:0,0:0:0:0:
208,336,244887,6,0,P|164:303|109:309,1,113.999996520996,4|0,0:1|3:0,0:0:0:0:
20,172,245337,2,0,P|64:205|119:199,1,113.999996520996,2|0,3:2|3:0,0:0:0:0:
208,240,245787,2,0,L|220:184,1,56.9999982604981,2|0,3:2|3:0,0:0:0:0:
144,52,246087,2,0,L|156:108,1,56.9999982604981,2|0,3:2|0:0,0:0:0:0:
252,88,246387,1,2,3:2:0:0:
316,164,246537,2,0,P|360:130|415:136,1,113.999996520996,2|2,3:2|3:0,0:0:0:0:
288,256,246987,1,2,3:2:0:0:
468,344,247137,6,0,P|423:310|368:316,1,113.999996520996,2|2,0:0|0:0,0:0:0:0:
276,352,247587,1,2,3:2:0:0:
276,352,247737,1,0,3:0:0:0:
380,224,247887,1,2,0:0:0:0:
380,224,248037,1,2,3:2:0:0:
192,176,248187,2,0,L|201:232,1,56.9999982604981,2|0,3:2|3:0,0:0:0:0:
296,243,248487,6,0,P|298:187|277:135,1,113.999996520996,2|2,3:2|3:2,0:0:0:0:
108,232,248937,2,0,P|105:288|126:340,1,113.999996520996,0|2,3:0|3:0,0:0:0:0:
220,360,249387,1,2,0:3:0:0:
296,304,249537,1,0,3:0:0:0:
120,228,249687,1,2,3:2:0:0:
204,4,249987,6,0,L|193:79,1,76,2|0,3:2|3:0,0:0:0:0:
40,276,250287,2,0,P|30:202|77:145,1,152,0|2,0:0|3:2,0:0:0:0:
120,228,250737,1,0,0:0:0:0:
192,340,250887,2,0,P|155:329|117:324,1,76,2|0,0:0|3:0,0:0:0:0:
208,76,251187,2,0,P|198:149|245:206,1,152,2|2,0:0|3:2,0:0:0:0:
120,228,251637,1,0,0:0:0:0:
284,124,251787,2,0,P|320:113|358:108,1,76,2|0,3:2|0:0,0:0:0:0:
356,272,252087,6,0,B|328:312|272:304|272:304|252:256|200:252,1,190,2|2,3:2|0:0,0:0:0:0:
444,332,252537,2,0,L|455:237,1,95,0|0,1:3|0:0,0:0:0:0:
357,108,252837,6,0,L|368:154,3,47.5,0|0|12|4,1:0|1:0|0:3|0:3,0:0:0:0:
420,216,253137,6,0,P|358:126|249:135,1,227.999993041992,6|0,1:0|3:0,0:0:0:0:
312,224,253587,1,4,3:2:0:0:
88,40,253737,2,0,P|143:51|200:56,1,113.999996520996,6|0,1:0|0:0,0:0:0:0:
36,208,254037,1,6,1:0:0:0:
200,304,254187,1,0,1:0:0:0:
202,286,254262,1,4,0:3:0:0:
204,269,254337,1,4,0:3:0:0:
207,252,254412,1,0,0:0:0:0:
209,235,254487,6,0,B|220:176|196:128|196:128|136:144,1,170.999994781494,6|0,3:1|0:0,0:0:0:0:
124,140,254787,1,0,1:0:0:0:
40,336,254937,2,0,P|94:320|151:312,1,113.999996520996,2|0,3:1|0:0,0:0:0:0:
56,188,255237,1,2,3:1:0:0:
288,184,255387,2,0,P|227:240|145:227,1,170.999994781494,2|4,1:0|0:3,0:0:0:0:
130,218,255687,5,2,3:1:0:0:
356,96,255837,1,2,0:0:0:0:
356,96,255912,1,0,0:0:0:0:
356,96,255987,1,2,1:0:0:0:
200,144,256137,2,0,L|180:32,1,113.999996520996,2|2,3:1|0:0,0:0:0:0:
392,196,256437,2,0,L|372:308,1,113.999996520996,2|0,3:1|1:0,0:0:0:0:
304,92,256737,2,0,L|360:84,2,56.9999982604981,2|4|0,0:1|0:3|3:0,0:0:0:0:
300,208,257037,5,2,0:1:0:0:
100,104,257187,1,2,1:0:0:0:
372,4,257337,1,2,0:2:0:0:
352,288,257487,1,2,3:1:0:0:
200,144,257637,1,2,3:2:0:0:
400,84,257787,2,0,L|512:104,1,113.999996520996,2|2,1:0|0:0,0:0:0:0:
364,240,258087,6,0,P|379:127|357:16,1,227.999993041992,2|2,3:1|1:0,0:0:0:0:
112,92,258537,2,0,P|96:204|118:315,1,227.999993041992,8|8,0:3|3:0,0:0:0:0:
272,368,258987,1,2,1:2:0:0:
448,280,259137,1,0,0:0:0:0:
448,280,259212,1,4,0:3:0:0:
447,280,259287,6,0,P|390:275|333:269,1,113.999996520996,6|0,3:1|0:0,0:0:0:0:
220,264,259587,1,2,1:0:0:0:
64,96,259737,1,2,0:1:0:0:
84,80,259812,2,0,P|140:84|197:90,1,113.999996520996,2|0,0:3|0:0,0:0:0:0:
216,104,260037,1,2,3:1:0:0:
50,230,260187,1,0,1:0:0:0:
24,24,260337,1,6,0:1:0:0:
164,179,260487,6,0,P|159:217|154:255,2,75.9999976806641,8|8|4,3:3|3:3|3:3,0:0:0:0:
232,100,260787,2,0,P|227:62|222:24,2,75.9999976806641,2|0|0,1:0|3:2|3:2,0:0:0:0:
264,204,261087,5,2,1:0:0:0:
304,160,261187,1,8,3:0:0:0:
323,217,261287,1,8,3:0:0:0:
377,289,261387,1,2,1:0:0:0:
417,333,261487,1,4,3:0:0:0:
436,276,261587,1,4,3:0:0:0:
392,164,261687,6,0,B|428:120|420:56|420:56|460:104|516:112,1,227.999993041992,6|0,1:0|1:0,0:0:0:0:
364,280,262137,2,0,B|308:288|268:336|268:336|276:272|240:228,1,227.999993041992,2|4,3:1|3:0,0:0:0:0:
84,108,262587,2,0,L|196:92,1,113.999996520996,2|2,1:0|0:0,0:0:0:0:
196,92,262812,1,0,0:0:0:0:
196,92,262887,5,2,3:1:0:0:
12,28,263037,1,2,3:2:0:0:
48,220,263187,1,2,1:0:0:0:
244,204,263337,2,0,P|252:92|186:2,1,227.999993041992,2|4,3:1|3:0,0:0:0:0:
136,192,263787,1,4,1:3:0:0:
196,12,263937,1,2,0:1:0:0:
196,12,264012,1,4,0:3:0:0:
196,12,264087,5,4,3:0:0:0:
232,200,264237,1,2,3:1:0:0:
44,236,264387,1,2,1:0:0:0:
8,48,264537,1,4,3:0:0:0:
228,104,264687,1,2,0:1:0:0:
56,252,264837,1,4,3:0:0:0:
12,28,264987,2,0,P|67:40|123:49,1,113.999996520996,2|2,1:0|0:0,0:0:0:0:
136,36,265212,1,4,0:3:0:0:
136,36,265287,6,0,P|151:149|152:263,1,227.999993041992,2|2,3:1|1:0,0:0:0:0:
400,336,265737,2,0,P|384:222|383:108,1,227.999993041992,2|4,0:1|3:0,0:0:0:0:
244,248,266187,1,8,1:3:0:0:
408,352,266337,2,0,L|464:364,2,56.9999982604981,4|0|4,0:3|0:0|3:2,0:0:0:0:
360,80,266787,6,0,B|300:104|280:156|280:156|336:188|340:248,1,227.999993041992,2|2,1:0|0:1,0:0:0:0:
428,160,267237,1,4,3:0:0:0:
252,356,267387,2,0,P|246:299|231:244,1,113.999996520996,6|0,1:0|0:0,0:0:0:0:
40,160,267687,6,0,P|80:58|188:38,1,227.999993041992,2|2,3:1|1:0,0:0:0:0:
96,248,268137,1,2,0:0:0:0:
300,148,268287,2,0,P|243:139|186:133,1,113.999996520996,2|4,0:1|3:0,0:0:0:0:
348,324,268587,1,6,1:0:0:0:
348,324,268662,1,0,0:0:0:0:
348,324,268737,1,4,0:3:0:0:
348,324,268812,1,4,0:3:0:0:
348,324,268887,6,0,B|352:260|368:196|368:196|354:211|336:222,1,170.999994781494,2|0,3:1|0:0,0:0:0:0:
320,228,269187,1,2,1:0:0:0:
183,120,269337,2,0,P|238:132|295:139,1,113.999996520996,2|2,0:1|0:0,0:0:0:0:
344,360,269637,2,0,P|288:347|231:340,1,113.999996520996,2|2,3:1|1:2,0:0:0:0:
480,72,269937,6,0,P|431:173|447:284,1,227.999993041992,6|2,0:1|0:0,0:0:0:0:
192,132,270387,1,2,1:0:0:0:
344,208,270537,2,0,P|348:151|355:94,1,113.999996520996,6|0,1:0|3:0,0:0:0:0:
172,224,270837,2,0,P|185:279|196:335,1,113.999996520996,8|0,1:3|1:0,0:0:0:0:
196,335,271062,1,4,0:3:0:0:
196,335,271137,1,4,0:3:0:0:
196,335,271212,1,4,0:3:0:0:
196,335,271287,6,0,P|90:359|19:277,1,227.999993041992,2|0,1:0|1:0,0:0:0:0:
20,52,271737,2,0,P|31:107|42:163,1,113.999996520996,2|0,0:1|0:0,0:0:0:0:
276,228,272037,2,0,P|289:137|211:185,1,227.999993041992,2|2,3:1|0:0,0:0:0:0:
204,268,272412,1,4,0:3:0:0:
204,268,272487,2,0,P|259:256|316:247,1,113.999996520996,2|2,3:1|3:2,0:0:0:0:
318,56,272787,2,0,P|262:67|205:76,1,113.999996520996,2|4,1:0|0:3,0:0:0:0:
396,20,273087,1,2,0:1:0:0:
136,220,273237,1,2,3:1:0:0:
100,32,273387,1,2,1:2:0:0:
380,192,273537,1,2,0:1:0:0:
380,192,273612,1,4,0:3:0:0:
380,192,273687,5,6,1:2:0:0:
400,32,273837,1,2,3:1:0:0:
240,12,273987,1,2,1:0:0:0:
220,172,274137,1,0,3:0:0:0:
68,364,274287,5,6,1:2:0:0:
48,204,274437,1,2,3:2:0:0:
208,184,274587,1,2,1:0:0:0:
228,344,274737,1,0,0:0:0:0:
136,276,274887,6,0,P|124:162|104:50,1,227.999993041992,6|2,1:2|1:0,0:0:0:0:
408,152,275337,2,0,P|384:263|368:376,1,227.999993041992,2|4,3:1|3:0,0:0:0:0:
500,284,275787,1,0,1:0:0:0:
416,144,275937,1,4,0:3:0:0:
416,144,276012,1,4,0:3:0:0:
416,144,276087,6,0,L|304:128,1,113.999996520996,2|0,3:1|3:0,0:0:0:0:
488,68,276387,1,2,1:0:0:0:
96,260,276537,2,0,L|208:244,1,113.999996520996,2|0,0:1|0:0,0:0:0:0:
24,184,276837,1,2,3:1:0:0:
276,324,276987,1,2,1:0:0:0:
279,313,277062,1,4,1:3:0:0:
277,302,277137,1,8,1:3:0:0:
272,293,277212,1,8,0:3:0:0:
200,319,277287,5,6,1:0:0:0:
312,140,278487,5,4,0:0:0:0:
200,244,278637,1,0,3:0:0:0:
176,148,278787,5,2,1:2:0:0:
336,236,278937,1,0,0:0:0:0:
408,168,279087,5,2,1:2:0:0:
104,216,279237,1,2,3:1:0:0:
80,120,279387,5,2,1:0:0:0:
432,264,279537,5,2,3:1:0:0:
400,160,279687,6,0,P|391:103|388:46,1,113.999996520996,4|12,0:3|0:3,0:0:0:0:
112,223,279987,2,0,P|120:280|123:337,1,113.999996520996,6|8,1:2|0:3,0:0:0:0:
295,113,280287,5,8,0:3:0:0:
271,110,280362,1,8,0:3:0:0:
251,121,280437,1,8,0:3:0:0:
228,118,280512,1,8,0:3:0:0:
207,128,280587,1,4,0:3:0:0:
184,125,280662,1,4,0:3:0:0:
164,137,280737,1,4,0:3:0:0:
141,134,280812,1,4,0:3:0:0:
124,150,280887,5,6,3:1:0:0:
292,248,281037,2,0,L|298:200,2,47.5,0|2|2,0:0|0:1|1:0,0:0:0:0:
276,344,281337,1,2,3:1:0:0:
372,160,281487,1,0,0:0:0:0:
204,280,281637,1,2,3:1:0:0:
368,316,281787,1,2,1:0:0:0:
216,184,281937,1,0,0:0:0:0:
188,376,282087,1,2,3:1:0:0:
212,280,282237,1,0,3:0:0:0:
176,192,282387,1,2,1:0:0:0:
100,132,282537,1,2,0:1:0:0:
8,103,282687,6,0,P|3:198|19:292,1,190,2|2,3:1|1:0,0:0:0:0:
244,272,283137,2,0,P|248:177|232:83,1,190,2|0,3:1|3:0,0:0:0:0:
76,364,283587,1,0,1:0:0:0:
112,280,283737,1,2,0:1:0:0:
184,344,283887,1,2,3:1:0:0:
276,352,284037,1,2,3:1:0:0:
360,312,284187,1,2,1:0:0:0:
400,224,284337,1,0,0:0:0:0:
400,128,284487,6,0,P|352:123|305:116,1,95,2|0,3:1|0:0,0:0:0:0:
136,180,284787,1,0,1:0:0:0:
128,84,284937,1,2,3:1:0:0:
224,76,285087,1,0,0:0:0:0:
232,172,285237,1,2,3:1:0:0:
52,144,285387,2,0,P|47:96|40:49,1,95,2|2,1:0|0:1,0:0:0:0:
224,180,285687,2,0,P|215:226|209:273,1,95,2|2,3:1|3:1,0:0:0:0:
136,92,285987,2,0,P|183:87|230:80,1,95,0|2,1:0|0:1,0:0:0:0:
316,332,286287,6,0,P|222:314|128:302,1,190,2|2,3:1|1:0,0:0:0:0:
312,140,286737,2,0,P|406:127|499:110,1,190,2|0,3:1|3:0,0:0:0:0:
228,0,287187,2,0,L|239:94,1,95,6|2,1:0|0:1,0:0:0:0:
400,368,287487,1,12,0:3:0:0:
401,358,287562,1,4,0:3:0:0:
402,348,287637,1,4,0:3:0:0:
403,338,287712,1,8,0:3:0:0:
404,328,287787,2,0,L|415:233,1,95,2|0,1:0|3:0,0:0:0:0:
236,180,288087,5,4,3:2:0:0:
377,283,288237,1,2,0:1:0:0:
358,160,288387,1,2,3:2:0:0:
255,303,288537,1,2,0:1:0:0:
306,230,288687,2,0,P|312:182|318:135,1,95,2|0,1:0|0:0,0:0:0:0:
168,264,288987,2,0,P|175:310|182:357,1,95,2|0,3:2|0:0,0:0:0:0:
260,292,289287,1,2,1:0:0:0:
76,236,289437,1,0,0:0:0:0:
236,196,289587,1,2,3:2:0:0:
148,168,289737,1,0,0:0:0:0:
216,104,289887,6,0,L|231:10,2,95,2|2|2,3:1|0:1|3:2,0:0:0:0:
160,176,290337,2,0,P|130:139|125:92,1,95,2|0,0:1|1:0,0:0:0:0:
306,116,290637,2,0,P|289:159|251:187,1,95,2|2,0:1|3:2,0:0:0:0:
181,19,290937,2,0,P|227:11|270:31,1,95,2|0,0:1|1:0,0:0:0:0:
336,208,291237,2,0,B|234:144|275:274|163:204,1,190,2|2,0:1|0:1,0:0:0:0:
360,128,291687,6,0,B|359:75|418:59|483:109|391:217,1,190,6|2,3:1|3:2,0:0:0:0:
212,128,292137,1,0,0:0:0:0:
284,376,292287,2,0,P|287:328|295:281,1,95,2|0,1:2|0:0,0:0:0:0:
68,324,292587,6,0,P|125:253|214:270,1,190,2|0,3:1|1:0,0:0:0:0:
156,344,293037,1,0,0:0:0:0:
360,188,293187,2,0,P|313:197|266:202,1,95,2|0,3:1|0:0,0:0:0:0:
128,256,293487,6,0,P|119:161|102:67,1,190,2|2,3:1|3:2,0:0:0:0:
368,180,293937,2,0,P|350:273|340:367,1,190,2|2,0:1|0:1,0:0:0:0:
340,367,294312,1,2,3:1:0:0:
340,367,294387,5,2,3:2:0:0:
456,164,294537,2,0,P|395:96|305:110,1,190,2|0,3:1|0:0,0:0:0:0:
432,264,294987,1,2,3:2:0:0:
468,164,295137,1,0,0:0:0:0:
368,180,295287,5,6,3:1:0:0:
208,340,295437,2,0,P|162:327|115:318,1,95,2|2,0:1|3:2,0:0:0:0:
68,200,295737,5,2,0:1:0:0:
324,232,295887,2,0,P|374:218|425:209,1,104.500003189087,2|2,1:0|0:1,0:0:0:0:
460,84,296187,5,2,3:1:0:0:
176,140,296337,2,0,P|122:120|66:113,1,113.999996520996,2|0,0:1|1:0,0:0:0:0:
4,0,296637,5,2,0:1:0:0:
352,48,296787,2,0,P|409:25|470:19,1,123.499994346619,2|2,3:2|0:1,0:0:0:0:
500,188,297087,6,0,P|458:139|393:139,1,132.999995941162,6|0,1:2|0:0,0:0:0:0:
300,132,297312,1,2,0:1:0:0:
300,132,297387,2,0,L|310:197,1,66.4999979705811,2|0,3:1|0:0,0:0:0:0:
36,312,297537,6,0,P|77:263|142:263,1,132.999995941162,2|0,3:1|0:0,0:0:0:0:
236,256,297762,1,2,0:1:0:0:
236,256,297837,2,0,L|225:321,1,66.4999979705811,2|0,0:1|0:0,0:0:0:0:
184,176,297987,5,2,3:1:0:0:
203,163,298062,1,8,3:0:0:0:
225,158,298137,1,4,0:3:0:0:
248,160,298212,1,4,0:3:0:0:
268,170,298287,1,2,3:1:0:0:
283,187,298362,1,8,0:3:0:0:
288,209,298437,1,0,1:2:0:0:
285,232,298512,1,0,1:2:0:0:
274,252,298587,1,6,0:0:0:0:
257,268,298662,1,0,1:2:0:0:
235,276,298737,1,0,1:2:0:0:
211,275,298812,1,0,1:2:0:0:
190,263,298887,5,4,3:3:0:0:
241,140,299037,2,0,L|232:196,2,56.9999982604981,2|0|2,0:0|0:0|0:0,0:0:0:0:
128,76,299487,2,0,L|134:132,1,56.9999982604981,2|0,0:0|0:0,0:0:0:0:
304,328,299787,2,0,L|310:271,1,56.9999982604981,2|0,0:0|0:0,0:0:0:0:
392,120,300087,2,0,P|363:115|336:109,1,56.9999982604981,2|2,0:0|0:0,0:0:0:0:
120,68,300387,2,0,P|148:63|175:54,1,56.9999982604981,4|2,2:3|0:0,0:0:0:0:
284,180,300687,6,0,P|279:208|275:236,1,56.9999982604981,0|0,1:2|1:2,0:0:0:0:
344,308,300987,1,0,0:0:0:0:
184,268,301137,1,4,0:3:0:0:
184,268,301212,1,4,0:3:0:0:
184,268,301287,2,0,P|188:296|192:324,1,56.9999982604981,0|0,1:2|1:2,0:0:0:0:
268,384,301587,5,4,0:1:0:0:
256,192,301662,12,0,304512,0:0:0:0:
256,192,304587,5,4,0:1:0:0:
256,192,304662,12,0,314937,0:0:0:0:
