osu file format v14

[General]
AudioFilename: Rita Ora - I Will Never Let You Down.mp3
AudioLeadIn: 0
PreviewTime: 56430
Countdown: 0
SampleSet: Soft
StackLeniency: 0.7
Mode: 0
LetterboxInBreaks: 0
WidescreenStoryboard: 1

[Editor]
DistanceSpacing: 1.4
BeatDivisor: 2
GridSize: 8
TimelineZoom: 1

[Metadata]
Title:I Will Never Let You Down
TitleUnicode:I Will Never Let You Down
Artist:Rita Ora
ArtistUnicode:Rita Ora
Creator:CET 6
Version:Normal
Source:
Tags:
BeatmapID:873816
BeatmapSetID:401445

[Difficulty]
HPDrainRate:3
CircleSize:3
OverallDifficulty:3
ApproachRate:4
SliderMultiplier:1.2
SliderTickRate:1

[Events]
//Background and Video events
0,0,"BG.jpg",0,0
//Break Periods
//Storyboard Layer 0 (Background)
//Storyboard Layer 1 (Fail)
//Storyboard Layer 2 (Pass)
//Storyboard Layer 3 (Foreground)
//Storyboard Sound Samples

[TimingPoints]
180,468.75,4,2,1,70,1,0
60180,-100,4,2,1,80,0,1
75180,-100,4,2,1,5,0,0

[Colours]
Combo1 : 255,128,192
Combo2 : 255,255,128
Combo3 : 128,255,128
Combo4 : 128,255,255

[HitObjects]
256,192,180,5,0,0:0:0:0:
256,24,648,2,0,L|168:33,1,60
28,48,1351,1,0,0:0:0:0:
87,107,1586,2,0,L|146:100,1,60
206,160,2055,6,0,P|226:209|206:289,1,120
152,328,2758,1,0,0:0:0:0:
232,360,2992,2,0,P|290:371|345:350,1,120
405,291,3695,1,0,0:0:0:0:
345,231,3930,5,0,0:0:0:0:
463,112,4398,2,0,L|375:121,1,60
235,136,5101,1,0,0:0:0:0:
175,76,5336,2,0,L|115:82,1,60
55,141,5805,6,0,P|75:190|55:270,1,120
1,309,6508,1,0,0:0:0:0:
81,341,6742,2,0,P|139:352|194:331,1,120
254,272,7445,1,0,0:0:0:0:
254,187,7680,5,0,0:0:0:0:
372,68,8148,2,0,L|431:61,1,60
431,229,8851,1,0,0:0:0:0:
371,169,9086,2,0,L|312:176,1,60
251,235,9555,6,0,L|115:220,1,120
72,282,10258,1,0,0:0:0:0:
12,222,10492,2,0,P|1:163|22:108,1,120
81,48,11195,1,0,0:0:0:0:
140,107,11430,5,0,0:0:0:0:
258,225,11898,2,0,L|317:218,1,60
436,100,12601,1,0,0:0:0:0:
376,40,12836,2,0,L|317:47,1,60
256,106,13305,6,0,L|120:91,1,120
77,33,14008,1,0,0:0:0:0:
17,92,14242,2,0,P|6:150|27:205,1,120
86,265,14945,1,0,0:0:0:0:
170,273,15180,5,2,0:0:0:0:
288,154,15648,2,0,L|347:161,1,60,8|0,0:0|0:0,0:0:0:0:
407,220,16117,2,0,L|466:227,2,60,0|2|8,0:0|0:0|0:0,0:0:0:0:
238,220,17055,2,0,P|216:275|227:333,1,120,2|8,0:0|0:0,0:0:0:0:
395,333,17992,6,0,L|336:340,1,60,0|2,0:0|0:0,0:0:0:0:
335,255,18461,2,0,L|394:248,1,60,8|0,0:0|0:0,0:0:0:0:
454,188,18930,1,2,0:0:0:0:
335,69,19398,6,0,L|276:76,1,60,8|0,0:0|0:0,0:0:0:0:
215,135,19867,2,0,L|156:128,2,60,0|2|8,0:0|0:0|0:0,0:0:0:0:
334,254,20805,2,0,P|277:271|220:255,1,120,2|8,0:0|0:0,0:0:0:0:
101,136,21742,6,0,L|42:129,1,60,0|2,0:0|0:0,0:0:0:0:
41,213,22211,2,0,L|100:220,1,60,8|2,0:0|0:0,0:0:0:0:
160,279,22680,1,2,0:0:0:0:
278,160,23148,6,0,L|337:167,1,60,8|0,0:0|0:0,0:0:0:0:
397,226,23617,2,0,L|456:233,2,60,0|2|8,0:0|0:0|0:0,0:0:0:0:
277,345,24555,2,0,P|222:367|164:356,1,120,2|8,0:0|0:0,0:0:0:0:
44,237,25492,6,0,L|51:178,1,60,0|2,0:0|0:0,0:0:0:0:
136,179,25961,2,0,L|129:238,1,60,8|0,0:0|0:0,0:0:0:0:
189,299,26430,1,2,0:0:0:0:
307,180,26898,6,0,L|300:239,1,60,8|0,0:0|0:0,0:0:0:0:
359,299,27367,2,0,L|352:358,2,60,0|2|8,0:0|0:0|0:0,0:0:0:0:
478,179,28305,2,0,P|489:120|467:65,1,120,2|8,0:0|0:0,0:0:0:0:
298,65,29242,2,0,L|239:72,1,60,0|2,0:0|0:0,0:0:0:0:
240,157,29711,2,0,L|299:150,1,60,8|2,0:0|0:0,0:0:0:0:
359,209,30180,5,2,0:0:0:0:
477,90,30648,1,8,0:0:0:0:
477,258,31117,1,0,0:0:0:0:
358,376,31586,1,8,0:0:0:0:
239,257,32055,2,0,P|184:235|126:246,2,120,2|8|0,0:0|0:0|0:0,0:0:0:0:
357,138,33461,1,8,0:0:0:0:
188,138,33930,5,2,0:0:0:0:
69,256,34398,1,8,0:0:0:0:
69,87,34867,1,0,0:0:0:0:
187,205,35336,1,8,0:0:0:0:
352,172,35805,2,0,P|407:150|465:161,2,120,2|8|0,0:0|0:0|0:0,0:0:0:0:
233,290,37211,1,8,0:0:0:0:
64,290,37680,5,2,0:0:0:0:
182,171,38148,1,8,0:0:0:0:
300,289,38617,1,0,0:0:0:0:
418,170,39086,1,8,0:0:0:0:
299,51,39555,2,0,P|244:29|186:40,2,120,2|8|0,0:0|0:0|0:0,0:0:0:0:
299,219,40961,1,8,0:0:0:0:
130,219,41430,6,0,P|108:273|119:332,2,120,2|8|0,0:0|0:0|0:0,0:0:0:0:
130,50,42836,1,8,0:0:0:0:
298,50,43305,2,0,L|357:57,1,60,2|0,0:0|0:0,0:0:0:0:
356,142,43774,2,0,L|297:135,1,60,8|2,0:0|0:0,0:0:0:0:
237,194,44242,2,0,L|178:201,1,60,0|2,0:0|0:0,0:0:0:0:
179,286,44711,2,0,L|238:279,1,60,8|2,0:0|0:0,0:0:0:0:
298,338,45180,5,0,0:0:0:0:
416,219,45648,1,0,3:0:0:0:
297,100,46117,1,0,0:0:0:0:
178,218,46586,1,0,3:0:0:0:
178,49,47055,5,0,0:0:0:0:
296,168,47523,1,0,3:0:0:0:
177,287,47992,1,0,0:0:0:0:
58,169,48461,1,0,3:0:0:0:
178,49,48930,2,0,P|233:27|291:38,1,120,0|0,0:0|3:0,0:0:0:0:
410,156,49867,2,0,P|355:178|297:167,1,120,0|0,0:0|3:0,0:0:0:0:
177,286,50805,6,0,L|170:345,1,60
85,344,51273,2,0,L|92:285,1,60,0|0,3:0|0:0,0:0:0:0:
32,224,51742,2,0,L|25:165,2,60,0|0|0,0:0|0:0|3:0,0:0:0:0:
200,224,52680,5,0,0:0:0:0:
319,106,53148,1,0,3:0:0:0:
438,225,53617,1,0,0:0:0:0:
320,344,54086,1,0,3:0:0:0:
151,344,54555,5,0,0:0:0:0:
269,225,55024,1,0,3:0:0:0:
150,106,55493,1,0,0:0:0:0:
31,224,55961,1,0,3:0:0:0:
151,344,56430,2,0,P|206:366|264:355,1,120,0|0,0:0|3:0,0:0:0:0:
383,236,57367,2,0,P|328:214|270:225,1,120,0|0,0:0|3:0,0:0:0:0:
150,105,58305,6,0,L|143:46,1,60,0|0,3:0|0:0,0:0:0:0:
58,47,58773,2,0,L|65:106,1,60,0|0,3:0|0:0,0:0:0:0:
102,182,59242,2,0,L|95:241,1,60,0|2,3:0|0:0,0:0:0:0:
178,241,59710,2,0,L|185:182,1,60,4|2,1:0|0:0,0:0:0:0:
244,121,60180,6,0,P|273:115|301:126,1,60,2|0,0:0|0:0,0:0:0:0:
359,185,60648,2,0,L|352:244,1,60,0|0,1:0|0:0,0:0:0:0:
436,244,61117,2,0,L|443:185,1,60,2|0,0:0|0:0,0:0:0:0:
443,100,61586,1,0,1:0:0:0:
383,40,61820,1,2,0:0:0:0:
323,99,62055,6,0,P|293:104|266:93,1,60,2|0,0:0|0:0,0:0:0:0:
207,34,62523,2,0,P|177:28|150:39,1,60,0|0,1:0|0:0,0:0:0:0:
90,98,62992,2,0,L|83:157,1,60,2|0,0:0|0:0,0:0:0:0:
142,217,63461,1,0,1:0:0:0:
82,276,63695,1,2,0:0:0:0:
141,335,63930,6,0,P|199:346|254:324,1,120,2|0,0:0|1:0,0:0:0:0:
313,264,64633,2,0,L|372:271,2,60,0|2|0,0:0|0:0|0:0,0:0:0:0:
253,204,65336,2,0,L|194:197,1,60,0|2,1:0|0:0,0:0:0:0:
133,137,65805,6,0,P|127:107|138:80,1,60,2|0,0:0|0:0,0:0:0:0:
197,21,66273,2,0,L|256:28,1,60,0|0,1:0|0:0,0:0:0:0:
316,87,66742,2,0,P|322:117|311:144,1,60,2|0,0:0|0:0,0:0:0:0:
253,204,67211,1,0,1:0:0:0:
244,286,67445,1,2,0:0:0:0:
303,345,67680,6,0,P|332:351|360:340,1,60,2|0,0:0|0:0,0:0:0:0:
418,280,68148,2,0,L|425:221,1,60,0|0,1:0|0:0,0:0:0:0:
365,160,68617,2,0,L|372:101,1,60,2|0,0:0|0:0,0:0:0:0:
312,40,69086,1,0,1:0:0:0:
252,99,69320,1,2,0:0:0:0:
192,39,69555,6,0,P|162:34|135:45,1,60,2|0,0:0|0:0,0:0:0:0:
73,106,70023,2,0,L|66:165,1,60,0|0,1:0|0:0,0:0:0:0:
125,225,70492,2,0,L|118:284,1,60,2|0,0:0|0:0,0:0:0:0:
177,344,70961,1,0,1:0:0:0:
236,284,71195,1,2,0:0:0:0:
320,284,71430,6,0,P|331:225|309:170,1,120,2|0,0:0|1:0,0:0:0:0:
249,111,72133,2,0,L|242:52,2,60,0|2|0,0:0|0:0|0:0,0:0:0:0:
189,170,72836,2,0,L|182:229,1,60,0|2,1:0|0:0,0:0:0:0:
241,289,73305,6,0,P|271:295|298:284,1,60,2|0,0:0|0:0,0:0:0:0:
356,224,73773,2,0,L|363:165,1,60,0|0,1:0|0:0,0:0:0:0:
305,106,74242,2,0,P|275:100|248:111,1,60,2|0,0:0|0:0,0:0:0:0:
189,170,74711,2,0,L|182:229,1,60,0|2,1:0|0:0,0:0:0:0:
256,192,75180,12,0,77055,0:0:0:0:
