osu file format v14

[General]
AudioFilename: audio.mp3
AudioLeadIn: 0
PreviewTime: 168082
Countdown: 0
SampleSet: None
StackLeniency: 0.2
Mode: 0
LetterboxInBreaks: 0
WidescreenStoryboard: 0

[Editor]
DistanceSpacing: 1.5
BeatDivisor: 4
GridSize: 4
TimelineZoom: 1.6

[Metadata]
Title:dorchadas
TitleUnicode:dorchadas
Artist:Rita
ArtistUnicode:Rita
Creator:TheShadowOfDark
Version::Grooveruwuz:
Source:漆黒のシャルノス -What a beautiful tomorrow-
Tags:
BeatmapID:2106632
BeatmapSetID:1006602

[Difficulty]
HPDrainRate:4
CircleSize:3
OverallDifficulty:9
ApproachRate:9.8
SliderMultiplier:1.9
SliderTickRate:1

[Events]
//Background and Video events
0,0,"BG.jpg",0,0
//Break Periods
//Storyboard Layer 0 (Background)
//Storyboard Layer 1 (Fail)
//Storyboard Layer 2 (Pass)
//Storyboard Layer 3 (Foreground)
//Storyboard Sound Samples

[TimingPoints]
1090,319.148936170213,6,3,1,50,1,0
50558,500,4,3,23,50,1,0
51058,-100,4,3,23,30,0,0
53683,-66.6666666666667,4,3,1,50,0,0
54058,-50,4,3,1,50,0,0
70558,-50,4,3,1,60,0,0
113845,681.818181818182,4,3,1,50,1,0
114526,588.235294117647,4,3,1,50,1,0
115114,319.148936170213,6,3,1,50,1,0
164582,500,4,3,1,50,1,0
165082,-100,4,3,1,30,0,0
166582,-66.6666666666667,4,3,1,40,0,0
168082,-50,4,3,1,50,0,0
168582,-50,4,3,1,50,0,1
184332,-50,4,3,1,50,0,0
184582,-50,4,3,1,60,0,1
216519,-50,4,3,1,55,0,0
231769,-50,4,3,1,45,0,0
232019,-50,4,3,1,40,0,0
232269,-50,4,3,1,30,0,0
232582,-50,4,3,1,50,0,0
264582,-100,4,3,1,50,0,0
264957,-100,4,2,1,50,0,0
268582,-333.333333333333,4,2,1,30,0,0
270394,-100,4,2,1,5,0,0

[Colours]
Combo1 : 1,156,63
Combo2 : 0,159,0
Combo3 : 0,85,0
Combo4 : 82,151,72

[HitObjects]
0,319,164582,6,0,L|211:302,1,190
306,243,165582,1,0,0:0:0:0:
306,243,165707,2,0,P|320:331|310:354,1,95
291,382,166082,1,0,0:0:0:0:
10,194,166457,5,0,0:0:0:0:
10,194,166519,1,0,0:0:0:0:
10,194,166582,2,0,L|0:38,2,142.500005435944
349,189,167457,1,0,0:0:0:0:
457,134,167582,1,0,0:0:0:0:
298,100,167707,2,0,L|307:261,1,142.500005435944
417,263,168082,5,0,0:0:0:0:
325,362,168207,1,0,0:0:0:0:
201,250,168332,1,0,0:0:0:0:
96,384,168457,1,0,0:0:0:0:
4,209,168582,6,0,B|44:159|44:159|194:153,1,190
406,148,168957,1,0,0:0:0:0:
342,265,169082,1,0,0:0:0:0:
352,40,169207,1,0,0:0:0:0:
284,150,169332,1,0,0:0:0:0:
474,43,169457,1,0,0:0:0:0:
153,62,169582,5,0,0:0:0:0:
284,150,169707,1,0,0:0:0:0:
512,198,169832,5,0,0:0:0:0:
342,265,169957,1,0,0:0:0:0:
76,178,170082,5,0,0:0:0:0:
207,266,170207,1,0,0:0:0:0:
476,302,170332,5,0,0:0:0:0:
306,369,170457,1,0,0:0:0:0:
331,59,170582,6,0,B|376:109|376:109|376:259,1,190
144,384,170957,1,0,0:0:0:0:
306,369,171082,1,0,0:0:0:0:
342,211,171207,1,0,0:0:0:0:
202,128,171332,1,0,0:0:0:0:
80,234,171457,1,0,0:0:0:0:
417,80,171582,5,0,0:0:0:0:
450,235,171707,1,0,0:0:0:0:
236,285,171832,1,0,0:0:0:0:
202,128,171957,1,0,0:0:0:0:
361,24,172082,5,0,0:0:0:0:
342,211,172207,1,0,0:0:0:0:
154,191,172332,1,0,0:0:0:0:
173,3,172457,1,0,0:0:0:0:
236,285,172582,6,0,B|101:283|101:283|44:232,1,190
13,124,172957,1,0,0:0:0:0:
162,90,173082,1,0,0:0:0:0:
304,102,173207,1,0,0:0:0:0:
420,168,173332,1,0,0:0:0:0:
480,276,173457,1,0,0:0:0:0:
487,384,173582,5,0,0:0:0:0:
325,293,173707,1,0,0:0:0:0:
480,276,173832,1,0,0:0:0:0:
284,304,173957,1,0,0:0:0:0:
420,168,174082,1,0,0:0:0:0:
243,315,174207,1,0,0:0:0:0:
304,102,174332,1,0,0:0:0:0:
202,326,174457,1,0,0:0:0:0:
162,89,174582,6,0,B|207:37|207:37|341:37,1,190
477,36,174957,1,0,0:0:0:0:
443,154,175082,1,0,0:0:0:0:
336,228,175207,1,0,0:0:0:0:
193,228,175332,1,0,0:0:0:0:
304,102,175457,1,0,0:0:0:0:
202,326,175582,5,0,0:0:0:0:
104,191,175707,1,0,0:0:0:0:
238,93,175832,1,0,0:0:0:0:
336,228,175957,1,0,0:0:0:0:
196,360,176082,5,0,0:0:0:0:
69,185,176207,1,0,0:0:0:0:
243,58,176332,1,0,0:0:0:0:
370,233,176457,1,0,0:0:0:0:
196,360,176582,6,0,P|79:347|24:293,1,190
53,59,176957,1,0,0:0:0:0:
216,221,177082,1,0,0:0:0:0:
69,185,177207,1,0,0:0:0:0:
243,58,177332,1,0,0:0:0:0:
390,22,177457,1,0,0:0:0:0:
504,122,177582,5,0,0:0:0:0:
475,321,177707,1,0,0:0:0:0:
347,384,177832,5,0,0:0:0:0:
318,185,177957,1,0,0:0:0:0:
243,58,178082,5,0,0:0:0:0:
214,257,178207,1,0,0:0:0:0:
86,320,178332,5,0,0:0:0:0:
57,121,178457,1,0,0:0:0:0:
214,257,178582,6,0,B|290:299|290:299|431:283,1,190
469,169,178957,1,0,0:0:0:0:
243,58,179082,1,0,0:0:0:0:
390,22,179207,1,0,0:0:0:0:
318,185,179332,1,0,0:0:0:0:
152,0,179457,1,0,0:0:0:0:
31,304,179582,5,0,0:0:0:0:
67,99,179707,1,0,0:0:0:0:
160,361,179832,5,0,0:0:0:0:
196,156,179957,1,0,0:0:0:0:
300,82,180082,5,0,0:0:0:0:
336,287,180207,1,0,0:0:0:0:
429,25,180332,5,0,0:0:0:0:
465,230,180457,1,0,0:0:0:0:
300,82,180582,6,0,B|241:42|241:42|113:46,1,190
11,148,180957,1,0,0:0:0:0:
33,239,181082,1,0,0:0:0:0:
196,156,181207,1,0,0:0:0:0:
185,251,181332,1,0,0:0:0:0:
62,337,181457,1,0,0:0:0:0:
261,353,181582,5,0,0:0:0:0:
185,251,181707,1,0,0:0:0:0:
399,283,181832,1,0,0:0:0:0:
292,213,181957,1,0,0:0:0:0:
481,155,182082,1,0,0:0:0:0:
355,124,182207,1,0,0:0:0:0:
496,0,182332,1,0,0:0:0:0:
368,14,182457,1,0,0:0:0:0:
399,283,182582,6,0,P|476:252|448:125,1,190
240,28,182957,1,0,0:0:0:0:
368,14,183082,1,0,0:0:0:0:
164,199,183207,1,0,0:0:0:0:
292,213,183332,1,0,0:0:0:0:
90,83,183457,1,0,0:0:0:0:
231,309,183582,5,0,0:0:0:0:
196,115,183707,1,0,0:0:0:0:
390,80,183832,1,0,0:0:0:0:
425,274,183957,1,0,0:0:0:0:
127,227,184082,5,0,0:0:0:0:
285,57,184207,1,0,0:0:0:0:
493,161,184332,1,0,0:0:0:0:
335,331,184457,1,0,0:0:0:0:
425,274,184582,6,0,L|433:373,1,95
132,323,184832,1,0,0:0:0:0:
221,231,184957,2,0,L|113:226,1,95
390,80,185207,1,0,0:0:0:0:
323,189,185332,2,0,L|429:169,1,95
78,30,185582,5,0,0:0:0:0:
232,11,185707,1,0,0:0:0:0:
161,142,185832,1,0,0:0:0:0:
7,161,185957,1,0,0:0:0:0:
119,382,186082,6,0,P|139:345|85:210,1,190
239,373,186457,1,0,0:0:0:0:
346,278,186582,6,0,L|231:268,1,95
478,295,186832,1,0,0:0:0:0:
323,189,186957,2,0,L|438:179,1,95
226,107,187207,1,0,0:0:0:0:
464,44,187332,2,0,P|433:79|388:91,1,95
140,19,187582,5,0,0:0:0:0:
165,216,187707,1,0,0:0:0:0:
323,189,187832,5,0,0:0:0:0:
382,0,187957,1,0,0:0:0:0:
479,171,188082,6,0,P|395:134|322:188,1,190
226,107,188457,1,0,0:0:0:0:
175,309,188582,6,0,L|164:215,1,95
414,244,188832,1,0,0:0:0:0:
359,331,188957,2,0,P|420:349|489:310,1,95
241,384,189207,1,0,0:0:0:0:
329,94,189332,2,0,L|322:187,1,95
427,55,189582,5,0,0:0:0:0:
234,40,189707,1,0,0:0:0:0:
221,230,189832,1,0,0:0:0:0:
414,244,189957,1,0,0:0:0:0:
153,147,190082,6,0,P|285:145|325:212,1,190
119,348,190457,1,0,0:0:0:0:
221,230,190582,6,0,P|179:254|133:261,1,95
315,181,190832,1,0,0:0:0:0:
234,40,190957,2,0,P|275:63|321:70,1,95
153,147,191207,1,0,0:0:0:0:
27,26,191332,2,0,L|41:151,1,95
59,288,191582,5,0,0:0:0:0:
221,230,191707,1,0,0:0:0:0:
465,256,191832,5,0,0:0:0:0:
315,181,191957,1,0,0:0:0:0:
234,40,192082,6,0,L|220:229,1,190
204,368,192457,1,0,0:0:0:0:
386,297,192582,6,0,L|271:306,1,95
70,323,192832,1,0,0:0:0:0:
2,209,192957,2,0,L|121:197,1,95
315,181,193207,1,0,0:0:0:0:
366,61,193332,2,0,L|248:71,1,95
66,34,193582,5,0,0:0:0:0:
185,242,193707,1,0,0:0:0:0:
126,138,193832,5,0,0:0:0:0:
245,346,193957,1,0,0:0:0:0:
124,345,194082,6,0,P|186:242|291:239,1,190
376,267,194457,1,0,0:0:0:0:
379,361,194582,6,0,L|375:249,1,95
306,131,194832,1,0,0:0:0:0:
310,37,194957,2,0,L|306:131,1,95
172,211,195207,1,0,0:0:0:0:
84,235,195332,2,0,P|136:232|174:207,1,95
86,377,195582,5,0,0:0:0:0:
0,211,195707,1,0,0:0:0:0:
86,45,195832,1,0,0:0:0:0:
172,211,195957,1,0,0:0:0:0:
258,377,196082,6,0,L|406:362,1,95
148,303,196332,1,0,0:0:0:0:
312,200,196457,1,0,0:0:0:0:
503,287,196582,6,0,L|355:272,1,95
321,41,196832,1,0,0:0:0:0:
364,190,196957,2,0,L|498:182,1,95
166,41,197207,1,0,0:0:0:0:
116,186,197332,2,0,L|22:171,1,95
239,282,197582,5,0,0:0:0:0:
116,186,197707,1,0,0:0:0:0:
166,41,197832,1,0,0:0:0:0:
321,41,197957,1,0,0:0:0:0:
350,315,198082,6,0,B|274:379|274:379|136:370,1,190
2,352,198457,1,0,0:0:0:0:
239,282,198582,6,0,L|115:269,1,95
2,255,198832,1,0,0:0:0:0:
340,194,198957,2,0,L|216:181,1,95
2,158,199207,1,0,0:0:0:0:
441,106,199332,2,0,L|317:93,1,95
2,61,199582,5,0,0:0:0:0:
55,297,199707,1,0,0:0:0:0:
291,244,199832,1,0,0:0:0:0:
238,8,199957,1,0,0:0:0:0:
216,331,200082,5,0,0:0:0:0:
269,95,200207,1,0,0:0:0:0:
505,148,200332,1,0,0:0:0:0:
452,384,200457,1,0,0:0:0:0:
2,61,200582,5,0,0:0:0:0:
