osu file format v14

[General]
AudioFilename: audio.mp3
AudioLeadIn: 0
PreviewTime: 53712
Countdown: 0
SampleSet: Soft
StackLeniency: 0.3
Mode: 0
LetterboxInBreaks: 0
WidescreenStoryboard: 1

[Editor]
DistanceSpacing: 0.2
BeatDivisor: 4
GridSize: 32
TimelineZoom: 1.6

[Metadata]
Title:dorchadas
TitleUnicode:dorchadas
Artist:Rita
ArtistUnicode:Rita
Creator:SMOKELIND
Version:FuJu's expert
Source:漆黒のシャルノス -What a beautiful tomorrow-
Tags:Shikkoku no Sharnoth ~What a beautiful People~ Japanese Folk Video Game Visual Novel Crissa Eula- gazimal Nymphe Kiyoshi Guarden Kang Sae-byeok Luscent FuJu Kowari Hey lululu AIR frozz -Keqing Keqing Basensorex iljaaz female vocals vocalist
BeatmapID:3464305
BeatmapSetID:1673436

[Difficulty]
HPDrainRate:6
CircleSize:3.5
OverallDifficulty:8.5
ApproachRate:9.2
SliderMultiplier:1.6
SliderTickRate:1

[Events]
//Background and Video events
0,0,"94898061_p0.jpg",0,0
//Break Periods
//Storyboard Layer 0 (Background)
//Storyboard Layer 1 (Fail)
//Storyboard Layer 2 (Pass)
//Storyboard Layer 3 (Foreground)
//Storyboard Layer 4 (Overlay)
//Storyboard Sound Samples

[TimingPoints]
-213,319.148936170213,3,2,7,47,1,0
425,-270.270270270271,3,2,7,47,0,0
744,-212.765957446809,3,2,7,47,0,0
8404,-105.263157894737,3,2,7,67,0,0
15744,-105.263157894737,3,2,7,57,0,0
50212,500,4,2,7,57,1,0
50212,-175.438596491227,4,2,7,57,0,0
53712,-114.942528735632,4,2,7,57,0,0
54212,-57.1428571428571,4,2,7,87,0,0
102212,-212.765957446809,4,2,7,87,0,0
102337,-212.765957446809,4,2,7,47,0,0
102711,-212.765957446809,4,2,7,47,0,0
106212,-270.270270270271,4,2,7,47,0,0

[Colours]
Combo1 : 85,0,0
Combo2 : 74,74,74
Combo3 : 56,56,29

[HitObjects]
251,183,7446,5,4,1:0:0:0:
252,188,7765,1,4,1:0:0:0:
253,193,8084,1,4,1:0:0:0:
320,240,8244,1,8,0:0:0:0:
377,13,8404,6,0,P|334:74|327:149,1,151.999995941162,4|2,1:0|0:0,0:0:0:0:
79,335,8882,1,2,1:0:0:0:
120,266,9042,1,2,0:0:0:0:
200,260,9201,1,0,1:0:0:0:
441,316,9361,22,0,P|405:326|370:340,1,75.9999979705811,10|0,0:0|0:0,0:0:0:0:
204,98,9680,2,0,P|218:133|227:169,1,75.9999979705811,2|2,1:2|0:0,0:0:0:0:
206,346,9999,1,10,0:0:0:0:
377,178,10159,1,2,1:2:0:0:
206,346,10318,2,0,P|130:340|63:306,1,151.999995941162,2|0,1:2|0:0,0:0:0:0:
306,106,10797,1,2,1:0:0:0:
296,265,10957,1,0,0:0:0:0:
296,265,11116,1,0,1:0:0:0:
179,27,11276,6,0,P|196:60|203:97,1,75.9999979705811,8|0,0:0|0:0,0:0:0:0:
370,340,11595,2,0,P|387:306|394:269,1,75.9999979705811,2|2,1:2|0:0,0:0:0:0:
173,231,11914,1,10,3:2:0:0:
173,231,12233,22,0,B|76:245|128:272|33:284,1,151.999995941162,0|2,1:0|0:0,0:0:0:0:
191,313,12712,1,8,1:2:0:0:
293,114,12872,2,0,P|286:151|268:184,1,75.9999979705811,2|0,0:0|1:0,0:0:0:0:
35,113,13191,2,0,P|91:105|144:84,1,113.999996955872,10|0,0:0|0:0,0:0:0:0:
144,84,13510,2,0,P|136:46|126:10,1,75.9999979705811,2|2,1:2|0:2,0:0:0:0:
225,27,13829,1,10,0:2:0:0:
0,196,13989,5,2,1:2:0:0:
0,196,14068,1,0,0:0:0:0:
0,196,14148,2,0,B|96:198|55:233|144:234,1,151.999995941162,2|0,1:2|0:0,0:0:0:0:
347,359,14627,1,2,1:0:0:0:
290,216,14787,1,2,0:0:0:0:
171,321,14946,1,0,1:0:0:0:
248,382,15106,22,0,P|253:345|262:308,1,75.9999979705811,10|0,0:0|0:0,0:0:0:0:
264,59,15425,2,0,P|258:96|249:133,1,75.9999979705811,2|0,1:3|0:0,0:0:0:0:
438,187,15744,2,0,B|374:195|399:216|330:219,1,113.999996955872,2|0,1:3|0:0,0:0:0:0:
330,218,16063,5,2,1:2:0:0:
107,113,16382,1,0,0:0:0:0:
107,113,16542,2,0,P|165:159|187:231,1,151.999995941162,2|0,1:0|1:0,0:0:0:0:
264,58,17021,22,0,P|298:43|330:22,1,75.9999979705811,10|0,0:0|0:0,0:0:0:0:
374,198,17340,2,0,P|358:163|337:131,1,75.9999979705811,2|0,1:2|0:0,0:0:0:0:
469,0,17659,2,0,P|446:30|429:64,1,75.9999979705811,10|0,0:0|1:0,0:0:0:0:
481,304,17978,6,0,B|391:277|417:328|332:298,1,151.999995941162,2|0,1:3|0:0,0:0:0:0:
108,259,18457,1,2,1:0:0:0:
39,332,18616,1,2,0:2:0:0:
127,376,18776,1,2,1:2:0:0:
199,310,18935,21,10,0:2:0:0:
1,158,19255,1,0,1:0:0:0:
1,158,19414,1,0,0:0:0:0:
218,72,19574,1,8,3:2:0:0:
148,186,19893,6,0,B|143:100|117:129|114:39,1,151.999995941162,2|0,1:2|0:0,0:0:0:0:
239,205,20372,1,2,1:0:0:0:
236,216,20531,1,0,0:0:0:0:
234,227,20691,1,0,1:0:0:0:
98,317,20850,22,0,P|61:328|25:338,1,75.9999979705811,10|0,0:2|0:2,0:0:0:0:
176,384,21169,2,0,P|178:346|195:312,1,75.9999979705811,2|0,1:2|0:2,0:0:0:0:
309,128,21489,2,0,P|325:161|328:199,1,75.9999979705811,10|0,0:2|1:2,0:0:0:0:
397,371,21808,6,0,P|324:364|295:298,1,151.999995941162,2|0,1:3|0:2,0:0:0:0:
218,205,22287,1,2,1:0:0:0:
138,210,22446,1,2,0:2:0:0:
102,282,22606,1,2,1:2:0:0:
328,199,22765,22,0,P|365:192|401:181,1,75.9999979705811,10|0,0:0|0:0,0:0:0:0:
203,0,23084,2,0,P|209:37|220:73,1,75.9999979705811,0|0,1:0|0:0,0:0:0:0:
409,55,23404,2,0,P|353:56|316:97,1,113.999996955872,10|0,3:2|0:0,0:0:0:0:
316,97,23723,5,2,1:2:0:0:
198,303,24042,1,0,0:0:0:0:
195,312,24201,1,2,1:0:0:0:
116,320,24361,1,2,0:2:0:0:
78,251,24521,1,2,1:2:0:0:
185,153,24680,22,0,P|172:188|161:225,1,75.9999979705811,10|0,0:2|0:0,0:0:0:0:
2,88,24999,2,0,P|38:76|74:64,1,75.9999979705811,2|0,1:2|0:2,0:0:0:0:
367,199,25318,2,0,P|330:210|294:222,1,75.9999979705811,10|0,0:2|1:2,0:0:0:0:
185,153,25638,6,0,P|190:80|256:49,1,151.999995941162,2|0,1:3|0:2,0:0:0:0:
413,130,26116,1,2,1:0:0:0:
457,198,26276,1,2,0:2:0:0:
415,266,26435,1,2,1:2:0:0:
223,321,26595,22,0,P|211:284|199:248,1,75.9999979705811,10|0,0:0|0:0,0:0:0:0:
367,199,26914,1,0,1:0:0:0:
332,342,27074,1,0,0:0:0:0:
367,199,27233,1,10,3:2:0:0:
185,153,27393,5,2,0:2:0:0:
185,153,27552,2,0,B|96:162|137:192|42:199,1,151.999995941162,0|0,1:0|0:0,0:0:0:0:
277,0,28031,2,0,P|295:33|299:70,1,75.9999979705811,2|0,1:0|0:0,0:0:0:0:
213,72,28350,1,2,1:2:0:0:
367,199,28510,2,0,P|403:210|440:218,1,75.9999979705811,10|0,0:2|0:2,0:0:0:0:
250,271,28829,2,0,P|242:308|230:344,1,75.9999979705811,2|0,1:2|0:2,0:0:0:0:
352,305,29148,21,10,0:2:0:0:
266,170,29308,1,0,1:2:0:0:
352,305,29467,2,0,B|445:321|403:347|492:357,1,151.999995941162,2|0,1:3|0:0,0:0:0:0:
189,208,29946,1,2,1:0:0:0:
110,222,30106,1,2,0:2:0:0:
90,300,30265,1,2,1:2:0:0:
281,75,30425,6,0,P|278:37|270:0,1,75.9999979705811,6|0,1:0|0:0,0:0:0:0:
405,162,30744,2,0,P|397:124|394:86,1,75.9999979705811,10|0,3:2|0:0,0:0:0:0:
189,207,31063,2,0,P|183:151|173:95,1,113.999996955872,8|0,3:2|0:0,0:0:0:0:
298,179,31382,22,0,P|304:254|318:329,1,151.999995941162,2|0,1:2|0:0,0:0:0:0:
66,372,31861,1,2,1:0:0:0:
6,319,32021,1,0,0:0:0:0:
50,252,32180,1,0,1:0:0:0:
112,303,32340,6,0,P|148:293|186:286,1,75.9999979705811,10|0,0:0|0:0,0:0:0:0:
355,58,32659,2,0,P|318:67|280:74,1,75.9999979705811,2|0,1:2|0:0,0:0:0:0:
176,167,32978,2,0,P|231:178|286:193,1,113.999996955872,10|0,0:0|0:0,0:0:0:0:
308,294,33297,22,0,P|316:222|385:199,1,151.999995941162,2|0,1:3|0:0,0:0:0:0:
140,21,33776,1,2,1:0:0:0:
214,80,33935,1,2,0:2:0:0:
176,167,34095,1,2,1:2:0:0:
98,109,34255,6,0,P|61:121|24:129,1,75.9999979705811,10|0,0:2|0:0,0:0:0:0:
131,354,34574,1,0,1:0:0:0:
198,278,34733,1,0,0:0:0:0:
0,218,34893,2,0,P|55:232|106:256,1,113.999996955872,8|0,3:2|0:0,0:0:0:0:
106,256,35212,22,0,P|139:189|134:114,1,151.999995941162,2|0,1:2|0:0,0:0:0:0:
355,58,35691,1,2,1:0:0:0:
251,144,35850,1,0,0:0:0:0:
398,129,36010,1,0,1:0:0:0:
226,0,36169,6,0,P|210:34|208:72,1,75.9999979705811,10|0,0:2|0:2,0:0:0:0:
315,284,36489,2,0,P|330:249|332:211,1,75.9999979705811,2|0,1:2|0:2,0:0:0:0:
92,252,36808,2,0,B|159:241|128:222|196:210,1,113.999996955872,10|0,0:2|0:0,0:0:0:0:
196,210,37127,22,0,P|210:284|222:359,1,151.999995941162,2|0,1:3|0:2,0:0:0:0:
251,144,37606,1,2,1:0:0:0:
251,144,37765,1,2,0:2:0:0:
251,144,37925,1,2,1:2:0:0:
388,302,38084,6,0,P|351:290|314:283,1,75.9999979705811,10|0,0:0|0:0,0:0:0:0:
360,110,38404,2,0,P|353:147|341:183,1,75.9999979705811,0|0,1:0|0:0,0:0:0:0:
49,107,38723,2,0,P|103:122|159:132,1,113.999996955872,10|0,3:2|0:0,0:0:0:0:
198,226,39042,22,0,P|177:299|162:373,1,151.999995941162,2|0,1:2|0:0,0:0:0:0:
89,266,39521,1,2,1:0:0:0:
218,145,39680,1,2,0:2:0:0:
269,315,39840,1,2,1:2:0:0:
102,177,39999,6,0,P|74:151|64:115,1,75.9999979705811,10|0,0:2|0:2,0:0:0:0:
371,174,40318,2,0,P|345:201|309:211,1,75.9999979705811,2|0,1:2|0:2,0:0:0:0:
243,33,40638,2,0,P|232:89|217:144,1,113.999996955872,10|0,0:2|0:0,0:0:0:0:
217,144,40957,21,2,1:3:0:0:
376,329,41276,1,0,0:2:0:0:
383,337,41435,1,2,1:0:0:0:
470,288,41595,1,2,0:2:0:0:
426,194,41755,1,2,1:2:0:0:
346,250,41914,6,0,P|308:257|272:267,1,75.9999979705811,10|0,0:0|0:0,0:0:0:0:
405,18,42233,2,0,P|412:55|422:91,1,75.9999979705811,0|0,1:0|0:0,0:0:0:0:
339,152,42552,2,0,P|284:134|229:121,1,113.999996955872,10|0,3:2|0:0,0:0:0:0:
168,32,42872,22,0,P|121:89|131:163,1,151.999995941162,0|0,1:0|0:0,0:0:0:0:
249,239,43350,1,2,1:0:0:0:
70,266,43510,2,0,P|35:281|0:293,1,75.9999979705811,2|2,0:0|1:2,0:0:0:0:
196,384,43829,2,0,P|180:349|168:313,1,75.9999979705811,10|0,0:2|0:2,0:0:0:0:
342,357,44148,2,0,P|361:303|388:253,1,113.999996955872,2|0,1:2|0:0,0:0:0:0:
388,253,44467,1,10,0:2:0:0:
310,187,44627,1,0,1:2:0:0:
512,194,44787,6,0,P|438:182|389:126,1,151.999995941162,2|0,1:3|0:0,0:0:0:0:
273,9,45265,1,2,1:0:0:0:
193,21,45425,1,2,0:2:0:0:
140,81,45584,1,2,1:2:0:0:
285,174,45744,22,0,P|291:136|301:99,1,75.9999979705811,6|0,1:0|0:0,0:0:0:0:
116,241,46063,2,0,P|153:247|190:257,1,75.9999979705811,10|0,3:2|0:0,0:0:0:0:
512,194,46382,2,0,P|456:207|400:218,1,113.999996955872,8|0,3:2|0:0,0:0:0:0:
464,340,46701,6,0,B|377:343|416:298|322:296,1,151.999995941162,4|0,1:0|0:0,0:0:0:0:
174,121,47180,1,2,1:0:0:0:
105,162,47340,1,0,0:0:0:0:
116,241,47499,1,0,1:0:0:0:
186,202,47659,22,0,P|223:195|259:183,1,75.9999979705811,8|0,0:0|0:0,0:0:0:0:
44,21,47978,2,0,P|50:58|62:94,1,75.9999979705811,4|0,1:0|0:0,0:0:0:0:
380,246,48297,5,14,0:0:0:0:
351,161,48457,1,0,0:0:0:0:
143,286,48616,22,0,B|238:298|191:328|284:334,1,151.999995941162,4|0,1:0|0:0,0:0:0:0:
143,107,49095,2,0,B|48:118|95:148|1:155,1,151.999995941162,12|0,1:2|0:0,0:0:0:0:
203,192,49574,2,0,P|215:156|223:119,1,75.9999979705811,4|0,1:0|0:0,0:0:0:0:
415,0,49893,2,0,P|403:35|395:72,1,75.9999979705811,4|0,1:0|0:0,0:0:0:0:
313,102,50212,5,4,1:0:0:0:
313,102,50712,1,0,1:0:0:0:
313,102,51212,1,0,1:0:0:0:
313,102,51712,1,0,1:0:0:0:
313,102,52212,1,0,1:0:0:0:
313,102,52712,1,0,1:0:0:0:
280,27,53212,21,8,1:2:0:0:
342,180,53337,1,4,0:3:0:0:
342,180,53587,1,4,0:3:0:0:
176,293,53712,5,8,0:3:0:0:
129,188,53837,1,12,0:3:0:0:
279,298,53962,1,12,0:3:0:0:
105,384,54087,1,12,0:3:0:0:
238,185,54212,6,0,B|229:105|213:133|204:49,1,140.000001335144,6|0,1:0|3:0,0:0:0:0:
279,298,54587,1,0,1:2:0:0:
427,245,54712,2,0,P|416:278|407:311,1,70.000000667572,10|0,1:2|0:2,0:0:0:0:
58,193,54962,2,0,P|91:184|124:172,1,70.000000667572,0|0,3:2|1:2,0:0:0:0:
357,129,55212,5,10,1:2:0:0:
279,298,55337,1,0,0:2:0:0:
417,236,55462,21,0,3:2:0:0:
296,65,55587,1,0,1:2:0:0:
417,236,55712,1,10,1:2:0:0:
467,149,55837,1,0,0:2:0:0:
311,224,55962,1,2,3:2:0:0:
463,334,56087,1,2,1:2:0:0:
251,150,56212,6,0,B|167:165|205:184|120:195,1,140.000001335144,2|0,1:0|3:0,0:0:0:0:
241,300,56587,1,0,1:0:0:0:
311,224,56712,1,10,1:2:0:0:
155,280,56837,1,0,0:0:0:0:
284,384,56962,1,0,3:0:0:0:
433,332,57087,1,0,1:0:0:0:
470,91,57212,22,0,P|431:148|423:217,1,140.000001335144,10|2,1:2|3:2,0:0:0:0:
423,217,57587,1,0,1:0:0:0:
333,84,57712,2,0,P|300:70|273:49,1,70.000000667572,10|0,1:2|0:0,0:0:0:0:
55,195,57962,1,2,3:2:0:0:
127,138,58087,1,0,1:0:0:0:
222,297,58212,6,0,B|309:279|273:314|361:291,1,140.000001335144,2|0,1:0|3:0,0:0:0:0:
216,168,58587,1,0,1:0:0:0:
106,308,58712,2,0,P|98:342|86:374,1,70.000000667572,10|0,1:2|0:0,0:0:0:0:
24,191,58962,2,0,P|16:225|4:257,1,70.000000667572,0|0,3:2|1:0,0:0:0:0:
129,147,59212,21,10,1:2:0:0:
19,25,59337,1,0,0:0:0:0:
130,163,59462,1,0,3:2:0:0:
234,23,59587,1,0,1:0:0:0:
143,0,59712,2,0,P|135:34|124:67,1,70.000000667572,10|0,1:2|0:0,0:0:0:0:
281,198,59962,2,0,P|246:205|213:216,1,70.000000667572,0|0,3:2|1:0,0:0:0:0:
342,30,60212,6,0,B|434:41|391:64|473:72,1,140.000001335144,2|0,1:0|3:0,0:0:0:0:
281,198,60587,1,0,1:0:0:0:
234,23,60712,2,0,P|216:53|211:87,1,70.000000667572,10|0,1:2|0:0,0:0:0:0:
413,317,60962,2,0,P|395:286|390:252,1,70.000000667572,0|0,3:0|1:0,0:0:0:0:
347,120,61212,21,10,1:2:0:0:
182,287,61337,1,0,0:0:0:0:
347,120,61462,1,0,3:0:0:0:
182,287,61587,1,0,1:0:0:0:
293,384,61712,2,0,P|310:353|315:319,1,70.000000667572,10|2,1:2|0:2,0:0:0:0:
118,177,61962,2,0,P|112:142|95:112,1,70.000000667572,2|2,3:2|1:2,0:0:0:0:
326,93,62212,6,0,P|272:136|249:201,1,140.000001335144,6|0,1:0|3:0,0:0:0:0:
501,134,62587,1,0,1:2:0:0:
356,212,62712,2,0,P|389:204|419:186,1,70.000000667572,10|0,1:2|0:2,0:0:0:0:
476,42,62962,2,0,P|445:58|422:84,1,70.000000667572,0|0,3:2|1:2,0:0:0:0:
480,369,63212,2,0,P|508:305|512:236,1,140.000001335144,10|0,1:2|3:2,0:0:0:0:
512,236,63587,1,0,1:2:0:0:
414,293,63712,21,10,1:2:0:0:
286,357,63837,1,0,0:2:0:0:
189,117,63962,5,2,3:2:0:0:
334,227,64087,1,0,1:2:0:0:
177,384,64212,22,0,P|174:314|202:251,1,140.000001335144,2|0,1:0|3:0,0:0:0:0:
204,103,64587,1,0,1:2:0:0:
303,21,64712,2,0,P|317:52|317:87,1,70.000000667572,10|0,1:2|0:2,0:0:0:0:
55,207,64962,2,0,P|88:197|122:190,1,70.000000667572,0|0,3:2|1:2,0:0:0:0:
464,183,65212,6,0,B|376:195|424:221|332:226,1,140.000001335144,10|2,1:2|3:2,0:0:0:0:
455,78,65587,1,0,1:2:0:0:
255,187,65712,2,0,P|250:152|241:118,1,70.000000667572,10|0,1:2|0:2,0:0:0:0:
463,287,65962,2,0,P|428:291|394:300,1,70.000000667572,2|0,3:2|1:2,0:0:0:0:
258,371,66212,22,0,P|260:303|312:259,1,140.000001335144,2|0,1:0|3:0,0:0:0:0:
155,86,66587,1,0,1:2:0:0:
283,12,66712,2,0,P|303:39|312:73,1,70.000000667572,10|0,1:2|0:2,0:0:0:0:
154,287,66962,2,0,P|174:259|183:225,1,70.000000667572,0|0,3:2|1:2,0:0:0:0:
26,36,67212,6,0,B|115:49|72:74|154:85,1,140.000001335144,10|0,1:2|3:2,0:0:0:0:
154,85,67587,1,0,1:2:0:0:
333,226,67712,21,10,1:2:0:0:
258,371,67837,1,0,0:2:0:0:
246,149,67962,5,0,3:2:0:0:
394,300,68087,1,0,1:2:0:0:
488,94,68212,22,0,P|419:107|350:119,1,140.000001335144,2|0,1:0|3:0,0:0:0:0:
182,266,68587,1,0,1:0:0:0:
83,154,68712,2,0,P|89:188|95:222,1,70.000000667572,10|0,1:2|0:0,0:0:0:0:
227,30,68962,2,0,P|192:36|158:42,1,70.000000667572,4|4,0:3|0:3,0:0:0:0:
246,149,69212,5,8,2:3:0:0:
336,10,69337,1,0,3:0:0:0:
440,257,69462,1,0,3:0:0:0:
338,107,69587,1,8,0:0:0:0:
468,129,69712,1,10,3:2:0:0:
303,296,69837,1,2,3:2:0:0:
392,180,69962,1,2,3:2:0:0:
392,180,70087,1,2,3:2:0:0:
185,94,70212,22,0,B|189:175|208:141|216:229,1,140.000001335144,6|2,1:0|3:2,0:0:0:0:
57,383,70587,2,0,P|27:321|32:252,1,140.000001335144,2|2,1:2|0:2,0:0:0:0:
303,296,70962,2,0,P|337:303|370:313,1,70.000000667572,2|0,3:2|1:2,0:0:0:0:
192,83,71212,1,10,1:2:0:0:
128,219,71337,1,0,0:2:0:0:
200,72,71462,1,0,3:2:0:0:
458,268,71712,6,0,P|465:233|475:200,1,70.000000667572,10|0,1:2|0:2,0:0:0:0:
512,106,71962,1,2,3:2:0:0:
381,203,72087,1,2,1:2:0:0:
416,118,72212,22,0,P|347:102|280:84,1,140.000001335144,2|2,1:0|3:2,0:0:0:0:
55,255,72587,2,0,P|88:245|122:236,1,70.000000667572,2|8,1:2|1:2,0:0:0:0:
291,249,72837,1,0,0:2:0:0:
110,72,72962,1,2,3:2:0:0:
458,268,73212,5,10,1:2:0:0:
257,329,73337,1,0,0:2:0:0:
414,134,73462,2,0,P|446:147|479:157,1,70.000000667572,0|0,3:2|1:2,0:0:0:0:
255,212,73712,2,0,P|246:143|279:83,1,140.000001335144,8|2,1:2|3:2,0:0:0:0:
358,74,74087,1,2,1:2:0:0:
353,256,74212,22,0,P|361:324|328:384,1,140.000001335144,2|2,1:0|3:2,0:0:0:0:
141,287,74587,2,0,P|138:252|150:219,1,70.000000667572,2|8,1:2|1:2,0:0:0:0:
255,212,74837,1,2,0:2:0:0:
49,384,74962,2,0,P|36:351|39:316,1,70.000000667572,2|0,3:2|1:2,0:0:0:0:
143,21,75212,2,0,P|185:75|193:143,2,140.000001335144,10|0|8,1:2|3:2|1:2,0:0:0:0:
143,21,75962,1,2,3:2:0:0:
85,90,76087,1,2,1:2:0:0:
268,222,76212,6,0,P|333:198|402:187,1,140.000001335144,2|0,1:0|3:2,0:0:0:0:
311,39,76587,2,0,P|303:73|290:105,1,70.000000667572,2|8,1:2|1:2,0:0:0:0:
410,355,76962,2,0,P|417:320|430:288,1,70.000000667572,2|0,3:2|1:2,0:0:0:0:
506,349,77212,21,10,1:2:0:0:
477,218,77337,1,8,1:2:0:0:
339,284,77462,1,0,3:0:0:0:
339,284,77587,1,0,1:0:0:0:
204,161,77712,2,0,B|122:172|156:196|71:201,1,140.000001335144,8|2,1:2|3:2,0:0:0:0:
111,87,78087,1,2,1:0:0:0:
339,284,78212,6,0,P|369:221|363:152,1,140.000001335144,6|2,1:0|3:2,0:0:0:0:
304,0,78587,2,0,P|273:62|279:131,1,140.000001335144,2|2,1:2|0:2,0:0:0:0:
96,297,78962,2,0,P|61:291|28:279,1,70.000000667572,2|0,3:2|1:2,0:0:0:0:
111,87,79212,2,0,P|162:132|173:200,1,140.000001335144,10|0,1:2|3:2,0:0:0:0:
401,383,79712,2,0,P|453:337|464:270,1,140.000001335144,10|2,1:2|3:2,0:0:0:0:
402,212,80087,21,2,1:2:0:0:
189,293,80212,2,0,P|198:326|203:361,1,70.000000667572,2|0,1:0|0:0,0:0:0:0:
394,205,80462,1,2,3:2:0:0:
279,131,80587,2,0,P|245:140|210:145,1,70.000000667572,2|8,1:2|1:2,0:0:0:0:
386,197,80837,1,2,0:2:0:0:
380,96,80962,2,0,P|389:62|394:27,1,70.000000667572,2|0,3:2|1:2,0:0:0:0:
264,220,81212,6,0,P|283:287|295:356,1,140.000001335144,10|0,1:2|3:0,0:0:0:0:
295,356,81712,2,0,P|328:346|363:341,1,70.000000667572,8|2,1:2|3:2,0:0:0:0:
411,277,81962,1,2,3:2:0:0:
235,140,82087,1,2,1:2:0:0:
98,254,82212,22,0,B|191:254|142:285|233:282,1,140.000001335144,6|2,1:0|3:2,0:0:0:0:
456,92,82587,2,0,P|387:79|320:57,1,140.000001335144,2|2,1:2|0:2,0:0:0:0:
174,3,82962,2,0,P|166:37|157:71,1,70.000000667572,2|0,3:2|1:2,0:0:0:0:
295,356,83212,2,0,P|310:287|327:219,1,140.000001335144,10|0,1:2|3:2,0:0:0:0:
20,198,83712,2,0,P|88:210|155:232,1,140.000001335144,8|2,1:2|3:2,0:0:0:0:
215,158,84087,1,2,1:2:0:0:
396,384,84212,6,0,P|420:318|419:249,1,140.000001335144,2|0,1:0|3:0,0:0:0:0:
320,57,84587,2,0,P|311:91|301:124,1,70.000000667572,4|8,0:3|1:2,0:0:0:0:
385,2,84962,1,12,0:3:0:0:
385,2,85087,1,4,0:3:0:0:
227,66,85212,2,0,P|192:57|159:47,1,70.000000667572,8|8,1:2|0:3,0:0:0:0:
364,201,85462,2,0,P|398:209|431:219,1,70.000000667572,8|8,0:3|0:3,0:0:0:0:
212,380,85712,2,0,P|185:316|195:247,1,140.000001335144,8|4,1:2|0:3,0:0:0:0:
296,281,86087,1,12,0:3:0:0:
347,68,86212,22,0,P|373:131|363:200,1,140.000001335144,6|2,1:0|3:2,0:0:0:0:
106,213,86587,2,0,P|72:204|40:190,1,70.000000667572,2|8,1:2|1:2,0:0:0:0:
6,123,86837,1,2,0:2:0:0:
6,123,86962,1,2,3:2:0:0:
158,0,87212,2,0,P|204:50|211:119,1,140.000001335144,10|0,1:2|3:2,0:0:0:0:
132,100,87587,1,0,1:2:0:0:
309,281,87712,2,0,B|390:257|375:298|446:272,1,140.000001335144,10|2,1:2|3:2,0:0:0:0:
320,165,88087,1,2,1:2:0:0:
130,317,88212,6,0,P|124:351|113:384,1,70.000000667572,2|0,1:0|0:0,0:0:0:0:
64,248,88462,1,2,3:2:0:0:
236,333,88587,2,0,P|225:299|219:265,1,70.000000667572,2|8,1:2|1:2,0:0:0:0:
97,103,88837,1,2,0:2:0:0:
97,103,88962,2,0,P|107:136|113:170,1,70.000000667572,2|0,3:2|1:2,0:0:0:0:
340,176,89212,2,0,P|297:123|230:125,1,140.000001335144,10|0,1:2|3:2,0:0:0:0:
230,125,89587,1,0,1:2:0:0:
373,329,89712,2,0,P|425:286|423:219,1,140.000001335144,8|2,1:2|3:2,0:0:0:0:
231,347,90087,1,2,1:2:0:0:
125,170,90212,22,0,B|42:190|83:212|0:226,1,140.000001335144,2|0,1:0|3:2,0:0:0:0:
190,276,90587,2,0,P|195:241|203:207,1,70.000000667572,0|8,1:2|1:2,0:0:0:0:
90,23,90837,1,2,0:2:0:0:
90,23,90962,2,0,P|84:57|76:91,1,70.000000667572,2|0,3:2|1:2,0:0:0:0:
190,276,91212,1,10,1:2:0:0:
253,115,91337,2,0,P|218:109|184:101,1,70.000000667572,0|0,0:2|3:2,0:0:0:0:
184,101,91587,1,0,1:2:0:0:
384,227,91712,2,0,P|422:169|423:100,1,140.000001335144,8|2,1:2|3:2,0:0:0:0:
361,52,92087,1,2,1:2:0:0:
190,264,92212,6,0,P|120:264|63:303,1,140.000001335144,2|0,1:0|3:2,0:0:0:0:
278,384,92587,2,0,P|283:349|292:315,1,70.000000667572,2|8,1:2|1:2,0:0:0:0:
178,90,92962,2,0,P|172:124|163:158,1,70.000000667572,2|0,3:2|1:2,0:0:0:0:
90,89,93212,1,10,1:2:0:0:
199,4,93337,1,8,1:2:0:0:
259,131,93462,1,0,3:0:0:0:
12,374,93712,2,0,P|-11:309|0:240,1,140.000001335144,8|2,1:2|3:2,0:0:0:0:
69,199,94087,1,2,1:0:0:0:
266,357,94212,22,0,B|177:342|213:381|128:364,1,140.000001335144,6|2,1:0|3:2,0:0:0:0:
163,158,94587,2,0,P|177:189|181:224,1,70.000000667572,2|8,1:2|1:2,0:0:0:0:
122,278,94837,1,2,0:2:0:0:
353,380,94962,2,0,P|367:348|371:313,1,70.000000667572,2|0,3:2|1:2,0:0:0:0:
407,150,95212,2,0,P|339:153|295:205,1,140.000001335144,10|0,1:2|3:2,0:0:0:0:
295,205,95587,1,0,1:2:0:0:
32,3,95712,2,0,P|35:70|87:114,1,140.000001335144,10|2,1:2|3:2,0:0:0:0:
161,238,96087,1,2,1:2:0:0:
239,40,96212,6,0,P|227:73|220:107,1,70.000000667572,2|0,1:0|0:0,0:0:0:0:
330,328,96462,1,2,3:2:0:0:
258,383,96587,2,0,P|278:317|288:247,1,140.000001335144,2|0,1:2|0:2,0:0:0:0:
413,186,96962,2,0,P|446:197|480:204,1,70.000000667572,2|0,3:2|1:2,0:0:0:0:
401,68,97212,2,0,P|336:89|313:152,1,140.000001335144,10|0,1:2|3:0,0:0:0:0:
313,152,97587,1,0,1:0:0:0:
183,290,97712,2,0,B|102:276|124:312|44:292,1,140.000001335144,8|2,1:2|3:2,0:0:0:0:
296,283,98087,21,2,1:0:0:0:
147,86,98212,2,0,P|200:129|222:195,1,140.000001335144,4|2,1:0|3:2,0:0:0:0:
377,366,98587,2,0,P|398:338|402:304,1,70.000000667572,2|8,1:2|1:2,0:0:0:0:
296,283,98837,1,2,0:2:0:0:
493,289,98962,2,0,P|488:254|467:227,1,70.000000667572,2|0,3:2|1:2,0:0:0:0:
477,69,99212,6,0,P|417:102|393:166,1,140.000001335144,10|0,1:2|3:2,0:0:0:0:
373,27,99587,1,0,1:2:0:0:
293,35,99712,2,0,P|261:51|228:61,1,70.000000667572,8|0,1:2|0:2,0:0:0:0:
74,168,99962,1,2,3:2:0:0:
161,204,100087,1,2,1:2:0:0:
69,8,100212,22,0,P|126:45|144:111,1,140.000001335144,2|0,1:0|3:2,0:0:0:0:
253,229,100587,2,0,P|286:218|318:205,1,70.000000667572,8|0,1:2|3:2,0:0:0:0:
89,255,100962,2,0,P|102:287|112:320,1,70.000000667572,0|8,3:2|1:2,0:0:0:0:
379,384,101212,1,0,3:2:0:0:
469,324,101337,1,0,3:2:0:0:
406,242,101462,1,8,1:2:0:0:
323,296,101587,1,8,1:2:0:0:
233,136,101712,2,0,P|243:102|256:70,1,70.000000667572,8|12,1:2|0:3,0:0:0:0:
331,20,101962,5,4,0:3:0:0:
147,71,102087,1,8,0:3:0:0:
289,203,102212,1,4,1:0:0:0:
