osu file format v14

[General]
AudioFilename: Dorchadas.mp3
AudioLeadIn: 2000
PreviewTime: 54058
Countdown: 0
SampleSet: None
StackLeniency: 0.7
Mode: 0
LetterboxInBreaks: 0
WidescreenStoryboard: 0

[Editor]
DistanceSpacing: 1
BeatDivisor: 4
GridSize: 4
TimelineZoom: 1.8

[Metadata]
Title:dorchadas
TitleUnicode:dorchadas
Artist:Rita
ArtistUnicode:Rita
Creator:Delis
Version:Sharnoth
Source:漆黒のシャルノス -What a beautiful tomorrow-
Tags:milkshake trynna alacat mirash Meaning blueberry yoghurt yogurt Shikkoku no Sharnoth
BeatmapID:1279490
BeatmapSetID:580215

[Difficulty]
HPDrainRate:7
CircleSize:4
OverallDifficulty:9
ApproachRate:9.5
SliderMultiplier:1.9
SliderTickRate:1

[Events]
//Background and Video events
0,0,"BG.jpg",0,0
//Break Periods
2,8949,15884
2,102758,114589
2,232782,239057
//Storyboard Layer 0 (Background)
//Storyboard Layer 1 (Fail)
//Storyboard Layer 2 (Pass)
//Storyboard Layer 3 (Foreground)
//Storyboard Sound Samples

[TimingPoints]
1090,319.148936170213,6,3,1,50,1,0
50558,500,4,3,23,50,1,0
51058,-100,4,3,23,30,0,0
53683,-66.6666666666667,4,3,1,50,0,0
54058,-50,4,3,1,50,0,0
70558,-50,4,3,1,60,0,0
113845,681.818181818182,4,3,1,50,1,0
114526,588.235294117647,4,3,1,50,1,0
115114,319.148936170213,6,3,1,50,1,0
164582,500,4,3,1,50,1,0
165082,-100,4,3,1,30,0,0
166582,-66.6666666666667,4,3,1,40,0,0
168082,-50,4,3,1,50,0,0
184582,-50,4,3,1,60,0,0
216519,-50,4,3,1,55,0,0
231769,-50,4,3,1,45,0,0
232019,-50,4,3,1,40,0,0
232269,-50,4,3,1,30,0,0
232582,-50,4,3,1,50,0,0
264582,-100,4,3,1,50,0,0
264957,-100,4,2,1,50,0,0
268582,-333.333333333333,4,2,1,30,0,0
270394,-100,4,2,1,5,0,0

[Colours]
Combo1 : 107,79,123
Combo2 : 204,176,66
Combo3 : 50,145,165
Combo4 : 82,151,72
Combo5 : 149,34,54
Combo6 : 98,98,98

[HitObjects]
256,192,770,53,0,0:0:0:0:
256,192,930,1,0,0:0:0:0:
256,192,1090,2,0,L|152:196,1,95,4|0,0:0|0:0,0:0:0:0:
116,276,1409,2,0,L|228:272,1,95,0|8,0:0|0:0,0:0:0:0:
296,288,1728,1,0,0:0:0:0:
380,260,1887,1,0,0:0:0:0:
468,284,2047,2,0,P|472:228|468:176,1,95,8|0,0:0|0:0,0:0:0:0:
392,48,2366,2,0,P|388:104|392:156,1,95,8|0,0:0|0:0,0:0:0:0:
312,196,2685,2,0,L|204:208,1,95,2|0,0:0|0:0,0:0:0:0:
217,206,2925,1,0,0:0:0:0:
217,206,3004,6,0,P|156:216|108:228,1,95,4|0,0:0|0:0,0:0:0:0:
140,132,3324,2,0,P|72:152|28:176,1,95,0|8,0:0|0:0,0:0:0:0:
328,300,3643,2,0,P|264:284|216:284,1,95,0|0,0:0|0:0,0:0:0:0:
172,356,3962,2,0,P|136:328|72:300,1,95,8|0,0:0|0:0,0:0:0:0:
164,212,4281,5,8,0:0:0:0:
384,172,4441,1,0,0:0:0:0:
216,152,4600,1,2,0:0:0:0:
324,228,4760,1,0,0:0:0:0:
96,48,4919,54,0,P|99:98|104:144,1,95,4|0,0:0|0:0,0:0:0:0:
92,160,5159,1,0,0:0:0:0:
92,160,5238,2,0,P|97:217|100:272,1,95,0|8,0:0|0:0,0:0:0:0:
84,344,5558,1,0,0:0:0:0:
248,288,5717,1,0,0:0:0:0:
176,364,5877,2,0,P|168:308|172:248,1,95,8|0,0:0|0:0,0:0:0:0:
236,172,6196,1,8,0:0:0:0:
316,224,6355,1,0,0:0:0:0:
240,72,6515,1,2,0:0:0:0:
336,116,6675,1,0,0:0:0:0:
148,184,6834,6,0,L|136:80,1,95,4|0,0:0|0:0,0:0:0:0:
316,224,7153,2,0,L|332:348,1,95,0|8,0:0|0:0,0:0:0:0:
88,328,7472,2,0,L|208:352,1,95,8|0,0:0|0:0,0:0:0:0:
448,128,7792,5,4,2:2:0:0:
452,112,8111,1,2,0:0:0:0:
48,260,8430,53,4,2:2:0:0:
64,268,8749,1,6,1:0:0:0:
256,344,16409,6,0,L|228:136,1,190,4|0,0:0|0:0,0:0:0:0:
328,96,16887,2,0,L|356:304,1,190,8|0,0:0|0:0,0:0:0:0:
436,344,17366,2,0,P|448:288|444:232,1,95,2|0,0:0|0:0,0:0:0:0:
184,276,17685,2,0,P|232:300|296:288,1,95,8|0,0:0|0:0,0:0:0:0:
180,80,18004,2,0,P|120:88|64:124,1,95,2|0,0:0|0:0,0:0:0:0:
336,224,18324,6,0,P|384:136|340:44,1,190,4|0,0:0|0:0,0:0:0:0:
240,184,18802,1,8,0:0:0:0:
244,296,18962,1,0,0:0:0:0:
144,248,19121,1,0,0:0:0:0:
472,196,19281,2,0,L|456:300,1,95,8|0,0:0|0:0,0:0:0:0:
312,128,19600,2,0,L|320:228,1,95,2|0,0:0|0:0,0:0:0:0:
160,80,19919,2,0,L|156:180,1,95,2|0,0:0|0:0,0:0:0:0:
8,144,20238,54,0,L|40:336,1,190,4|0,0:0|0:0,0:0:0:0:
120,288,20717,2,0,B|196:216|304:252,1,190,8|0,0:0|0:0,0:0:0:0:
396,280,21196,1,2,0:0:0:0:
368,176,21355,1,0,0:0:0:0:
296,249,21515,1,0,0:0:0:0:
456,204,21675,1,0,0:0:0:0:
356,364,21834,1,2,0:0:0:0:
184,232,21994,1,0,0:0:0:0:
96,288,22153,6,0,P|80:212|88:80,1,190,4|0,0:0|0:0,0:0:0:0:
244,32,22632,1,8,0:0:0:0:
268,236,22792,1,0,0:0:0:0:
368,92,22951,1,8,0:0:0:0:
440,192,23111,2,0,L|336:196,1,95,10|0,0:0|0:0,0:0:0:0:
236,328,23430,2,0,L|344:324,1,95,2|0,0:0|0:0,0:0:0:0:
168,240,23749,2,0,L|52:244,1,95,2|0,0:0|0:0,0:0:0:0:
92,84,24068,6,0,B|200:60|296:76,1,190,4|0,0:0|0:0,0:0:0:0:
428,144,24547,1,8,0:0:0:0:
296,232,24707,1,0,0:0:0:0:
440,320,24866,1,0,0:0:0:0:
400,248,25026,2,0,P|336:256|292:264,1,95,2|0,0:0|0:0,0:0:0:0:
144,328,25345,2,0,P|208:336|248:344,1,95,8|0,0:0|0:0,0:0:0:0:
132,212,25664,2,0,P|80:216|28:224,1,95,2|0,0:0|0:0,0:0:0:0:
160,88,25983,54,0,P|256:72|364:100,1,190,4|0,0:0|0:0,0:0:0:0:
436,192,26462,1,8,0:0:0:0:
416,340,26621,2,0,P|376:352|296:348,1,95,0|0,0:0|0:0,0:0:0:0:
168,224,26941,2,0,P|220:212|280:208,1,95,8|0,0:0|0:0,0:0:0:0:
76,324,27260,1,2,0:0:0:0:
76,324,27419,1,0,0:0:0:0:
120,84,27579,1,2,0:0:0:0:
120,84,27738,1,0,0:0:0:0:
288,116,27898,6,0,B|388:156|376:72|488:120,1,190,4|0,0:0|0:0,0:0:0:0:
512,196,28377,1,8,0:0:0:0:
408,252,28536,1,0,0:0:0:0:
320,228,28696,1,0,0:0:0:0:
136,208,28855,1,2,0:0:0:0:
224,240,29015,1,0,0:0:0:0:
360,120,29175,2,0,P|304:136|256:156,1,95,8|0,0:0|0:0,0:0:0:0:
196,344,29494,2,0,P|252:328|300:308,1,95,2|0,0:0|0:0,0:0:0:0:
460,144,29813,6,0,P|400:208|292:232,1,190,4|0,0:0|0:0,0:0:0:0:
192,184,30292,1,8,0:0:0:0:
292,96,30451,1,0,0:0:0:0:
172,56,30611,1,0,0:0:0:0:
256,296,30770,53,4,1:2:0:0:
192,184,30930,1,0,0:0:0:0:
256,296,31090,1,4,1:2:0:0:
372,148,31249,1,0,0:0:0:0:
256,296,31409,1,4,1:2:0:0:
256,72,31568,1,0,0:0:0:0:
156,256,31728,6,0,P|68:248|8:144,1,190,4|0,0:0|0:0,0:0:0:0:
168,168,32207,2,0,P|248:172|332:96,1,190,8|0,0:0|0:0,0:0:0:0:
444,192,32685,1,2,0:0:0:0:
356,272,32845,1,0,0:0:0:0:
432,96,33004,1,8,0:0:0:0:
444,192,33164,1,0,0:0:0:0:
236,188,33324,1,2,0:0:0:0:
240,104,33483,1,0,0:0:0:0:
92,320,33643,6,0,P|192:264|296:280,1,190,4|0,0:0|0:0,0:0:0:0:
404,184,34121,1,8,0:0:0:0:
404,184,34281,2,0,L|304:192,1,95,0|0,0:0|0:0,0:0:0:0:
128,124,34600,2,0,P|116:80|120:20,1,95,10|0,0:0|0:0,0:0:0:0:
244,228,34919,2,0,P|232:288|204:332,1,95,10|0,0:0|0:0,0:0:0:0:
280,40,35238,2,0,P|288:100|280:156,1,95,2|0,0:0|0:0,0:0:0:0:
512,296,35558,54,0,P|412:232|408:148,1,190,4|0,0:0|0:0,0:0:0:0:
344,360,36036,2,0,L|332:256,1,95,8|0,0:0|0:0,0:0:0:0:
252,232,36355,1,0,0:0:0:0:
344,88,36515,2,0,L|336:184,1,95,2|0,0:0|0:0,0:0:0:0:
184,180,36834,2,0,L|176:84,1,95,8|0,0:0|0:0,0:0:0:0:
128,288,37153,2,0,L|236:264,1,95,2|0,0:0|0:0,0:0:0:0:
48,164,37472,6,0,P|44:272|52:360,1,190,4|0,0:0|0:0,0:0:0:0:
148,328,37951,1,8,0:0:0:0:
128,228,38111,1,0,0:0:0:0:
272,208,38270,1,0,0:0:0:0:
328,284,38430,2,0,P|260:292|208:284,1,95,8|0,0:0|0:0,0:0:0:0:
360,108,38749,2,0,P|364:164|360:216,1,95,2|0,0:0|0:0,0:0:0:0:
192,204,39068,2,0,P|184:136|188:88,1,95,2|0,0:0|0:0,0:0:0:0:
328,36,39387,6,0,P|252:52|140:44,1,190,4|0,0:0|0:0,0:0:0:0:
72,112,39866,1,8,0:0:0:0:
84,252,40026,1,0,0:0:0:0:
216,320,40185,1,0,0:0:0:0:
308,336,40345,2,0,L|420:328,1,95,2|0,0:0|0:0,0:0:0:0:
468,176,40664,2,0,L|460:52,1,95,8|0,0:0|0:0,0:0:0:0:
252,32,40983,2,0,L|132:36,1,95,2|0,0:0|0:0,0:0:0:0:
228,240,41302,54,0,P|344:216|372:136,1,190,4|0,0:0|0:0,0:0:0:0:
180,144,41781,1,8,0:0:0:0:
144,284,41941,1,0,0:0:0:0:
52,188,42100,1,0,0:0:0:0:
200,64,42260,2,0,L|312:36,1,95,8|0,0:0|0:0,0:0:0:0:
244,208,42579,2,0,L|348:192,1,95,2|0,0:0|0:0,0:0:0:0:
144,344,42898,2,0,L|248:364,1,95,2|0,0:0|0:0,0:0:0:0:
480,352,43217,6,0,P|404:300|288:324,1,190,4|0,0:0|0:0,0:0:0:0:
220,292,43696,1,8,0:0:0:0:
312,200,43855,1,0,0:0:0:0:
208,148,44015,1,0,0:0:0:0:
120,284,44175,2,0,L|116:384,1,95,2|0,0:0|0:0,0:0:0:0:
272,60,44494,2,0,P|208:56|152:56,1,95,8|0,0:0|0:0,0:0:0:0:
64,184,44813,2,0,P|128:188|176:184,1,95,2|0,0:0|0:0,0:0:0:0:
288,140,45132,6,0,L|312:332,1,190,4|0,0:0|0:0,0:0:0:0:
472,200,45611,1,8,0:0:0:0:
472,200,45770,2,0,L|452:312,1,95,0|0,0:0|0:0,0:0:0:0:
184,276,46090,2,0,P|233:269|284:264,1,95,8|0,0:0|0:0,0:0:0:0:
52,352,46409,2,0,P|28:304|8:244,1,95,2|0,0:0|0:0,0:0:0:0:
232,96,46728,2,0,P|236:152|232:200,1,95,4|0,0:2|0:0,0:0:0:0:
140,152,47047,54,0,L|344:144,1,190,4|0,0:0|0:0,0:0:0:0:
392,64,47526,2,0,L|188:68,1,190,8|0,0:0|0:0,0:0:0:0:
44,144,48004,2,0,P|84:236|44:328,2,190,2|4|0,0:0|0:2|1:0,0:0:0:0:
96,72,48802,1,0,0:0:0:0:
192,184,48962,6,0,P|304:192|372:148,1,190,4|0,0:2|0:0,0:0:0:0:
368,256,49441,2,0,P|288:200|272:108,1,190,4|0,0:2|0:0,0:0:0:0:
256,320,49919,2,0,P|344:284|368:280,1,95,4|0,0:2|0:0,0:0:0:0:
160,248,50238,2,0,P|112:300|96:336,1,95,4|0,0:2|0:0,0:0:0:0:
104,136,50558,5,4,0:2:0:0:
112,140,51058,1,0,0:0:0:0:
120,144,51558,1,0,0:0:0:0:
128,148,52058,1,0,0:0:0:0:
136,152,52558,1,0,0:0:0:0:
144,156,53058,1,0,0:0:0:0:
152,160,53558,5,0,0:0:0:0:
56,72,53683,1,8,0:0:0:0:
56,72,53933,1,8,0:0:0:0:
24,160,54058,5,2,0:1:0:0:
116,140,54183,1,2,0:1:0:0:
88,304,54308,1,2,0:1:0:0:
240,264,54433,1,2,0:1:0:0:
324,360,54558,6,0,P|368:280|328:196,1,190,6|2,1:0|0:1,0:1:0:0:
184,132,54933,1,2,0:1:0:0:
192,220,55058,53,10,0:1:0:0:
184,48,55183,1,0,0:0:0:0:
275,158,55308,1,2,0:1:0:0:
100,108,55433,1,2,0:1:0:0:
275,158,55558,6,2,L|372:148,1,95,8|2,0:1|0:1,0:1:0:0:
452,188,55808,1,0,0:1:0:0:
424,280,55933,1,2,0:1:0:0:
192,272,56058,6,2,L|176:176,1,95,8|2,0:1|0:1,0:1:0:0:
108,304,56308,1,0,0:1:0:0:
164,372,56433,1,2,0:1:0:0:
444,360,56558,54,2,L|248:340,1,190,2|2,0:1|0:1,0:1:0:0:
176,176,56933,1,2,0:1:0:0:
256,220,57058,1,10,0:1:0:0:
256,128,57183,1,0,0:0:0:0:
176,176,57308,1,2,0:1:0:0:
336,176,57433,1,2,0:1:0:0:
88,180,57558,6,0,B|80:232|92:284,1,95,10|8,0:1|0:0,0:0:0:0:
428,180,57808,2,0,B|436:128|424:68,1,95,2|0,0:1|0:0,0:0:0:0:
176,176,58058,5,10,0:1:0:0:
336,176,58183,1,2,0:1:0:0:
256,220,58308,1,2,0:1:0:0:
256,128,58433,1,2,0:1:0:0:
444,101,58558,54,2,L|248:129,1,190,2|2,0:1|0:1,0:1:0:0:
160,148,58933,1,2,0:1:0:0:
88,84,59058,1,8,0:1:0:0:
200,56,59183,1,2,0:1:0:0:
144,240,59308,1,2,0:1:0:0:
244,208,59433,1,0,0:0:0:0:
64,176,59558,6,0,P|56:244|60:288,1,95,10|0,0:1|0:0,0:0:0:0:
100,340,59808,2,2,P|144:304|200:280,1,95,2|2,0:1|0:1,0:1:0:0:
280,304,60058,2,0,P|328:276|376:264,1,95,10|0,0:1|0:0,0:0:0:0:
456,280,60308,2,2,P|468:244|464:176,1,95,2|0,0:1|0:1,0:1:0:0:
280,304,60558,6,2,P|220:292|168:268,1,95,2|0,0:1|0:0,0:1:0:0:
120,80,60808,1,2,0:1:0:0:
120,80,60933,1,2,0:1:0:0:
124,360,61058,2,2,P|100:292|96:228,1,95,10|0,0:1|0:0,0:1:0:0:
192,140,61308,1,2,0:1:0:0:
192,140,61433,1,0,0:0:0:0:
192,240,61558,53,10,0:1:0:0:
284,172,61683,1,8,0:0:0:0:
188,255,61808,1,2,0:1:0:0:
280,156,61933,1,2,0:1:0:0:
284,248,62058,5,8,0:1:0:0:
196,188,62183,1,0,0:0:0:0:
280,264,62308,1,2,0:1:0:0:
200,168,62433,1,2,0:1:0:0:
304,360,62558,6,2,P|228:336|96:332,1,190,6|2,0:1|0:1,0:1:0:0:
32,356,62933,1,2,0:1:0:0:
112,200,63058,2,2,P|180:188|236:188,1,95,2|0,0:1|0:1,0:1:0:0:
424,104,63308,2,2,P|376:104|316:116,1,95,2|2,0:1|0:1,0:1:0:0:
140,120,63558,53,10,0:1:0:0:
232,92,63683,1,0,0:1:0:0:
112,200,63808,1,2,0:1:0:0:
80,52,63933,1,2,0:1:0:0:
232,92,64058,2,2,P|240:156|240:208,1,95,10|0,0:1|0:1,0:1:0:0:
364,312,64308,2,2,P|364:252|372:192,1,95,2|2,0:1|0:1,0:1:0:0:
124,364,64558,6,2,P|96:276|96:156,1,190,2|2,0:1|0:1,0:1:0:0:
232,92,64933,1,2,0:1:0:0:
128,36,65058,5,10,0:1:0:0:
144,128,65183,1,0,0:0:0:0:
228,168,65308,1,2,0:1:0:0:
320,136,65433,1,0,0:0:0:0:
220,260,65558,53,10,0:1:0:0:
316,264,65683,1,8,0:0:0:0:
404,216,65808,1,2,0:1:0:0:
432,124,65933,1,0,0:0:0:0:
316,356,66058,5,10,0:1:0:0:
392,320,66183,1,0,0:0:0:0:
472,340,66308,1,2,0:1:0:0:
480,352,66433,1,0,0:0:0:0:
432,228,66558,6,2,P|416:120|472:48,1,190,2|2,0:1|0:1,0:1:0:0:
496,156,66933,1,2,0:1:0:0:
336,240,67058,1,10,0:1:0:0:
320,136,67183,1,0,0:0:0:0:
240,204,67308,1,2,0:1:0:0:
268,312,67433,1,0,0:0:0:0:
412,168,67558,54,2,P|408:116|396:56,1,95,10|0,0:1|0:0,0:1:0:0:
148,172,67808,2,2,P|152:224|164:284,1,95,2|0,0:1|0:1,0:1:0:0:
208,96,68058,2,2,P|156:80|108:72,1,95,10|2,0:1|0:1,0:1:0:0:
300,340,68308,2,2,P|352:356|400:364,1,95,2|0,0:1|0:1,0:1:0:0:
376,112,68558,5,2,0:1:0:0:
360,200,68683,1,0,0:0:0:0:
288,144,68808,2,2,P|292:96|300:36,1,95,2|2,0:1|0:1,0:1:0:0:
184,284,69058,1,10,0:1:0:0:
204,192,69183,1,0,0:0:0:0:
112,216,69308,2,0,P|116:148|128:84,1,95,2|2,0:1|0:1,0:0:0:0:
232,348,69558,5,8,0:0:0:0:
324,336,69683,1,4,0:0:0:0:
232,348,69808,1,2,0:1:0:0:
276,184,69933,1,8,0:0:0:0:
112,216,70058,54,2,P|72:180|32:116,1,95,4|0,0:0|0:0,0:1:0:0:
360,248,70308,2,2,P|400:284|436:336,1,95,8|2,0:0|0:1,0:1:0:0:
232,348,70558,6,2,L|8:376,1,190,4|0,0:1|0:0,0:1:0:0:
296,100,70933,2,2,L|520:72,1,190,2|0,0:2|0:0,0:1:0:0:
396,172,71308,2,2,P|340:180|284:192,1,95,2|0,0:2|0:0,0:1:0:0:
116,152,71558,6,0,P|120:100|128:48,1,95,8|0,0:1|0:0,0:0:0:0:
200,204,71808,2,0,P|196:256|188:308,1,95,0|8,0:0|0:1,0:0:0:0:
320,124,72058,2,0,P|324:68|332:24,1,95,2|0,0:0|0:0,0:0:0:0:
396,264,72308,2,0,P|392:320|384:364,1,95,2|2,0:0|0:2,0:0:0:0:
100,332,72558,54,0,P|88:208|140:152,1,190,4|0,0:0|0:0,0:0:0:0:
312,196,72933,2,0,P|324:320|272:376,1,190,2|0,0:2|0:0,0:0:0:0:
208,232,73308,2,0,P|200:176|208:116,1,95,2|0,0:2|0:0,0:0:0:0:
276,60,73558,5,2,0:0:0:0:
408,96,73683,1,0,0:0:0:0:
312,196,73808,2,0,L|204:208,1,95,2|0,0:0|2:0,0:0:0:0:
416,288,74058,2,0,L|400:184,1,95,8|0,0:1|2:0,0:0:0:0:
236,332,74308,2,0,L|344:348,1,95,2|2,0:2|0:2,0:0:0:0:
144,244,74558,6,0,L|344:252,1,190,4|0,0:0|0:0,0:0:0:0:
216,152,74933,2,0,L|-8:148,1,190,2|0,0:2|0:0,0:0:0:0:
264,72,75308,2,0,L|376:80,1,95,2|0,0:2|0:0,0:0:0:0:
168,64,75558,53,8,0:1:0:0:
216,152,75683,1,0,0:0:0:0:
128,248,75808,2,0,L|136:140,1,95,0|0,0:0|0:0,0:0:0:0:
260,312,76058,2,0,L|256:208,1,95,8|0,0:1|0:0,0:0:0:0:
396,204,76308,2,0,P|468:216|500:248,1,95,2|2,0:0|0:2,0:0:0:0:
396,80,76558,6,0,P|344:128|228:116,1,190,4|0,0:0|0:0,0:0:0:0:
20,240,76933,2,0,P|120:252|184:192,1,190,2|0,0:2|0:0,0:0:0:0:
372,272,77308,2,0,P|332:248|264:264,1,95,2|0,0:2|0:0,0:0:0:0:
196,348,77558,5,8,0:0:0:0:
188,272,77683,1,8,0:1:0:0:
181,196,77808,2,0,L|173:80,1,95,0|8,0:0|0:0,0:0:0:0:
340,100,78058,2,0,L|328:224,1,95,8|0,0:1|0:0,0:0:0:0:
316,324,78308,53,2,0:2:0:0:
388,356,78433,1,2,0:2:0:0:
444,300,78558,2,0,L|432:88,1,190,4|0,0:1|0:2,0:0:0:0:
480,28,78933,2,0,L|288:48,1,190,2|0,0:2|0:0,0:0:0:0:
200,64,79308,2,0,L|96:56,1,95,2|0,0:2|0:0,0:0:0:0:
200,204,79558,6,0,L|220:312,1,95,2|0,0:0|0:0,0:0:0:0:
312,180,79808,2,0,L|292:72,1,95,0|2,0:0|0:0,0:0:0:0:
184,236,80058,2,0,L|204:344,1,95,8|0,0:1|0:0,0:0:0:0:
328,148,80308,2,0,L|308:40,1,95,2|2,0:0|0:2,0:0:0:0:
304,264,80558,6,0,P|388:352|464:332,1,190,4|0,0:0|0:2,0:0:0:0:
512,212,80933,2,0,P|428:124|352:144,1,190,2|0,0:2|0:2,0:0:0:0:
208,260,81308,2,0,L|240:364,1,95,2|0,0:2|0:0,0:0:0:0:
176,176,81558,53,2,0:0:0:0:
300,232,81683,1,0,0:0:0:0:
260,108,81808,2,0,L|152:88,1,95,2|0,0:0|0:0,0:0:0:0:
332,40,82058,2,0,P|388:52|436:88,1,95,8|2,0:0|0:2,0:0:0:0:
472,144,82308,1,2,0:2:0:0:
480,236,82433,1,2,0:2:0:0:
428,312,82558,6,0,P|344:356|216:328,1,190,4|0,0:0|0:2,0:0:0:0:
28,300,82933,2,0,P|112:256|240:284,1,190,2|0,0:2|0:0,0:0:0:0:
384,184,83308,2,0,P|348:208|284:204,1,95,2|0,0:2|0:0,0:0:0:0:
88,108,83558,5,8,0:0:0:0:
168,64,83683,1,0,0:0:0:0:
252,116,83808,2,0,B|304:120|352:96,1,95,2|2,0:0|0:0,0:0:0:0:
477,193,84058,2,0,B|429:199|381:183,1,95,8|0,0:1|0:0,0:0:0:0:
272,276,84308,2,0,L|384:264,1,95,2|2,0:0|0:2,0:0:0:0:
220,192,84558,53,4,0:0:0:0:
240,360,84683,1,8,0:0:0:0:
88,292,84808,1,2,0:0:0:0:
180,284,84933,5,8,0:0:0:0:
148,120,85058,1,4,0:0:0:0:
308,168,85183,1,0,0:0:0:0:
220,192,85308,2,0,L|104:216,1,95,8|8,0:1|0:1,0:0:0:0:
324,76,85558,5,2,0:0:0:0:
440,192,85683,1,8,0:0:0:0:
312,300,85808,2,0,L|200:312,1,95,2|0,0:0|0:0,0:0:0:0:
136,244,86058,2,0,L|128:148,1,95,6|0,0:0|0:0,0:0:0:0:
300,132,86308,2,0,L|394:122,1,95,2|2,0:2|0:2,0:0:0:0:
36,144,86558,54,0,B|40:72|120:32|192:80,1,190,4|0,1:1|0:0,0:0:0:0:
368,168,86933,2,0,B|316:120|228:148|212:232,1,190,2|0,0:2|0:0,0:0:0:0:
96,272,87308,2,0,P|100:324|96:384,1,95,2|0,0:2|0:0,0:0:0:0:
320,280,87558,6,0,P|380:252|436:268,1,95,8|0,0:0|0:0,0:0:0:0:
216,216,87808,2,0,P|160:188|100:200,1,95,2|0,0:0|0:0,0:0:0:0:
368,168,88058,2,0,P|372:112|400:68,1,95,8|0,0:1|0:0,0:0:0:0:
204,306,88308,2,0,P|221:245|208:199,1,95,2|2,0:2|0:2,0:0:0:0:
88,56,88558,6,2,P|32:128|64:228,1,190,4|2,0:0|0:1,0:1:0:0:
308,164,88933,2,2,P|240:112|144:140,1,190,2|2,0:2|0:1,0:0:0:0:
256,352,89308,2,0,P|276:304|276:248,1,95,2|0,0:1|0:0,0:0:0:0:
72,292,89558,53,2,0:0:0:0:
124,360,89683,1,0,0:0:0:0:
192,308,89808,1,2,0:1:0:0:
144,236,89933,2,2,P|172:168|280:120,1,190,2|0,0:1|0:0,0:0:0:0:
428,256,90308,2,0,P|368:252|328:224,1,95,2|2,0:0|0:2,0:0:0:0:
352,60,90558,6,0,P|452:64|492:160,1,190,4|0,0:0|0:0,0:0:0:0:
280,328,90933,2,0,P|252:260|320:160,1,190,2|0,0:2|0:0,0:0:0:0:
176,308,91308,2,2,P|120:328|64:324,1,95,2|2,0:2|0:1,0:0:0:0:
112,148,91558,5,0,0:0:0:0:
208,192,91683,1,8,0:1:0:0:
306,165,91808,2,0,L|418:157,1,95,2|0,0:0|0:0,0:0:0:0:
496,56,92058,2,0,L|476:160,1,95,8|0,0:1|0:0,0:0:0:0:
368,236,92308,2,2,L|348:344,1,95,2|2,0:1|0:1,0:0:0:0:
104,312,92558,54,2,B|172:280|172:280|224:280|224:280|296:244,1,190,4|0,0:0|0:0,0:0:0:0:
318,65,92933,2,0,L|278:261,1,190,2|0,0:2|0:0,0:0:0:0:
287,346,93308,2,0,L|279:242,1,95,2|0,0:2|0:0,0:0:0:0:
188,136,93558,5,2,0:0:0:0:
372,204,93683,1,2,0:1:0:0:
208,312,93808,2,2,P|160:324|104:328,1,95,2|0,0:1|0:0,0:1:0:0:
94,146,94058,2,0,P|142:134|198:138,1,95,8|0,0:1|0:0,0:0:0:0:
372,204,94308,2,0,P|428:204|472:188,1,95,8|2,0:1|0:2,0:0:0:0:
456,32,94558,6,0,P|368:24|260:48,1,190,4|0,0:1|0:0,0:0:0:0:
168,316,94933,2,0,P|256:324|364:300,1,190,2|0,0:2|0:0,0:0:0:0:
164,184,95308,2,2,P|104:188|44:204,1,95,2|0,0:1|0:0,0:0:0:0:
268,232,95558,54,0,L|256:120,1,95,2|0,0:0|0:0,0:0:0:0:
360,200,95808,2,0,L|476:216,1,95,2|0,0:0|0:0,0:0:0:0:
232,312,96058,2,0,L|128:300,1,95,8|0,0:1|0:0,0:0:0:0:
336,284,96308,2,2,L|348:396,1,95,2|2,0:1|0:1,0:1:0:0:
180,224,96558,6,0,L|160:24,1,190,10|0,0:1|0:0,0:0:0:0:
288,116,96933,2,2,L|88:96,1,190,2|2,0:1|0:1,0:0:0:0:
272,292,97308,2,0,L|256:176,1,95,2|0,0:2|0:0,0:0:0:0:
376,236,97558,6,0,L|480:248,1,95,4|2,0:1|0:1,0:0:0:0:
324,368,97808,2,2,L|216:356,1,95,0|2,0:0|0:1,0:0:0:0:
92,204,98058,2,2,L|124:312,1,95,8|0,0:1|0:0,0:0:0:0:
216,176,98308,2,2,L|180:64,1,95,2|2,0:1|0:2,0:0:0:0:
328,144,98558,54,0,P|436:160|500:80,1,190,4|0,0:0|0:0,0:0:0:0:
320,288,98933,2,2,P|220:252|128:292,1,190,2|2,0:1|0:1,0:0:0:0:
72,152,99308,2,2,L|96:36,1,95,2|0,0:1|0:0,0:0:0:0:
256,136,99558,5,8,0:0:0:0:
324,212,99683,1,0,0:0:0:0:
236,268,99808,1,0,0:0:0:0:
168,184,99933,1,0,0:0:0:0:
352,64,100058,1,8,0:1:0:0:
352,64,100308,2,2,P|408:76|464:84,1,95,2|2,0:1|0:1,0:0:0:0:
512,216,100558,6,0,P|412:200|392:208,1,95,4|0,0:2|0:0,0:0:0:0:
324,212,100808,1,8,0:3:0:0:
252,296,100933,2,0,P|152:304|72:216,1,190,8|0,0:3|0:0,0:0:0:0:
168,220,101308,2,0,P|236:200|268:164,1,95,10|0,0:0|0:0,0:0:0:0:
12,316,101558,54,2,L|0:204,1,95,0|2,0:0|0:0,0:0:0:0:
160,32,101808,2,2,L|148:128,1,95,8|8,0:0|0:0,0:0:0:0:
316,36,102058,2,2,L|328:140,1,95,4|0,0:0|0:0,0:0:0:0:
356,280,102308,1,0,0:0:0:0:
256,272,102433,1,0,0:0:0:0:
168,320,102558,1,4,0:1:0:0:
332,308,115114,38,0,P|336:264|332:200,1,95,4|0,0:1|0:0,0:0:0:0:
392,148,115433,2,0,P|352:112|304:88,1,95,0|8,0:0|0:0,0:0:0:0:
256,36,115752,2,0,P|204:64|168:100,1,95,0|0,0:0|0:0,0:0:0:0:
96,72,116071,2,0,P|116:164|128:184,1,95,2|0,0:0|0:0,0:0:0:0:
200,340,116390,2,0,P|224:296|236:236,1,95,8|0,0:0|0:0,0:0:0:0:
328,280,116709,2,0,P|316:228|292:184,1,95,2|0,0:0|0:0,0:0:0:0:
144,64,117028,5,4,0:0:0:0:
236,96,117188,1,0,0:0:0:0:
324,64,117348,2,0,L|428:80,1,95,0|8,0:0|0:0,0:0:0:0:
464,184,117667,2,0,L|368:196,1,95,0|0,0:0|0:0,0:0:0:0:
332,296,117986,2,0,L|436:312,1,95,2|0,0:0|0:0,0:0:0:0:
236,304,118305,1,0,0:0:0:0:
104,344,118465,1,0,0:0:0:0:
68,212,118624,1,4,0:2:0:0:
200,172,118784,1,0,0:0:0:0:
156,264,118943,5,4,0:0:0:0:
136,88,119103,2,0,P|224:64|248:56,1,95,0|0,0:0|0:0,0:0:0:0:
244,60,119342,1,0,0:0:0:0:
260,56,119422,2,0,P|320:40|372:36,1,95,8|0,0:0|0:0,0:0:0:0:
448,84,119741,1,0,0:0:0:0:
340,188,119901,1,2,0:0:0:0:
448,288,120060,1,0,0:0:0:0:
360,352,120220,2,0,P|304:360|252:360,1,95,2|0,0:0|0:0,0:0:0:0:
56,292,120539,2,0,P|128:288|176:292,1,95,2|0,0:0|0:0,0:0:0:0:
340,188,120858,53,4,0:0:0:0:
232,280,121018,1,0,0:0:0:0:
216,120,121177,1,2,0:0:0:0:
376,280,121337,1,8,0:0:0:0:
256,200,121496,1,0,0:0:0:0:
256,360,121656,1,2,0:0:0:0:
256,32,121816,5,4,0:2:0:0:
468,192,122135,5,4,0:2:0:0:
256,360,122454,53,4,0:2:0:0:
44,192,122773,6,0,L|248:192,1,190,4|0,0:1|0:0,0:0:0:0:
328,124,123252,2,0,B|240:64|136:124,1,190,8|0,0:0|0:0,0:0:0:0:
208,300,123731,2,0,P|280:292|304:272,1,95,8|0,0:1|0:0,0:0:0:0:
360,352,124050,2,0,P|392:288|388:240,1,95,2|0,0:0|0:0,0:0:0:0:
480,308,124369,2,0,P|480:244|460:196,1,95,8|0,0:1|0:0,0:0:0:0:
300,80,124688,6,0,L|80:92,1,190,4|0,0:0|0:0,0:0:0:0:
40,156,125167,1,8,0:0:0:0:
56,260,125326,1,0,0:0:0:0:
132,196,125486,1,2,0:0:0:0:
144,304,125645,2,0,P|204:304|240:288,1,95,8|0,0:1|0:0,0:0:0:0:
368,112,125965,53,2,0:0:0:0:
452,268,126124,1,0,0:0:0:0:
452,268,126204,1,0,0:0:0:0:
452,268,126284,1,8,0:1:0:0:
300,276,126443,1,0,0:0:0:0:
450,138,126603,6,0,P|378:194|274:186,1,190,4|0,0:0|0:0,0:0:0:0:
112,96,127082,2,0,P|168:92|212:116,1,95,8|0,0:0|0:0,0:0:0:0:
283,190,127401,1,0,0:0:0:0:
172,216,127560,2,0,L|60:236,1,95,8|0,0:1|0:0,0:0:0:0:
296,88,127879,2,0,L|392:124,1,95,2|0,0:0|0:0,0:0:0:0:
372,252,128199,1,8,0:1:0:0:
240,292,128358,5,2,0:0:0:0:
240,292,128438,1,0,0:0:0:0:
240,292,128518,1,4,0:0:0:0:
208,160,128677,2,0,P|260:144|308:140,1,95,0|0,0:0|0:0,0:0:0:0:
152,244,128996,1,8,0:0:0:0:
184,360,129156,2,0,P|232:372|300:376,1,95,0|0,0:0|0:0,0:0:0:0:
80,324,129475,2,0,P|32:248|76:144,2,190,8|4|4,0:1|0:2|0:2,0:0:0:0:
416,116,130433,54,0,L|224:132,1,190,4|0,0:1|0:0,0:0:0:0:
152,72,130911,2,0,P|204:160|172:256,1,190,8|0,0:0|0:0,0:0:0:0:
140,320,131390,2,0,L|36:312,1,95,2|0,0:0|0:0,0:0:0:0:
232,304,131709,2,0,L|328:308,1,95,8|0,0:0|0:0,0:0:0:0:
496,356,132028,2,0,L|372:360,1,95,2|0,0:0|0:0,0:0:0:0:
284,212,132348,6,0,P|360:176|472:200,1,190,4|0,0:0|0:0,0:0:0:0:
400,264,132826,1,8,0:0:0:0:
248,140,132986,1,0,0:0:0:0:
328,28,133145,1,0,0:0:0:0:
136,180,133305,2,0,L|44:204,1,95,8|0,0:0|0:0,0:0:0:0:
232,356,133624,2,0,L|256:264,1,95,2|0,0:0|0:0,0:0:0:0:
480,172,133943,2,0,L|388:196,1,95,2|0,0:0|0:0,0:0:0:0:
340,272,134262,6,0,P|368:176|324:92,1,190,4|0,0:0|0:0,0:0:0:0:
252,36,134741,2,0,P|224:132|268:216,1,190,8|0,0:0|0:0,0:0:0:0:
152,204,135220,2,0,L|52:184,1,95,2|0,0:0|0:0,0:0:0:0:
220,276,135539,2,0,L|236:376,1,95,8|0,0:0|0:0,0:0:0:0:
368,200,135858,2,0,L|388:312,1,95,2|0,0:0|0:0,0:0:0:0:
452,116,136177,54,0,P|396:60|268:88,1,190,4|0,0:0|0:0,0:0:0:0:
216,132,136656,2,0,P|124:140|48:44,1,190,8|0,0:0|0:0,0:0:0:0:
164,224,137135,2,0,P|136:316|24:336,1,190,10|2,0:0|0:0,0:0:0:0:
384,280,137773,1,2,0:0:0:0:
352,56,138092,6,0,L|156:72,1,190,4|0,0:0|0:0,0:0:0:0:
60,132,138571,1,8,0:0:0:0:
92,264,138731,1,0,0:0:0:0:
192,168,138890,1,0,0:0:0:0:
304,168,139050,2,0,P|360:172|408:184,1,95,2|0,0:0|0:0,0:0:0:0:
236,340,139369,1,8,0:0:0:0:
256,244,139528,1,0,0:0:0:0:
424,328,139688,5,2,0:0:0:0:
332,344,139848,1,0,0:0:0:0:
360,256,140007,2,0,B|376:188|376:188|352:116|264:136,1,190,4|0,0:0|0:0,0:0:0:0:
208,80,140486,1,8,0:0:0:0:
248,212,140645,1,0,0:0:0:0:
112,184,140805,1,0,0:0:0:0:
208,80,140965,53,2,0:0:0:0:
208,168,141124,1,0,0:0:0:0:
300,40,141284,2,0,P|304:92|300:144,1,95,8|0,0:0|0:0,0:0:0:0:
272,340,141603,2,0,P|268:296|268:232,1,95,2|0,0:0|0:0,0:0:0:0:
436,128,141922,6,0,P|436:200|328:272,1,190,4|0,0:0|0:0,0:0:0:0:
184,180,142401,1,8,0:0:0:0:
267,245,142560,2,0,P|271:193|267:145,1,95,0|0,0:0|0:0,0:0:0:0:
168,352,142879,2,0,P|96:292|112:188,1,190,2|8,0:0|0:0,0:0:0:0:
256,328,143358,1,0,0:0:0:0:
344,328,143518,2,0,P|392:336|440:348,1,95,2|0,0:0|0:0,0:0:0:0:
440,176,143837,6,0,P|344:144|264:220,1,190,4|0,0:0|0:0,0:0:0:0:
312,292,144316,1,8,0:0:0:0:
136,248,144475,1,0,0:0:0:0:
248,108,144635,1,0,0:0:0:0:
192,344,144794,53,4,1:2:0:0:
312,292,144954,1,0,0:0:0:0:
192,344,145114,1,4,1:2:0:0:
248,220,145273,1,0,0:0:0:0:
192,344,145433,1,4,1:2:0:0:
156,168,145592,1,0,0:0:0:0:
104,280,145752,6,0,P|72:196|92:84,1,190,4|0,0:0|0:0,0:0:0:0:
348,312,146231,2,0,P|364:240|324:124,1,190,8|0,0:0|0:0,0:0:0:0:
256,336,146709,2,0,P|196:356|144:352,1,95,2|0,0:0|0:0,0:0:0:0:
84,308,147028,1,8,0:0:0:0:
84,308,147188,1,0,0:0:0:0:
240,180,147348,1,2,0:0:0:0:
240,180,147507,1,0,0:0:0:0:
136,120,147667,6,0,P|132:200|160:312,1,190,4|0,0:0|0:0,0:0:0:0:
352,272,148145,1,8,0:0:0:0:
284,336,148305,1,0,0:0:0:0:
440,236,148465,1,0,0:0:0:0:
284,148,148624,2,0,P|228:140|188:132,1,95,8|0,0:0|0:0,0:0:0:0:
259,249,148943,2,0,P|315:265|363:273,1,95,2|0,0:0|0:0,0:0:0:0:
428,88,149262,2,0,P|376:76|328:56,1,95,2|0,0:0|0:0,0:0:0:0:
64,132,149582,54,0,P|76:232|88:332,1,190,4|0,0:0|0:0,0:0:0:0:
168,268,150060,2,0,L|376:304,1,190,8|0,0:0|0:0,0:0:0:0:
440,256,150539,2,0,P|408:224|344:212,1,95,2|0,0:0|0:0,0:0:0:0:
332,380,150858,2,0,P|396:376|440:336,1,95,8|0,0:0|0:0,0:0:0:0:
268,232,151177,2,0,L|252:336,1,95,2|0,0:0|0:0,0:0:0:0:
148,352,151496,6,0,L|184:136,1,190,4|0,0:0|0:0,0:0:0:0:
60,68,151975,2,0,P|0:168|28:248,1,190,8|0,0:0|0:0,0:0:0:0:
268,188,152454,2,0,P|256:120|220:84,1,95,8|0,0:0|0:0,0:0:0:0:
251,281,152773,2,0,L|271:169,1,95,2|0,0:0|0:0,0:0:0:0:
180,336,153092,2,0,P|120:360|64:348,1,95,2|0,0:0|0:0,0:0:0:0:
72,156,153411,6,0,P|160:164|208:264,1,190,4|0,0:0|0:0,0:0:0:0:
280,176,153890,1,8,0:0:0:0:
384,224,154050,2,0,P|384:280|380:344,1,95,0|0,0:0|0:0,0:0:0:0:
296,280,154369,1,2,0:0:0:0:
296,280,154528,1,0,0:0:0:0:
472,268,154688,1,8,0:0:0:0:
472,268,154848,1,0,0:0:0:0:
464,96,155007,1,2,0:0:0:0:
464,96,155167,1,0,0:0:0:0:
288,104,155326,54,0,L|68:120,1,190,4|0,0:0|0:0,0:0:0:0:
28,68,155805,1,8,0:0:0:0:
24,156,155965,2,0,L|28:268,1,95,0|0,0:0|0:0,0:0:0:0:
300,348,156284,2,0,P|312:300|308:252,1,95,4|0,0:0|0:0,0:0:0:0:
152,240,156603,2,0,P|187:274|231:294,1,95,2|0,0:0|0:0,0:0:0:0:
320,160,156922,2,0,P|272:173|232:201,1,95,2|0,0:0|0:0,0:0:0:0:
392,336,157241,6,0,P|488:316|508:208,1,190,4|0,0:0|0:0,0:0:0:0:
444,188,157720,1,8,0:0:0:0:
392,112,157879,1,0,0:0:0:0:
436,32,158039,1,0,0:0:0:0:
304,152,158199,2,0,P|204:168|120:116,2,190,2|8|2,0:0|0:0|0:0,0:0:0:0:
436,32,158996,5,0,0:0:0:0:
436,32,159156,2,0,L|220:68,1,190,4|0,0:0|0:0,0:0:0:0:
132,248,159635,1,8,0:0:0:0:
200,316,159794,2,0,B|256:328|304:296,1,95,0|0,0:0|0:0,0:0:0:0:
424,128,160114,2,0,P|412:196|420:244,1,95,10|0,0:0|0:0,0:0:0:0:
316,380,160433,2,0,P|360:356|416:352,1,95,2|0,0:0|0:0,0:0:0:0:
171,228,160752,2,0,P|199:288|195:340,1,95,4|0,0:2|0:0,0:0:0:0:
64,176,161071,54,0,P|176:120|240:140,1,190,8|0,0:0|0:0,0:0:0:0:
248,40,161550,2,0,P|308:92|432:80,1,190,4|0,0:0|0:0,0:0:0:0:
340,188,162028,2,0,P|308:276|344:368,2,190,2|4|0,0:0|0:2|1:0,0:0:0:0:
392,256,162826,1,0,0:0:0:0:
200,208,162986,6,0,P|148:184|16:228,1,190,4|0,0:2|0:0,0:0:0:0:
224,120,163465,2,0,P|328:72|400:92,1,190,4|0,0:2|0:0,0:0:0:0:
444,168,163943,2,0,L|332:188,1,95,4|0,0:2|0:0,0:0:0:0:
396,356,164263,2,0,L|416:236,1,95,4|0,0:2|0:0,0:0:0:0:
144,296,164582,6,0,L|348:260,1,190,4|2,0:2|0:0,0:0:0:0:
200,160,165457,1,0,0:0:0:0:
200,160,165582,2,0,L|212:72,1,47.5,0|2,0:0|0:0,0:0:0:0:
88,252,165957,2,0,L|76:316,1,47.5,0|2,0:0|0:0,0:0:0:0:
348,176,166457,53,0,0:0:0:0:
348,176,166519,1,2,0:0:0:0:
348,176,166582,2,0,L|336:88,1,71.2500027179719,8|2,0:1|0:3,0:0:0:0:
300,252,166832,2,0,L|280:332,1,71.2500027179719,8|2,0:1|0:3,0:0:0:0:
228,168,167082,1,2,1:3:0:0:
144,192,167207,2,0,L|192:48,1,142.500005435944,8|8,0:1|1:3,0:0:0:0:
208,264,167582,5,4,1:3:0:0:
152,328,167707,2,0,P|76:312|44:240,1,142.500005435944,6|10,1:3|0:0,0:0:0:0:
208,264,168082,21,2,0:1:0:0:
312,276,168207,1,2,0:1:0:0:
328,172,168332,1,2,0:1:0:0:
224,160,168457,1,2,0:1:0:0:
136,208,168582,6,2,P|112:124|184:36,1,190,6|2,0:1|0:1,0:1:0:0:
344,136,168957,1,2,0:1:0:0:
276,64,169082,5,10,0:1:0:0:
312,224,169207,1,0,0:1:0:0:
472,184,169332,1,2,0:1:0:0:
424,28,169457,1,2,0:1:0:0:
344,136,169582,54,2,L|228:148,1,95,10|0,0:1|0:0,0:1:0:0:
176,80,169832,1,2,0:1:0:0:
176,80,169957,1,0,0:0:0:0:
312,224,170082,6,2,L|408:232,1,95,10|0,0:1|0:0,0:1:0:0:
484,160,170332,1,2,0:1:0:0:
484,160,170457,1,0,0:0:0:0:
244,200,170582,6,2,P|224:296|284:368,1,190,2|2,0:1|0:1,0:1:0:0:
352,292,170957,1,2,0:1:0:0:
140,256,171082,2,2,L|20:288,1,95,10|0,0:1|0:0,0:1:0:0:
156,352,171332,1,2,0:1:0:0:
192,140,171457,1,2,0:1:0:0:
216,232,171582,53,10,0:1:0:0:
104,160,171707,1,10,0:1:0:0:
188,40,171832,1,0,0:1:0:0:
304,192,171957,5,2,0:1:0:0:
192,140,172082,1,10,0:1:0:0:
280,36,172207,1,0,0:0:0:0:
420,160,172332,5,2,0:1:0:0:
320,112,172457,1,2,0:1:0:0:
408,264,172582,54,2,P|392:340|264:376,1,190,2|2,0:1|0:1,0:1:0:0:
216,236,172957,1,2,0:1:0:0:
292,296,173082,2,2,L|304:196,1,95,10|0,0:1|0:0,0:1:0:0:
208,328,173332,1,2,0:1:0:0:
72,348,173457,1,0,0:0:0:0:
40,204,173582,5,10,0:1:0:0:
128,268,173707,1,8,0:1:0:0:
208,168,173832,1,2,0:1:0:0:
124,276,173957,1,0,0:0:0:0:
44,116,174082,6,0,P|112:96|188:88,1,95,10|2,0:1|0:1,0:0:0:0:
184,344,174332,2,2,P|88:364|52:364,1,95,2|2,0:1|0:1,0:1:0:0:
308,344,174582,54,2,B|372:308|452:324|452:324|500:296,1,190,2|2,0:1|0:1,0:1:0:0:
488,192,174957,1,10,0:1:0:0:
424,80,175082,2,2,L|304:96,1,95,10|0,0:1|0:0,0:1:0:0:
228,108,175332,1,2,0:1:0:0:
136,56,175457,1,2,0:1:0:0:
104,248,175582,5,10,0:1:0:0:
228,280,175707,1,8,0:0:0:0:
260,156,175832,1,2,0:1:0:0:
136,124,175957,1,0,0:1:0:0:
308,236,176082,5,10,0:1:0:0:
432,216,176207,1,2,0:1:0:0:
444,340,176332,1,2,0:1:0:0:
320,360,176457,1,2,0:1:0:0:
308,236,176582,54,2,P|400:200|524:216,1,190,6|2,0:1|0:1,0:1:0:0:
400,296,176957,1,2,0:1:0:0:
360,128,177082,2,2,L|388:20,1,95,10|0,0:1|0:0,0:1:0:0:
188,228,177332,2,2,L|160:332,1,95,2|0,0:1|0:0,0:1:0:0:
216,132,177582,5,10,0:1:0:0:
336,248,177707,1,0,0:0:0:0:
256,304,177832,1,10,0:1:0:0:
312,152,177957,1,0,0:0:0:0:
232,216,178082,1,10,0:1:0:0:
408,176,178207,1,0,0:0:0:0:
216,132,178332,1,2,0:1:0:0:
352,36,178457,1,2,0:1:0:0:
312,152,178582,6,2,P|304:236|356:328,1,190,10|2,0:1|0:1,0:1:0:0:
408,268,178957,1,2,0:1:0:0:
460,344,179082,1,10,0:1:0:0:
500,176,179207,1,0,0:0:0:0:
504,268,179332,1,2,0:1:0:0:
408,176,179457,1,0,0:0:0:0:
448,96,179582,53,10,0:1:0:0:
284,88,179707,1,8,0:3:0:0:
372,48,179832,1,2,0:1:0:0:
204,40,179957,1,0,0:1:0:0:
160,232,180082,5,10,0:1:0:0:
304,220,180207,1,0,0:1:0:0:
240,288,180332,1,2,0:1:0:0:
260,120,180457,1,2,0:1:0:0:
336,304,180582,6,2,P|444:308|512:252,1,190,2|2,0:1|0:1,0:1:0:0:
388,224,180957,1,2,0:1:0:0:
232,324,181082,2,2,L|104:352,1,95,10|2,0:1|0:1,0:1:0:0:
56,288,181332,1,2,0:1:0:0:
132,232,181457,1,0,0:0:0:0:
64,164,181582,54,0,L|44:52,1,95,10|2,0:1|0:1,0:0:0:0:
368,232,181832,2,2,L|344:112,1,95,2|2,0:1|0:1,0:1:0:0:
208,316,182082,2,0,L|228:216,1,95,10|0,0:1|0:0,0:0:0:0:
472,364,182332,2,2,L|492:248,1,95,2|0,0:1|0:0,0:1:0:0:
260,120,182582,5,2,0:1:0:0:
260,120,182707,1,0,0:0:0:0:
336,180,182832,1,2,0:1:0:0:
424,136,182957,1,2,0:1:0:0:
232,264,183082,5,10,0:1:0:0:
148,208,183207,1,0,0:0:0:0:
56,240,183332,1,8,0:3:0:0:
56,240,183457,1,4,0:3:0:0:
328,272,183582,54,2,L|448:240,1,95,10|0,0:1|0:0,0:1:0:0:
184,112,183832,2,0,L|64:144,1,95,2|2,0:1|0:1,0:1:0:0:
444,136,184082,6,2,L|440:24,1,95,4|0,1:3|0:0,0:1:0:0:
68,248,184332,2,2,L|72:360,1,95,2|2,0:1|0:1,0:1:0:0:
365,133,184582,6,2,B|281:73|169:117,1,190,6|0,0:1|0:0,0:0:0:0:
168,248,184957,2,2,B|252:308|364:264,1,190,2|2,0:2|0:1,0:1:0:0:
436,212,185332,1,2,0:2:0:0:
272,192,185457,1,0,0:0:0:0:
108,164,185582,54,2,L|84:56,1,95,8|10,0:1|0:1,0:1:0:0:
108,164,185832,2,0,L|88:272,1,95,0|8,0:0|0:1,0:0:0:0:
308,120,186082,2,0,L|288:24,1,95,8|0,0:1|0:0,0:0:0:0:
308,264,186332,2,0,L|288:360,1,95,2|2,0:2|1:2,0:0:0:0:
196,200,186582,6,0,P|292:164|400:180,1,190,4|0,0:0|0:0,0:0:0:0:
456,112,186957,2,0,P|468:216|420:308,1,190,2|0,0:2|0:0,0:0:0:0:
252,264,187332,2,0,P|292:248|356:252,1,95,2|0,0:2|0:0,0:0:0:0:
220,352,187582,5,2,0:0:0:0:
136,328,187707,1,0,0:0:0:0:
52,296,187832,2,0,L|32:188,1,95,2|0,0:0|0:0,0:0:0:0:
200,160,188082,2,0,L|120:240,1,95,8|0,0:1|0:0,0:0:0:0:
64,60,188332,2,0,P|144:64|180:88,1,95,2|2,0:2|0:2,0:0:0:0:
296,140,188582,54,0,P|388:160|464:84,1,190,4|0,0:0|0:0,0:0:0:0:
428,232,188957,2,0,P|344:268|248:228,1,190,2|2,0:2|0:2,0:0:0:0:
168,332,189332,2,0,P|272:372|348:324,1,190,2|2,0:2|0:0,0:0:0:0:
420,360,189707,6,0,L|520:328,1,95,0|2,0:0|0:0,0:0:0:0:
472,244,189957,1,0,0:0:0:0:
440,156,190082,2,0,L|464:48,1,95,2|0,0:0|0:0,0:0:0:0:
304,128,190332,2,0,L|196:136,1,95,2|0,0:0|0:0,0:0:0:0:
72,84,190582,6,0,B|100:176|100:176|68:268,1,190,2|2,0:2|0:2,0:0:0:0:
164,252,190957,2,0,B|224:228|224:228|284:272|360:240,1,190,2|2,0:2|0:2,0:0:0:0:
424,200,191332,2,0,L|448:76,1,95,2|0,0:2|0:0,0:0:0:0:
296,152,191582,53,2,0:0:0:0:
300,344,191707,1,0,0:0:0:0:
184,108,191832,2,0,L|192:212,1,95,8|0,0:1|0:0,0:0:0:0:
184,380,192082,2,0,L|196:272,1,95,8|0,0:1|0:0,0:0:0:0:
108,160,192332,5,2,0:0:0:0:
104,304,192457,1,2,0:0:0:0:
268,232,192582,2,0,P|376:236|464:232,1,190,4|0,1:0|0:0,0:0:0:0:
457,232,192957,2,0,P|456:296|456:340,1,95,2|0,0:2|0:0,0:0:0:0:
396,144,193207,1,0,0:0:0:0:
312,144,193332,2,0,P|308:72|312:32,1,95,2|0,0:2|0:0,0:0:0:0:
224,184,193582,5,8,0:1:0:0:
136,168,193707,1,0,0:0:0:0:
96,244,193832,1,2,0:0:0:0:
156,312,193957,1,0,0:0:0:0:
240,272,194082,2,0,P|308:288|352:300,1,95,8|0,0:1|0:0,0:0:0:0:
420,92,194332,2,0,P|356:72|296:60,1,95,2|0,0:0|0:0,0:0:0:0:
432,280,194582,54,0,P|504:220|496:108,1,190,4|0,0:0|0:0,0:0:0:0:
408,176,194957,2,0,L|212:196,1,190,2|0,0:2|0:0,0:0:0:0:
112,128,195332,2,0,P|208:88|300:108,1,190,2|0,0:2|0:0,0:0:0:0:
128,216,195707,5,8,0:1:0:0:
32,188,195832,2,0,P|16:136|16:72,1,95,2|0,0:0|0:0,0:0:0:0:
120,312,196082,2,0,P|68:348|4:360,1,95,8|2,0:1|0:3,0:0:0:0:
212,164,196332,2,0,P|256:148|316:140,1,95,2|2,0:3|0:2,0:0:0:0:
412,204,196582,6,0,P|348:220|204:240,1,190,4|0,0:0|0:0,0:0:0:0:
144,88,196957,2,0,P|240:60|340:56,1,190,2|0,0:2|0:0,0:0:0:0:
196,264,197332,2,0,P|100:244|16:200,1,190,2|8,0:2|0:1,0:0:0:0:
36,120,197707,1,8,0:1:0:0:
128,132,197832,1,8,0:1:0:0:
112,324,198082,1,8,0:1:0:0:
400,220,198332,54,0,P|396:280|388:332,1,95,2|2,0:2|0:2,0:0:0:0:
288,176,198582,1,4,0:0:0:0:
328,84,198707,1,8,0:0:0:0:
428,116,198832,1,0,0:0:0:0:
232,88,198957,5,8,0:0:0:0:
188,188,199082,1,4,0:0:0:0:
88,156,199207,1,0,0:0:0:0:
260,264,199332,5,4,0:0:0:0:
228,360,199457,1,4,0:0:0:0:
152,280,199582,2,0,P|104:288|52:304,1,95,2|2,0:0|0:0,0:0:0:0:
336,324,199832,2,0,P|396:300|464:296,1,95,2|0,0:0|0:0,0:0:0:0:
320,180,200082,2,0,P|272:180|204:168,1,95,2|0,0:0|0:0,0:0:0:0:
120,72,200332,2,0,P|184:80|232:92,1,95,2|2,0:0|0:1,0:0:0:0:
408,44,200582,54,2,P|428:192|432:248,1,190,4|0,1:1|0:0,0:1:0:0:
368,296,200957,2,2,P|320:272|252:280,1,95,0|0,0:0|0:0,0:1:0:0:
200,316,201207,1,0,0:0:0:0:
28,364,201332,2,2,P|76:368|132:344,1,95,2|0,0:2|0:0,0:1:0:0:
280,176,201582,5,2,0:0:0:0:
256,248,201707,1,0,0:0:0:0:
192,200,201832,1,2,0:0:0:0:
168,272,201957,1,2,0:0:0:0:
112,172,202082,1,8,0:1:0:0:
92,244,202207,1,0,0:0:0:0:
32,200,202332,5,2,0:0:0:0:
88,40,202457,1,2,0:1:0:0:
168,80,202582,2,2,L|372:64,1,190,4|2,0:0|0:1,0:1:0:0:
448,44,202957,2,2,L|424:144,1,95,2|0,0:2|0:0,0:1:0:0:
304,304,203207,1,0,0:0:0:0:
304,304,203332,2,0,L|328:200,1,95,2|0,0:2|0:0,0:0:0:0:
404,280,203582,53,2,0:0:0:0:
428,200,203707,1,8,0:1:0:0:
272,112,203832,5,0,0:0:0:0:
252,196,203957,1,0,0:0:0:0:
172,224,204082,5,8,0:1:0:0:
192,140,204207,1,0,0:0:0:0:
256,284,204332,53,2,0:2:0:0:
192,348,204457,1,2,0:2:0:0:
92,244,204582,6,0,P|35:179|59:83,1,190,4|0,0:0|0:0,0:0:0:0:
256,284,204957,2,0,P|332:300|368:332,1,95,2|0,0:2|0:0,0:0:0:0:
436,188,205207,1,0,0:0:0:0:
436,188,205332,2,0,L|236:196,1,190,2|8,0:2|0:1,0:0:0:0:
240,112,205707,5,2,0:0:0:0:
328,108,205832,2,0,P|396:104|440:100,1,95,8|0,0:1|0:0,0:0:0:0:
328,272,206082,2,0,P|244:284|128:280,1,190,8|8,0:1|0:1,0:0:0:0:
140,168,206457,1,0,0:0:0:0:
144,60,206582,54,0,P|244:56|340:56,1,190,4|0,0:0|0:0,0:0:0:0:
416,36,206957,2,0,P|424:132|416:248,1,190,2|0,0:2|0:0,0:0:0:0:
348,276,207332,1,2,0:2:0:0:
256,196,207457,1,0,0:0:0:0:
256,284,207582,5,2,0:0:0:0:
164,192,207707,1,8,0:1:0:0:
256,100,207832,1,2,0:0:0:0:
348,192,207957,1,0,0:0:0:0:
256,284,208082,2,0,P|200:292|144:284,1,95,8|0,0:1|0:0,0:0:0:0:
256,100,208332,2,0,P|312:96|376:100,1,95,2|2,0:2|0:2,0:0:0:0:
164,192,208582,6,0,P|72:176|40:68,1,190,4|0,1:0|0:0,0:0:0:0:
256,256,208957,2,0,P|368:300|396:384,1,190,2|0,0:2|0:0,0:0:0:0:
332,176,209332,2,0,P|384:180|448:176,1,95,2|0,0:2|0:0,0:0:0:0:
340,72,209582,53,2,0:0:0:0:
248,48,209707,1,2,0:0:0:0:
160,88,209832,1,0,0:0:0:0:
68,64,209957,1,2,0:0:0:0:
60,160,210082,2,0,L|84:260,1,95,8|0,0:1|0:0,0:0:0:0:
260,160,210332,2,0,L|276:272,1,95,2|2,0:2|0:2,0:0:0:0:
448,168,210582,6,0,L|420:360,1,190,4|0,0:0|0:0,0:0:0:0:
340,320,210957,2,0,P|264:328|232:336,1,95,2|8,0:2|0:1,0:0:0:0:
160,344,211207,1,0,0:0:0:0:
104,260,211332,2,0,P|180:272|228:268,1,95,2|0,0:2|0:0,0:0:0:0:
352,188,211582,5,0,0:0:0:0:
272,140,211707,1,8,0:1:0:0:
272,228,211832,1,8,0:1:0:0:
352,104,211957,1,0,0:0:0:0:
192,188,212082,1,0,0:1:0:0:
348,272,212207,1,0,0:0:0:0:
272,140,212332,2,0,P|224:132|168:140,1,95,2|2,0:2|0:2,0:0:0:0:
416,328,212582,54,0,P|448:212|432:132,1,190,4|0,0:0|0:0,0:0:0:0:
316,148,212957,2,0,P|300:228|324:332,1,190,2|0,0:2|0:0,0:0:0:0:
224,312,213332,2,0,P|172:300|120:308,1,95,2|0,0:2|0:0,0:0:0:0:
44,328,213582,5,2,0:0:0:0:
120,220,213707,1,0,0:0:0:0:
44,328,213832,2,0,L|12:208,1,95,0|2,0:0|0:0,0:0:0:0:
132,92,214082,2,0,L|20:76,1,95,8|0,0:1|0:0,0:0:0:0:
200,164,214332,5,2,0:2:0:0:
288,180,214457,1,2,0:0:0:0:
376,192,214582,2,0,P|424:152|464:136,1,95,4|0,0:0|0:0,0:0:0:0:
320,280,214832,1,0,0:0:0:0:
376,192,214957,1,2,0:2:0:0:
432,292,215082,2,0,L|376:380,1,95,8|0,0:1|0:0,0:0:0:0:
288,180,215332,2,0,L|352:76,1,95,2|0,0:2|0:0,0:0:0:0:
200,328,215582,54,0,L|136:228,1,95,2|0,0:0|0:0,0:0:0:0:
184,36,215832,2,0,L|240:124,1,95,8|8,0:1|0:1,0:0:0:0:
56,304,216082,2,0,L|80:180,1,95,8|4,0:1|0:3,0:0:0:0:
432,184,216332,2,0,L|408:304,1,95,8|2,0:3|0:1,0:0:0:0:
344,344,216582,5,6,1:0:0:0:
284,272,216707,1,0,0:0:0:0:
292,176,216832,1,0,0:1:0:0:
364,112,216957,1,2,0:1:0:0:
364,112,217082,1,10,0:1:0:0:
272,140,217207,1,0,0:0:0:0:
180,116,217332,1,0,0:1:0:0:
136,32,217457,5,2,0:1:0:0:
136,32,217582,1,2,0:1:0:0:
156,124,217707,1,0,0:0:0:0:
112,208,217832,1,0,0:1:0:0:
28,252,217957,1,2,0:1:0:0:
28,252,218082,1,10,0:1:0:0:
124,244,218207,1,0,0:0:0:0:
212,276,218332,1,0,0:0:0:0:
264,356,218457,53,2,0:1:0:0:
264,356,218582,2,0,L|372:340,1,95,0|2,0:1|0:1,0:0:0:0:
504,240,218832,2,0,L|392:256,1,95,2|2,0:1|0:1,0:0:0:0:
240,216,219082,2,0,L|368:196,1,95,10|0,0:1|0:0,0:0:0:0:
484,112,219332,2,0,L|380:128,1,95,0|2,0:1|0:1,0:0:0:0:
324,56,219582,5,2,0:1:0:0:
232,32,219707,1,0,0:0:0:0:
140,60,219832,1,2,0:1:0:0:
96,144,219957,1,2,0:1:0:0:
48,64,220082,5,10,0:1:0:0:
140,60,220207,1,0,0:0:0:0:
212,120,220332,1,2,0:1:0:0:
224,216,220457,1,2,0:1:0:0:
144,264,220582,54,2,B|136:272|136:272|128:268|128:268|132:276|132:276|124:272|124:272|128:280|128:280|120:276|120:276|84:304|20:280|16:216,1,190,2|2,0:1|0:1,0:1:0:0:
228,328,220957,1,2,0:1:0:0:
228,328,221082,2,0,P|288:320|340:320,1,95,10|2,0:1|0:1,0:0:0:0:
472,244,221332,2,0,P|412:252|368:248,1,95,2|2,0:1|0:1,0:0:0:0:
244,128,221582,6,2,B|260:128|264:120|264:120|264:112|264:112|268:116|268:116|268:108|268:108|272:112|272:112|272:104|272:104|276:108|276:108|276:100|276:100|280:104|280:104|280:96|280:96|412:112,1,190,2|2,0:1|0:1,0:1:0:0:
480,48,221957,1,2,0:1:0:0:
480,48,222082,2,0,L|348:32,1,95,10|0,0:1|0:0,0:0:0:0:
408,192,222332,2,0,L|308:180,1,95,2|2,0:1|0:1,0:0:0:0:
116,284,222582,6,2,B|144:288|164:276|164:276|168:280|168:280|172:276|172:276|176:280|176:280|180:276|180:276|184:280|184:280|188:276|188:276|192:280|192:280|236:267|312:260,1,190,2|2,0:1|0:1,0:1:0:0:
416,336,222957,1,0,0:0:0:0:
416,336,223019,1,0,0:0:0:0:
416,336,223082,2,0,L|300:352,1,95,2|0,0:1|0:1,0:0:0:0:
224,188,223332,2,0,L|352:168,1,95,2|2,0:1|0:1,0:0:0:0:
400,156,223582,53,2,0:1:0:0:
472,200,223707,1,8,0:1:0:0:
416,264,223832,1,0,0:0:0:0:
340,220,223957,1,0,0:0:0:0:
344,308,224082,5,10,0:1:0:0:
220,172,224207,1,2,0:1:0:0:
248,324,224332,1,2,0:1:0:0:
312,152,224457,1,2,0:1:0:0:
472,288,224582,6,2,P|420:352|316:348,1,190,6|0,1:1|0:1,0:1:0:0:
364,268,224957,1,2,0:1:0:0:
220,172,225082,2,2,P|120:168|28:196,1,190,10|0,0:1|0:0,0:1:0:0:
116,260,225457,1,2,0:1:0:0:
336,91,225582,54,2,P|344:179|328:291,1,190,2|0,0:1|0:0,0:1:0:0:
228,264,225957,1,2,0:1:0:0:
440,328,226082,2,2,P|448:228|432:136,1,190,10|0,0:1|0:0,0:1:0:0:
348,188,226457,1,2,0:1:0:0:
96,92,226582,6,2,L|212:104,1,95,2|2,0:1|0:1,0:1:0:0:
336,36,226832,2,0,L|292:140,1,95,0|0,0:1|0:0,0:0:0:0:
192,332,227082,2,0,L|236:228,1,95,10|0,0:1|0:0,0:0:0:0:
371,331,227332,2,2,L|491:347,1,95,2|2,0:1|0:1,0:1:0:0:
488,252,227582,5,2,0:1:0:0:
312,176,227707,1,0,0:0:0:0:
472,136,227832,1,2,0:1:0:0:
376,244,227957,1,0,0:0:0:0:
288,88,228082,1,10,0:1:0:0:
292,260,228207,1,0,0:0:0:0:
392,156,228332,1,2,0:1:0:0:
224,156,228457,1,0,0:0:0:0:
84,240,228582,54,2,B|64:324|106:354|106:354|117:361|117:361|122:359|122:359|125:363|125:363|129:360|129:360|133:362|133:362|137:360|137:360|141:363|141:363|145:360|145:360|149:363|149:363|154:360|154:360|158:363|158:363|162:359,1,190,2|0,0:1|0:0,0:1:0:0:
228,312,228957,1,0,0:0:0:0:
300,292,229082,1,2,0:1:0:0:
372,268,229207,1,2,0:1:0:0:
384,344,229332,1,2,0:1:0:0:
456,360,229457,1,0,0:0:0:0:
448,184,229582,6,2,B|442:182|436:184|436:184|436:180|436:180|432:184|432:184|432:180|432:180|428:184|428:184|428:180|428:180|424:184|424:184|424:180|424:180|420:184|420:184|420:180|420:180|416:184|416:184|416:180|416:180|352:192|352:192|316:176|280:180,1,190,2|0,0:1|0:0,0:1:0:0:
216,192,229957,1,0,0:0:0:0:
192,120,230082,1,2,0:1:0:0:
140,176,230207,1,2,0:1:0:0:
116,104,230332,1,2,0:1:0:0:
88,36,230457,1,2,0:1:0:0:
84,240,230582,6,2,P|160:300|260:280,1,190,6|8,0:0|0:3,0:1:0:0:
320,220,230957,1,8,0:3:0:0:
288,124,231082,2,2,P|240:140|192:168,1,95,2|2,0:1|0:1,0:1:0:0:
408,264,231332,2,2,P|412:212|404:160,1,95,2|8,0:1|0:3,0:1:0:0:
232,336,231582,54,2,P|300:352|352:348,1,95,4|0,0:0|0:0,0:1:0:0:
144,200,231832,2,2,P|96:184|20:188,1,95,0|4,0:0|0:0,0:1:0:0:
324,148,232082,2,2,P|328:96|316:32,1,95,4|0,0:1|0:0,0:1:0:0:
230,242,232332,2,2,P|226:313|238:353,1,95,10|4,0:0|0:0,0:1:0:0:
332,236,232582,1,4,0:2:0:0:
352,96,239582,5,8,0:1:0:0:
444,112,239707,1,8,0:0:0:0:
424,204,239832,1,4,0:0:0:0:
332,188,239957,1,8,0:0:0:0:
256,128,240082,5,4,0:0:0:0:
232,216,240207,1,8,0:0:0:0:
288,292,240332,1,4,0:2:0:0:
380,304,240457,1,8,0:3:0:0:
464,268,240582,54,0,P|496:184|456:84,1,190,4|0,1:0|0:0,0:1:0:0:
264,204,240957,2,0,P|220:108|252:36,1,190,2|0,0:2|0:0,0:0:0:0:
180,236,241332,2,0,P|120:260|56:260,1,95,2|0,0:2|0:0,0:0:0:0:
20,192,241582,5,2,0:0:0:0:
108,116,241707,1,2,0:0:0:0:
88,264,241832,1,2,0:0:0:0:
24,108,241957,1,2,0:0:0:0:
188,140,242082,2,0,P|240:136|300:128,1,95,8|2,0:1|0:0,0:0:0:0:
480,204,242332,2,0,P|432:208|380:216,1,95,2|2,0:0|0:0,0:0:0:0:
284,360,242582,6,0,P|268:284|260:172,1,190,4|0,0:0|0:0,0:0:0:0:
180,244,242957,2,0,P|64:252|-24:272,1,190,2|0,0:2|0:0,0:0:0:0:
72,156,243332,2,0,P|128:152|184:140,1,95,2|0,0:2|0:0,0:0:0:0:
204,332,243582,53,2,0:0:0:0:
180,244,243707,1,0,0:0:0:0:
272,216,243832,2,0,P|340:204|384:204,1,95,2|0,0:0|0:0,0:0:0:0:
216,56,244082,2,0,P|152:60|104:72,1,95,8|0,0:1|0:0,0:0:0:0:
304,96,244332,1,2,0:0:0:0:
400,80,244457,1,0,0:0:0:0:
472,144,244582,6,0,P|460:248|444:344,1,190,4|0,0:0|0:0,0:0:0:0:
364,332,244957,2,0,P|377:233|392:116,1,190,2|2,0:2|0:2,0:0:0:0:
300,204,245332,2,0,P|292:260|288:304,1,95,2|0,0:2|0:0,0:0:0:0:
220,352,245582,5,2,0:0:0:0:
112,308,245707,1,0,0:0:0:0:
220,352,245832,1,0,0:0:0:0:
208,240,245957,1,2,0:0:0:0:
196,128,246082,2,0,L|184:16,1,95,8|0,0:1|0:0,0:0:0:0:
196,128,246332,2,0,L|304:136,1,95,0|0,0:0|0:0,0:0:0:0:
468,144,246582,53,4,0:0:0:0:
352,56,246707,1,8,0:0:0:0:
280,248,246832,1,0,0:0:0:0:
368,192,246957,5,4,0:0:0:0:
156,208,247082,1,8,0:0:0:0:
296,344,247207,1,0,0:0:0:0:
260,140,247332,5,8,0:0:0:0:
268,128,247457,1,4,0:0:0:0:
276,116,247582,1,2,0:0:0:0:
284,104,247707,1,2,0:0:0:0:
300,100,247832,54,0,P|252:104|196:72,1,95,2|0,0:0|0:0,0:0:0:0:
248,256,248082,2,0,P|256:312|296:352,1,95,4|2,0:0|0:0,0:0:0:0:
372,176,248332,2,0,P|384:128|372:64,1,95,4|2,0:2|0:2,0:0:0:0:
0,304,248582,6,0,P|94:324|174:268,1,190,4|0,1:0|0:0,0:0:0:0:
292,260,248957,2,0,P|348:268|404:312,1,95,2|0,0:2|0:0,0:0:0:0:
452,344,249207,1,0,0:0:0:0:
408,192,249332,1,2,0:2:0:0:
408,192,249457,1,0,0:0:0:0:
312,128,249582,6,0,L|288:24,1,95,2|0,0:0|0:0,0:0:0:0:
184,264,249832,2,2,L|292:280,1,95,2|0,0:0|0:0,0:1:0:0:
80,216,250082,2,2,L|104:328,1,95,8|0,0:1|0:0,0:1:0:0:
160,132,250332,2,0,L|40:112,1,95,2|2,0:1|0:2,0:0:0:0:
336,204,250582,54,2,P|436:216|504:132,1,190,2|0,1:0|0:0,0:1:0:0:
272,276,250957,2,2,P|248:336|244:388,1,95,2|0,0:2|0:0,0:1:0:0:
252,180,251207,1,2,0:2:0:0:
228,96,251332,2,2,P|184:56|120:40,1,95,2|0,0:2|0:0,0:1:0:0:
48,152,251582,5,2,0:0:0:0:
88,244,251707,1,8,0:0:0:0:
144,160,251832,1,2,0:0:0:0:
0,228,251957,5,0,0:0:0:0:
104,80,252082,1,8,0:1:0:0:
180,240,252207,1,0,0:0:0:0:
0,228,252332,2,2,L|-8:120,1,95,0|2,0:0|0:2,0:1:0:0:
240,164,252582,54,0,B|344:208|332:108|448:164,1,190,4|0,0:0|0:0,0:0:0:0:
240,164,252957,2,0,P|176:156|112:160,1,95,2|0,0:2|0:0,0:0:0:0:
72,208,253207,1,0,0:2:0:0:
320,232,253332,2,0,P|380:228|428:224,1,95,2|0,0:2|0:0,0:0:0:0:
156,348,253582,5,8,0:1:0:0:
192,232,253707,1,0,0:0:0:0:
348,348,253832,1,2,0:0:0:0:
320,232,253957,1,0,0:0:0:0:
256,308,254082,1,8,0:1:0:0:
256,168,254207,1,0,0:0:0:0:
256,36,254332,1,2,0:2:0:0:
176,100,254457,1,2,0:2:0:0:
336,104,254582,6,0,L|464:96,1,95,4|0,0:0|0:0,0:0:0:0:
430,98,254832,1,0,0:0:0:0:
164,220,254957,2,0,L|64:208,1,95,2|0,0:2|0:0,0:0:0:0:
69,208,255207,1,0,0:0:0:0:
320,320,255332,2,2,L|432:300,1,95,2|0,0:2|0:1,0:1:0:0:
164,336,255582,53,2,0:0:0:0:
344,240,255707,1,8,0:0:0:0:
164,144,255832,1,2,0:0:0:0:
344,48,255957,1,0,0:0:0:0:
164,48,256082,5,8,0:1:0:0:
344,144,256207,1,0,0:0:0:0:
164,240,256332,1,2,0:1:0:0:
344,336,256457,1,10,0:1:0:0:
236,288,256582,6,0,P|356:212|420:220,1,190,6|0,1:0|0:0,0:0:0:0:
260,192,256957,2,0,P|268:84|336:20,1,190,2|0,0:2|0:0,0:0:0:0:
348,132,257332,2,0,P|432:72|536:96,1,190,2|2,0:2|0:0,0:0:0:0:
444,216,257707,53,8,0:0:0:0:
348,132,257832,1,0,0:0:0:0:
288,284,257957,1,2,0:1:0:0:
152,140,258082,2,2,L|168:4,1,95,8|0,0:1|0:0,0:1:0:0:
248,184,258332,1,2,0:2:0:0:
132,300,258457,1,2,0:2:0:0:
312,360,258582,6,2,L|516:336,1,190,4|0,0:0|0:0,0:1:0:0:
464,64,258957,2,2,L|260:88,1,190,2|2,0:2|0:2,0:1:0:0:
200,140,259332,2,2,P|112:152|32:96,1,190,0|2,0:0|0:1,0:1:0:0:
140,64,259707,5,8,0:0:0:0:
80,264,259832,1,2,0:0:0:0:
188,332,259957,1,0,0:0:0:0:
192,216,260082,1,10,3:1:0:0:
296,320,260207,1,0,2:0:0:0:
384,204,260332,1,2,3:1:0:0:
288,212,260457,1,2,3:2:0:0:
396,312,260582,54,2,P|484:256|480:152,1,190,4|0,0:0|0:0,0:1:0:0:
412,120,260957,2,2,B|300:164|240:44,1,190,2|0,0:2|0:0,0:1:0:0:
204,148,261332,2,2,L|240:352,1,190,2|8,0:2|0:0,0:1:0:0:
148,308,261707,1,0,0:0:0:0:
304,216,261832,1,2,0:0:0:0:
120,132,261957,1,0,0:0:0:0:
250,62,262082,2,2,P|298:50|370:54,1,95,2|0,0:0|0:0,0:1:0:0:
432,184,262332,5,2,0:1:0:0:
408,272,262457,1,2,0:1:0:0:
340,200,262582,2,2,L|368:80,1,95,4|8,0:0|0:1,0:1:0:0:
316,288,262832,1,8,0:1:0:0:
168,204,262957,2,2,L|144:100,1,95,8|8,0:1|0:1,0:1:0:0:
196,288,263207,1,8,0:1:0:0:
256,152,263332,1,10,0:1:0:0:
256,360,263457,1,8,0:1:0:0:
168,204,263582,5,10,0:1:0:0:
340,308,263707,1,8,0:3:0:0:
168,304,263832,1,8,0:1:0:0:
340,204,263957,1,8,0:1:0:0:
256,260,264082,1,4,0:3:0:0:
256,260,264207,1,8,0:3:0:0:
256,70,264332,22,0,L|256:262,1,190,8|4,0:3|1:0,0:3:0:0:
164,168,264832,1,0,0:0:0:0:
164,168,264957,2,0,L|156:48,1,95,2|0,0:0|0:0,0:0:0:0:
88,232,265332,2,0,L|60:128,1,95,2|2,0:0|0:0,0:0:0:0:
172,260,265832,1,0,0:0:0:0:
312,232,266082,1,0,0:0:0:0:
452,212,266332,6,0,L|436:276,1,47.5
448,348,266582,2,0,B|404:312|344:336,1,95,2|0,0:0|0:0,0:0:0:0:
304,272,266957,2,0,P|256:292|208:288,1,95,2|0,0:0|0:0,0:0:0:0:
156,340,267332,1,2,0:0:0:0:
92,264,267582,2,0,L|80:148,1,95,2|0,0:0|0:0,0:0:0:0:
112,92,267957,2,0,P|180:76|256:112,1,142.5,2|2,0:0|0:0,0:0:0:0:
348,228,268582,70,2,P|400:168|372:40,1,213.749993476868,2|0,2:1|0:0,2:1:0:0:
