osu file format v14

[General]
AudioFilename: Dorchadas.mp3
AudioLeadIn: 2000
PreviewTime: 54058
Countdown: 0
SampleSet: Soft
StackLeniency: 0.7
Mode: 0
LetterboxInBreaks: 0
WidescreenStoryboard: 0

[Editor]
DistanceSpacing: 1
BeatDivisor: 4
GridSize: 8
TimelineZoom: 1.1

[Metadata]
Title:dorchadas
TitleUnicode:dorchadas
Artist:Rita
ArtistUnicode:Rita
Creator:Delis
Version:Insane
Source:漆黒のシャルノス -What a beautiful tomorrow-
Tags:milkshake trynna alacat mirash Meaning blueberry yoghurt yogurt Shikkoku no Sharnoth
BeatmapID:1228510
BeatmapSetID:580215

[Difficulty]
HPDrainRate:7
CircleSize:4
OverallDifficulty:8
ApproachRate:9
SliderMultiplier:1.7
SliderTickRate:1

[Events]
//Background and Video events
0,0,"BG.jpg",0,0
//Break Periods
2,8949,15809
2,102758,114514
2,232782,238982
//Storyboard Layer 0 (Background)
//Storyboard Layer 1 (Fail)
//Storyboard Layer 2 (Pass)
//Storyboard Layer 3 (Foreground)
//Storyboard Sound Samples

[TimingPoints]
1090,319.148936170213,6,3,1,50,1,0
50558,500,4,3,23,50,1,0
51058,-100,4,3,23,30,0,0
53558,-100,4,3,1,50,0,0
54058,-50,4,3,1,50,0,0
61995,-40,4,3,1,50,0,0
62558,-50,4,3,1,50,0,0
70558,-50,4,3,1,60,0,0
78058,-40,4,3,1,60,0,0
78558,-50,4,3,1,60,0,0
113845,681.818181818182,4,3,1,50,1,0
114526,588.235294117647,4,3,1,50,1,0
115114,319.148936170213,6,3,1,50,1,0
164582,500,4,3,1,50,1,0
165082,-100,4,3,1,30,0,0
166457,-66.6666666666667,4,3,1,40,0,0
168082,-50,4,3,1,50,0,0
176019,-40,4,3,1,50,0,0
176519,-50,4,3,1,50,0,0
184582,-50,4,3,1,60,0,0
216519,-50,4,3,1,55,0,0
231769,-55.5555555555556,4,3,1,45,0,0
232019,-62.5,4,3,1,40,0,0
232269,-71.4285714285714,4,3,1,30,0,0
232582,-66.6666666666667,4,3,1,50,0,0
239582,-50,4,3,1,50,0,0
264957,-100,4,2,1,50,0,0
268582,-333.333333333333,4,2,1,30,0,0
270394,-5000.33333333333,4,2,1,5,0,0

[Colours]
Combo1 : 107,79,123
Combo2 : 204,176,66
Combo3 : 50,145,165
Combo4 : 82,151,72
Combo5 : 149,34,54
Combo6 : 98,98,98

[HitObjects]
184,276,770,54,0,B|168:232|180:180,1,85,0|0,0:0|0:0,0:1:0:0:
264,220,1090,2,0,L|256:120,1,85,4|0,0:0|0:0,0:0:0:0:
344,80,1409,2,0,L|344:180,1,85,0|8,0:0|0:0,0:0:0:0:
352,244,1728,2,0,L|356:328,1,85
444,280,2047,1,8,0:0:0:0:
444,280,2207,1,0,0:0:0:0:
448,180,2366,2,0,L|440:80,1,85,8|0,0:0|0:0,0:0:0:0:
264,52,2685,2,0,L|256:148,1,85,2|0,0:0|0:0,0:0:0:0:
128,232,3004,6,0,B|90:263|30:247,1,85,4|0,0:0|0:0,0:0:0:0:
88,152,3324,1,0,0:0:0:0:
100,68,3483,1,8,0:0:0:0:
204,248,3643,2,0,L|212:344,1,85
336,220,3962,2,0,B|384:204|440:212,1,85,8|0,0:0|0:0,0:0:0:0:
384,308,4281,2,0,B|344:328|292:316,1,85,8|0,0:0|0:0,0:0:0:0:
240,172,4600,5,2,0:0:0:0:
256,80,4760,1,0,0:0:0:0:
256,80,4919,2,0,B|200:88|200:88|152:116|152:116|88:124,1,170,4|0,0:0|0:0,0:1:0:0:
16,132,5398,2,0,B|0:88|12:40,2,85,8|0|0,0:0|0:0|0:0,0:0:0:0:
68,200,5877,2,0,B|80:252|72:300,1,85,8|0,0:0|0:0,0:0:0:0:
32,364,6196,2,0,L|124:352,1,85,8|0,0:0|0:0,0:0:0:0:
260,292,6515,54,0,L|360:304,1,85,2|0,0:0|0:0,0:0:0:0:
424,336,6834,2,0,B|472:324|524:328,1,85,4|0,0:0|0:0,0:0:0:0:
256,120,7153,2,0,B|216:132|160:128,1,85,0|8,0:0|0:0,0:0:0:0:
352,196,7472,2,0,B|404:180|452:176,1,85,8|0,0:0|0:0,0:0:0:0:
232,280,7792,5,4,2:2:0:0:
152,44,8111,1,2,0:0:0:0:
408,76,8430,1,4,2:2:0:0:
264,144,8749,1,6,1:0:0:0:
464,332,16409,6,0,L|272:332,1,170,4|0,0:0|0:0,0:0:0:0:
48,332,16887,2,0,L|240:332,1,170,8|0,0:0|0:0,0:0:0:0:
268,264,17366,2,0,L|280:172,1,85,2|0,0:0|0:0,0:0:0:0:
208,92,17685,2,0,L|188:212,1,85,8|0,0:0|0:0,0:0:0:0:
292,108,18004,2,0,L|308:-8,1,85,2|0,0:0|0:0,0:0:0:0:
120,88,18324,54,0,B|72:120|64:200|117:241,1,170,4|0,0:0|0:0,0:0:0:0:
200,272,18802,1,8,0:0:0:0:
288,248,18962,2,0,B|340:236|384:244,1,85
456,148,19281,2,0,B|420:180|360:164,1,85,8|0,0:0|0:0,0:0:0:0:
248,112,19600,2,0,B|196:100|144:136,1,85,2|0,0:0|0:0,0:0:0:0:
108,240,19919,2,0,B|96:292|132:344,1,85,2|0,0:0|0:0,0:0:0:0:
312,360,20238,6,0,B|352:264|280:188,1,170,4|0,0:0|0:0,0:0:0:0:
244,272,20717,2,0,B|344:312|396:228,1,170,8|0,0:0|0:0,0:0:0:0:
380,148,21196,2,0,L|388:44,1,85,2|0,0:0|0:0,0:0:0:0:
212,160,21515,2,0,L|208:52,1,85
48,168,21834,2,0,L|56:56,1,85,2|0,0:0|0:0,0:0:0:0:
132,288,22153,6,0,B|252:260|312:248,1,170,4|0,0:0|0:0,0:0:0:0:
376,224,22632,1,8,0:0:0:0:
444,280,22792,2,0,B|452:320|456:372,1,85,0|8,0:0|0:0,0:0:0:0:
448,172,23111,2,0,B|440:116|440:80,1,85,10|0,0:0|0:0,0:0:0:0:
512,40,23430,2,0,B|432:68|336:56,1,170,2|2,0:0|0:0,0:0:0:0:
52,260,24068,54,0,B|248:284,1,170,4|0,0:0|0:0,0:0:0:0:
392,228,24547,1,8,0:0:0:0:
336,160,24707,2,0,B|296:136|240:152,1,85
296,312,25026,2,0,B|336:336|392:320,1,85,2|0,0:0|0:0,0:0:0:0:
220,244,25345,2,0,B|212:296|204:348,1,85,8|0,0:0|0:0,0:0:0:0:
392,228,25664,2,0,L|404:116,1,85,2|0,0:0|0:0,0:0:0:0:
232,160,25983,6,0,B|172:152|140:80|176:20,1,170,4|0,0:0|0:0,0:0:0:0:
256,48,26462,1,8,0:0:0:0:
344,40,26621,2,0,L|452:28,1,85
372,204,26941,2,0,L|276:220,1,85,8|0,0:0|0:0,0:0:0:0:
324,128,27260,2,0,L|512:100,1,170,2|2,0:0|0:0,0:0:0:0:
464,184,27738,5,0,0:0:0:0:
480,268,27898,2,0,B|476:336|416:372|340:336,1,170,4|0,0:0|0:0,0:0:0:0:
304,276,28377,1,8,0:0:0:0:
264,200,28536,2,0,B|272:152|264:104,1,85
388,192,28855,2,0,B|392:248|384:296,1,85,2|0,0:0|0:0,0:0:0:0:
160,340,29175,2,0,B|156:228,1,85,8|0,0:0|0:0,0:0:0:0:
264,264,29494,2,0,B|260:376,1,85,2|0,0:0|0:0,0:0:0:0:
64,304,29813,54,0,L|80:112,1,170,4|0,0:0|0:0,0:0:0:0:
232,64,30292,1,8,0:0:0:0:
240,152,30451,1,0,0:0:0:0:
164,200,30611,1,0,0:0:0:0:
324,92,30770,2,0,B|340:168|336:268,2,170,4|4|4,1:2|1:2|1:2,0:0:0:0:
136,320,31728,6,0,B|120:232|116:144,1,170,4|0,0:0|0:0,0:0:0:0:
184,96,32207,2,0,B|200:184|204:272,1,170,8|0,0:0|0:0,0:0:0:0:
248,336,32685,2,0,B|296:348|332:344,1,85,2|0,0:0|0:0,0:0:0:0:
392,280,33004,2,0,B|440:276|480:236,1,85,8|0,0:0|0:0,0:0:0:0:
312,236,33324,2,0,B|340:200|332:140,1,85,2|0,0:0|0:0,0:0:0:0:
288,80,33643,6,0,B|192:48|124:136,1,170,4|0,0:0|0:0,0:0:0:0:
104,200,34121,1,8,0:0:0:0:
136,280,34281,1,0,0:0:0:0:
216,320,34441,1,0,0:0:0:0:
304,304,34600,2,0,B|352:224|320:136,1,170,10|10,0:0|0:0,0:0:0:0:
252,84,35079,2,0,L|224:184,1,85,0|2,0:0|0:0,0:0:0:0:
256,248,35398,1,0,0:0:0:0:
212,320,35558,54,0,B|152:352|84:320|80:252,1,170,4|0,0:0|0:0,0:0:0:0:
36,164,36036,2,0,B|56:128|64:72,1,85,8|0,0:0|0:0,0:0:0:0:
62,83,36355,1,0,0:0:0:0:
140,144,36515,2,0,B|184:140|236:112,1,85,2|0,0:0|0:0,0:0:0:0:
276,196,36834,2,0,B|320:184|376:160,1,85,8|0,0:0|0:0,0:0:0:0:
432,232,37153,2,0,B|476:248|528:256,1,85,2|0,0:0|0:0,0:0:0:0:
376,320,37472,6,0,B|284:300|208:356,1,170,4|0,0:0|0:0,0:0:0:0:
72,228,37951,2,0,B|140:296|248:248,1,170,8|0,0:0|0:0,0:0:0:0:
312,200,38430,2,0,B|380:132|332:24,1,170,8|2,0:0|0:0,0:0:0:0:
424,48,38909,2,0,L|516:64,1,85,0|2,0:0|0:0,0:0:0:0:
260,128,39228,5,0,0:0:0:0:
184,88,39387,2,0,L|0:124,1,170,4|0,0:0|0:0,0:0:0:0:
4,208,39866,1,8,0:0:0:0:
88,180,40026,2,0,B|96:136|84:84,1,85
152,272,40345,2,0,B|164:320|200:348,1,85,2|0,0:0|0:0,0:0:0:0:
320,160,40664,2,0,B|340:120|332:72,1,85,8|0,0:0|0:0,0:0:0:0:
384,244,40983,2,0,B|400:292|388:348,1,85,2|0,0:0|0:0,0:0:0:0:
232,152,41302,54,0,B|300:84|396:120,1,170,4|0,0:0|0:0,0:0:0:0:
452,172,41781,1,8,0:0:0:0:
484,92,41941,2,0,B|472:44|424:24,1,85
316,220,42260,2,0,B|280:320|372:388,1,170,8|2,0:0|0:0,0:0:0:0:
396,296,42738,1,0,0:0:0:0:
220,280,42898,2,0,L|232:364,1,85,2|0,0:0|0:0,0:0:0:0:
136,312,43217,6,0,P|192:128|256:112,1,255,4|8,0:0|0:0,0:0:0:0:
328,80,43855,2,0,L|320:184,1,85
356,296,44175,2,0,B|304:336|224:296|232:224,2,170,2|8|2,0:0|0:0|0:0,0:0:0:0:
432,256,44972,1,0,0:0:0:0:
496,316,45132,6,0,B|428:260|464:152,1,170,4|0,0:0|0:0,0:0:0:0:
344,204,45611,2,0,B|416:132|356:28,1,170,8|0,0:0|0:0,0:0:0:0:
304,292,46090,2,0,B|216:240|272:128,2,170,8|2|4,0:0|0:0|0:2,0:0:0:0:
304,292,47047,54,0,B|364:300|412:312,1,85,4|0,0:0|0:0,0:0:0:0:
472,284,47366,1,0,0:0:0:0:
256,196,47526,2,0,B|192:208|148:224,1,85,8|0,0:0|0:0,0:0:0:0:
104,168,47845,1,0,0:0:0:0:
256,32,48004,5,2,0:0:0:0:
256,196,48324,1,4,0:2:0:0:
256,356,48643,1,0,1:0:0:0:
340,120,48962,6,0,B|388:152|392:232|336:272,1,170,4|0,0:2|0:0,0:0:0:0:
172,264,49441,2,0,B|124:232|120:152|176:112,1,170,4|0,0:2|0:0,0:0:0:0:
256,192,49919,53,4,0:2:0:0:
256,196,50238,5,4,0:2:0:0:
256,200,50558,6,0,B|228:288|280:272|252:376,6,170,4|0|0|0|0|0|2,0:2|0:0|0:0|0:0|0:0|0:0|0:0,0:0:0:0:
324,56,53683,5,8,0:0:0:0:
324,56,53933,1,8,0:0:0:0:
232,32,54058,2,0,B|232:88|240:132,1,85,2|2,0:1|0:1,0:0:0:0:
352,212,54308,2,0,B|356:168|344:112,1,85,2|2,0:1|0:1,0:0:0:0:
256,200,54558,6,2,P|144:248|120:312,1,170,6|2,1:0|0:1,0:1:0:0:
60,228,54933,1,2,0:1:0:0:
112,156,55058,2,2,L|100:64,1,85,10|0,0:1|0:0,0:1:0:0:
236,272,55308,2,2,L|248:356,1,85,2|2,0:1|0:1,0:1:0:0:
332,372,55558,5,8,0:1:0:0:
408,336,55683,1,2,0:1:0:0:
336,292,55808,1,0,0:0:0:0:
412,256,55933,1,2,0:1:0:0:
340,212,56058,1,8,0:1:0:0:
416,176,56183,1,2,0:1:0:0:
344,132,56308,1,0,0:1:0:0:
420,96,56433,1,2,0:1:0:0:
348,52,56558,54,2,B|248:28|196:112,1,170,2|2,0:1|0:1,0:1:0:0:
188,192,56933,1,2,0:1:0:0:
220,268,57058,2,2,B|228:316|216:356,1,85,10|0,0:1|0:0,0:1:0:0:
44,176,57308,2,2,B|88:140|144:136,1,85,2|2,0:1|0:1,0:1:0:0:
136,236,57558,5,10,0:1:0:0:
144,320,57683,1,8,0:3:0:0:
220,268,57808,2,2,B|264:256|320:256,1,85,2|0,0:1|0:0,0:0:0:0:
200,140,58058,1,10,0:1:0:0:
256,72,58183,1,2,0:1:0:0:
344,48,58308,2,2,B|420:52|464:68,1,85,2|2,0:1|0:1,0:0:0:0:
424,184,58558,6,0,B|384:232|304:216|288:152,1,170,2|2,0:1|0:1,0:1:0:0:
228,228,58933,1,2,0:1:0:0:
228,228,59058,2,2,B|204:272|188:324,1,85,8|2,0:1|0:1,0:1:0:0:
136,216,59308,2,2,B|120:156|96:120,1,85,2|0,0:1|0:0,0:1:0:0:
300,300,59558,53,10,0:1:0:0:
384,316,59683,1,0,0:0:0:0:
468,332,59808,2,2,L|448:240,1,85,2|2,0:1|0:1,0:1:0:0:
360,32,60058,2,2,L|380:124,1,85,10|0,0:1|0:0,0:1:0:0:
512,200,60308,2,2,L|492:108,1,85,2|0,0:1|0:1,0:1:0:0:
356,224,60558,6,0,L|180:284,1,170,2|2,0:1|0:1,0:0:0:0:
116,256,60933,1,2,0:1:0:0:
48,192,61058,2,2,B|36:148|40:96,1,85,10|0,0:1|0:0,0:1:0:0:
252,152,61308,2,2,B|264:108|248:52,1,85,2|0,0:1|0:0,0:1:0:0:
164,112,61558,5,10,0:1:0:0:
176,196,61683,1,8,0:0:0:0:
248,244,61808,1,2,0:1:0:0:
332,232,61933,1,2,0:1:0:0:
396,176,62058,54,0,B|442:139|502:160,1,106.25,8|0,0:1|0:0,0:0:0:0:
372,308,62308,2,2,B|437:302|474:361,1,106.25,2|2,0:1|0:1,0:1:0:0:
276,360,62558,6,2,B|216:384|148:352|140:280,1,170,6|2,0:1|0:1,0:0:0:0:
132,208,62933,1,2,0:1:0:0:
172,132,63058,2,0,B|208:108|256:92,2,85,2|0|2,0:1|0:1|0:1,0:1:0:0:
132,208,63433,1,2,0:1:0:0:
68,152,63558,6,0,B|60:100|64:56,2,85,10|0|2,0:1|0:1|0:1,0:1:0:0:
132,208,63933,1,2,0:1:0:0:
176,284,64058,2,0,B|176:336|168:376,2,85,10|0|2,0:1|0:1|0:1,0:1:0:0:
232,216,64433,1,2,0:1:0:0:
352,312,64558,54,2,B|408:352|476:328|492:256,1,170,2|2,0:1|0:1,0:1:0:0:
416,224,64933,1,2,0:1:0:0:
452,144,65058,2,2,B|456:96|444:44,1,85,10|0,0:1|0:0,0:1:0:0:
288,152,65308,2,2,B|284:200|296:252,1,85,2|0,0:1|0:0,0:1:0:0:
208,72,65558,6,2,L|116:32,1,85,10|8,0:1|0:0,0:0:0:0:
200,160,65808,2,2,L|108:148,1,85,2|0,0:1|0:0,0:1:0:0:
192,256,66058,2,2,L|100:268,1,85,10|0,0:1|0:0,0:1:0:0:
208,344,66308,2,2,L|116:384,1,85,2|0,0:1|0:0,0:1:0:0:
328,284,66558,6,0,B|376:264|376:264|420:320|488:296,1,170,2|2,0:1|0:1,0:1:0:0:
480,298,66933,1,2,0:1:0:0:
440,212,67058,2,2,B|424:168|436:112,1,85,10|0,0:1|0:0,0:1:0:0:
336,152,67308,2,2,B|328:96|336:48,1,85,2|0,0:1|0:0,0:1:0:0:
248,192,67558,54,2,B|200:188|148:204,1,85,10|0,0:1|0:0,0:1:0:0:
128,280,67808,2,2,B|176:284|228:268,1,85,0|2,0:0|0:1,0:1:0:0:
188,120,68058,2,0,B|136:116|96:148,1,85,10|2,0:1|0:1,0:0:0:0:
192,356,68308,2,0,B|244:360|284:328,1,85,2|0,0:1|0:1,0:0:0:0:
324,264,68558,6,2,L|356:88,1,170,2|0,0:1|0:1,0:0:0:0:
354,96,68933,1,2,0:1:0:0:
144,72,69058,2,2,L|108:268,1,170,10|2,0:1|0:1,0:1:0:0:
113,239,69433,1,2,0:1:0:0:
260,48,69558,5,8,0:0:0:0:
264,56,69683,1,4,0:0:0:0:
244,296,69933,53,8,0:0:0:0:
240,304,70058,1,4,0:0:0:0:
152,152,70308,5,8,0:0:0:0:
232,184,70433,1,2,0:1:0:0:
316,180,70558,2,0,B|488:200,1,170,4|0,0:1|0:0,0:0:0:0:
500,100,70933,2,0,B|428:40|328:80,1,170,2|0,0:2|0:0,0:0:0:0:
232,276,71308,2,0,B|304:336|404:296,2,170,2|8|0,0:2|0:1|0:0,0:0:0:0:
180,208,71933,1,8,0:1:0:0:
188,124,72058,2,0,L|224:24,1,85,2|0,0:0|0:0,0:0:0:0:
80,232,72308,2,0,L|48:328,1,85,2|2,0:0|0:2,0:0:0:0:
316,200,72558,6,0,B|356:108|288:36,1,170,4|0,0:0|0:0,0:0:0:0:
180,208,72933,2,0,B|140:300|208:372,1,170,2|0,0:2|0:0,0:0:0:0:
284,332,73308,2,0,L|260:244,1,85,2|0,0:2|0:0,0:0:0:0:
376,288,73558,2,0,B|416:324|480:304,1,85,2|0,0:0|0:0,0:0:0:0:
384,176,73808,2,0,B|439:180|472:121,1,85,2|0,0:0|2:0,0:0:0:0:
304,104,74058,2,0,B|348:71|336:5,1,85,8|0,0:1|2:0,0:0:0:0:
208,80,74308,2,0,L|196:172,1,85,2|2,0:2|0:2,0:0:0:0:
268,296,74558,54,0,B|184:340|184:280|92:320,1,170,4|0,0:0|0:0,0:0:0:0:
40,256,74933,2,0,B|-16:176|28:76,1,170,2|0,0:2|0:0,0:0:0:0:
192,40,75308,2,0,B|248:120|204:220,2,170,2|8|0,0:2|0:1|0:0,0:0:0:0:
140,108,75933,1,0,0:0:0:0:
112,188,76058,2,0,L|136:284,1,85,8|0,0:1|0:0,0:0:0:0:
380,268,76308,2,0,L|404:172,1,85,2|2,0:0|0:2,0:0:0:0:
256,328,76558,6,0,L|48:364,1,170,4|0,0:0|0:0,0:0:0:0:
256,80,76933,2,0,L|464:116,1,170,2|0,0:2|0:0,0:0:0:0:
200,224,77308,2,0,L|96:228,1,85,2|0,0:2|0:0,0:0:0:0:
44,144,77558,5,8,0:0:0:0:
108,88,77683,1,8,0:1:0:0:
192,88,77808,1,0,0:0:0:0:
272,120,77933,1,8,0:0:0:0:
340,172,78058,54,2,B|402:184|439:142,1,106.25,8|0,0:1|0:0,0:1:0:0:
264,300,78308,2,2,B|305:350|371:336,1,106.25,2|2,0:2|0:2,0:1:0:0:
172,192,78558,6,0,B|72:172|8:256,1,170,4|0,0:1|0:2,0:0:0:0:
88,296,78933,2,0,B|92:208|84:120,1,170,2|0,0:2|0:2,0:0:0:0:
336,120,79308,2,0,B|332:204|340:296,1,170,2|2,0:2|0:0,0:0:0:0:
424,240,79683,1,0,0:0:0:0:
436,156,79808,2,0,L|416:56,1,85,0|2,0:0|0:0,0:0:0:0:
256,88,80058,2,0,L|248:188,1,85,8|0,0:1|0:0,0:0:0:0:
68,188,80308,2,0,L|56:88,1,85,2|2,0:0|0:2,0:0:0:0:
148,128,80558,6,0,L|176:312,1,170,4|0,0:0|0:2,0:0:0:0:
344,296,80933,2,0,L|372:112,1,170,2|0,0:2|0:2,0:0:0:0:
256,88,81308,2,0,L|272:200,1,85,2|0,0:2|0:0,0:0:0:0:
344,296,81558,2,0,P|388:304|432:304,1,85,2|0,0:0|0:0,0:0:0:0:
173,296,81808,2,0,P|108:292|-4:328,1,170,2|8,0:0|0:0,0:0:0:0:
256,340,82183,53,2,0:2:0:0:
256,256,82308,1,2,0:2:0:0:
256,172,82433,1,2,0:2:0:0:
256,88,82558,2,0,B|160:60|84:104,1,170,4|0,0:0|0:2,0:0:0:0:
348,220,82933,2,0,B|376:128|344:40,1,170,2|0,0:2|0:0,0:0:0:0:
156,196,83308,2,0,B|132:284|168:368,1,170,2|8,0:2|0:0,0:0:0:0:
244,328,83683,1,0,0:0:0:0:
328,336,83808,2,0,L|420:348,1,85,2|2,0:0|0:0,0:0:0:0:
496,240,84058,2,0,L|496:152,1,85,8|0,0:1|0:0,0:0:0:0:
408,44,84308,2,0,L|316:56,1,85,2|2,0:0|0:2,0:0:0:0:
196,192,84558,5,4,0:0:0:0:
256,252,84683,1,8,0:0:0:0:
316,192,84808,1,2,0:0:0:0:
256,132,84933,1,8,0:0:0:0:
196,192,85058,2,0,B|152:240|160:312|232:336,1,170,4|8,0:0|0:1,0:0:0:0:
304,312,85433,1,8,0:1:0:0:
396,212,85558,6,0,B|408:168|392:120,1,85,2|8,0:0|0:0,0:0:0:0:
117,128,85808,2,0,B|108:172|124:228,1,85,2|0,0:0|0:0,0:0:0:0:
344,64,86058,2,0,B|240:70,1,85,6|0,0:0|0:0,0:0:0:0:
272,176,86308,2,0,B|268:270,1,85,2|2,0:2|0:2,0:0:0:0:
164,300,86558,54,0,B|104:336|32:304|24:224,1,170,4|0,1:1|0:0,0:0:0:0:
320,84,86933,2,0,B|376:100|396:180|348:232,1,170,2|0,0:2|0:0,0:0:0:0:
200,184,87308,2,0,B|144:168|124:88|172:36,1,170,2|8,0:2|0:0,0:0:0:0:
232,104,87683,1,0,0:0:0:0:
200,184,87808,2,0,B|188:252|184:292,1,85,2|0,0:0|0:0,0:0:0:0:
264,312,88058,2,0,B|282:222|288:140,1,170,8|2,0:1|0:2,0:0:0:0:
372,156,88433,1,2,0:2:0:0:
368,240,88558,6,2,B|396:296|372:368|312:376,1,170,4|2,0:0|0:1,0:1:0:0:
200,376,88933,2,2,B|137:368|109:296|145:232,1,170,2|2,0:2|0:1,0:1:0:0:
100,164,89308,2,0,B|140:144|184:152,1,85,2|0,0:1|0:0,0:0:0:0:
260,304,89558,2,0,B|240:260|256:212,1,85,2|0,0:0|0:0,0:0:0:0:
312,56,89808,2,0,B|312:111|268:134,1,85,2|2,0:1|0:1,0:0:0:0:
336,204,90058,2,2,B|375:238|431:225,1,85,8|0,0:1|0:0,0:1:0:0:
200,72,90308,2,0,B|152:64|104:96,1,85,2|2,0:0|0:2,0:0:0:0:
44,236,90558,6,0,B|88:276|168:252|176:188,1,170,4|0,0:0|0:0,0:0:0:0:
392,328,90933,2,0,B|348:368|268:344|260:280,1,170,2|0,0:2|0:0,0:0:0:0:
252,128,91308,2,2,L|272:36,1,85,2|2,0:2|0:1,0:1:0:0:
352,184,91558,2,0,B|359:237|336:273,1,85,0|8,0:0|0:1,0:0:0:0:
132,168,91808,2,0,B|125:115|148:79,1,85,2|0,0:0|0:0,0:0:0:0:
212,280,92058,2,2,B|172:304|112:296,1,85,8|0,0:1|0:0,0:1:0:0:
312,72,92308,2,2,B|356:52|408:60,1,85,2|2,0:1|0:1,0:1:0:0:
276,176,92558,54,2,B|220:268|300:360,1,170,4|0,0:0|0:0,0:1:0:0:
172,208,92933,2,0,B|228:116|148:24,1,170,2|0,0:2|0:0,0:0:0:0:
336,260,93308,2,0,L|368:360,1,85,2|0,0:2|0:0,0:0:0:0:
192,316,93558,2,0,L|92:328,1,85,2|0,0:0|0:0,0:0:0:0:
88,232,93808,2,2,L|-4:224,1,85,2|0,0:1|0:0,0:1:0:0:
168,72,94058,2,0,L|72:88,1,85,8|0,0:1|0:0,0:0:0:0:
296,184,94308,2,0,L|196:204,1,85,8|2,0:1|0:2,0:0:0:0:
440,296,94558,6,0,L|252:340,1,170,4|0,0:1|0:0,0:0:0:0:
108,297,94933,2,0,L|284:337,1,170,2|0,0:2|0:0,0:0:0:0:
440,296,95308,2,2,L|460:116,1,170,2|2,0:1|0:0,0:1:0:0:
376,140,95683,1,0,0:0:0:0:
360,224,95808,2,0,B|312:232|264:204,1,85,2|0,0:0|0:0,0:0:0:0:
200,120,96058,2,0,B|248:116|288:132,1,85,8|0,0:1|0:0,0:0:0:0:
192,212,96308,5,2,0:1:0:0:
112,184,96433,1,2,0:1:0:0:
96,100,96558,2,0,B|104:36|172:4|240:28,1,170,10|0,0:1|0:0,0:0:0:0:
360,176,96933,2,2,B|420:216|488:184|492:100,1,170,2|2,0:1|0:1,0:1:0:0:
368,80,97308,2,0,L|264:112,1,85,2|0,0:2|0:0,0:0:0:0:
272,300,97558,1,4,0:1:0:0:
354,249,97683,2,2,L|369:57,1,170,2|2,0:1|0:1,0:1:0:0:
460,232,98058,2,2,L|452:332,1,85,8|0,0:1|0:0,0:1:0:0:
256,204,98308,54,2,L|224:100,1,85,2|2,0:1|0:2,0:1:0:0:
152,88,98558,2,0,B|92:100|68:188|116:240,1,170,4|0,0:0|0:0,0:0:0:0:
128,312,98933,2,2,B|188:300|212:212|164:160,1,170,2|2,0:1|0:1,0:1:0:0:
44,284,99308,2,0,B|36:332|56:376,1,85,2|0,0:1|0:0,0:0:0:0:
256,292,99558,2,0,B|312:276|312:276|360:284|360:284|440:260,1,170,8|0,0:0|0:0,0:0:0:0:
496,312,99933,1,0,0:0:0:0:
420,356,100058,2,2,L|328:328,1,85,8|2,0:1|0:1,0:1:0:0:
168,192,100308,2,2,L|260:220,1,85,2|2,0:1|0:1,0:1:0:0:
404,76,100558,5,4,0:2:0:0:
320,68,100683,1,0,0:0:0:0:
240,92,100808,1,8,0:3:0:0:
156,84,100933,1,8,0:3:0:0:
72,76,101058,2,2,L|52:264,2,170,4|10|0,0:0|0:0|0:0,0:1:0:0:
144,160,101683,2,2,B|156:208|132:252,1,85,2|8,0:0|0:0,0:1:0:0:
96,316,101933,1,8,0:0:0:0:
96,316,102058,2,2,L|284:292,1,170,4|0,0:0|0:0,0:1:0:0:
344,276,102433,1,0,0:0:0:0:
344,276,102558,1,4,0:1:0:0:
88,344,115114,38,0,B|80:304|80:256,1,85,4|0,0:1|0:0,0:0:0:0:
244,112,115433,2,0,B|252:152|249:207,1,85,0|8,0:0|0:0,0:0:0:0:
104,164,115752,2,0,B|98:116|102:78,1,85
176,228,116071,2,0,B|184:280|180:328,1,85,2|0,0:0|0:0,0:0:0:0:
308,264,116390,2,0,B|352:252|396:256,1,85,8|0,0:0|0:0,0:0:0:0:
308,152,116709,2,0,B|352:140|400:148,1,85,2|0,0:0|0:0,0:0:0:0:
476,168,117028,5,4,0:0:0:0:
468,252,117188,1,0,0:0:0:0:
476,168,117348,1,0,0:0:0:0:
484,84,117507,1,8,0:0:0:0:
476,168,117667,1,0,0:0:0:0:
392,146,117826,1,0,0:0:0:0:
308,152,117986,2,0,B|300:196|304:264,1,85,2|0,0:0|0:0,0:0:0:0:
204,108,118305,2,0,B|192:160|196:196,1,85
216,272,118624,2,0,B|220:320|208:368,1,85,4|0,0:2|0:0,0:0:0:0:
108,312,118943,54,0,B|52:276|60:188|124:160,1,170,4|0,0:0|0:0,0:0:0:0:
304,92,119422,2,0,B|360:128|352:216|288:244,1,170,8|0,0:0|0:0,0:0:0:0:
224,192,119901,2,0,B|214:150|208:88,1,85,2|0,0:0|0:0,0:0:0:0:
232,284,120220,2,0,L|168:360,1,85,2|0,0:0|0:0,0:0:0:0:
302,236,120539,2,0,B|346:250|398:261,1,85,2|0,0:0|0:0,0:0:0:0:
456,192,120858,5,4,0:0:0:0:
376,144,121018,1,0,0:0:0:0:
304,332,121177,5,2,0:0:0:0:
256,260,121337,1,8,0:0:0:0:
208,332,121496,1,0,0:0:0:0:
128,144,121656,53,2,0:0:0:0:
48,192,121816,1,4,0:2:0:0:
256,32,122135,1,4,0:2:0:0:
480,192,122454,1,4,0:2:0:0:
256,352,122773,6,0,B|272:168,1,170,4|0,0:1|0:0,0:0:0:0:
192,132,123252,2,0,B|136:208|168:296,1,170,8|0,0:0|0:0,0:0:0:0:
96,344,123731,2,0,B|52:376|0:364,1,85,8|0,0:1|0:0,0:0:0:0:
40,280,124050,2,0,B|8:236|20:184,1,85,2|0,0:0|0:0,0:0:0:0:
245,271,124369,2,0,B|209:303|157:291,1,85,8|0,0:1|0:0,0:0:0:0:
112,128,124688,6,0,B|128:64|200:40|256:80,1,170,4|0,0:0|0:0,0:0:0:0:
328,32,125167,2,0,B|332:80|324:124,1,85,8|0,0:0|0:0,0:0:0:0:
325,116,125486,1,2,0:0:0:0:
412,136,125645,2,0,B|460:138|500:144,1,85,8|0,0:1|0:0,0:0:0:0:
480,280,125965,1,2,0:0:0:0:
400,272,126124,1,0,0:0:0:0:
320,264,126284,1,8,0:1:0:0:
240,256,126443,1,0,0:0:0:0:
144,236,126603,54,0,B|40:272|-4:176,1,170,4|0,0:0|0:0,0:0:0:0:
80,140,127082,2,0,B|72:92|104:52,2,85,8|0|0,0:0|0:0|0:0,0:0:0:0:
144,236,127560,2,0,B|188:232|232:228,1,85,8|0,0:1|0:0,0:0:0:0:
288,156,127879,1,2,0:0:0:0:
196,320,128039,1,0,0:0:0:0:
196,320,128119,1,0,0:0:0:0:
196,320,128199,1,8,0:1:0:0:
304,256,128358,1,2,0:0:0:0:
184,152,128518,6,0,B|164:112|180:60,1,85,4|0,0:0|0:0,0:0:0:0:
352,176,128837,2,0,B|400:188|432:244,1,85,0|8,0:0|0:0,0:0:0:0:
321,337,129156,2,0,B|297:297|305:241,1,85
224,176,129475,2,0,B|200:240|112:248|80:184,2,170,8|4|4,0:1|0:2|0:2,0:0:0:0:
224,176,130433,6,0,L|244:356,1,170,4|0,0:1|0:0,0:0:0:0:
316,308,130911,2,0,L|296:128,1,170,8|0,0:0|0:0,0:0:0:0:
297,139,131390,2,0,B|344:128|384:156,1,85,2|0,0:0|0:0,0:0:0:0:
252,56,131709,2,0,B|208:80|156:64,1,85,8|0,0:0|0:0,0:0:0:0:
40,104,132028,2,0,B|88:108|116:148,1,85,2|0,0:0|0:0,0:0:0:0:
144,272,132348,54,0,B|116:336|44:356|-4:316,1,170,4|0,0:0|0:0,0:0:0:0:
52,220,132826,1,8,0:0:0:0:
152,184,132986,2,0,B|216:168|252:152,1,85
292,76,133305,5,8,0:0:0:0:
292,76,133465,1,0,0:0:0:0:
260,216,133624,1,2,0:0:0:0:
260,216,133784,1,0,0:0:0:0:
228,356,133943,1,2,0:0:0:0:
228,356,134103,1,0,0:0:0:0:
316,328,134262,6,0,B|348:244|340:156,1,170,4|0,0:0|0:0,0:0:0:0:
184,140,134741,2,0,B|152:224|160:312,1,170,8|0,0:0|0:0,0:0:0:0:
68,244,135220,2,0,B|60:292|76:344,1,85,2|0,0:0|0:0,0:0:0:0:
260,256,135539,2,0,B|272:212|252:156,1,85,8|0,0:0|0:0,0:0:0:0:
340,148,135858,2,0,B|328:96|288:72,1,85,2|0,0:0|0:0,0:0:0:0:
168,128,136177,54,0,B|112:160|120:248|192:272,1,170,4|0,0:0|0:0,0:0:0:0:
232,324,136656,2,0,B|280:308|328:316,1,85,8|0,0:0|0:0,0:0:0:0:
368,248,136975,1,0,0:0:0:0:
452,264,137135,2,0,B|440:168,1,85,10|0,0:0|0:0,0:0:0:0:
284,136,137454,2,0,B|376:160,1,85,2|0,0:0|0:0,0:0:0:0:
472,28,137773,2,0,B|424:100,1,85,2|0,0:0|0:0,0:0:0:0:
280,236,138092,6,0,B|184:272|116:196,1,170,4|0,0:0|0:0,0:0:0:0:
104,124,138571,1,8,0:0:0:0:
200,160,138731,1,0,0:0:0:0:
192,64,138890,1,0,0:0:0:0:
104,124,139050,2,0,B|52:132|4:152,1,85,2|0,0:0|0:0,0:0:0:0:
148,328,139369,2,0,B|160:284|152:232,1,85,8|0,0:0|0:0,0:0:0:0:
284,92,139688,5,2,0:0:0:0:
272,172,139848,1,0,0:0:0:0:
264,252,140007,2,0,B|316:288|384:272|408:216,1,170,4|0,0:0|0:0,0:0:0:0:
432,120,140486,1,8,0:0:0:0:
344,80,140645,2,0,B|336:128|356:180,1,85
264,176,140965,2,0,L|80:192,2,170,2|8|2,0:0|0:0|0:0,0:0:0:0:
264,176,141922,54,0,B|232:268|280:348,1,170,4|0,0:0|0:0,0:0:0:0:
344,272,142401,1,8,0:0:0:0:
380,192,142560,2,0,B|392:148|368:104,1,85
192,64,142879,2,0,B|128:136|188:228,1,170,2|8,0:0|0:0,0:0:0:0:
424,312,143518,1,2,0:0:0:0:
424,312,143677,1,0,0:0:0:0:
352,264,143837,6,0,B|256:240|184:312,1,170,4|0,0:0|0:0,0:0:0:0:
124,352,144316,1,8,0:0:0:0:
64,288,144475,1,0,0:0:0:0:
136,240,144635,1,0,0:0:0:0:
76,84,144794,6,0,B|72:136|68:180,1,85,4|0,1:2|0:0,0:0:0:0:
272,136,145114,2,0,L|256:16,1,85,4|0,1:2|0:0,0:0:0:0:
248,260,145433,2,0,L|344:264,1,85,4|0,1:2|0:0,0:0:0:0:
172,352,145752,54,0,B|112:340|88:256|144:192,1,170,4|0,0:0|0:0,0:0:0:0:
168,36,146231,2,0,B|228:48|252:132|196:196,1,170,8|0,0:0|0:0,0:0:0:0:
32,140,146709,2,0,B|72:116|124:124,1,85,2|0,0:0|0:0,0:0:0:0:
352,224,147028,2,0,B|308:252|256:240,1,85,8|0,0:0|0:0,0:0:0:0:
88,204,147348,2,0,L|120:104,1,85,2|0,0:0|0:0,0:0:0:0:
200,112,147667,6,0,L|144:292,1,170,4|0,0:0|0:0,0:0:0:0:
176,360,148145,1,8,0:0:0:0:
256,320,148305,2,0,B|300:308|348:304,1,85
392,176,148624,2,0,B|412:136|400:88,1,85,8|0,0:0|0:0,0:0:0:0:
308,228,148943,2,0,B|288:188|304:136,1,85,2|0,0:0|0:0,0:0:0:0:
380,348,149262,2,0,B|404:308|388:260,1,85,2|0,0:0|0:0,0:0:0:0:
224,348,149582,6,0,B|164:280|220:176,1,170,4|0,0:0|0:0,0:0:0:0:
232,92,150060,2,0,B|168:160|64:120,1,170,8|0,0:0|0:0,0:0:0:0:
48,40,150539,2,0,L|160:52,1,85,2|0,0:0|0:0,0:0:0:0:
300,156,150858,2,0,B|300:220|292:264,1,85,8|0,0:0|0:0,0:0:0:0:
160,352,151177,2,0,B|104:348|72:340,1,85,2|0,0:0|0:0,0:0:0:0:
212,104,151496,54,0,B|216:188|200:288,1,170,4|0,0:0|0:0,0:0:0:0:
112,232,151975,1,8,0:0:0:0:
120,144,152135,1,0,0:0:0:0:
44,92,152294,1,0,0:0:0:0:
28,184,152454,2,0,P|21:240|16:280,1,85,8|0,0:0|0:0,0:0:0:0:
180,348,152773,2,0,B|224:356|272:352,1,85,2|0,0:0|0:0,0:0:0:0:
344,192,153092,1,2,0:0:0:0:
344,192,153252,1,0,0:0:0:0:
280,264,153411,6,0,B|232:188|284:96,1,170,4|0,0:0|0:0,0:0:0:0:
212,52,153890,1,8,0:0:0:0:
144,104,154050,2,0,B|92:112|60:72,1,85
66,79,154369,2,0,L|88:256,1,170,2|8,0:0|0:0,0:0:0:0:
104,328,154848,1,0,0:0:0:0:
168,272,155007,2,0,B|216:260|256:288,1,85,2|0,0:0|0:0,0:0:0:0:
312,344,155326,6,0,B|384:364|432:316|424:236,1,170,4|0,0:0|0:0,0:0:0:0:
408,160,155805,1,8,0:0:0:0:
336,212,155965,1,0,0:0:0:0:
352,88,156124,1,0,0:0:0:0:
472,112,156284,2,0,B|488:208,1,85,4|0,0:0|0:0,0:0:0:0:
296,328,156603,2,0,P|304:288|320:228,1,85,2|0,0:0|0:0,0:0:0:0:
160,92,156922,2,0,L|176:180,1,85,2|0,0:0|0:0,0:0:0:0:
24,348,157241,54,0,L|48:92,1,255,4|8,0:0|0:0,0:0:0:0:
116,40,157879,2,0,B|156:64|208:48,1,85
260,128,158199,2,0,P|304:112|360:120,1,85,2|0,0:0|0:0,0:0:0:0:
364,272,158518,2,0,P|320:288|264:280,1,85,8|0,0:0|0:0,0:0:0:0:
80,136,158837,2,0,B|104:96|168:80,1,85,2|0,0:0|0:0,0:0:0:0:
304,192,159156,6,0,B|216:248|144:192,1,170,4|0,0:0|0:0,0:0:0:0:
96,288,159635,2,0,B|56:312|-8:308,2,85,8|0|0,0:0|0:0|0:0,0:0:0:0:
200,304,160114,2,0,B|300:272|360:344,2,170,10|2|4,0:0|0:0|0:2,0:0:0:0:
120,76,161071,6,0,B|160:52|220:64,1,85,8|0,0:0|0:0,0:0:0:0:
288,96,161390,1,0,0:0:0:0:
456,216,161550,2,0,B|416:196|364:212,1,85,4|0,0:0|0:0,0:0:0:0:
296,260,161869,1,0,0:0:0:0:
256,356,162028,53,2,0:0:0:0:
256,192,162348,1,4,0:2:0:0:
256,32,162667,1,0,1:0:0:0:
92,208,162986,6,0,B|160:256|184:356,1,170,4|0,0:2|0:0,0:0:0:0:
420,208,163465,2,0,B|352:256|328:356,1,170,4|0,0:2|0:0,0:0:0:0:
256,192,163943,5,4,0:2:0:0:
256,204,164262,53,4,0:2:0:0:
256,212,164582,6,0,B|256:152|256:40,1,170,4|2,0:2|0:0,0:0:0:0:
112,280,165457,1,0,0:0:0:0:
112,280,165582,2,0,B|112:236,1,42.5,0|2,0:0|0:0,0:0:0:0:
80,120,165957,2,0,L|80:56,1,42.5,0|2,0:0|0:0,0:0:0:0:
340,292,166457,5,0,0:0:0:0:
340,292,166519,1,2,0:0:0:0:
340,292,166582,2,0,L|332:216,1,63.7500024318696,8|2,0:1|0:3,0:0:0:0:
240,284,166832,2,0,L|208:212,1,63.7500024318696,8|2,0:1|0:3,0:0:0:0:
128,272,167082,1,2,1:3:0:0:
88,196,167207,2,0,L|116:64,1,127.500004863739,8|8,0:1|1:3,0:0:0:0:
192,32,167582,2,0,L|200:104,1,63.7500024318696,4|4,0:3|0:0,0:0:0:0:
164,280,167957,6,0,L|176:356,1,63.7500024318696,10|8,0:3|0:3,0:0:0:0:
256,360,168207,1,2,0:1:0:0:
340,340,168332,1,2,0:1:0:0:
384,268,168457,1,2,0:1:0:0:
372,184,168582,6,2,B|300:120|336:28,1,170,6|2,0:1|0:1,0:1:0:0:
416,92,168957,1,2,0:1:0:0:
280,212,169082,2,2,L|184:232,1,85,10|0,0:1|0:1,0:1:0:0:
112,128,169332,2,2,L|204:144,1,85,2|2,0:1|0:1,0:1:0:0:
128,304,169582,2,2,L|112:204,1,85,10|0,0:1|0:0,0:1:0:0:
260,304,169832,2,2,L|348:324,1,85,2|0,0:1|0:0,0:1:0:0:
408,264,170082,5,10,0:1:0:0:
356,196,170207,1,0,0:0:0:0:
440,180,170332,1,2,0:1:0:0:
388,112,170457,1,0,0:0:0:0:
424,36,170582,54,2,B|344:28|248:48,1,170,2|2,0:1|0:1,0:1:0:0:
184,96,170957,1,2,0:1:0:0:
24,152,171082,2,2,B|68:156|116:140,1,85,10|0,0:1|0:0,0:1:0:0:
272,200,171332,2,2,B|212:192|176:180,1,85,2|2,0:1|0:1,0:1:0:0:
68,308,171582,5,10,0:1:0:0:
144,268,171707,1,10,0:1:0:0:
228,268,171832,1,0,0:1:0:0:
296,320,171957,1,2,0:1:0:0:
376,348,172082,1,10,0:1:0:0:
452,312,172207,1,0,0:0:0:0:
492,236,172332,1,2,0:1:0:0:
480,152,172457,1,2,0:1:0:0:
420,92,172582,6,0,B|332:52|240:128,1,170,2|2,0:1|0:1,0:1:0:0:
240,196,172957,1,2,0:1:0:0:
152,132,173082,2,2,B|160:188|156:224,1,85,10|0,0:1|0:0,0:1:0:0:
104,288,173332,2,2,B|104:340|108:376,1,85,2|0,0:1|0:0,0:1:0:0:
200,308,173582,54,2,B|248:312|296:296,1,85,10|8,0:1|0:1,0:1:0:0:
80,196,173832,2,2,B|32:204|-20:200,1,85,2|0,0:1|0:0,0:1:0:0:
112,72,174082,2,2,B|160:68|212:68,1,85,10|2,0:1|0:1,0:1:0:0:
324,204,174332,2,2,B|372:196|420:200,1,85,2|2,0:1|0:1,0:1:0:0:
464,116,174582,5,2,0:1:0:0:
464,116,174707,1,0,0:0:0:0:
392,56,174832,2,2,B|342:53|304:91,1,85,2|10,0:1|0:1,0:0:0:0:
232,268,175082,1,10,0:1:0:0:
232,268,175207,1,0,0:0:0:0:
148,232,175332,2,2,B|128:193|146:139,1,85,2|2,0:1|0:1,0:1:0:0:
328,176,175582,6,2,L|336:268,1,85,10|8,0:1|0:0,0:1:0:0:
444,120,175832,2,2,L|440:208,1,85,2|0,0:1|0:1,0:1:0:0:
247,84,176082,54,2,L|258:204,1,106.25,10|2,0:1|0:1,0:1:0:0:
84,48,176332,6,0,L|74:158,1,106.25,2|2,0:1|0:1,0:0:0:0:
360,148,176582,6,2,B|396:246|322:319,1,170,6|2,0:1|0:1,0:1:0:0:
235,344,176957,1,2,0:1:0:0:
235,344,177082,2,2,B|207:300|223:252,1,85,10|0,0:1|0:0,0:1:0:0:
272,184,177332,2,2,B|287:137|266:90,1,85,2|0,0:1|0:0,0:1:0:0:
360,148,177582,54,2,L|380:244,1,85,10|0,0:1|0:0,0:1:0:0:
180,116,177832,2,2,L|160:20,1,85,10|0,0:1|0:0,0:1:0:0:
288,264,178082,2,2,L|308:360,1,85,10|0,0:1|0:0,0:1:0:0:
108,232,178332,2,2,L|88:136,1,85,2|2,0:1|0:1,0:1:0:0:
204,272,178582,6,2,B|196:344|128:376|56:336,1,170,10|2,0:1|0:1,0:1:0:0:
24,276,178957,1,2,0:1:0:0:
160,168,179082,2,2,B|200:148|256:156,1,85,10|0,0:1|0:0,0:1:0:0:
344,216,179332,2,2,B|304:240|256:232,1,85,2|0,0:1|0:0,0:1:0:0:
184,64,179582,5,10,0:1:0:0:
188,72,179707,1,8,0:3:0:0:
264,56,179832,1,2,0:1:0:0:
268,64,179957,1,0,0:1:0:0:
344,104,180082,53,10,0:1:0:0:
340,112,180207,1,0,0:1:0:0:
428,136,180332,1,2,0:1:0:0:
424,144,180457,1,2,0:1:0:0:
360,208,180582,6,0,B|320:308|404:364,1,170,2|2,0:1|0:1,0:1:0:0:
440,268,180957,1,2,0:1:0:0:
284,332,181082,2,2,L|192:356,1,85,10|2,0:1|0:1,0:1:0:0:
128,256,181332,2,2,L|232:276,1,85,2|0,0:1|0:0,0:1:0:0:
320,156,181582,6,2,L|292:60,1,85,10|2,0:1|0:1,0:1:0:0:
128,256,181832,2,2,L|156:352,1,85,2|2,0:1|0:1,0:1:0:0:
300,180,182082,2,2,L|272:80,1,85,10|0,0:1|0:0,0:1:0:0:
104,288,182332,2,2,L|132:388,1,85,2|0,0:1|0:0,0:1:0:0:
156,180,182582,54,0,B|168:132|140:88,1,85,2|0,0:1|0:0,0:0:0:0:
72,152,182832,1,2,0:1:0:0:
72,152,182957,1,2,0:1:0:0:
104,288,183082,2,0,P|144:304|200:296,1,85,10|0,0:1|0:0,0:0:0:0:
304,212,183332,2,2,B|356:200|396:232,1,85,8|4,0:3|0:3,0:1:0:0:
464,280,183582,5,10,0:1:0:0:
468,368,183707,1,0,0:0:0:0:
392,328,183832,1,2,0:1:0:0:
456,268,183957,5,2,0:1:0:0:
448,360,184082,1,4,1:3:0:0:
372,304,184207,1,0,0:0:0:0:
232,284,184332,54,2,L|144:280,1,85,2|2,0:1|0:1,0:1:0:0:
72,340,184582,6,2,B|136:252|80:172,1,170,6|0,0:1|0:0,0:0:0:0:
196,208,184957,2,2,B|136:132|180:36,1,170,2|2,0:2|0:1,0:1:0:0:
272,156,185332,2,2,B|320:160|376:168,1,85,2|0,0:2|0:0,0:1:0:0:
416,236,185582,2,2,B|420:280|420:280|404:328,1,85,8|10,0:1|0:1,0:1:0:0:
332,352,185832,2,0,B|328:308|328:308|344:260,1,85,0|8,0:0|0:1,0:0:0:0:
372,104,186082,2,0,B|376:148|376:148|360:196,1,85,8|0,0:1|0:0,0:0:0:0:
284,232,186332,2,0,B|280:188|280:188|296:140,1,85,2|2,0:2|1:2,0:0:0:0:
192,224,186582,6,0,B|12:244,1,170,4|0,0:0|0:0,0:0:0:0:
100,72,186957,2,0,B|280:52,1,170,2|0,0:2|0:0,0:0:0:0:
461,127,187332,2,0,L|273:151,1,170,2|2,0:2|0:0,0:0:0:0:
240,216,187707,1,0,0:0:0:0:
248,300,187832,1,2,0:0:0:0:
324,340,187957,1,0,0:0:0:0:
404,312,188082,2,4,B|416:260|384:224,1,85,8|0,0:1|0:0,0:0:0:0:
200,132,188332,2,0,B|156:160|100:148,1,85,2|2,0:2|0:2,0:0:0:0:
52,248,188582,54,0,B|132:212|220:228,1,170,4|0,0:0|0:0,0:0:0:0:
300,272,188957,2,0,L|400:292,1,85,2|8,0:2|0:1,0:0:0:0:
448,228,189207,1,2,0:2:0:0:
388,164,189332,2,0,L|288:184,1,85,2|0,0:2|0:0,0:0:0:0:
220,144,189582,2,0,B|196:104|216:52,1,85,2|0,0:0|0:0,0:0:0:0:
220,240,189832,2,0,B|196:280|216:332,1,85,2|0,0:0|0:0,0:0:0:0:
112,148,190082,2,0,L|92:48,1,85,2|0,0:0|0:0,0:0:0:0:
112,240,190332,2,0,L|92:340,1,85,2|0,0:0|0:0,0:0:0:0:
20,192,190582,5,2,0:1:0:0:
256,140,190832,1,2,0:2:0:0:
252,152,190957,1,2,0:1:0:0:
480,108,191207,1,2,0:2:0:0:
472,124,191332,1,2,0:1:0:0:
200,224,191582,6,0,B|192:280|184:332,1,85,2|0,0:0|0:0,0:0:0:0:
272,288,191832,1,8,0:1:0:0:
216,44,192082,1,8,0:1:0:0:
216,44,192332,2,0,B|264:40|304:80,1,85,2|2,0:0|0:0,0:0:0:0:
372,204,192582,54,0,B|278:244|290:172|176:236,1,170,4|0,1:0|0:0,0:0:0:0:
124,252,192957,2,0,B|128:316|208:344|272:296,1,170,2|0,0:2|0:0,0:0:0:0:
336,348,193332,2,0,B|408:288|500:328,1,170,2|8,0:2|0:1,0:0:0:0:
480,240,193707,1,0,0:0:0:0:
496,152,193832,2,0,L|476:36,1,85,2|0,0:0|0:0,0:0:0:0:
272,184,194082,2,0,L|284:84,1,85,8|0,0:1|0:0,0:0:0:0:
88,48,194332,2,0,L|100:140,1,85,2|0,0:0|0:0,0:0:0:0:
40,224,194582,6,0,B|96:188|168:224|176:296,1,170,4|0,0:0|0:0,0:0:0:0:
380,296,194957,2,0,B|324:260|252:296|244:368,1,170,2|0,0:2|0:0,0:0:0:0:
252,208,195332,2,0,B|317:201|349:125|309:65,1,170,2|0,0:2|0:0,0:0:0:0:
232,32,195707,1,8,0:1:0:0:
232,32,195832,2,0,B|228:76|240:128,1,85,2|0,0:0|0:0,0:0:0:0:
356,256,196082,2,0,B|365:212|348:160,1,85,8|2,0:1|0:3,0:0:0:0:
156,188,196332,2,0,B|147:232|164:284,1,85,2|2,0:3|0:2,0:0:0:0:
248,344,196582,6,0,B|308:264|240:168,1,170,4|0,0:0|0:0,0:0:0:0:
72,88,196957,2,0,B|12:168|80:264,1,170,2|0,0:2|0:0,0:0:0:0:
156,188,197332,2,0,L|144:96,1,85,2|0,0:2|0:0,0:0:0:0:
264,32,197582,1,8,0:1:0:0:
352,48,197707,1,8,0:1:0:0:
416,112,197832,2,0,B|444:156|424:208,1,85,8|0,0:1|0:0,0:0:0:0:
280,304,198082,2,0,B|312:268|376:280,1,85,8|0,0:1|0:0,0:0:0:0:
144,332,198332,2,0,B|112:296|124:236,1,85,2|2,0:2|0:2,0:0:0:0:
128,120,198582,54,0,L|104:36,1,85,4|8,0:0|0:0,0:0:0:0:
312,260,198957,6,0,L|240:328,1,85,8|4,0:0|0:0,0:0:0:0:
352,60,199332,6,0,L|444:120,1,85,4|4,0:0|0:0,0:0:0:0:
448,352,199582,54,0,L|476:264,1,85,2|2,0:0|0:0,0:0:0:0:
328,136,199832,2,0,L|296:236,1,85,2|0,0:0|0:0,0:0:0:0:
216,336,200082,2,0,L|188:232,1,85,2|0,0:0|0:0,0:0:0:0:
16,152,200332,2,0,L|44:256,1,85,2|2,0:0|0:1,0:1:0:0:
96,88,200582,6,2,B|124:40|204:24|256:56,1,170,4|0,1:1|0:0,0:1:0:0:
396,204,200957,2,2,B|368:252|288:268|236:236,1,170,0|0,0:0|0:0,0:1:0:0:
164,148,201332,1,2,0:2:0:0:
164,148,201582,2,2,B|160:192|168:260,1,85,2|0,0:0|0:0,0:1:0:0:
312,172,201832,2,2,B|316:128|308:60,1,85,2|2,0:0|0:0,0:1:0:0:
244,240,202082,2,0,B|292:244|352:240,1,85,8|0,0:1|0:0,0:0:0:0:
224,76,202332,2,0,B|176:72|116:76,1,85,2|2,0:0|0:1,0:0:0:0:
68,148,202582,6,2,B|56:240|80:320,1,170,4|2,0:0|0:1,0:1:0:0:
160,352,202957,2,2,L|360:344,1,170,2|0,0:2|0:0,0:1:0:0:
408,312,203332,2,2,B|416:268|400:216,1,85,2|0,0:2|0:0,0:1:0:0:
300,76,203582,1,2,0:0:0:0:
228,100,203707,2,0,B|216:176|236:276,1,170,8|0,0:1|0:0,0:0:0:0:
320,232,204082,1,8,0:1:0:0:
320,232,204332,2,0,B|320:180|312:136,1,85,2|2,0:2|0:2,0:0:0:0:
112,148,204582,54,0,B|128:324,1,170,4|0,0:0|0:0,0:0:0:0:
200,260,204957,2,0,B|184:84,1,170,2|0,0:2|0:0,0:0:0:0:
268,124,205332,2,0,P|277:183|280:216,1,85,2|0,0:2|0:0,0:0:0:0:
296,296,205582,2,0,B|348:304|380:272,1,85,8|2,0:1|0:0,0:0:0:0:
167,171,205832,2,0,B|160:126|187:87,1,85,8|0,0:1|0:0,0:0:0:0:
156,312,206082,2,0,B|192:352|256:336,1,85,8|0,0:1|0:0,0:0:0:0:
68,208,206332,2,0,B|33:176|44:108,1,85,8|0,0:1|0:0,0:0:0:0:
236,240,206582,6,0,L|432:224,1,170,4|0,0:0|0:0,0:0:0:0:
472,136,206957,2,0,B|380:100|296:148|296:148,1,170,2|0,0:2|0:0,0:0:0:0:
228,116,207332,2,0,L|140:140,1,85,2|0,0:2|0:0,0:0:0:0:
76,76,207582,1,2,0:0:0:0:
64,160,207707,1,8,0:1:0:0:
76,244,207832,2,0,L|92:340,1,85,2|0,0:0|0:0,0:0:0:0:
324,200,208082,2,0,L|332:296,1,85,8|0,0:1|0:0,0:0:0:0:
212,200,208332,2,0,L|200:292,1,85,2|2,0:2|0:2,0:1:0:0:
408,348,208582,6,2,B|472:320|480:236|424:188,1,170,4|0,1:0|0:0,0:1:0:0:
392,136,208957,2,0,B|364:100|380:40,1,85,2|8,0:2|0:1,0:0:0:0:
376,55,209207,1,0,0:0:0:0:
304,160,209332,2,0,B|264:184|212:172,1,85,2|0,0:2|0:0,0:0:0:0:
128,104,209582,1,2,0:0:0:0:
128,104,209707,2,0,B|136:184|132:292,1,170,2|2,0:0|0:0,0:0:0:0:
56,328,210082,2,0,L|44:240,1,85,8|0,0:1|0:0,0:0:0:0:
208,308,210332,54,0,B|252:332|304:312,1,85,2|2,0:2|0:2,0:1:0:0:
360,360,210582,2,0,B|316:276|356:188,1,170,4|0,0:0|0:0,0:0:0:0:
256,176,210957,2,0,B|280:132|316:72,1,85,2|8,0:2|0:1,0:0:0:0:
200,96,211207,1,0,0:0:0:0:
152,168,211332,2,0,L|112:248,1,85,2|0,0:2|0:0,0:0:0:0:
68,316,211582,1,0,0:0:0:0:
0,264,211707,1,8,0:1:0:0:
8,180,211832,2,0,B|32:128|92:116,1,85,8|0,0:1|0:0,0:0:0:0:
216,232,212082,2,0,B|264:248|304:220,1,85,8|0,0:1|0:0,0:0:0:0:
412,124,212332,2,0,L|432:32,1,85,2|2,0:2|0:2,0:1:0:0:
488,176,212582,6,0,B|496:272|436:344,1,170,4|0,0:0|0:0,0:0:0:0:
360,320,212957,2,0,B|316:304|276:324,1,85,2|8,0:2|0:1,0:0:0:0:
196,348,213207,1,0,0:0:0:0:
116,324,213332,2,0,B|68:312|28:332,1,85,2|0,0:2|0:0,0:0:0:0:
4,252,213582,2,0,B|88:216|168:256,1,170,2|0,0:0|0:0,0:0:0:0:
224,188,213957,1,2,0:0:0:0:
180,116,214082,2,0,B|84:152|12:112,1,170,8|2,0:1|0:2,0:0:0:0:
80,40,214457,1,2,0:0:0:0:
296,116,214582,6,0,B|352:144|360:216|308:268,1,170,4|0,0:0|0:0,0:0:0:0:
232,360,214957,2,0,B|180:332|168:256|220:208,1,170,2|0,0:2|0:0,0:0:0:0:
135,240,215332,2,0,B|183:244|215:212,1,85,2|0,0:2|0:0,0:0:0:0:
212,120,215582,2,0,B|172:88|104:108,1,85,2|0,0:0|0:0,0:0:0:0:
28,212,215832,2,2,B|72:208|104:160,1,85,8|8,0:1|0:1,0:1:0:0:
292,276,216082,2,2,B|308:228|276:180,1,85,8|4,0:1|0:3,0:1:0:0:
148,272,216332,2,2,B|128:320|168:368,1,85,8|2,0:3|0:1,0:1:0:0:
384,212,216582,54,2,B|424:168|408:84|356:64,1,170,6|0,1:0|0:1,0:1:0:0:
480,112,216957,1,2,0:1:0:0:
316,292,217082,2,2,B|260:272|240:192|296:136,1,170,10|0,0:1|0:1,0:1:0:0:
184,232,217457,1,2,0:1:0:0:
358,357,217582,6,2,B|412:338|424:246|378:206,1,170,2|0,0:1|0:1,0:1:0:0:
484,292,217957,1,2,0:1:0:0:
251,345,218082,2,2,B|191:373|127:345|119:277,1,170,10|0,0:1|0:0,0:1:0:0:
104,196,218457,1,2,0:1:0:0:
120,284,218582,6,2,L|136:384,1,85,0|2,0:1|0:1,0:1:0:0:
208,260,218832,2,2,L|312:236,1,85,2|2,0:1|0:1,0:1:0:0:
192,160,219082,2,2,L|168:56,1,85,10|0,0:1|0:0,0:1:0:0:
104,196,219332,2,2,L|0:220,1,85,0|2,0:1|0:1,0:1:0:0:
276,128,219582,54,0,L|288:24,1,85,2|0,0:1|0:0,0:0:0:0:
448,153,219832,2,2,L|364:144,1,85,2|2,0:1|0:1,0:1:0:0:
342,316,220082,2,2,L|352:232,1,85,10|0,0:1|0:0,0:1:0:0:
179,210,220332,2,2,L|264:220,1,85,2|2,0:1|0:1,0:1:0:0:
252,312,220582,6,2,B|184:304|184:304|148:312|148:312|52:300,1,170,2|2,0:1|0:1,0:1:0:0:
16,252,220957,1,0,0:0:0:0:
96,224,221082,2,2,B|100:176|84:124,1,85,10|2,0:1|0:1,0:1:0:0:
184,172,221332,2,0,B|232:176|272:152,1,85,2|2,0:1|0:1,0:0:0:0:
336,220,221582,6,2,B|400:140|340:44,1,170,2|2,0:1|0:1,0:1:0:0:
349,61,221957,1,0,0:0:0:0:
436,36,222082,2,2,L|446:123,1,85,10|0,0:1|0:0,0:1:0:0:
444,201,222332,2,2,L|432:293,1,85,2|2,0:1|0:1,0:1:0:0:
290,309,222582,54,2,B|210:241|282:125,1,170,2|2,0:1|0:1,0:0:0:0:
204,88,222957,1,0,0:0:0:0:
204,88,223019,1,0,0:0:0:0:
204,88,223082,2,2,L|164:180,1,85,2|0,0:1|0:1,0:1:0:0:
131,240,223332,2,2,L|93:334,1,85,2|2,0:1|0:1,0:1:0:0:
176,356,223582,5,2,0:1:0:0:
220,284,223707,2,2,B|284:376|400:292,1,170,8|0,0:1|0:0,0:1:0:0:
368,228,224082,1,10,0:1:0:0:
452,244,224207,1,2,0:1:0:0:
504,176,224332,1,2,0:1:0:0:
480,96,224457,1,2,0:1:0:0:
400,72,224582,6,2,B|304:40|224:96,1,170,6|0,1:1|0:1,0:1:0:0:
168,144,224957,1,2,0:1:0:0:
68,240,225082,2,2,B|160:276|236:208,1,170,10|0,0:1|0:0,0:1:0:0:
300,260,225457,1,2,0:1:0:0:
412,296,225582,54,2,B|352:372|244:340,1,170,2|0,0:1|0:0,0:1:0:0:
184,300,225957,1,2,0:1:0:0:
152,220,226082,2,2,L|104:28,1,170,10|0,0:1|0:0,0:1:0:0:
192,88,226457,1,2,0:1:0:0:
72,200,226582,6,0,P|28:208|-16:224,1,85,2|2,0:1|0:1,0:1:0:0:
184,300,226832,2,2,B|232:296|280:268,1,85,0|0,0:1|0:0,0:1:0:0:
372,152,227082,2,2,L|400:44,1,85,10|0,0:1|0:0,0:1:0:0:
256,128,227332,2,2,L|228:232,1,85,2|2,0:1|0:1,0:1:0:0:
336,288,227582,5,2,0:1:0:0:
400,232,227707,1,0,0:0:0:0:
360,308,227832,53,2,0:1:0:0:
364,224,227957,1,0,0:0:0:0:
392,308,228082,5,10,0:1:0:0:
332,248,228207,1,0,0:0:0:0:
412,276,228332,5,2,0:1:0:0:
336,288,228457,1,0,0:0:0:0:
400,232,228582,54,2,B|432:168|368:112|368:112|296:160|240:88,1,255,2|0,0:1|0:0,0:1:0:0:
272,32,229082,2,2,B|222:27|177:50,1,85,2|2,0:1|0:1,0:1:0:0:
132,284,229332,2,2,B|182:289|227:266,1,85,2|0,0:1|0:0,0:1:0:0:
336,348,229582,6,2,B|304:284|327:242|352:248|352:248|368:216|368:216|320:200|320:200|312:168|272:168,1,255,2|0,0:1|0:0,0:1:0:0:
408,296,230082,2,2,B|468:312|492:280,1,85,2|2,0:1|0:1,0:1:0:0:
244,280,230332,2,2,B|200:292|168:336,1,85,2|2,0:1|0:1,0:1:0:0:
156,204,230582,6,2,L|144:96,1,85,6|0,0:0|0:0,0:1:0:0:
136,36,230832,1,8,0:3:0:0:
136,36,230957,1,8,0:3:0:0:
224,28,231082,2,2,L|236:132,1,85,2|0,0:1|0:3,0:1:0:0:
248,196,231332,1,2,0:1:0:0:
248,196,231457,1,8,0:3:0:0:
332,240,231582,54,2,B|384:248|420:208,1,85,4|0,0:0|0:0,0:1:0:0:
248,288,231832,6,2,B|274:328|332:320,1,76.4999976654053,0|4,0:0|0:0,0:1:0:0:
168,256,232082,6,2,B|156:308|185:344,1,68,4|0,0:1|0:0,0:1:0:0:
128,168,232332,54,2,L|87:226,1,59.4999981842042,10|4,0:0|0:0,0:1:0:0:
108,92,232582,5,4,0:2:0:0:
240,288,239582,6,0,L|268:380,1,85,8|8,0:1|0:0,0:0:0:0:
268,100,239832,2,0,L|240:8,1,85,4|8,0:0|0:0,0:0:0:0:
72,192,240082,53,4,0:0:0:0:
156,180,240207,1,8,0:0:0:0:
240,196,240332,1,4,0:2:0:0:
324,212,240457,1,8,0:3:0:0:
408,192,240582,2,0,B|420:128|352:80|288:112,1,170,4|0,1:0|0:0,0:0:0:0:
324,212,240957,2,0,B|312:276|380:324|444:292,1,170,2|0,0:2|0:0,0:0:0:0:
488,228,241332,2,0,B|492:184|484:136,1,85,2|0,0:2|0:0,0:0:0:0:
456,56,241582,6,0,L|364:68,1,85,2|2,0:0|0:0,0:0:0:0:
188,72,241832,2,0,L|80:84,1,85,2|2,0:0|0:0,0:0:0:0:
320,144,242082,2,0,L|221:157,1,85,8|2,0:1|0:0,0:0:0:0:
160,200,242332,2,0,L|72:208,1,85,2|2,0:0|0:0,0:0:0:0:
92,316,242582,6,0,B|172:356|256:312,1,170,4|0,0:0|0:0,0:0:0:0:
432,336,242957,2,0,B|468:256|424:152,1,170,2|0,0:2|0:0,0:0:0:0:
352,48,243332,2,0,B|320:80|332:148,1,85,2|0,0:2|0:0,0:0:0:0:
354,238,243582,2,0,B|314:258|266:250,1,85,2|0,0:0|0:0,0:0:0:0:
188,262,243832,2,0,B|228:242|283:253,1,85,2|0,0:0|0:0,0:0:0:0:
350,275,244082,2,0,B|302:279|267:247,1,85,8|0,0:1|0:0,0:0:0:0:
192,225,244332,2,0,B|239:221|275:254,1,85,2|0,0:0|0:0,0:0:0:0:
200,340,244582,54,0,B|100:380|24:288,1,170,4|0,0:0|0:0,0:0:0:0:
16,236,244957,1,2,0:2:0:0:
96,256,245082,2,0,B|104:208|88:160,1,85,8|2,0:1|0:2,0:0:0:0:
36,80,245332,2,0,B|88:92|116:60,1,85,2|0,0:2|0:0,0:0:0:0:
180,132,245582,2,0,B|256:64|344:116,1,170,2|0,0:0|0:0,0:0:0:0:
400,172,245957,1,2,0:0:0:0:
292,332,246082,2,0,B|216:264|276:164,1,170,8|0,0:1|0:0,0:0:0:0:
344,240,246457,1,0,0:0:0:0:
184,304,246582,5,4,0:0:0:0:
92,336,246707,2,0,L|40:288,2,42.5,8|0|0,0:0|0:0|0:0,0:0:0:0:
112,236,246957,1,4,0:0:0:0:
196,200,247082,2,0,B|232:96|136:48,1,170,8|8,0:0|0:0,0:0:0:0:
146,53,247457,1,4,0:0:0:0:
0,232,247582,5,2,0:0:0:0:
80,208,247707,1,2,0:0:0:0:
152,256,247832,2,0,L|360:280,1,170,2|4,0:0|0:0,0:0:0:0:
408,288,248207,1,2,0:0:0:0:
480,240,248332,1,4,0:2:0:0:
480,152,248457,1,2,0:2:0:0:
408,104,248582,54,0,B|324:60|240:120,1,170,4|0,1:0|0:0,0:0:0:0:
176,196,248957,2,0,B|100:276|-4:224,1,170,2|0,0:2|0:0,0:0:0:0:
72,104,249332,1,2,0:2:0:0:
72,104,249582,2,0,B|120:104|152:64,1,85,2|0,0:0|0:0,0:0:0:0:
146,69,249832,2,0,B|176:108|168:160,1,85,2|0,0:0|0:0,0:0:0:0:
169,149,250082,2,2,B|232:168|296:112|268:32,1,170,8|2,0:1|0:1,0:1:0:0:
273,54,250457,1,2,0:2:0:0:
360,208,250582,6,2,B|297:189|233:245|261:325,1,170,2|0,1:0|0:0,0:1:0:0:
168,256,250957,2,2,B|160:324|80:356|28:308,1,170,2|2,0:2|0:2,0:1:0:0:
64,236,251332,2,2,B|72:184|60:140,1,85,2|0,0:2|0:0,0:1:0:0:
60,60,251582,2,0,B|104:48|160:52,1,85,2|8,0:0|0:0,0:0:0:0:
224,216,251832,2,0,B|232:170|217:124,1,85,2|0,0:0|0:0,0:0:0:0:
228,46,252082,2,2,B|320:36|408:44,1,170,8|0,0:1|0:0,0:1:0:0:
398,43,252457,1,2,0:2:0:0:
464,136,252582,6,0,B|504:180|492:264|428:280,1,170,4|0,0:0|0:0,0:0:0:0:
384,208,252957,2,0,B|380:272|296:304|244:252,1,170,2|0,0:2|0:2,0:0:0:0:
264,180,253332,2,0,B|212:216|136:176|144:112,1,170,2|8,0:2|0:1,0:0:0:0:
160,32,253707,1,0,0:0:0:0:
40,192,253832,1,2,0:0:0:0:
256,348,254082,1,8,0:1:0:0:
400,204,254332,53,2,0:2:0:0:
328,244,254457,1,2,0:2:0:0:
380,308,254582,2,0,B|444:336|508:292|496:216,1,170,4|0,0:0|0:0,0:0:0:0:
432,76,254957,2,0,L|252:128,1,170,2|0,0:2|0:0,0:0:0:0:
188,140,255332,2,2,L|204:44,1,85,2|0,0:2|0:1,0:1:0:0:
276,208,255582,2,2,L|280:300,1,85,2|8,0:0|0:0,0:1:0:0:
68,164,255832,2,2,L|88:56,1,85,2|0,0:0|0:0,0:1:0:0:
192,260,256082,2,2,L|184:372,1,85,8|0,0:1|0:0,0:1:0:0:
344,128,256332,2,2,L|332:16,1,85,2|10,0:1|0:1,0:1:0:0:
432,216,256582,6,0,L|420:308,1,85,6|0,1:0|0:0,0:0:0:0:
160,168,256832,1,0,0:0:0:0:
200,92,256957,2,0,B|264:64|328:112|320:180,1,170,2|0,0:2|0:0,0:0:0:0:
300,256,257332,2,0,B|264:288|212:280,1,85,2|0,0:2|0:0,0:0:0:0:
56,192,257582,1,2,0:0:0:0:
56,192,257707,2,2,L|84:24,1,170,8|2,0:0|0:1,0:1:0:0:
152,224,258082,2,2,L|172:116,1,85,8|0,0:1|0:0,0:1:0:0:
248,256,258332,2,0,L|264:148,1,85,2|2,0:2|0:2,0:0:0:0:
276,88,258582,6,2,B|336:56|404:92|408:164,1,170,4|0,0:0|0:0,0:1:0:0:
400,316,258957,2,2,B|364:348|308:336,1,85,2|8,0:2|0:1,0:1:0:0:
244,312,259207,1,2,0:2:0:0:
164,284,259332,2,2,B|72:216|-8:328,1,170,0|2,0:0|0:1,0:1:0:0:
88,344,259707,1,8,0:0:0:0:
180,200,259832,2,2,B|208:164|192:108,1,85,2|0,0:0|0:0,0:1:0:0:
272,240,260082,2,2,B|323:229|340:178,1,85,10|0,3:1|2:0,2:1:0:0:
260,336,260332,2,2,B|306:360|351:332,1,85,2|2,3:1|3:2,2:1:0:0:
440,232,260582,54,0,B|488:188|476:100|404:84,1,170,4|0,0:0|0:0,0:0:0:0:
316,46,260957,2,0,B|268:90|280:178|352:194,1,170,2|0,0:2|0:0,0:0:0:0:
272,240,261332,2,2,B|236:268|172:256,1,85,2|0,0:2|0:0,0:1:0:0:
80,200,261582,2,2,L|72:96,1,85,8|0,0:0|0:0,0:1:0:0:
152,136,261832,2,2,L|124:304,2,170,2|2|2,0:0|0:0|0:1,0:1:0:0:
172,52,262457,1,2,0:1:0:0:
256,76,262582,6,2,B|348:32,2,85,4|8|8,0:0|0:1|0:1,0:1:0:0:
240,160,262957,2,2,L|220:252,2,85,8|8|8,0:1|0:1|0:1,0:1:0:0:
312,272,263332,2,2,B|360:288|400:248,1,85,10|8,0:1|0:1,0:1:0:0:
464,208,263582,5,10,0:1:0:0:
416,136,263707,1,8,0:3:0:0:
344,184,263832,1,8,0:1:0:0:
391,255,263957,1,8,0:1:0:0:
448,144,264082,53,4,0:3:0:0:
352,152,264207,1,8,0:3:0:0:
360,248,264332,1,8,0:3:0:0:
456,248,264457,1,4,0:3:0:0:
336,224,264582,53,4,1:0:0:0:
336,224,264957,2,0,B|368:296|312:360,1,127.5,2|2,0:0|0:0,0:0:0:0:
208,360,265582,1,2,0:0:0:0:
240,96,266332,1,0,0:0:0:0:
160,56,266582,2,0,B|88:40|32:104,2,127.5,2|2|2,0:0|0:0|0:0,0:0:0:0:
264,40,267582,2,0,L|400:48,2,127.5,2|2|2,0:0|0:0|0:0,0:0:0:0:
256,192,268582,6,2,L|256:384,1,191.249994163513,2|0,2:1|0:0,2:1:0:0:
