osu file format v14

[General]
AudioFilename: audio.mp3
AudioLeadIn: 0
PreviewTime: 55308
Countdown: 0
SampleSet: Normal
StackLeniency: 0.7
Mode: 1
LetterboxInBreaks: 0
WidescreenStoryboard: 1

[Editor]
Bookmarks: 1071,6123,11176,13702,23808,33913,44018,54123,56650,76860,88071,89492,94544,99597
DistanceSpacing: 0.9
BeatDivisor: 4
GridSize: 32
TimelineZoom: 2.4

[Metadata]
Title:Winter Diamond (Short Ver.)
TitleUnicode:Winter Diamond (Short Ver.)
Artist:Rita
ArtistUnicode:Rita
Creator:Slyme
Version:Kantan
Source:見上げてごらん、夜空の星を
Tags:pulltop opening eroge visual novel japanese video game miagete goran yozora no hoshi o night sky full of stars jpop j-pop mari_0hara mari 0hara female vocals vocalist version videogame vgm music pop
BeatmapID:4336214
BeatmapSetID:2072038

[Difficulty]
HPDrainRate:8
CircleSize:5
OverallDifficulty:3
ApproachRate:5
SliderMultiplier:1.4
SliderTickRate:1

[Events]
//Background and Video events
Video,-207,"output.mp4"
0,0,"bg7.jpg",0,100
//Break Periods
//Storyboard Layer 0 (Background)
//Storyboard Layer 1 (Fail)
//Storyboard Layer 2 (Pass)
//Storyboard Layer 3 (Foreground)
//Storyboard Layer 4 (Overlay)
//Storyboard Sound Samples

[TimingPoints]
-192,315.789473684211,4,1,0,60,1,0
1061,-100,4,1,0,60,0,0
5719,-100,4,1,0,62,0,0
5798,-100,4,1,0,63,0,0
5876,-100,4,1,0,65,0,0
5955,-100,4,1,0,67,0,0
6034,-100,4,1,0,68,0,0
6113,-100,4,1,0,90,0,0
6429,-100,4,1,0,80,0,0
11166,-100,4,1,0,90,0,0
11482,-100,4,1,0,60,0,0
12745,-100,4,1,0,60,0,0
12903,-100,4,1,0,62,0,0
12982,-100,4,1,0,63,0,0
13061,-100,4,1,0,63,0,0
13219,-100,4,1,0,65,0,0
13298,-100,4,1,0,66,0,0
13376,-100,4,1,0,67,0,0
13455,-100,4,1,0,67,0,0
13534,-100,4,1,0,68,0,0
13613,-100,4,1,0,69,0,0
13692,-100,4,1,0,70,0,0
23798,-100,4,1,0,90,0,0
24113,-100,4,1,0,70,0,0
26324,-100,4,1,0,90,0,0
26640,-100,4,1,0,70,0,0
27271,-100,4,1,0,90,0,0
27587,-100,4,1,0,70,0,0
28850,-100,4,1,0,90,0,0
29166,-100,4,1,0,70,0,0
31376,-100,4,1,0,90,0,0
31692,-100,4,1,0,70,0,0
32797,-100,4,1,0,68,0,0
32955,-100,4,1,0,65,0,0
33113,-100,4,1,0,63,0,0
33192,-100,4,1,0,61,0,0
33271,-100,4,1,0,60,0,0
33429,-100,4,1,0,58,0,0
33508,-100,4,1,0,56,0,0
33587,-100,4,1,0,55,0,0
33666,-100,4,1,0,54,0,0
33745,-100,4,1,0,53,0,0
33824,-100,4,1,0,51,0,0
33903,-100,4,1,0,70,0,0
38955,-100,4,1,0,80,0,0
39113,-100,4,1,0,70,0,0
44008,-100,4,1,0,90,0,0
44324,-100,4,1,0,70,0,0
46534,-100,4,1,0,90,0,0
46850,-100,4,1,0,70,0,0
47798,-100,4,1,0,90,0,0
47955,-100,4,1,0,70,0,0
49061,-100,4,1,0,90,0,0
49376,-100,4,1,0,70,0,0
50324,-100,4,1,0,90,0,0
50640,-100,4,1,0,80,0,0
51587,-100,4,1,0,90,0,0
51903,-100,4,1,0,90,0,0
52850,-100,4,1,0,90,0,0
53482,-100,4,1,0,70,0,0
53798,-100,4,1,0,60,0,0
54113,-100,4,1,0,70,0,0
54271,-100,4,1,0,50,0,0
55376,-100,4,1,0,90,0,0
55534,-100,4,1,0,70,0,0
55613,-100,4,1,0,71,0,0
55692,-100,4,1,0,73,0,0
55850,-100,4,1,0,76,0,0
55929,-100,4,1,0,77,0,0
56008,-100,4,1,0,79,0,0
56087,-100,4,1,0,80,0,0
56166,-100,4,1,0,81,0,0
56245,-100,4,1,0,83,0,0
56324,-100,4,1,0,84,0,0
56403,-100,4,1,0,86,0,0
56482,-100,4,1,0,87,0,0
56561,-100,4,1,0,89,0,0
56650,-100,4,1,0,90,0,1
56798,-100,4,1,0,90,0,1
61692,-100,4,1,0,90,0,1
61850,-100,4,1,0,90,0,1
64692,-100,4,1,0,90,0,1
64771,-100,4,1,0,90,0,1
64850,-100,4,1,0,90,0,1
64929,-100,4,1,0,90,0,1
65008,-100,4,1,0,90,0,1
65087,-100,4,1,0,90,0,1
65166,-100,4,1,0,90,0,1
65245,-100,4,1,0,90,0,1
65324,-100,4,1,0,90,0,1
65403,-100,4,1,0,90,0,1
65482,-100,4,1,0,90,0,1
66113,-100,4,1,0,90,0,1
66192,-100,4,1,0,90,0,1
66271,-100,4,1,0,90,0,1
66350,-100,4,1,0,90,0,1
66429,-100,4,1,0,90,0,1
66508,-100,4,1,0,90,0,1
66587,-100,4,1,0,90,0,1
66666,-100,4,1,0,90,0,1
66745,-100,4,1,0,90,0,1
66903,-100,4,1,0,90,0,1
71798,-100,4,1,0,90,0,1
71955,-100,4,1,0,90,0,1
74324,-100,4,1,0,90,0,1
74640,-100,4,1,0,90,0,1
75587,-100,4,1,0,90,0,1
75904,-100,4,1,0,90,0,1
76061,-100,4,1,0,90,0,1
76140,-100,4,1,0,90,0,1
76219,-100,4,1,0,90,0,1
76298,-100,4,1,0,90,0,1
76376,-100,4,1,0,90,0,1
76455,-100,4,1,0,90,0,1
76534,-100,4,1,0,90,0,1
76613,-100,4,1,0,90,0,1
76692,-100,4,1,0,90,0,1
76771,-100,4,1,0,90,0,1
76850,-100,4,1,0,90,0,1
77166,-100,4,1,0,90,0,1
79376,-100,4,1,0,90,0,1
79692,-100,4,1,0,90,0,1
81903,-100,4,1,0,90,0,1
82219,-100,4,1,0,90,0,1
83166,-100,4,1,0,90,0,1
83482,-100,4,1,0,90,0,1
83561,-100,4,1,0,90,0,1
83640,-100,4,1,0,90,0,1
83719,-100,4,1,0,90,0,1
83798,-100,4,1,0,90,0,1
83876,-100,4,1,0,90,0,1
83956,-100,4,1,0,90,0,1
84035,-100,4,1,0,90,0,1
84114,-100,4,1,0,90,0,1
84272,-100,4,1,0,90,0,1
84429,-100,4,1,0,90,0,1
84745,-100,4,1,0,90,0,1
85692,-100,4,1,0,90,0,1
86482,-100,4,1,0,90,0,1
86561,-100,4,1,0,90,0,1
86640,-100,4,1,0,90,0,1
86719,-100,4,1,0,90,0,1
86798,-100,4,1,0,90,0,1
86876,-100,4,1,0,90,0,1
86955,-100,4,1,0,90,0,1
87271,-100,4,1,0,90,0,1
88061,-100,4,1,0,90,0,1
88544,-100,4,1,0,90,0,0
88850,-100,4,1,0,80,0,0
89492,-100,4,1,0,90,0,1
89798,-100,4,1,0,90,0,1
92008,-100,4,1,0,90,0,1
92324,-100,4,1,0,90,0,1
93271,-100,4,1,0,90,0,1
93429,-100,4,1,0,90,0,1
94544,-100,4,1,0,90,0,0
94850,-100,4,1,0,50,0,0
95166,-100,4,1,0,53,0,0
95482,-100,4,1,0,55,0,0
95798,-100,4,1,0,58,0,0
96113,-100,4,1,0,61,0,0
96429,-100,4,1,0,63,0,0
96745,-100,4,1,0,66,0,0
97061,-100,4,1,0,69,0,0
97376,-100,4,1,0,71,0,0
97692,-100,4,1,0,74,0,0
98008,-100,4,1,0,77,0,0
98324,-100,4,1,0,79,0,0
98640,-100,4,1,0,82,0,0
98955,-100,4,1,0,85,0,0
99271,-100,4,1,0,87,0,0
99587,-100,4,1,0,90,0,0

[HitObjects]
64,320,6124,5,4,0:0:0:0:
256,192,6597,1,8,0:0:0:0:
256,192,7071,1,0,0:0:0:0:
256,192,7544,1,8,0:0:0:0:
256,192,8018,1,8,0:0:0:0:
256,192,8334,5,8,0:0:0:0:
256,192,8650,1,0,0:0:0:0:
256,192,9123,1,8,0:0:0:0:
256,192,9597,1,0,0:0:0:0:
256,192,10071,1,8,0:0:0:0:
256,192,10544,1,8,0:0:0:0:
256,192,10860,1,0,0:0:0:0:
448,320,11176,1,12,0:0:0:0:
256,192,11492,12,0,13386,0:0:0:0:
448,320,13703,5,12,0:0:0:0:
256,192,14334,1,0,0:0:0:0:
256,192,14808,1,8,0:0:0:0:
256,192,15123,1,8,0:0:0:0:
256,192,15439,1,0,0:0:0:0:
256,192,16229,1,8,0:0:0:0:
256,192,16860,1,0,0:0:0:0:
256,192,18755,1,8,0:0:0:0:
256,192,19387,1,0,0:0:0:0:
256,192,19861,1,8,0:0:0:0:
256,192,20176,1,0,0:0:0:0:
256,192,20492,1,8,0:0:0:0:
256,192,21282,1,0,0:0:0:0:
256,192,21913,1,8,0:0:0:0:
261,192,23176,1,0,0:0:0:0:
448,320,23808,1,12,0:0:0:0:
256,192,24123,1,0,0:0:0:0:
256,192,24755,1,8,0:0:0:0:
256,192,25386,1,0,0:0:0:0:
256,192,25702,1,8,0:0:0:0:
448,320,26334,1,12,0:0:0:0:
256,192,26965,1,8,0:0:0:0:
64,320,27282,1,4,0:0:0:0:
256,192,27913,1,8,0:0:0:0:
64,320,28861,1,4,0:0:0:0:
256,192,29334,1,8,0:0:0:0:
256,192,29650,1,0,0:0:0:0:
256,192,30123,1,8,0:0:0:0:
256,192,31071,1,8,0:0:0:0:
64,320,31387,1,4,0:0:0:0:
256,192,31860,1,0,0:0:0:0:
256,192,32176,1,8,0:0:0:0:
256,192,32492,1,0,0:0:0:0:
448,320,33913,1,12,0:0:0:0:
256,192,34545,1,8,0:0:0:0:
256,192,35019,1,0,0:0:0:0:
256,192,35334,1,8,0:0:0:0:
256,192,35650,1,0,0:0:0:0:
256,192,36440,1,8,0:0:0:0:
256,192,37071,1,0,0:0:0:0:
448,320,38966,1,12,0:0:0:0:
256,192,39598,1,0,0:0:0:0:
256,192,40072,1,0,0:0:0:0:
256,192,40387,1,0,0:0:0:0:
256,192,40703,1,8,0:0:0:0:
256,192,41493,1,0,0:0:0:0:
256,192,42124,1,8,0:0:0:0:
262,195,43386,1,0,0:0:0:0:
448,320,44019,1,12,0:0:0:0:
256,192,44334,1,0,0:0:0:0:
256,192,44966,1,0,0:0:0:0:
256,192,45281,1,8,0:0:0:0:
256,192,45913,1,0,0:0:0:0:
64,320,46545,1,4,0:0:0:0:
448,64,46861,1,8,0:0:0:0:
64,64,47176,1,0,0:0:0:0:
448,320,47808,1,12,0:0:0:0:
64,320,49071,1,4,0:0:0:0:
256,192,49545,1,8,0:0:0:0:
256,192,49861,1,0,0:0:0:0:
64,320,50334,1,4,0:0:0:0:
256,192,50650,1,8,0:0:0:0:
256,192,50965,1,0,0:0:0:0:
448,320,51597,1,12,0:0:0:0:
64,320,52861,1,4,0:0:0:0:
64,320,53176,1,4,0:0:0:0:
448,320,54124,1,12,0:0:0:0:
64,320,55387,1,4,0:0:0:0:
448,320,56650,1,12,0:0:0:0:
256,192,56965,1,0,0:0:0:0:
256,192,57281,1,8,0:0:0:0:
256,192,57755,1,0,0:0:0:0:
256,192,58071,1,0,0:0:0:0:
256,192,58386,1,8,0:0:0:0:
256,192,58702,1,8,0:0:0:0:
256,192,59176,1,0,0:0:0:0:
256,192,60123,1,8,0:0:0:0:
261,188,60439,1,0,0:0:0:0:
256,192,61071,1,0,0:0:0:0:
448,320,61703,1,12,0:0:0:0:
256,192,62018,1,0,0:0:0:0:
256,192,62334,1,8,0:0:0:0:
256,192,62808,1,0,0:0:0:0:
256,192,63123,1,0,0:0:0:0:
256,192,63439,1,8,0:0:0:0:
256,192,63755,1,0,0:0:0:0:
256,192,64229,1,8,0:0:0:0:
256,192,65176,1,8,0:0:0:0:
64,320,65492,1,4,0:0:0:0:
448,320,65966,1,8,0:0:0:0:
256,192,66439,1,8,0:0:0:0:
64,320,66755,1,4,0:0:0:0:
256,192,67070,1,0,0:0:0:0:
256,192,67386,1,8,0:0:0:0:
256,192,67860,1,0,0:0:0:0:
256,192,68176,1,0,0:0:0:0:
256,192,68491,1,0,0:0:0:0:
256,192,68807,1,8,0:0:0:0:
256,192,69281,1,0,0:0:0:0:
256,192,70228,1,8,0:0:0:0:
256,192,70544,1,0,0:0:0:0:
256,192,71176,1,8,0:0:0:0:
64,320,71808,1,4,0:0:0:0:
256,192,72123,1,8,0:0:0:0:
256,192,72439,1,0,0:0:0:0:
256,192,72913,1,0,0:0:0:0:
256,192,73228,1,0,0:0:0:0:
256,192,73544,1,8,0:0:0:0:
256,192,73860,1,0,0:0:0:0:
448,320,74334,1,12,0:0:0:0:
256,192,75281,1,8,0:0:0:0:
64,320,75597,1,4,0:0:0:0:
256,192,76229,1,0,0:0:0:0:
256,192,76544,1,0,0:0:0:0:
448,320,76861,1,12,0:0:0:0:
256,192,77334,1,0,0:0:0:0:
256,192,77808,1,8,0:0:0:0:
256,192,78123,1,0,0:0:0:0:
256,192,78597,1,8,0:0:0:0:
256,192,79071,1,0,0:0:0:0:
448,320,79387,1,12,0:0:0:0:
256,192,79860,1,0,0:0:0:0:
256,192,80334,1,8,0:0:0:0:
256,192,80650,1,0,0:0:0:0:
256,192,81123,1,8,0:0:0:0:
256,192,81597,1,0,0:0:0:0:
448,320,81913,1,12,0:0:0:0:
256,192,82386,1,0,0:0:0:0:
256,192,82860,1,8,0:0:0:0:
448,320,83176,1,12,0:0:0:0:
64,320,84440,1,4,0:0:0:0:
256,192,84913,1,8,0:0:0:0:
256,192,85386,1,0,0:0:0:0:
64,320,85703,1,4,0:0:0:0:
256,192,86176,1,8,0:0:0:0:
256,192,86492,1,0,0:0:0:0:
64,320,86966,1,4,0:0:0:0:
256,192,87439,1,0,0:0:0:0:
448,320,88071,1,12,0:0:0:0:
448,320,88545,1,12,0:0:0:0:
64,320,89492,1,4,0:0:0:0:
256,192,90123,1,8,0:0:0:0:
256,192,90439,1,0,0:0:0:0:
256,192,90755,1,8,0:0:0:0:
256,192,91229,1,8,0:0:0:0:
256,192,91702,1,0,0:0:0:0:
448,320,92019,1,12,0:0:0:0:
256,192,92492,1,8,0:0:0:0:
256,192,92965,1,8,0:0:0:0:
64,320,93282,1,4,0:0:0:0:
448,320,94545,1,12,0:0:0:0:
256,192,94860,12,8,99597,0:0:0:0:
