osu file format v14

[General]
AudioFilename: audio.mp3
AudioLeadIn: 0
PreviewTime: 55306
Countdown: 0
SampleSet: Soft
StackLeniency: 0.7
Mode: 2
LetterboxInBreaks: 0
WidescreenStoryboard: 1

[Editor]
DistanceSpacing: 1.3
BeatDivisor: 16
GridSize: 32
TimelineZoom: 4.899997

[Metadata]
Title:Winter Diamond (Short Ver.)
TitleUnicode:Winter Diamond (Short Ver.)
Artist:Rita
ArtistUnicode:Rita
Creator:-Joakh
Version:Rain
Source:見上げてごらん、夜空の星を
Tags:pulltop opening eroge visual novel japanese video game miagete goran yozora no hoshi o night sky full of stars Greaper -Luminate Benita Benny- BennyBananas Xinely
BeatmapID:2629447
BeatmapSetID:1264951

[Difficulty]
HPDrainRate:6
CircleSize:4
OverallDifficulty:9
ApproachRate:9
SliderMultiplier:1.9
SliderTickRate:2

[Events]
//Background and Video events
0,0,"bg3.jpg",0,0
//Break Periods
//Storyboard Layer 0 (Background)
//Storyboard Layer 1 (Fail)
//Storyboard Layer 2 (Pass)
//Storyboard Layer 3 (Foreground)
//Storyboard Layer 4 (Overlay)
//Storyboard Sound Samples

[TimingPoints]
1066,315.789473684211,4,2,1,60,1,0
6118,-100,4,2,1,70,0,0
13697,-100,4,2,1,65,0,0
23802,-100,4,2,1,65,0,0
33908,-100,4,2,1,70,0,0
56644,-100,4,2,1,80,0,1
88539,-100,4,2,1,80,0,0
99750,-100,4,2,1,5,0,0

[Colours]
Combo1 : 235,37,77
Combo2 : 252,123,7
Combo3 : 56,113,245
Combo4 : 244,220,174

[HitObjects]
159,208,1066,6,0,L|39:207,2,95,2|0|2,3:0|0:0|3:0,0:0:0:0:
314,193,1539,2,0,L|428:193,2,95,2|2|0,0:0|3:0|0:0,0:0:0:0:
162,237,2013,2,0,P|145:280|163:323,1,95,2|2,3:0|0:0,0:0:0:0:
297,319,2329,1,2,3:0:0:0:
167,287,2487,2,0,L|301:283,2,95,0|2|2,0:0|3:0|0:0,0:0:0:0:
326,255,2960,6,0,P|346:209|311:166,1,95,2|0,3:0|0:0,0:0:0:0:
191,119,3276,2,0,L|73:116,1,95,2|2,3:0|0:0,0:0:0:0:
349,121,3592,2,0,P|417:171|357:230,1,190,2|2,3:0|3:0,0:0:0:0:
203,353,4066,6,0,P|139:300|206:252,1,190,2|0,0:0|0:0,0:0:0:0:
347,246,4539,2,0,L|453:246,2,95,2|2|2,3:0|0:0|3:0,0:0:0:0:
195,118,5013,1,0,0:0:0:0:
195,118,5171,2,0,L|289:124,1,95,2|0,3:0|0:0,0:0:0:0:
423,212,5487,6,0,L|433:306,1,95,2|8,3:0|0:0,0:0:0:0:
366,309,5723,1,8,0:0:0:0:
212,306,5802,1,8,0:0:0:0:
165,305,5880,1,8,0:0:0:0:
134,271,5959,1,8,0:0:0:0:
135,225,6038,1,8,0:0:0:0:
331,179,6118,6,0,P|398:227|338:284,1,190,6|8,0:0|0:0,0:0:0:0:
199,348,6592,1,0,3:0:0:0:
198,300,6670,1,0,3:0:0:0:
198,253,6749,1,0,3:0:0:0:
334,183,6908,1,0,3:0:0:0:
109,185,7066,2,0,P|83:222|107:260,1,95,8|0,0:0|0:0,0:0:0:0:
263,258,7381,6,0,L|364:258,2,95,0|2|8,3:0|0:0|0:0,0:0:0:0:
120,255,7855,1,0,3:0:0:0:
263,258,8013,2,0,L|385:258,1,95,0|0,3:0|3:0,0:0:0:0:
214,115,8329,2,0,L|103:114,1,95,8|0,0:0|0:0,0:0:0:0:
350,269,8644,6,0,P|255:259|162:273,1,190,0|8,3:0|0:0,0:0:0:0:
302,318,9118,2,0,L|302:196,1,95,0|0,3:0|3:0,0:0:0:0:
168,224,9434,1,0,3:0:0:0:
397,190,9592,2,0,P|410:235|389:277,1,95,8|0,0:0|0:0,0:0:0:0:
248,252,9908,6,0,L|122:250,2,95,0|2|8,3:0|0:0|0:0,0:0:0:0:
392,227,10381,1,0,3:0:0:0:
248,252,10539,2,0,L|146:250,1,95,0|0,3:0|3:0,0:0:0:0:
292,232,10855,2,0,L|292:350,1,95,8|0,0:0|0:0,0:0:0:0:
44,330,11171,6,0,P|134:301|229:306,1,190,6|0,0:0|3:0,0:0:0:0:
352,326,11644,1,2,0:0:0:0:
208,344,11802,2,0,P|195:299|211:256,1,95
344,264,12118,2,0,L|249:258,1,95,8|0,3:0|0:0,0:0:0:0:
90,269,12434,6,0,P|71:228|92:187,1,95,2|8,3:0|3:0,0:0:0:0:
228,114,12750,2,0,L|333:124,1,95,2|8,3:0|0:0,0:0:0:0:
271,122,12987,1,8,0:0:0:0:
93,105,13066,2,0,P|72:147|87:191,1,95,8|8,0:0|0:0,0:0:0:0:
154,186,13302,1,8,0:0:0:0:
369,293,13381,5,10,0:0:0:0:
426,281,13460,1,8,0:0:0:0:
413,224,13539,1,10,0:0:0:0:
357,210,13618,1,8,0:0:0:0:
192,300,13697,6,0,L|97:298,1,95,6|2,0:0|0:0,0:0:0:0:
203,299,14013,2,0,L|297:293,1,95,8|2,0:0|0:0,0:0:0:0:
169,129,14329,2,0,P|111:193|173:251,1,190,2|8,3:0|0:0,0:0:0:0:
399,147,14802,2,0,P|412:191|398:236,1,95,2|0,0:0|3:0,0:0:0:0:
266,119,15118,6,0,L|153:116,1,95,2|8,3:0|0:0,0:0:0:0:
310,134,15434,2,0,P|324:180|321:227,1,95,2|0,0:0|3:0,0:0:0:0:
190,261,15750,2,0,L|87:259,2,95,2|8|2,3:0|0:0|0:0,0:0:0:0:
429,287,16223,6,0,P|341:255|247:260,1,190,2|8,3:0|0:0,0:0:0:0:
103,275,16697,1,0,3:0:0:0:
247,260,16855,2,0,P|327:221|314:133,1,190,2|8,3:0|0:0,0:0:0:0:
185,126,17329,1,0,0:0:0:0:
63,146,17487,2,0,P|41:187|59:229,1,95,0|0,3:0|0:0,0:0:0:0:
197,253,17802,5,8,0:0:0:0:
341,221,17960,2,0,L|391:218,2,47.5,0|0|0,3:0|3:0|3:0,0:0:0:0:
197,253,18276,1,0,3:0:0:0:
363,211,18434,2,0,P|369:165|364:118,1,95,8|2,0:0|0:0,0:0:0:0:
94,207,18750,6,0,P|80:253|91:299,1,95,6|2,3:0|0:0,0:0:0:0:
225,348,19066,2,0,P|236:301|224:252,1,95,8|0,0:0|3:0,0:0:0:0:
82,324,19381,2,0,P|172:299|264:319,1,190,2|8,3:0|0:0,0:0:0:0:
120,266,19855,6,0,L|214:266,1,95,2|0,0:0|3:0,0:0:0:0:
349,231,20171,2,0,P|357:184|348:137,1,95,2|8,0:0|0:0,0:0:0:0:
222,116,20487,2,0,L|336:123,1,95,2|0,0:0|3:0,0:0:0:0:
159,214,20802,2,0,L|57:214,2,95,2|8|2,3:0|0:0|0:0,0:0:0:0:
413,191,21276,6,0,P|480:238|414:286,1,190,2|8,3:0|0:0,0:0:0:0:
284,275,21750,2,0,L|168:277,1,95,0|0,3:0|3:0,0:0:0:0:
333,212,22066,1,0,3:0:0:0:
200,257,22223,2,0,L|90:257,1,95,8|0,0:0|0:0,0:0:0:0:
223,120,22539,6,0,L|330:123,1,95,0|0,3:0|0:0,0:0:0:0:
166,150,22855,2,0,P|151:195|168:248,1,95,8|0,0:0|0:0,0:0:0:0:
387,229,23171,2,0,L|383:336,1,95,2|0,3:0|3:0,0:0:0:0:
254,331,23487,2,0,L|145:332,1,95,8|0,0:0|0:0,0:0:0:0:
443,272,23802,6,0,P|348:259|254:259,1,190,6|8,0:0|0:0,0:0:0:0:
367,297,24276,2,0,L|430:296,2,47.5,0|0|0,3:0|3:0|3:0,0:0:0:0:
242,300,24592,1,0,0:0:0:0:
367,297,24750,1,8,0:0:0:0:
133,212,24908,2,0,P|69:160|137:112,1,190,2|0,0:0|3:0,0:0:0:0:
271,126,25381,6,0,L|366:126,1,95,8|0,0:0|0:0,0:0:0:0:
108,324,25697,2,0,P|97:277|102:230,1,95,2|0,3:0|0:0,0:0:0:0:
222,334,26013,2,0,L|127:322,1,95,8|0,0:0|0:0,0:0:0:0:
357,235,26329,6,0,P|414:174|345:127,1,190,6|8,0:0|0:0,0:0:0:0:
205,129,26802,1,0,3:0:0:0:
343,126,26961,2,0,P|357:171|339:219,1,95,2|0,3:0|0:0,0:0:0:0:
102,220,27276,2,0,L|102:322,1,95,12|0,0:0|0:0,0:0:0:0:
218,315,27592,6,0,L|320:312,1,95,0|0,3:0|3:0,0:0:0:0:
85,123,27908,2,0,L|189:125,1,95,10|0,0:0|0:0,0:0:0:0:
313,122,28223,1,0,3:0:0:0:
179,124,28381,2,0,L|368:119,1,190,2|0,0:0|0:0,0:0:0:0:
94,304,28855,6,0,P|178:265|272:274,1,190,6|8,0:0|0:0,0:0:0:0:
155,341,29329,2,0,L|60:341,2,95,2|0|2,0:0|3:0|3:0,0:0:0:0:
57,284,29802,2,0,L|151:283,1,95,8|0,0:0|0:0,0:0:0:0:
405,265,30118,6,0,P|466:209|396:165,1,190,0|8,3:0|0:0,0:0:0:0:
282,126,30592,1,0,0:0:0:0:
141,187,30750,2,0,L|141:286,1,95,0|0,3:0|3:0,0:0:0:0:
270,288,31066,2,0,L|394:283,1,95,8|0,0:0|0:0,0:0:0:0:
103,282,31381,6,0,P|192:252|286:259,1,190,6|8,0:0|0:0,0:0:0:0:
182,322,31855,1,0,3:0:0:0:
119,321,31934,2,0,L|123:244,1,47.5,0|0,3:0|3:0,0:0:0:0:
261,266,32171,1,2,0:0:0:0:
112,259,32329,2,0,L|250:263,1,95,8|0,0:0|0:0,0:0:0:0:
433,214,32644,6,0,P|458:253|450:299,1,95,0|8,3:0|0:0,0:0:0:0:
380,306,32881,1,8,0:0:0:0:
233,327,32960,2,0,L|138:326,1,95,8|8,0:0|0:0,0:0:0:0:
190,329,33197,1,8,0:0:0:0:
329,317,33276,1,8,0:0:0:0:
470,287,33434,6,0,L|422:286,1,47.5,8|8,0:0|0:0,0:0:0:0:
243,269,33592,1,10,0:0:0:0:
203,275,33671,1,8,0:0:0:0:
243,269,33750,1,10,0:0:0:0:
297,262,33829,1,8,0:0:0:0:
105,178,33908,6,0,L|105:284,1,95,6|2,0:0|0:0,0:0:0:0:
229,272,34223,2,0,L|330:271,1,95,8|2,0:0|0:0,0:0:0:0:
177,245,34539,2,0,P|91:272|81:364,1,190,2|8,3:0|0:0,0:0:0:0:
224,344,35013,2,0,L|343:343,1,95,2|0,0:0|3:0,0:0:0:0:
437,299,35329,6,0,L|336:300,1,95,2|8,0:0|0:0,0:0:0:0:
471,255,35644,2,0,P|497:220|466:189,1,95,2|0,0:0|3:0,0:0:0:0:
320,271,35960,2,0,L|222:270,2,95,2|8|2,3:0|0:0|0:0,0:0:0:0:
94,202,36434,6,0,P|32:259|97:313,1,190,0|8,3:0|0:0,0:0:0:0:
245,312,36908,1,0,3:0:0:0:
116,305,37066,2,0,P|195:256|288:266,1,190,2|8,3:0|0:0,0:0:0:0:
414,298,37539,1,0,0:0:0:0:
260,296,37697,6,0,L|155:296,2,95,0|0|8,3:0|0:0|0:0,0:0:0:0:
393,305,38171,1,0,3:0:0:0:
386,270,38250,1,0,3:0:0:0:
379,236,38329,1,0,3:0:0:0:
236,244,38487,1,0,3:0:0:0:
367,221,38644,2,0,P|385:179|360:140,1,95,8|2,0:0|0:0,0:0:0:0:
97,218,38960,6,0,P|79:261|101:308,1,95,6|2,3:0|0:0,0:0:0:0:
209,300,39276,2,0,L|317:298,1,95,8|0,0:0|3:0,0:0:0:0:
159,252,39592,2,0,P|140:208|159:164,1,95,2|0,3:0|0:0,0:0:0:0:
306,172,39908,1,8,0:0:0:0:
156,166,40066,6,0,L|40:167,1,95,2|0,0:0|3:0,0:0:0:0:
188,262,40381,2,0,L|299:262,1,95,2|8,0:0|0:0,0:0:0:0:
135,259,40697,2,0,L|253:259,1,95,2|0,3:0|3:0,0:0:0:0:
370,191,41013,1,2,3:0:0:0:
215,262,41171,2,0,P|197:306|216:348,1,95,0|2,0:0|0:0,0:0:0:0:
460,323,41487,6,0,P|365:312|272:329,1,190,2|8,3:0|0:0,0:0:0:0:
273,253,41960,1,0,3:0:0:0:
396,241,42119,2,0,L|281:241,1,95,0|0,3:0|3:0,0:0:0:0:
167,293,42434,2,0,L|265:296,1,95,8|0,0:0|0:0,0:0:0:0:
395,200,42750,6,0,L|394:96,1,95,0|0,3:0|0:0,0:0:0:0:
275,125,43066,2,0,L|178:103,1,95,8|8,0:0|0:0,0:0:0:0:
327,155,43381,2,0,L|449:154,1,95,10|8,0:0|0:0,0:0:0:0:
369,155,43618,1,8,0:0:0:0:
150,225,43697,1,10,0:0:0:0:
94,212,43776,1,8,0:0:0:0:
108,158,43855,1,8,0:0:0:0:
167,158,43934,1,8,0:0:0:0:
334,273,44013,6,0,P|396:214|322:181,1,190,6|8,0:0|0:0,0:0:0:0:
190,265,44487,2,0,L|66:268,2,95,0|0|0,3:0|3:0|3:0,0:0:0:0:
343,179,44960,1,8,0:0:0:0:
56,220,45118,6,0,P|46:266|62:320,1,95,2|0,0:0|3:0,0:0:0:0:
170,309,45434,1,0,3:0:0:0:
423,298,45592,2,0,P|444:257|420:218,1,95,8|0,0:0|0:0,0:0:0:0:
267,262,45908,2,0,L|172:261,1,95,2|0,3:0|3:0,0:0:0:0:
431,135,46223,2,0,P|449:178|440:224,1,95,8|0,0:0|0:0,0:0:0:0:
157,274,46539,6,0,P|250:260|345:266,1,190,6|8,0:0|0:0,0:0:0:0:
231,291,47013,1,0,3:0:0:0:
110,288,47171,2,0,L|110:167,1,95,2|0,3:0|3:0,0:0:0:0:
231,291,47487,2,0,L|347:289,1,95,8|0,0:0|0:0,0:0:0:0:
35,227,47802,6,0,P|41:317|125:349,1,190,6|8,0:0|0:0,0:0:0:0:
254,333,48276,1,0,0:0:0:0:
401,314,48434,2,0,P|410:267|392:221,1,95,0|2,3:0|0:0,0:0:0:0:
154,228,48750,2,0,L|25:223,1,95,8|0,0:0|0:0,0:0:0:0:
328,189,49066,6,0,P|391:243|327:297,1,190,6|8,3:2|0:0,0:0:0:0:
184,299,49539,2,0,L|102:298,2,47.5,0|0|0,3:0|3:0|3:0,0:0:0:0:
317,296,49855,1,2,3:0:0:0:
169,273,50013,2,0,L|51:277,1,95,8|0,0:0|0:0,0:0:0:0:
385,227,50329,6,0,P|405:186|379:149,1,95,6|0,0:0|0:0,0:0:0:0:
241,103,50644,2,0,L|127:103,1,95,8|0,0:0|0:0,0:0:0:0:
375,308,50960,2,0,L|388:214,1,95,2|0,3:0|3:0,0:0:0:0:
218,265,51276,2,0,L|113:265,1,95,8|0,0:0|0:0,0:0:0:0:
407,334,51592,6,0,P|424:290|405:243,1,95,4|0,0:0|0:0,0:0:0:0:
252,262,51908,1,8,0:0:0:0:
389,246,52066,2,0,L|442:246,2,47.5,8|8|8,0:0|0:0|0:0,0:0:0:0:
153,260,52381,2,0,L|211:258,1,47.5,8|8,0:0|0:0,0:0:0:0:
344,252,52539,1,8,0:0:0:0:
401,234,52618,1,8,0:0:0:0:
382,172,52697,1,8,0:0:0:0:
318,166,52776,1,8,0:0:0:0:
120,284,52855,6,0,P|105:239|119:194,1,95,8|4,0:0|0:0,0:0:0:0:
405,197,53171,1,12,0:0:0:0:
212,346,53487,6,0,L|45:252,1,190,2|2,0:0|0:0,0:0:0:0:
426,244,54118,1,4,0:0:0:0:
311,248,54276,1,0,0:0:0:0:
197,256,54434,1,2,0:0:0:0:
314,253,54592,6,0,L|422:258,1,95,2|2,0:0|0:0,0:0:0:0:
314,345,54908,1,2,0:0:0:0:
193,350,55066,2,0,L|98:350,1,95,2|2,0:0|0:0,0:0:0:0:
346,212,55381,6,0,L|448:210,1,95,12|8,0:0|0:0,0:0:0:0:
403,211,55618,1,8,0:0:0:0:
217,281,55697,2,0,L|97:285,1,95,8|8,0:0|0:0,0:0:0:0:
175,285,55934,1,8,0:0:0:0:
367,186,56013,5,4,0:0:0:0:
425,169,56092,1,0,0:0:0:0:
408,119,56171,1,8,0:0:0:0:
353,121,56250,1,0,0:0:0:0:
201,113,56329,2,0,L|138:101,1,47.5,8|8,0:0|0:0,0:0:0:0:
353,121,56487,2,0,L|412:108,1,47.5,8|8,0:0|0:0,0:0:0:0:
217,295,56644,6,0,L|122:294,1,95,6|2,0:0|0:0,0:0:0:0:
398,295,56960,2,0,P|414:250|397:207,1,95,8|0,0:0|3:0,0:0:0:0:
237,101,57276,2,0,L|136:98,2,95,2|0|8,3:0|3:0|0:0,0:0:0:0:
14,277,57750,6,0,P|104:247|198:256,1,190,2|2,3:0|0:0,0:0:0:0:
341,259,58223,1,8,0:0:0:0:
186,266,58381,2,0,P|165:306|186:350,1,95,2|0,3:0|3:0,0:0:0:0:
336,348,58697,2,0,L|440:348,2,95,2|8|0,0:0|0:0|0:0,0:0:0:0:
97,133,59171,6,0,P|191:116|284:131,1,190,2|8,3:0|0:0,0:0:0:0:
179,50,59644,1,0,3:0:0:0:
117,51,59723,2,0,L|117:98,1,47.5,0|0,3:0|3:0,0:0:0:0:
263,116,59960,2,0,L|358:147,1,95,0|8,3:0|0:0,0:0:0:0:
133,143,60276,6,0,P|71:199|137:249,1,190,2|0,0:0|0:0,0:0:0:0:
289,251,60750,2,0,L|384:251,1,95,8|0,0:0|3:0,0:0:0:0:
167,112,61066,2,0,L|288:116,1,95,2|0,3:0|3:0,0:0:0:0:
399,125,61381,2,0,P|421:85|400:44,1,95,10|0,0:0|0:0,0:0:0:0:
140,294,61697,6,0,L|27:293,2,95,6|2|8,3:2|0:0|0:0,0:0:0:0:
273,294,62171,1,0,3:0:0:0:
136,248,62329,2,0,P|71:197|137:149,1,190,2|8,3:0|0:0,0:0:0:0:
392,228,62802,6,0,P|409:184|392:141,1,95,2|0,3:0|3:0,0:0:0:0:
238,108,63118,2,0,L|137:108,1,95,2|8,0:0|0:0,0:0:0:0:
391,289,63434,2,0,L|296:289,1,95,2|0,3:0|3:0,0:0:0:0:
418,248,63750,2,0,P|482:195|415:146,1,190,2|0,3:0|0:0,0:0:0:0:
57,325,64223,6,0,P|150:305|244:313,1,190,2|8,3:0|0:0,0:0:0:0:
388,308,64697,1,0,3:0:0:0:
257,292,64855,2,0,L|139:295,1,95,0|0,3:0|3:0,0:0:0:0:
296,226,65171,2,0,L|408:224,1,95,8|2,0:0|0:0,0:0:0:0:
334,225,65408,1,2,0:0:0:0:
136,224,65487,6,0,P|113:263|138:300,1,95,6|2,3:0|0:0,0:0:0:0:
261,301,65802,1,8,0:0:0:0:
384,303,65960,2,0,L|431:301,2,47.5,8|8|8,0:0|0:0|0:0,0:0:0:0:
124,304,66276,6,0,L|186:298,1,47.5,8|8,0:0|0:0,0:0:0:0:
337,275,66434,1,8,0:0:0:0:
399,263,66513,1,8,0:0:0:0:
381,208,66592,1,8,0:0:0:0:
315,204,66671,1,8,0:0:0:0:
107,230,66750,6,0,P|76:197|95:156,1,95,6|2,0:0|0:0,0:0:0:0:
338,128,67066,2,0,P|348:175|325:222,1,95,8|0,0:0|3:0,0:0:0:0:
207,261,67381,2,0,L|105:260,2,95,2|0|8,3:0|3:0|0:0,0:0:0:0:
426,242,67855,6,0,P|444:284|426:326,1,95,2|0,3:0|3:0,0:0:0:0:
293,341,68171,2,0,L|198:339,1,95,2|8,0:0|0:0,0:0:0:0:
341,316,68487,2,0,P|353:270|341:225,1,95,2|0,3:0|3:0,0:0:0:0:
125,205,68802,2,0,P|102:165|124:125,1,95,2|8,0:0|0:0,0:0:0:0:
271,120,69118,1,0,0:0:0:0:
55,336,69276,6,0,P|147:311|240:325,1,190,2|8,3:0|0:0,0:0:0:0:
126,259,69750,2,0,P|59:211|124:160,1,190,0|0,3:0|3:0,0:0:0:0:
274,131,70223,1,8,0:0:0:0:
132,266,70381,2,0,P|225:244|319:251,1,190,2|0,0:0|0:0,0:0:0:0:
193,309,70855,6,0,L|88:309,1,95,8|0,0:0|3:0,0:0:0:0:
351,259,71170,1,2,3:0:0:0:
230,260,71328,1,0,3:0:0:0:
350,257,71487,2,0,P|373:216|353:175,1,95,10|0,0:0|0:0,0:0:0:0:
112,111,71802,6,0,L|207:111,1,95,6|2,3:2|0:0,0:0:0:0:
349,124,72118,1,8,0:0:0:0:
207,111,72276,1,0,3:0:0:0:
432,292,72434,2,0,P|456:253|427:216,1,95,2|0,3:0|3:0,0:0:0:0:
164,250,72750,1,8,0:0:0:0:
295,246,72908,6,0,L|400:245,1,95,2|0,3:0|3:0,0:0:0:0:
271,121,73223,2,0,L|176:114,1,95,2|8,0:0|0:0,0:0:0:0:
399,232,73539,2,0,P|425:268|403:308,1,95,2|0,3:0|3:0,0:0:0:0:
253,342,73855,2,0,P|284:256|373:239,1,190,2|0,3:0|0:0,0:0:0:0:
100,261,74329,6,0,P|37:206|103:154,1,190,6|8,3:2|0:0,0:0:0:0:
247,113,74802,2,0,P|337:133|345:225,1,190,0|0,3:0|3:0,0:0:0:0:
215,272,75276,1,8,0:0:0:0:
357,273,75434,1,2,0:0:0:0:
132,323,75592,6,0,L|37:324,2,95,4|8|8,0:0|0:0|0:0,0:0:0:0:
352,318,76066,2,0,L|399:318,2,47.5,8|8|8,0:0|0:0|0:0,0:0:0:0:
96,292,76381,1,8,0:0:0:0:
48,272,76459,1,8,0:0:0:0:
27,226,76538,1,8,0:0:0:0:
42,177,76617,1,8,0:0:0:0:
85,151,76696,1,8,0:0:0:0:
135,161,76775,1,8,0:0:0:0:
379,72,76855,6,0,P|451:115|396:178,1,190,4|8,0:0|0:0,0:0:0:0:
253,122,77329,1,0,3:0:0:0:
404,342,77487,2,0,P|418:297|407:251,1,95,2|0,3:0|0:0,0:0:0:0:
273,261,77802,2,0,L|367:258,1,95,8|0,0:0|0:0,0:0:0:0:
122,140,78118,6,0,P|212:111|310:125,1,190,2|8,3:0|0:0,0:0:0:0:
449,123,78592,1,2,0:0:0:0:
312,125,78750,2,0,L|206:115,1,95,0|0,3:0|0:0,0:0:0:0:
363,175,79066,2,0,P|394:207|369:244,1,95,8|0,0:0|0:0,0:0:0:0:
115,281,79381,6,0,P|206:259|301:267,1,190,6|8,3:2|0:0,0:0:0:0:
176,268,79855,1,0,3:0:0:0:
309,270,80013,2,0,L|411:270,1,95,2|0,3:0|0:0,0:0:0:0:
264,116,80329,2,0,L|169:113,1,95,8|0,0:0|0:0,0:0:0:0:
384,127,80644,6,0,P|450:179|388:236,1,190,2|8,3:0|0:0,0:0:0:0:
256,257,81118,1,2,0:0:0:0:
129,244,81276,2,0,P|107:285|128:326,1,95,0|0,3:0|0:0,0:0:0:0:
245,333,81592,2,0,L|150:330,1,95,8|0,0:0|0:0,0:0:0:0:
366,338,81908,6,0,P|427:281|360:230,1,190,6|8,3:2|0:0,0:0:0:0:
221,348,82381,1,0,3:0:0:0:
462,177,82539,2,0,L|367:177,1,95,2|0,3:0|0:0,0:0:0:0:
234,274,82855,2,0,L|328:273,1,95,8|0,0:0|0:0,0:0:0:0:
85,286,83171,6,0,P|20:238|87:193,1,190,6|8,0:0|0:0,0:0:0:0:
222,283,83644,1,0,0:0:0:0:
442,204,83802,2,0,L|330:203,1,95,0|0,3:0|0:0,0:0:0:0:
190,51,84118,2,0,P|169:93|176:152,1,95,8|0,0:0|0:0,0:0:0:0:
423,331,84434,6,0,P|406:242|322:205,1,190,6|8,0:0|0:0,0:0:0:0:
164,223,84908,2,0,P|100:276|164:329,1,190,0|0,3:0|0:0,0:0:0:0:
297,321,85381,2,0,L|392:321,1,95,8|2,0:0|0:0,0:0:0:0:
143,116,85697,2,0,L|262:113,1,95,6|8,0:0|0:0,0:0:0:0:
238,114,85934,1,8,0:0:0:0:
89,136,86013,6,0,P|66:177|85:219,1,95,8|8,0:0|0:0,0:0:0:0:
152,216,86250,1,8,0:0:0:0:
324,243,86329,2,0,L|418:242,1,95,8|8,0:0|0:0,0:0:0:0:
382,244,86566,1,8,0:0:0:0:
175,273,86644,2,0,L|155:212,1,47.5,8|8,0:0|0:0,0:0:0:0:
310,202,86802,2,0,L|320:155,1,47.5,8|8,0:0|0:0,0:0:0:0:
106,201,86960,6,0,P|44:145|111:94,1,190,6|8,3:2|0:0,0:0:0:0:
236,89,87434,1,2,0:0:0:0:
367,126,87592,2,0,L|267:127,1,95,0|2,3:0|0:0,0:0:0:0:
130,136,87908,1,8,0:0:0:0:
350,274,88066,6,0,P|409:213|342:161,1,190,6|8,3:0|0:0,0:0:0:0:
35,307,88539,2,0,L|263:309,2,190,10|2|8,0:0|0:0|0:0,0:0:0:0:
420,124,89487,6,0,P|329:98|237:118,1,190,6|8,0:0|0:0,0:0:0:0:
349,109,89960,1,0,0:0:0:0:
460,127,90118,2,0,P|484:168|450:211,1,95,2|0,3:0|0:0,0:0:0:0:
337,254,90434,2,0,L|466:257,1,95,8|0,0:0|0:0,0:0:0:0:
138,295,90750,6,0,P|225:257|320:253,1,190,2|8,3:0|0:0,0:0:0:0:
449,282,91223,1,2,0:0:0:0:
307,286,91381,2,0,L|212:286,1,95,2|0,3:0|0:0,0:0:0:0:
86,290,91697,2,0,P|67:246|97:206,1,95,8|0,0:0|0:0,0:0:0:0:
371,135,92013,6,0,P|280:110|189:136,1,190,6|8,3:0|0:0,0:0:0:0:
63,174,92487,1,0,0:0:0:0:
184,248,92644,2,0,L|279:250,1,95,0|0,3:0|0:0,0:0:0:0:
142,199,92960,2,0,P|126:154|153:114,1,95,8|0,0:0|0:0,0:0:0:0:
385,119,93276,6,0,L|509:116,2,95,6|0|8,0:0|0:0|0:0,0:0:0:0:
249,121,93750,2,0,L|138:145,2,95,0|0|0,0:0|3:0|0:0,0:0:0:0:
382,109,94223,2,0,P|405:149|399:195,1,95,8|0,0:0|0:0,0:0:0:0:
138,331,94539,6,0,P|79:271|167:229,1,190,6|2,0:0|0:0,0:0:0:0:
285,256,95013,1,2,0:0:0:0:
163,258,95171,2,0,P|150:214|166:170,1,95,2|0,0:0|0:0,0:0:0:0:
306,113,95487,2,0,L|419:113,1,95,2|0,0:0|0:0,0:0:0:0:
264,318,95802,2,0,L|170:316,2,95,2|2|2,0:0|0:0|0:0,0:0:0:0:
389,315,96276,1,0,0:0:0:0:
248,351,96434,6,0,P|168:322|201:244,1,190,2|2,0:0|0:0,0:0:0:0:
338,259,96908,1,2,0:0:0:0:
206,253,97066,2,0,L|98:253,1,95,2|0,0:0|0:0,0:0:0:0:
246,324,97381,2,0,L|144:324,1,95,2|2,0:0|0:0,0:0:0:0:
300,292,97697,6,0,P|208:273|113:275,1,190,2|2,0:0|0:0,0:0:0:0:
113,275,98171,1,0,0:0:0:0:
249,278,98329,2,0,L|357:279,2,95,0|2|2,0:0|0:0|0:0,0:0:0:0:
113,275,98802,1,0,0:0:0:0:
256,280,98960,2,0,L|368:280,1,95,2|2,0:0|0:0,0:0:0:0:
218,241,99276,2,0,L|99:240,1,95,2|0,0:0|0:0,0:0:0:0:
433,238,99592,6,0,L|431:192,1,35.625,2|2,0:0|0:0,0:0:0:0:
256,192,99829,12,0,102118,0:0:0:0:
