osu file format v14

[General]
AudioFilename: audio.mp3
AudioLeadIn: 0
PreviewTime: 55306
Countdown: 0
SampleSet: Soft
StackLeniency: 0.7
Mode: 2
LetterboxInBreaks: 0
WidescreenStoryboard: 1

[Editor]
DistanceSpacing: 1.2
BeatDivisor: 4
GridSize: 16
TimelineZoom: 5.399997

[Metadata]
Title:Winter Diamond (Short Ver.)
TitleUnicode:Winter Diamond (Short Ver.)
Artist:Rita
ArtistUnicode:Rita
Creator:-Joakh
Version:Greaper's Overdose
Source:見上げてごらん、夜空の星を
Tags:pulltop opening eroge visual novel japanese video game miagete goran yozora no hoshi o night sky full of stars Greaper -Luminate Benita Benny- BennyBananas Xinely
BeatmapID:2666574
BeatmapSetID:1264951

[Difficulty]
HPDrainRate:6
CircleSize:4.2
OverallDifficulty:9.4
ApproachRate:9.4
SliderMultiplier:2.1
SliderTickRate:2

[Events]
//Background and Video events
0,0,"bg5.jpg",0,0
//Break Periods
//Storyboard Layer 0 (Background)
//Storyboard Layer 1 (Fail)
//Storyboard Layer 2 (Pass)
//Storyboard Layer 3 (Foreground)
//Storyboard Layer 4 (Overlay)
//Storyboard Sound Samples

[TimingPoints]
1066,315.789473684211,4,2,1,60,1,0
6118,-100,4,2,1,70,0,0
13697,-100,4,2,1,65,0,0
23802,-90.9090909090909,4,2,1,65,0,0
33908,-90.9090909090909,4,2,1,70,0,0
56644,-90.9090909090909,4,2,1,80,0,1
88539,-90.9090909090909,4,2,1,80,0,0
99750,-100,4,2,1,5,0,0

[Colours]
Combo1 : 237,103,143
Combo2 : 191,123,72
Combo3 : 143,125,196
Combo4 : 248,234,135

[HitObjects]
342,190,1066,6,0,L|242:138,2,105,2|0|2,3:0|0:0|3:0,0:0:0:0:
84,272,1539,1,2,0:0:0:0:
210,271,1697,1,2,3:0:0:0:
337,270,1855,1,0,0:0:0:0:
48,147,2013,6,0,L|146:101,2,105,2|2|2,3:0|0:0|3:0,0:0:0:0:
298,84,2487,1,0,0:0:0:0:
172,89,2645,1,2,3:0:0:0:
45,97,2803,1,2,0:0:0:0:
336,161,2960,2,0,L|348:273,1,105,2|0,3:0|0:0,0:0:0:0:
199,274,3276,2,0,L|90:286,1,105,2|2,3:0|0:0,0:0:0:0:
384,315,3592,6,0,L|279:322,2,105,2|0|2,3:0|0:0|3:0,0:0:0:0:
128,255,4066,2,0,L|9:264,2,105,2|2|0,0:0|3:0|0:0,0:0:0:0:
390,246,4539,6,0,L|383:131,1,105,2|2,3:0|0:0,0:0:0:0:
251,133,4855,1,2,3:0:0:0:
472,34,5013,1,0,0:0:0:0:
340,26,5171,1,2,3:0:0:0:
211,21,5329,1,0,0:0:0:0:
492,56,5487,2,0,L|496:165,1,105,2|8,3:0|0:0,0:0:0:0:
442,176,5723,1,8,0:0:0:0:
231,187,5802,2,0,L|173:192,1,52.5,8|8,0:0|0:0,0:0:0:0:
417,229,5960,2,0,L|359:234,1,52.5,8|8,0:0|0:0,0:0:0:0:
93,270,6118,6,0,P|88:218|213:121,1,210,6|8,0:0|0:0,0:0:0:0:
339,106,6592,2,0,L|470:98,2,105,0|0|0,3:0|3:0|3:0,0:0:0:0:
71,114,7066,2,0,L|69:0,1,105,8|0,0:0|0:0,0:0:0:0:
352,32,7381,5,0,3:0:0:0:
230,40,7539,1,2,0:0:0:0:
459,69,7697,2,0,L|463:189,1,105,8|0,0:0|3:0,0:0:0:0:
317,174,8013,1,0,3:0:0:0:
457,188,8171,2,0,L|398:196,1,52.5,0|0,3:0|0:0,0:0:0:0:
216,215,8329,2,0,L|98:226,1,105,8|0,0:0|0:0,0:0:0:0:
397,348,8644,6,0,P|442:319|369:217,1,210,0|8,3:0|0:0,0:0:0:0:
132,206,9118,2,0,L|360:177,1,210,0|0,3:0|3:0,0:0:0:0:
196,153,9592,2,0,L|189:25,1,105,8|0,0:0|0:0,0:0:0:0:
442,52,9908,5,0,3:0:0:0:
321,59,10066,2,0,L|206:68,2,105,2|8|0,0:0|0:0|3:0,0:0:0:0:
85,85,10539,2,0,L|75:197,1,105,0|0,3:0|3:0,0:0:0:0:
212,190,10855,2,0,L|333:183,1,105,8|0,0:0|0:0,0:0:0:0:
41,274,11171,6,0,L|285:254,2,210,6|0|0,0:0|3:0|0:0,0:0:0:0:
332,236,12118,2,0,L|463:229,1,105,8|0,3:0|0:0,0:0:0:0:
165,127,12434,6,0,L|54:124,2,105,2|8|2,3:0|3:0|3:0,0:0:0:0:
314,134,12908,1,8,0:0:0:0:
52,184,13066,2,0,L|59:262,1,52.5,8|0,0:0|0:0,0:0:0:0:
129,238,13223,2,0,L|185:243,1,52.5,8|8,0:0|0:0,0:0:0:0:
394,225,13381,2,0,L|399:296,1,52.5,10|8,0:0|0:0,0:0:0:0:
153,317,13539,2,0,L|101:312,1,52.5,10|8,0:0|0:0,0:0:0:0:
317,316,13697,6,0,L|323:194,1,105,6|2,0:0|0:0,0:0:0:0:
183,195,14013,1,8,0:0:0:0:
326,165,14171,1,2,0:0:0:0:
61,151,14329,2,0,L|203:144,1,105,2|0,3:0|3:0,0:0:0:0:
22,97,14644,1,8,0:0:0:0:
331,78,14802,6,0,L|447:75,1,105,2|0,0:0|3:0,0:0:0:0:
295,129,15118,2,0,L|178:137,1,105,2|8,3:0|0:0,0:0:0:0:
433,169,15434,2,0,L|436:280,1,105,2|0,0:0|3:0,0:0:0:0:
283,283,15750,2,0,L|159:293,1,105,2|8,3:0|0:0,0:0:0:0:
337,308,16066,1,2,0:0:0:0:
74,304,16223,6,0,P|39:260|139:160,1,210,2|8,3:0|0:0,0:0:0:0:
265,172,16697,1,0,3:0:0:0:
25,132,16855,2,0,L|19:19,1,105,2|0,3:0|3:0,0:0:0:0:
168,112,17171,2,0,L|162:-1,1,105,8|0,0:0|0:0,0:0:0:0:
390,98,17487,6,0,L|521:94,2,105,0|0|8,3:0|0:0|0:0,0:0:0:0:
241,99,17960,1,0,3:0:0:0:
393,146,18118,2,0,L|403:261,1,105,0|0,3:0|3:0,0:0:0:0:
246,258,18434,1,8,0:0:0:0:
402,286,18592,1,2,0:0:0:0:
133,291,18750,6,0,L|16:297,1,105,6|2,3:0|0:0,0:0:0:0:
185,231,19066,2,0,L|308:236,1,105,8|0,0:0|3:0,0:0:0:0:
143,114,19381,1,2,3:0:0:0:
133,222,19697,1,8,0:0:0:0:
397,204,19855,6,0,L|409:80,1,105,2|0,0:0|3:0,0:0:0:0:
243,92,20171,2,0,L|128:89,1,105,2|8,0:0|0:0,0:0:0:0:
402,133,20487,2,0,L|412:28,1,105,2|0,0:0|3:0,0:0:0:0:
255,152,20802,2,0,L|265:47,1,105,2|8,3:0|0:0,0:0:0:0:
402,37,21118,1,2,0:0:0:0:
103,218,21276,6,0,L|332:202,1,210,2|8,3:0|0:0,0:0:0:0:
159,263,21750,1,0,3:0:0:0:
315,263,21908,2,0,P|363:231|283:118,1,210,0|8,3:0|0:0,0:0:0:0:
156,115,22381,1,0,0:0:0:0:
422,196,22539,6,0,L|428:82,1,105,0|0,3:0|0:0,0:0:0:0:
276,80,22855,2,0,L|381:75,1,105,8|0,0:0|0:0,0:0:0:0:
122,63,23171,2,0,L|17:70,1,105,2|0,3:0|3:0,0:0:0:0:
169,127,23487,2,0,L|64:134,1,105,8|0,0:0|0:0,0:0:0:0:
367,162,23802,6,0,P|437:199|363:292,1,231.000007049561,6|8,0:0|0:0,0:0:0:0:
251,290,24276,1,0,3:0:0:0:
411,238,24434,2,0,L|294:235,1,115.50000352478,0|0,3:0|0:0,0:0:0:0:
456,196,24750,1,8,0:0:0:0:
182,192,24908,6,0,L|60:191,2,115.50000352478,2|0|0,0:0|3:0|3:0,0:0:0:0:
335,194,25381,2,0,L|343:67,1,115.50000352478,8|0,0:0|0:0,0:0:0:0:
181,83,25697,2,0,L|310:75,1,115.50000352478,2|0,3:0|0:0,0:0:0:0:
140,58,26013,2,0,L|137:187,1,115.50000352478,8|0,0:0|0:0,0:0:0:0:
462,32,26329,6,0,L|467:152,1,115.50000352478,6|0,0:0|0:0,0:0:0:0:
306,160,26644,2,0,L|176:168,1,115.50000352478,8|0,0:0|3:0,0:0:0:0:
348,214,26960,2,0,L|478:201,1,115.50000352478,2|0,3:0|0:0,0:0:0:0:
160,238,27276,6,0,P|101:220|172:121,1,231.000007049561,12|0,0:0|3:0,0:0:0:0:
332,133,27750,1,0,3:0:0:0:
113,165,27908,2,0,L|109:294,1,115.50000352478,10|0,0:0|0:0,0:0:0:0:
263,280,28223,1,0,3:0:0:0:
107,304,28381,1,2,0:0:0:0:
266,320,28539,2,0,L|387:329,1,115.50000352478,8|0,0:0|0:0,0:0:0:0:
101,208,28855,6,0,L|341:217,1,231.000007049561,6|8,0:0|0:0,0:0:0:0:
174,171,29329,2,0,L|171:55,1,115.50000352478,2|0,0:0|3:0,0:0:0:0:
329,163,29644,2,0,L|326:47,1,115.50000352478,2|8,3:0|0:0,0:0:0:0:
216,42,29960,1,0,0:0:0:0:
494,47,30118,6,0,L|361:42,1,115.50000352478,0|0,3:0|0:0,0:0:0:0:
99,108,30434,2,0,L|95:227,1,115.50000352478,8|0,0:0|0:0,0:0:0:0:
254,231,30750,2,0,L|132:227,1,115.50000352478,0|0,3:0|3:0,0:0:0:0:
288,233,31066,2,0,L|415:238,1,115.50000352478,8|0,0:0|0:0,0:0:0:0:
105,301,31381,6,0,P|54:258|150:138,1,231.000007049561,6|8,0:0|0:0,0:0:0:0:
268,130,31855,2,0,L|140:135,1,115.50000352478,0|0,3:0|3:0,0:0:0:0:
317,170,32171,2,0,L|324:300,1,115.50000352478,2|8,0:0|0:0,0:0:0:0:
170,295,32487,1,0,0:0:0:0:
464,294,32644,6,0,L|466:217,1,57.7500017623902,0|0,3:0|0:0,0:0:0:0:
406,227,32802,1,8,0:0:0:0:
123,206,32960,1,8,0:0:0:0:
263,211,33118,1,8,0:0:0:0:
268,155,33196,1,8,0:0:0:0:
272,97,33275,1,8,0:0:0:0:
116,94,33434,2,0,L|177:89,1,57.7500017623902,8|8,0:0|0:0,0:0:0:0:
376,81,33592,2,0,L|459:76,1,57.7500017623902,10|8,0:0|0:0,0:0:0:0:
226,80,33750,2,0,L|217:8,1,57.7500017623902,10|8,0:0|0:0,0:0:0:0:
457,137,33908,6,0,L|321:145,1,115.50000352478,6|2,0:0|0:0,0:0:0:0:
484,178,34223,1,8,0:0:0:0:
338,208,34381,1,2,0:0:0:0:
61,238,34539,2,0,L|190:227,1,115.50000352478,2|0,3:0|3:0,0:0:0:0:
32,193,34855,1,8,0:0:0:0:
315,148,35013,6,0,L|436:139,1,115.50000352478,2|0,0:0|3:0,0:0:0:0:
274,99,35329,2,0,L|400:92,1,115.50000352478,2|8,0:0|0:0,0:0:0:0:
230,140,35644,2,0,L|220:265,1,115.50000352478,2|0,0:0|3:0,0:0:0:0:
374,199,35960,2,0,L|494:206,2,115.50000352478,2|8|2,3:0|0:0|0:0,0:0:0:0:
67,197,36434,6,0,L|302:220,1,231.000007049561,0|8,3:0|0:0,0:0:0:0:
144,145,36908,1,0,3:0:0:0:
416,181,37066,2,0,L|417:58,1,115.50000352478,2|0,3:0|3:0,0:0:0:0:
262,64,37381,2,0,L|131:56,1,115.50000352478,8|0,0:0|0:0,0:0:0:0:
433,68,37697,6,0,L|440:193,1,115.50000352478,0|0,3:0|0:0,0:0:0:0:
283,179,38013,2,0,L|290:308,1,115.50000352478,8|0,0:0|3:0,0:0:0:0:
133,310,38329,2,0,L|122:182,1,115.50000352478,0|0,3:0|3:0,0:0:0:0:
273,135,38644,2,0,L|116:126,1,115.50000352478,8|2,0:0|0:0,0:0:0:0:
444,90,38960,6,0,L|449:205,1,115.50000352478,6|2,3:0|0:0,0:0:0:0:
296,113,39276,2,0,L|171:118,1,115.50000352478,8|0,0:0|3:0,0:0:0:0:
464,58,39592,2,0,L|323:62,1,115.50000352478,2|0,3:0|0:0,0:0:0:0:
496,96,39908,1,8,0:0:0:0:
195,190,40066,6,0,L|187:315,1,115.50000352478,2|0,0:0|3:0,0:0:0:0:
337,207,40381,2,0,L|329:332,1,115.50000352478,2|8,0:0|0:0,0:0:0:0:
49,327,40697,2,0,L|181:333,1,115.50000352478,2|0,3:0|3:0,0:0:0:0:
314,338,41013,2,0,L|198:332,1,115.50000352478,2|0,3:0|0:0,0:0:0:0:
353,313,41329,1,2,0:0:0:0:
61,284,41487,6,0,P|20:230|121:125,1,231.000007049561,2|8,3:0|0:0,0:0:0:0:
264,127,41960,1,0,3:0:0:0:
113,137,42118,2,0,L|108:13,1,115.50000352478,0|0,3:0|3:0,0:0:0:0:
266,21,42434,2,0,L|140:21,1,115.50000352478,8|0,0:0|0:0,0:0:0:0:
306,77,42750,2,0,L|183:80,1,115.50000352478,0|0,3:0|0:0,0:0:0:0:
491,94,43066,5,8,0:0:0:0:
209,150,43381,2,0,L|202:275,1,115.50000352478,10|8,0:0|0:0,0:0:0:0:
261,271,43618,1,8,0:0:0:0:
61,253,43697,2,0,L|128:260,1,57.7500017623902,10|8,0:0|0:0,0:0:0:0:
325,278,43855,2,0,L|387:282,1,57.7500017623902,8|8,0:0|0:0,0:0:0:0:
147,191,44013,6,0,L|25:183,1,115.50000352478,6|0,0:0|0:0,0:0:0:0:
189,180,44329,1,8,0:0:0:0:
26,102,44487,2,0,L|155:118,1,115.50000352478,0|0,3:0|3:0,0:0:0:0:
260,140,44802,1,0,3:0:0:0:
102,55,44960,2,0,L|93:187,1,115.50000352478,8|2,0:0|0:0,0:0:0:0:
410,192,45276,6,0,L|293:186,1,115.50000352478,0|0,3:0|3:0,0:0:0:0:
446,167,45592,2,0,L|452:44,1,115.50000352478,8|0,0:0|0:0,0:0:0:0:
288,52,45908,2,0,L|163:44,1,115.50000352478,2|0,3:0|3:0,0:0:0:0:
420,44,46223,2,0,L|430:163,1,115.50000352478,8|0,0:0|0:0,0:0:0:0:
120,180,46539,6,0,L|243:187,1,115.50000352478,6|0,0:0|0:0,0:0:0:0:
384,217,46855,2,0,L|268:210,1,115.50000352478,8|0,0:0|3:0,0:0:0:0:
211,208,47092,1,0,3:0:0:0:
380,168,47171,2,0,L|386:44,1,115.50000352478,2|0,3:0|3:0,0:0:0:0:
229,48,47487,2,0,L|110:41,1,115.50000352478,8|0,0:0|0:0,0:0:0:0:
460,63,47802,6,0,L|336:66,1,115.50000352478,6|0,0:0|3:0,0:0:0:0:
193,108,48118,2,0,L|185:226,1,115.50000352478,8|0,0:0|0:0,0:0:0:0:
341,226,48434,1,0,3:0:0:0:
181,253,48592,2,0,L|62:256,2,115.50000352478,2|8|0,0:0|0:0|0:0,0:0:0:0:
486,264,49066,6,0,L|480:138,1,115.50000352478,6|0,3:2|0:0,0:0:0:0:
324,157,49381,1,8,0:0:0:0:
481,133,49539,2,0,L|363:128,1,115.50000352478,0|0,3:0|3:0,0:0:0:0:
202,198,49855,2,0,L|198:80,1,115.50000352478,2|8,3:0|0:0,0:0:0:0:
313,64,50171,1,0,0:0:0:0:
16,48,50329,6,0,L|142:56,1,115.50000352478,6|0,0:0|0:0,0:0:0:0:
269,95,50644,2,0,L|275:218,1,115.50000352478,8|0,0:0|0:0,0:0:0:0:
113,146,50960,2,0,L|119:269,1,115.50000352478,2|0,3:0|3:0,0:0:0:0:
376,264,51276,2,0,L|494:272,1,115.50000352478,8|0,0:0|0:0,0:0:0:0:
142,329,51592,6,0,P|82:301|161:195,1,231.000007049561,4|8,0:0|0:0,0:0:0:0:
314,200,52066,2,0,L|383:199,1,57.7500017623902,8|8,0:0|0:0,0:0:0:0:
197,151,52223,2,0,L|67:145,1,115.50000352478,8|8,0:0|0:0,0:0:0:0:
75,92,52460,1,8,0:0:0:0:
308,109,52539,2,0,L|303:52,1,57.7500017623902,8|8,0:0|0:0,0:0:0:0:
93,94,52697,2,0,L|88:37,1,57.7500017623902,8|8,0:0|0:0,0:0:0:0:
381,125,52855,5,8,0:0:0:0:
234,136,53013,1,4,0:0:0:0:
490,114,53171,1,12,0:0:0:0:
273,153,53487,2,0,P|233:248|329:315,1,231.000007049561,2|2,0:0|0:0,0:0:0:0:
437,299,53960,1,0,0:0:0:0:
121,127,54118,6,0,L|353:115,1,231.000007049561,4|2,0:0|0:0,0:0:0:0:
192,166,54592,1,2,0:0:0:0:
81,178,54749,1,2,0:0:0:0:
29,275,54907,1,2,0:0:0:0:
80,374,55065,1,2,0:0:0:0:
191,387,55223,1,2,0:0:0:0:
489,349,55381,5,12,0:0:0:0:
233,319,55539,1,8,0:0:0:0:
371,289,55697,1,8,0:0:0:0:
233,319,55855,1,8,0:0:0:0:
492,270,56013,2,0,L|478:149,1,115.50000352478,4|8,0:0|0:0,0:0:0:0:
419,159,56250,1,0,0:0:0:0:
216,151,56329,2,0,L|140:140,1,57.7500017623902,8|8,0:0|0:0,0:0:0:0:
395,101,56487,2,0,L|319:90,1,57.7500017623902,8|8,0:0|0:0,0:0:0:0:
74,103,56644,6,0,L|66:226,1,115.50000352478,6|2,0:0|0:0,0:0:0:0:
307,218,56960,2,0,L|72:234,1,231.000007049561,8|2,0:0|3:0,0:0:0:0:
227,273,57434,1,0,3:0:0:0:
71,293,57592,1,8,0:0:0:0:
370,296,57750,6,0,L|377:177,1,115.50000352478,2|0,3:0|3:0,0:0:0:0:
224,211,58066,1,2,0:0:0:0:
379,124,58223,1,8,0:0:0:0:
212,140,58381,2,0,L|73:125,1,115.50000352478,2|0,3:0|3:0,0:0:0:0:
363,53,58697,1,2,0:0:0:0:
198,62,58855,2,0,L|191:184,1,115.50000352478,8|0,0:0|0:0,0:0:0:0:
492,318,59171,6,0,P|490:265|354:169,1,231.000007049561,2|8,3:0|0:0,0:0:0:0:
202,202,59644,1,0,3:0:0:0:
352,192,59802,2,0,L|359:77,1,115.50000352478,0|0,3:0|3:0,0:0:0:0:
194,78,60118,1,8,0:0:0:0:
473,47,60276,6,0,P|471:114|324:182,1,231.000007049561,2|0,0:0|0:0,0:0:0:0:
38,138,60750,2,0,L|39:271,1,115.50000352478,8|0,0:0|3:0,0:0:0:0:
284,256,61066,2,0,L|153:267,1,115.50000352478,2|0,3:0|3:0,0:0:0:0:
21,305,61381,2,0,L|17:176,1,115.50000352478,10|0,0:0|0:0,0:0:0:0:
308,157,61697,5,6,3:2:0:0:
173,145,61855,1,2,0:0:0:0:
316,142,62013,1,8,0:0:0:0:
85,125,62171,2,0,L|19:122,1,57.7500017623902,0|0,3:0|3:0,0:0:0:0:
219,89,62329,2,0,L|341:85,1,115.50000352478,2|0,3:0|3:0,0:0:0:0:
170,57,62644,1,8,0:0:0:0:
447,58,62802,5,2,3:0:0:0:
211,138,62960,2,0,L|207:258,1,115.50000352478,0|2,3:0|0:0,0:0:0:0:
368,264,63276,1,8,0:0:0:0:
200,274,63434,2,0,L|134:273,2,57.7500017623902,2|0|0,3:0|3:0|3:0,0:0:0:0:
441,302,63750,1,2,3:0:0:0:
299,298,63908,2,0,L|424:301,1,115.50000352478,8|0,0:0|0:0,0:0:0:0:
67,169,64223,6,0,L|306:151,1,231.000007049561,2|8,3:0|0:0,0:0:0:0:
144,122,64697,1,0,3:0:0:0:
306,107,64855,2,0,L|177:96,1,115.50000352478,0|0,3:0|3:0,0:0:0:0:
32,86,65171,1,8,0:0:0:0:
315,160,65329,2,0,L|384:162,1,57.7500017623902,2|2,0:0|0:0,0:0:0:0:
167,201,65487,6,0,L|305:211,1,115.50000352478,6|2,3:0|0:0,0:0:0:0:
16,192,65802,1,8,0:0:0:0:
171,250,65960,1,8,0:0:0:0:
16,192,66118,2,0,L|23:60,1,115.50000352478,8|8,0:0|0:0,0:0:0:0:
365,72,66434,2,0,L|423:69,1,57.7500017623902,8|8,0:0|0:0,0:0:0:0:
186,74,66592,2,0,L|259:70,1,57.7500017623902,8|8,0:0|0:0,0:0:0:0:
476,92,66750,6,0,L|485:241,1,115.50000352478,6|2,0:0|0:0,0:0:0:0:
344,211,67066,1,8,0:0:0:0:
487,240,67223,1,0,3:0:0:0:
248,272,67381,2,0,P|239:165|346:110,1,231.000007049561,2|8,3:0|0:0,0:0:0:0:
62,177,67855,6,0,L|55:56,1,115.50000352478,2|0,3:0|3:0,0:0:0:0:
211,222,68171,2,0,L|204:101,1,115.50000352478,2|8,0:0|0:0,0:0:0:0:
361,262,68487,2,0,L|354:141,1,115.50000352478,2|0,3:0|3:0,0:0:0:0:
84,289,68802,1,2,0:0:0:0:
221,277,68960,1,8,0:0:0:0:
84,289,69118,1,0,0:0:0:0:
423,339,69276,6,0,P|469:298|391:171,1,231.000007049561,2|8,3:0|0:0,0:0:0:0:
253,169,69750,1,0,3:0:0:0:
411,160,69908,2,0,L|286:150,1,115.50000352478,0|0,3:0|3:0,0:0:0:0:
452,119,70223,1,8,0:0:0:0:
143,119,70381,6,0,L|18:116,2,115.50000352478,2|0|0,0:0|3:0|0:0,0:0:0:0:
306,153,70855,1,8,0:0:0:0:
153,190,71013,1,0,3:0:0:0:
393,205,71171,1,2,3:0:0:0:
253,225,71329,1,0,3:0:0:0:
403,238,71487,2,0,L|412:360,1,115.50000352478,10|0,0:0|0:0,0:0:0:0:
116,334,71802,6,0,L|243:323,1,115.50000352478,6|2,3:2|0:0,0:0:0:0:
382,34,72118,2,0,L|390:163,1,115.50000352478,8|0,0:0|3:0,0:0:0:0:
231,149,72434,2,0,L|219:21,1,115.50000352478,2|0,3:0|3:0,0:0:0:0:
375,28,72750,1,8,0:0:0:0:
85,40,72908,6,0,L|216:30,1,115.50000352478,2|0,3:0|3:0,0:0:0:0:
55,95,73223,2,0,L|186:83,1,115.50000352478,2|8,0:0|0:0,0:0:0:0:
316,73,73539,2,0,L|196:86,1,115.50000352478,2|0,3:0|3:0,0:0:0:0:
448,131,73855,2,0,P|496:213|431:323,1,231.000007049561,2|0,3:0|0:0,0:0:0:0:
119,319,74329,6,0,L|373:323,1,231.000007049561,6|8,3:2|0:0,0:0:0:0:
199,240,74802,2,0,L|196:118,1,115.50000352478,0|0,3:0|3:0,0:0:0:0:
311,124,75118,1,0,3:0:0:0:
133,99,75276,1,8,0:0:0:0:
392,99,75434,1,2,0:0:0:0:
46,202,75592,6,0,L|168:209,1,115.50000352478,4|8,0:0|0:0,0:0:0:0:
221,216,75829,1,8,0:0:0:0:
47,253,75908,2,0,L|39:330,1,57.7500017623902,8|0,0:0|0:0,0:0:0:0:
247,297,76066,2,0,L|336:310,1,57.7500017623902,8|8,0:0|0:0,0:0:0:0:
102,331,76223,2,0,L|236:347,1,115.50000352478,8|8,0:0|0:0,0:0:0:0:
465,351,76539,2,0,L|470:278,1,57.7500017623902,8|8,0:0|0:0,0:0:0:0:
286,267,76697,2,0,L|291:194,1,57.7500017623902,8|8,0:0|0:0,0:0:0:0:
496,192,76855,6,0,L|255:173,1,231.000007049561,4|8,0:0|0:0,0:0:0:0:
427,138,77329,1,0,3:0:0:0:
196,156,77487,2,0,L|68:153,1,115.50000352478,2|0,3:0|0:0,0:0:0:0:
239,144,77802,2,0,L|242:22,1,115.50000352478,8|0,0:0|0:0,0:0:0:0:
16,16,78118,6,0,L|252:6,1,231.000007049561,2|8,3:0|0:0,0:0:0:0:
98,64,78592,1,2,0:0:0:0:
254,114,78750,2,0,L|400:116,1,115.50000352478,0|0,3:0|0:0,0:0:0:0:
128,230,79066,2,0,L|122:369,1,115.50000352478,8|0,0:0|0:0,0:0:0:0:
434,342,79381,6,0,P|418:266|288:198,1,231.000007049561,6|8,3:2|0:0,0:0:0:0:
16,160,79855,2,0,L|21:81,1,57.7500017623902,0|0,3:0|3:0,0:0:0:0:
198,88,80013,2,0,L|318:87,1,115.50000352478,2|0,3:0|0:0,0:0:0:0:
154,132,80329,2,0,L|148:253,1,115.50000352478,8|0,0:0|0:0,0:0:0:0:
426,173,80644,6,0,L|434:292,1,115.50000352478,2|0,3:0|0:0,0:0:0:0:
281,293,80960,1,8,0:0:0:0:
435,318,81118,1,2,0:0:0:0:
184,312,81276,2,0,L|58:315,1,115.50000352478,0|0,3:0|0:0,0:0:0:0:
330,224,81592,2,0,L|458:213,1,115.50000352478,8|0,0:0|0:0,0:0:0:0:
110,179,81908,6,0,P|55:147|131:25,1,231.000007049561,6|8,3:2|0:0,0:0:0:0:
359,43,82381,1,0,3:0:0:0:
115,70,82539,2,0,L|107:189,1,115.50000352478,2|0,3:0|0:0,0:0:0:0:
263,199,82855,2,0,L|133:201,1,115.50000352478,8|0,0:0|0:0,0:0:0:0:
497,194,83171,5,6,0:0:0:0:
233,237,83487,2,0,L|226:93,1,115.50000352478,8|0,0:0|0:0,0:0:0:0:
370,186,83802,2,0,L|363:42,1,115.50000352478,0|0,3:0|0:0,0:0:0:0:
136,224,84118,2,0,L|129:80,1,115.50000352478,8|0,0:0|0:0,0:0:0:0:
434,40,84434,6,0,L|190:57,1,231.000007049561,6|8,0:0|0:0,0:0:0:0:
351,115,84908,2,0,L|117:135,1,231.000007049561,0|0,3:0|0:0,0:0:0:0:
271,187,85381,2,0,L|146:201,1,115.50000352478,8|2,0:0|0:0,0:0:0:0:
457,257,85697,5,6,0:0:0:0:
314,267,85855,2,0,L|438:259,1,115.50000352478,8|8,0:0|0:0,0:0:0:0:
159,241,86171,2,0,L|85:247,1,57.7500017623902,8|8,0:0|0:0,0:0:0:0:
300,187,86329,2,0,L|427:181,1,115.50000352478,8|8,0:0|0:0,0:0:0:0:
418,130,86566,1,8,0:0:0:0:
216,91,86644,2,0,L|139:87,1,57.7500017623902,8|8,0:0|0:0,0:0:0:0:
396,57,86802,2,0,L|324:54,1,57.7500017623902,8|8,0:0|0:0,0:0:0:0:
50,181,86960,6,0,P|29:135|149:27,1,231.000007049561,6|8,3:2|0:0,0:0:0:0:
292,235,87434,2,0,L|52:315,1,231.000007049561,2|2,0:0|0:0,0:0:0:0:
241,324,87908,1,8,0:0:0:0:
16,288,88066,5,6,3:0:0:0:
441,287,88381,1,8,0:0:0:0:
211,264,88539,2,0,P|146:219|241:100,1,231.000007049561,10|2,0:0|0:0,0:0:0:0:
322,91,89013,2,0,L|388:78,1,57.7500017623902,0|0,3:0|3:0,0:0:0:0:
172,60,89171,2,0,L|34:54,1,115.50000352478,8|0,0:0|0:0,0:0:0:0:
439,142,89487,6,0,P|490:189|393:288,1,231.000007049561,6|8,0:0|0:0,0:0:0:0:
169,275,89960,1,0,0:0:0:0:
405,328,90118,2,0,L|268:334,1,115.50000352478,2|0,3:0|0:0,0:0:0:0:
450,186,90434,2,0,L|456:66,1,115.50000352478,8|0,0:0|0:0,0:0:0:0:
164,188,90750,6,0,L|170:68,1,115.50000352478,2|0,3:0|0:0,0:0:0:0:
324,64,91066,1,8,0:0:0:0:
166,61,91223,2,0,L|42:58,2,115.50000352478,2|2|0,0:0|3:0|0:0,0:0:0:0:
417,87,91697,2,0,L|424:210,1,115.50000352478,8|0,0:0|0:0,0:0:0:0:
87,224,92013,6,0,L|355:217,1,231.000007049561,6|8,3:0|0:0,0:0:0:0:
176,172,92487,1,0,0:0:0:0:
325,172,92644,2,0,L|331:57,1,115.50000352478,0|0,3:0|0:0,0:0:0:0:
169,51,92960,2,0,L|48:47,1,115.50000352478,8|0,0:0|0:0,0:0:0:0:
393,253,93276,5,6,0:0:0:0:
170,272,93434,1,0,0:0:0:0:
317,327,93592,2,0,L|321:207,1,115.50000352478,8|0,0:0|0:0,0:0:0:0:
162,200,93908,2,0,L|44:201,1,115.50000352478,0|0,3:0|0:0,0:0:0:0:
193,139,94223,2,0,L|75:140,1,115.50000352478,8|0,0:0|0:0,0:0:0:0:
375,99,94539,6,0,L|495:95,2,115.50000352478,6|0|2,0:0|0:0|0:0,0:0:0:0:
220,105,95013,1,2,0:0:0:0:
332,174,95171,2,0,L|339:298,1,115.50000352478,2|0,0:0|0:0,0:0:0:0:
176,200,95487,6,0,L|52:209,2,115.50000352478,2|0|2,0:0|0:0|0:0,0:0:0:0:
291,214,95960,1,2,0:0:0:0:
144,284,96118,2,0,L|138:163,1,115.50000352478,2|0,0:0|0:0,0:0:0:0:
279,153,96434,2,0,L|282:33,1,115.50000352478,2|0,0:0|0:0,0:0:0:0:
152,34,96750,1,2,0:0:0:0:
294,33,96908,1,2,0:0:0:0:
137,126,97066,6,0,L|132:264,1,115.50000352478,2|0,0:0|0:0,0:0:0:0:
252,257,97381,1,2,0:0:0:0:
92,261,97539,1,2,0:0:0:0:
210,167,97697,2,0,L|215:284,1,115.50000352478,2|2,0:0|0:0,0:0:0:0:
353,164,98013,2,0,L|358:281,1,115.50000352478,2|0,0:0|0:0,0:0:0:0:
238,283,98329,1,0,0:0:0:0:
404,317,98487,5,2,0:0:0:0:
285,319,98644,2,0,L|279:192,1,115.50000352478,2|0,0:0|0:0,0:0:0:0:
441,197,98960,2,0,L|315:189,1,115.50000352478,2|2,0:0|0:0,0:0:0:0:
161,125,99276,2,0,L|156:-1,1,115.50000352478,2|0,0:0|0:0,0:0:0:0:
464,53,99592,6,0,L|462:100,1,43.3125013217926,2|2,0:0|0:0,0:0:0:0:
256,192,99750,12,0,102118,0:0:0:0:
