osu file format v14

[General]
AudioFilename: audio.mp3
AudioLeadIn: 0
PreviewTime: 139425
Countdown: 1
SampleSet: Soft
StackLeniency: 0.6
Mode: 0
LetterboxInBreaks: 0
WidescreenStoryboard: 1

[Editor]
Bookmarks: 13109,31267,74688,169583
DistanceSpacing: 1
BeatDivisor: 4
GridSize: 32
TimelineZoom: 1.5

[Metadata]
Title:Winter Diamond
TitleUnicode:Winter Diamond
Artist:Rita
ArtistUnicode:Rita
Creator:Shikibe Mayu
Version:Normal
Source:見上げてごらん、夜空の星を
Tags:shizuku- kazato asa miazora miagete goran, yozora no hoshi o complete soundtrack a sky full of stars & little planets pulltop willplus WILL-323-338CD WILL-323O KDSD-01006 MANA Kenichi Okuma おおくま けんいち Minao Ohse 逢瀬 水織 TWOFIVE eroge galgame visual novel vn version opening op 2 pop japanese video game
BeatmapID:2441160
BeatmapSetID:999834

[Difficulty]
HPDrainRate:4
CircleSize:3.2
OverallDifficulty:4
ApproachRate:5.5
SliderMultiplier:1.12
SliderTickRate:1

[Events]
//Background and Video events
0,0,"saya.jpg",0,0
//Break Periods
2,185098,191195
//Storyboard Layer 0 (Background)
//Storyboard Layer 1 (Fail)
//Storyboard Layer 2 (Pass)
//Storyboard Layer 3 (Foreground)
//Storyboard Layer 4 (Overlay)
//Storyboard Sound Samples

[TimingPoints]
478,315.789473684211,4,2,1,40,1,0
5214,-100,4,2,1,50,0,0
5530,-100,4,2,1,60,0,0
10583,-100,4,2,1,50,0,0
12478,-100,4,2,1,60,0,0
12714,-100,4,2,1,40,0,0
13109,-100,4,2,2,60,0,0
22504,-100,4,2,2,50,0,0
45320,-100,4,2,2,60,0,0
47845,-100,4,2,2,50,0,0
52899,-100,4,2,1,60,0,0
56056,-100,4,2,1,75,0,1
56371,-100,4,2,3,75,0,1
88424,-100,4,2,1,75,0,1
88899,-100,4,2,1,60,0,0
96478,-100,4,2,2,60,0,0
105320,-100,4,2,2,50,0,0
130899,-100,4,2,2,60,0,0
131135,-100,4,2,2,50,0,0
135004,-100,4,2,2,60,0,0
136267,-100,4,2,1,60,0,0
136898,-100,4,2,1,50,0,0
138004,-100,4,2,1,60,0,0
139425,-100,4,2,1,75,0,1
139740,-100,4,2,3,75,0,1
171793,-100,4,2,1,75,0,1
172267,-100,4,2,1,70,0,0
184267,-100,4,2,4,50,0,0
192320,-100,4,2,1,50,0,0
193583,-100,4,2,1,60,0,0
194688,-100,4,2,1,40,0,0
195004,-100,4,2,1,75,0,1
195319,-100,4,2,3,75,0,1
217266,-100,4,2,1,75,0,1
217741,-100,4,2,1,70,0,0
222793,-100,4,2,1,50,0,0
227846,-100,4,2,4,50,0,0

[Colours]
Combo1 : 97,182,233
Combo2 : 255,193,109

[HitObjects]
332,69,478,6,0,P|285:39|230:43,1,112,2|0,3:1|3:0,2:0:0:0:
181,70,951,1,2,2:0:0:0:
80,32,1267,1,2,2:0:0:0:
80,32,1425,2,0,L|57:146,1,112,2|0,3:1|3:0,2:0:0:0:
42,195,1899,1,2,2:0:0:0:
65,309,2214,1,2,2:0:0:0:
65,309,2372,2,0,P|120:308|164:340,1,112,2|0,3:1|3:0,2:0:0:0:
256,275,3004,6,0,L|240:165,1,112,2|0,3:1|3:0,2:0:0:0:
216,112,3478,2,0,P|260:79|315:78,1,112,2|2,2:0|2:0,2:0:0:0:
362,109,3951,1,2,3:1:0:0:
474,84,4267,1,0,3:0:0:0:
474,84,4425,2,0,L|458:194,1,112,2|2,2:0|2:0,2:0:0:0:
483,245,4899,2,0,P|428:251|389:290,1,112,2|8,3:1|2:0,2:0:0:0:
311,370,5530,6,0,L|201:354,1,112,6|10,3:1|2:0,2:0:0:0:
148,376,6004,1,0,3:0:0:0:
120,272,6320,1,0,3:0:0:0:
120,272,6478,2,0,B|105:217|105:217|124:165,1,112,10|0,2:1|3:2,2:0:0:0:
146,114,6951,1,2,2:0:0:0:
255,155,7267,1,2,2:0:0:0:
255,155,7425,2,0,P|310:156|358:130,1,112,2|10,3:1|2:0,2:0:0:0:
330,21,8056,6,0,P|274:19|226:45,1,112,2|10,3:1|2:0,2:0:0:0:
188,87,8530,1,0,3:0:0:0:
84,59,8846,1,0,3:0:0:0:
84,59,9004,2,0,L|68:169,1,112,10|2,2:1|3:2,2:0:0:0:
37,217,9478,1,0,3:0:0:0:
55,331,9793,1,0,3:0:0:0:
55,331,9951,2,0,P|101:360|157:361,1,112,2|10,2:1|2:0,2:0:0:0:
241,286,10583,6,0,L|257:176,1,112,4|0,3:2|3:0,2:0:0:0:
266,119,11056,1,2,2:1:0:0:
266,119,11214,1,0,3:0:0:0:
320,20,11530,2,0,P|367:48|422:46,1,112,8|0,2:3|3:0,2:0:0:0:
473,20,12004,1,2,2:1:0:0:
473,20,12162,1,0,3:0:0:0:
512,125,12478,2,0,L|496:235,1,112,4|8,2:3|2:0,2:0:0:0:
510,294,12951,1,8,2:0:0:0:
510,294,13109,6,0,P|454:291|406:318,1,112,6|10,3:1|2:1,2:0:0:0:
370,361,13583,1,2,3:2:0:0:
370,361,13741,1,2,3:1:0:0:
280,304,14056,1,10,2:0:0:0:
280,304,14214,2,0,P|289:244|296:190,1,112,2|2,2:1|2:1,2:0:0:0:
364,103,14846,1,2,2:1:0:0:
288,20,15162,2,0,P|238:44|183:38,1,112,2|2,3:1|2:1,2:0:0:0:
135,9,15635,5,2,3:1:0:0:
40,68,15951,2,0,L|28:122,1,56,10|2,2:0|3:2,2:0:0:0:
69,161,16267,2,0,L|45:270,1,112,2|10,3:1|2:0,2:0:0:0:
122,352,16899,6,0,P|172:330|227:338,1,112,2|8,3:1|2:0,2:0:0:0:
261,381,17372,1,2,2:1:0:0:
361,331,17688,1,2,3:1:0:0:
361,331,17846,2,0,L|415:342,1,56,10|2,2:0|2:0,2:0:0:0:
471,353,18162,6,0,P|495:303|486:249,1,112,2|10,3:1|2:1,2:0:0:0:
498,194,18635,1,2,3:2:0:0:
498,194,18793,2,0,L|389:216,1,112,2|10,3:1|2:0,2:0:0:0:
338,185,19267,2,0,P|287:166|234:182,1,112,2|2,2:1|2:1,2:0:0:0:
146,245,19899,1,2,2:1:0:0:
35,225,20214,1,2,2:1:0:0:
20,118,20530,1,2,2:1:0:0:
20,118,20688,6,0,P|64:84|119:79,1,112,2|10,3:1|2:0,2:0:0:0:
172,55,21162,1,2,3:2:0:0:
172,55,21320,2,0,L|186:166,1,112,2|10,3:1|2:1,2:0:0:0:
230,268,21951,2,0,P|205:317|209:372,2,112,2|10|2,3:2|2:0|3:1,2:0:0:0:
281,241,22741,1,2,3:2:0:0:
281,241,22899,2,0,L|335:251,1,56,10|2,2:1|2:0,2:0:0:0:
376,289,23214,6,0,P|432:290|480:263,1,112,6|10,3:2|2:0,2:0:0:0:
502,211,23688,1,2,3:2:0:0:
467,109,24004,2,0,L|477:54,1,56,0|10,3:0|2:1,2:0:0:0:
447,6,24320,2,0,P|397:29|341:25,1,112,2|2,2:1|2:0,2:0:0:0:
296,57,24793,1,10,2:0:0:0:
196,6,25109,1,2,3:1:0:0:
89,41,25425,2,0,L|77:95,1,56,10|0,2:1|3:0,2:0:0:0:
38,136,25741,6,0,L|61:245,1,112,6|10,3:1|2:1,2:0:0:0:
83,355,26372,1,2,3:1:0:0:
182,303,26688,2,0,B|271:280|248:347|342:322,1,168,14|0,2:1|3:0,2:0:0:0:
385,285,27320,1,10,2:1:0:0:
332,186,27635,2,0,L|276:194,2,56,2|2|10,3:2|3:1|2:0,2:0:0:0:
355,76,28267,6,0,P|399:43|454:43,1,112,6|10,3:1|2:0,2:0:0:0:
503,71,28741,1,2,3:1:0:0:
466,179,29056,1,2,3:1:0:0:
466,179,29214,2,0,L|474:234,1,56,10|0,2:0|2:0,2:0:0:0:
505,281,29530,6,0,P|470:325|419:340,1,112,2|8,3:1|2:0,2:0:0:0:
365,319,30004,1,2,2:0:0:0:
365,319,30162,2,0,L|356:374,2,56,0|2|10,3:0|2:1|2:0,2:0:0:0:
275,251,30793,6,0,L|292:140,1,112,6|10,3:1|2:0,2:0:0:0:
302,84,31267,1,2,3:2:0:0:
211,18,31583,2,0,B|168:47|168:47|108:37,1,112,0|2,3:1|2:1,2:0:0:0:
55,19,32056,5,6,3:2:0:0:
4,119,32372,1,10,2:0:0:0:
4,119,32530,2,0,L|21:230,1,112,0|0,3:0|3:0,2:0:0:0:
0,282,33004,2,0,L|8:337,1,56,8|8,2:0|2:0,2:0:0:0:
54,369,33320,6,0,P|99:339|154:343,1,112,6|10,3:1|2:1,2:0:0:0:
203,371,33793,1,2,2:1:0:0:
203,371,33951,1,2,3:1:0:0:
243,269,34267,1,10,2:0:0:0:
243,269,34425,2,0,L|222:159,1,112,2|2,2:1|2:0,2:0:0:0:
246,49,35056,1,2,2:1:0:0:
347,96,35372,2,0,P|396:121|451:116,1,112,2|2,3:1|2:1,2:0:0:0:
504,97,35846,6,0,L|486:208,1,112,2|10,3:1|2:0,2:0:0:0:
499,262,36320,1,2,3:2:0:0:
498,261,36478,2,0,P|443:261|398:293,1,112,2|10,3:1|2:0,2:0:0:0:
317,370,37109,2,0,L|206:352,1,112,2|8,3:1|2:0,2:0:0:0:
152,335,37583,1,2,2:1:0:0:
48,370,37899,1,2,2:1:0:0:
48,370,38056,2,0,L|39:314,1,56,8|2,2:0|2:0,2:0:0:0:
58,261,38372,6,0,B|73:238|75:206|75:206|56:155,1,112,6|10,3:1|2:1,2:0:0:0:
26,107,38846,1,2,2:0:0:0:
26,107,39004,2,0,P|74:74|126:74,1,112,2|10,3:1|2:0,2:0:0:0:
176,49,39478,5,2,2:1:0:0:
200,157,39793,1,2,2:1:0:0:
225,265,40109,1,2,2:1:0:0:
283,360,40425,2,0,P|337:350|386:375,1,112,2|2,2:1|2:1,2:0:0:0:
442,380,40899,6,0,L|463:270,1,112,2|10,3:1|2:0,2:0:0:0:
475,218,41372,1,2,2:0:0:0:
475,218,41530,2,0,P|420:227|371:202,1,112,2|10,3:1|2:1,2:0:0:0:
273,147,42162,1,2,3:1:0:0:
166,183,42478,2,0,L|111:172,1,56,8|2,2:0|2:0,2:0:0:0:
59,191,42793,2,0,B|24:167|18:121|18:121|27:94,1,112,2|8,3:1|2:0,2:0:0:0:
112,20,43425,6,0,B|143:27|163:50|163:50|195:50|213:38,1,112,6|10,3:2|2:0,2:0:0:0:
264,15,43899,1,2,3:2:0:0:
363,66,44214,1,0,3:0:0:0:
363,66,44372,2,0,L|418:56,1,56,10|2,2:0|2:1,2:0:0:0:
472,41,44688,2,0,B|498:64|502:107|502:107|489:142,1,112,2|8,3:1|2:0,2:0:0:0:
463,192,45162,1,2,2:0:0:0:
463,192,45320,2,0,L|352:210,1,112,2|10,3:1|2:1,2:0:0:0:
255,152,45951,5,6,3:2:0:0:
159,211,46267,2,0,P|140:160|153:106,2,112,10|2|10,2:1|3:1|2:0,2:0:0:0:
110,312,47214,2,0,B|61:342|61:342|6:335,2,112,6|10|2,3:1|2:1|3:2,2:0:0:0:
160,337,48004,1,2,3:1:0:0:
160,337,48162,1,10,2:0:0:0:
254,278,48478,6,0,P|296:313|351:317,1,112,6|10,3:1|2:0,2:0:0:0:
404,297,48951,2,0,L|425:187,1,112,2|2,3:2|3:1,2:0:0:0:
436,131,49425,1,10,2:0:0:0:
364,43,49741,2,0,P|413:18|468:21,2,112,6|10|2,3:1|2:1|3:1,2:0:0:0:
328,87,50530,1,2,2:0:0:0:
328,87,50688,1,10,2:1:0:0:
304,196,51004,6,0,L|283:306,1,112,6|8,3:1|2:0,2:0:0:0:
270,364,51478,1,0,3:2:0:0:
270,364,51635,2,0,P|220:339|165:345,1,112,10|8,2:0|2:3,2:0:0:0:
60,304,52267,2,0,L|48:358,2,56,12|12|12,2:0|2:0|2:0,2:0:0:0:
133,219,52899,2,0,P|83:193|28:197,2,112,2|2|4,2:1|2:0|3:2,2:0:0:0:
256,192,53688,12,4,55425,3:2:0:0:
375,60,56056,6,0,L|429:48,2,56,6|2|10,3:2|3:2|2:1,2:0:0:0:
265,34,56688,2,0,L|253:88,1,56,2|2,2:1|3:2,2:0:0:0:
212,126,57004,1,10,2:1:0:0:
212,126,57162,2,0,P|162:100|107:105,1,112,2|2,3:2|3:2,2:0:0:0:
24,179,57793,1,2,2:0:0:0:
51,292,58109,1,2,3:2:0:0:
51,292,58267,2,0,L|105:304,1,56,10|0,2:1|2:0,2:0:0:0:
152,335,58583,5,2,3:1:0:0:
261,300,58899,1,10,2:0:0:0:
261,300,59056,2,0,P|280:248|271:193,1,112,0|0,3:0|3:0,2:0:0:0:
228,156,59530,1,10,2:1:0:0:
228,156,59688,1,2,3:2:0:0:
275,54,60004,2,0,P|323:80|379:78,1,112,2|2,2:0|2:0,2:0:0:0:
429,53,60478,2,0,L|441:-1,2,56,2|2|10,3:1|3:2|2:1,2:0:0:0:
458,161,61109,6,0,L|512:148,2,56,6|2|10,3:1|3:2|2:1,2:0:0:0:
386,248,61741,2,0,L|398:302,1,56,2|0,2:1|3:0,2:0:0:0:
421,359,62056,1,10,2:1:0:0:
421,359,62214,2,0,B|394:386|354:375|354:375|341:361|319:358,1,112,2|2,3:2|2:0,2:0:0:0:
208,377,62846,1,2,2:0:0:0:
157,283,63162,1,2,3:2:0:0:
157,283,63320,2,0,L|168:228,1,56,10|0,2:1|2:0,2:0:0:0:
220,205,63635,6,0,P|249:158|242:104,1,112,2|10,3:2|2:1,2:0:0:0:
279,62,64109,2,0,L|169:38,1,112,2|0,3:2|3:0,2:0:0:0:
115,20,64583,1,10,2:1:0:0:
36,99,64899,5,6,3:2:0:0:
36,99,65056,1,0,3:0:0:0:
79,207,65372,1,0,3:0:0:0:
79,207,65530,2,0,L|55:316,1,112,2|8,3:2|2:0,2:0:0:0:
153,371,66162,6,0,L|164:316,2,56,4|2|10,3:2|3:2|2:1,2:0:0:0:
264,356,66793,2,0,L|275:301,1,56,2|0,2:1|2:0,2:0:0:0:
288,249,67109,1,10,2:1:0:0:
288,249,67267,1,2,3:2:0:0:
241,147,67583,1,2,2:0:0:0:
281,42,67899,1,2,3:2:0:0:
393,17,68214,1,2,3:2:0:0:
393,17,68372,2,0,L|448:25,1,56,10|0,2:1|2:0,2:0:0:0:
504,19,68688,6,0,P|518:72|496:122,1,112,2|10,3:1|2:1,2:0:0:0:
448,152,69162,1,0,3:0:0:0:
500,250,69478,2,0,L|486:304,1,56,0|10,3:0|2:0,2:0:0:0:
471,358,69793,1,2,3:2:0:0:
383,288,70109,2,0,P|327:286|282:317,1,112,0|2,2:0|3:2,2:0:0:0:
248,362,70583,2,0,P|220:355|192:351,2,56,2|2|10,3:1|3:2|2:1,2:0:0:0:
215,254,71214,6,0,P|187:247|159:243,2,56,6|0|10,3:1|3:0|2:1,2:0:0:0:
306,188,71846,2,0,P|312:160|316:132,1,56,2|0,2:1|3:0,2:0:0:0:
328,81,72162,1,10,2:1:0:0:
328,81,72320,1,2,3:2:0:0:
217,97,72635,1,2,2:0:0:0:
122,36,72951,1,2,2:0:0:0:
19,74,73267,1,0,3:2:0:0:
19,74,73425,2,0,L|31:128,1,56,10|0,2:0|2:0,2:0:0:0:
5,178,73741,6,0,P|4:232|38:276,1,112,6|10,3:2|2:0,2:0:0:0:
90,297,74214,1,0,3:0:0:0:
194,256,74530,2,0,L|206:201,2,56,0|10|0,3:0|2:0|3:2,2:0:0:0:
219,306,75004,5,6,3:2:0:0:
219,306,75162,1,0,3:0:0:0:
320,255,75478,1,0,3:0:0:0:
320,255,75635,2,0,L|345:146,1,112,2|8,3:2|2:0,2:0:0:0:
336,34,76267,6,0,P|382:3|437:6,1,112,6|10,3:2|2:0,2:0:0:0:
489,39,76741,1,0,3:0:0:0:
489,39,76899,2,0,L|463:147,1,112,2|10,2:0|2:0,2:0:0:0:
483,258,77530,2,0,P|454:304|403:325,1,112,2|10,3:2|2:0,2:0:0:0:
358,361,78004,2,0,P|299:303|218:305,1,168,0|10,3:0|2:0,2:0:0:0:
135,229,78793,6,0,L|161:121,1,112,6|10,3:2|2:0,2:0:0:0:
176,68,79267,1,0,3:0:0:0:
176,68,79425,2,0,P|128:40|73:44,1,112,2|10,2:0|2:0,2:0:0:0:
29,147,80056,6,0,L|3:255,1,112,2|10,3:2|2:0,2:0:0:0:
15,310,80530,2,0,B|106:296|84:360|174:342,1,168,0|10,3:0|2:0,2:0:0:0:
256,265,81320,6,0,L|246:152,1,112,6|10,3:2|2:0,2:0:0:0:
222,108,81793,1,0,3:0:0:0:
222,108,81951,2,0,P|266:75|321:74,1,112,2|10,2:0|2:0,2:0:0:0:
396,158,82583,1,6,3:2:0:0:
502,122,82899,2,0,L|492:9,2,112,10|2|10,2:0|2:0|2:0,2:0:0:0:
477,231,83846,6,0,P|448:277|453:332,1,112,6|10,3:2|2:0,2:0:0:0:
417,375,84320,2,0,B|351:375|319:328|319:328|266:342,1,168,0|10,3:0|2:0,2:0:0:0:
194,264,85109,1,6,3:2:0:0:
194,264,85267,2,0,L|209:152,1,112,8|0,2:0|3:0,2:0:0:0:
228,45,85899,1,8,3:2:0:0:
228,45,86056,2,0,P|202:55|174:56,1,56,8|8,2:0|2:0,2:0:0:0:
126,26,86372,5,6,3:2:0:0:
33,86,86688,1,10,2:0:0:0:
33,86,86846,2,0,L|50:197,1,112,0|0,3:0|3:0,2:0:0:0:
61,251,87320,1,8,2:0:0:0:
61,251,87478,1,4,3:2:0:0:
135,341,87793,1,10,3:2:0:0:
135,341,87951,2,0,P|86:368|31:370,2,112,10|0|8,3:2|2:0|2:0,2:0:0:0:
210,257,88899,6,0,L|193:146,1,112,6|10,3:1|2:0,2:0:0:0:
211,92,89372,2,0,P|264:79|318:90,1,112,0|0,3:0|3:0,2:0:0:0:
360,128,89846,1,10,2:0:0:0:
470,110,90162,6,0,L|487:-1,2,112,2|10|0,3:1|2:0|3:0,2:0:0:0:
449,220,91109,1,10,2:0:0:0:
481,327,91425,6,0,P|434:357|379:359,1,112,4|0,3:2|3:0,2:0:0:0:
333,326,91899,1,2,2:0:0:0:
333,326,92056,1,0,3:0:0:0:
269,233,92372,2,0,L|291:123,1,112,0|0,3:0|3:2,2:0:0:0:
304,68,92846,1,2,2:0:0:0:
304,68,93004,1,0,3:0:0:0:
207,11,93320,2,0,B|186:21|167:44|167:44|133:44|110:28,1,112,0|4,3:0|3:0,2:0:0:0:
60,3,93793,1,0,2:0:0:0:
59,3,93951,6,0,P|27:47|31:102,1,112,8|4,3:0|2:3,2:0:0:0:
11,154,94425,2,0,P|91:141|159:187,1,168,8|8,3:0|3:0,2:0:0:0:
254,326,95372,2,0,B|283:317|294:293|294:293|324:308|351:302,1,112,8|0,2:3|3:0,2:0:0:0:
402,280,95846,2,0,L|454:298,2,56,8|0|8,2:0|3:0|2:0,2:0:0:0:
461,183,96478,6,0,P|476:131|456:79,1,112,6|10,3:1|2:1,2:0:0:0:
407,52,96951,1,2,3:2:0:0:
407,52,97109,2,0,B|385:72|347:72|347:72|305:49,1,112,2|10,3:1|2:0,2:0:0:0:
262,86,97583,6,0,P|246:138|266:190,1,112,2|2,2:1|2:1,2:0:0:0:
252,301,98214,1,2,2:1:0:0:
160,363,98530,1,2,3:1:0:0:
160,363,98688,2,0,L|104:352,1,56,10|2,2:0|2:1,2:0:0:0:
51,370,99004,6,0,B|23:350|18:312|18:312|26:269,1,112,2|10,3:1|2:0,2:0:0:0:
4,223,99478,1,2,3:2:0:0:
4,223,99635,2,0,L|28:114,1,112,2|10,3:1|2:0,2:0:0:0:
56,4,100267,6,0,P|96:41|151:44,1,112,2|8,3:1|2:0,2:0:0:0:
198,14,100741,1,2,2:1:0:0:
283,94,101056,1,2,3:1:0:0:
283,94,101214,2,0,L|270:148,1,56,10|2,2:0|2:0,2:0:0:0:
226,183,101530,6,0,L|250:292,1,112,2|10,3:1|2:1,2:0:0:0:
260,347,102004,1,2,3:2:0:0:
260,347,102162,2,0,P|313:358|365:338,1,112,2|10,3:1|2:0,2:0:0:0:
405,299,102635,2,0,P|458:287|510:307,2,112,2|2|2,2:1|2:1|2:1,2:0:0:0:
363,200,103583,1,2,2:1:0:0:
363,200,103741,2,0,L|378:146,1,56,8|2,2:0|2:1,2:0:0:0:
387,90,104056,6,0,P|332:91|286:60,1,112,2|10,3:1|2:0,2:0:0:0:
256,12,104530,1,2,3:2:0:0:
256,12,104688,2,0,L|146:30,1,112,2|10,3:1|2:1,2:0:0:0:
34,10,105320,6,0,P|8:58|18:112,1,112,2|10,3:2|2:0,2:0:0:0:
4,170,105793,1,2,2:0:0:0:
4,170,105951,2,0,L|114:152,1,112,2|10,3:1|2:1,2:0:0:0:
226,137,106583,5,6,3:2:0:0:
186,244,106899,1,10,2:0:0:0:
186,244,107056,2,0,P|185:298|219:342,1,112,2|0,3:2|3:0,2:0:0:0:
275,366,107530,1,10,2:1:0:0:
275,366,107688,1,2,2:1:0:0:
380,327,108004,1,2,2:0:0:0:
380,327,108162,2,0,L|435:336,1,56,10|2,2:0|2:0,2:0:0:0:
490,344,108478,2,0,P|502:291|480:240,1,112,2|10,3:1|2:1,2:0:0:0:
390,173,109109,5,6,3:1:0:0:
280,198,109425,1,10,2:1:0:0:
170,223,109741,1,2,3:1:0:0:
60,248,110056,2,0,P|2:190|7:109,1,168,14|0,2:1|3:0,2:0:0:0:
37,61,110688,2,0,B|55:86|86:88|86:88|139:79,1,112,10|2,2:1|3:2,2:0:0:0:
197,68,111162,1,2,3:1:0:0:
197,68,111320,1,10,2:0:0:0:
289,4,111635,6,0,P|313:53|304:107,1,112,6|10,3:1|2:0,2:0:0:0:
258,141,112109,1,2,3:1:0:0:
173,214,112425,1,2,3:1:0:0:
173,214,112583,2,0,L|183:269,1,56,10|0,2:0|2:0,2:0:0:0:
196,323,112899,2,0,P|140:323|94:353,2,112,2|8|0,3:1|2:0|3:0,2:0:0:0:
240,357,113688,1,2,2:1:0:0:
240,357,113846,1,10,2:0:0:0:
319,277,114162,6,0,P|365:306|420:306,1,112,6|10,3:1|2:0,2:0:0:0:
466,273,114635,2,0,L|487:382,2,112,2|0|2,3:2|3:1|2:1,2:0:0:0:
454,217,115425,1,6,3:2:0:0:
500,115,115741,1,10,2:0:0:0:
500,115,115899,2,0,B|492:92|462:76|462:76|431:79|414:102,1,112,0|0,3:0|3:0,2:0:0:0:
382,148,116372,1,8,2:0:0:0:
288,86,116688,6,0,L|298:31,2,56,6|0|10,3:1|3:2|2:1,2:0:0:0:
244,120,117162,1,2,2:1:0:0:
244,120,117320,2,0,L|222:229,1,112,2|10,3:1|2:0,2:0:0:0:
262,269,117793,2,0,B|277:308|246:344|246:344|216:351,1,112,2|2,2:1|2:0,2:0:0:0:
106,379,118425,1,2,2:1:0:0:
26,308,118741,1,2,3:1:0:0:
26,308,118899,2,0,L|38:253,1,56,10|2,2:0|2:1,2:0:0:0:
8,205,119214,6,0,L|117:180,1,112,2|10,3:1|2:0,2:0:0:0:
164,149,119688,1,2,3:2:0:0:
164,149,119846,2,0,P|204:186|260:186,1,112,2|10,3:1|2:0,2:0:0:0:
362,229,120478,2,0,L|416:216,1,56,2|0,3:1|2:0,2:0:0:0:
476,226,120793,1,8,2:0:0:0:
476,225,120951,2,0,P|511:184|508:130,1,112,2|2,2:1|2:1,2:0:0:0:
479,70,121425,1,8,2:0:0:0:
368,53,121741,6,0,L|380:-1,2,56,6|0|10,3:1|3:2|2:1,2:0:0:0:
324,86,122214,1,2,2:0:0:0:
324,86,122372,2,0,L|299:195,1,112,2|10,3:1|2:0,2:0:0:0:
329,242,122846,5,2,2:1:0:0:
274,339,123162,1,2,2:1:0:0:
164,364,123478,1,2,2:1:0:0:
68,305,123793,2,0,L|13:317,2,56,2|10|2,2:1|2:0|2:1,2:0:0:0:
114,272,124267,6,0,B|140:248|140:206|140:206|125:169,1,112,2|10,3:1|2:0,2:0:0:0:
82,142,124741,1,2,2:0:0:0:
82,142,124899,2,0,B|67:105|67:105|67:63|93:39,1,112,2|10,3:1|2:1,2:0:0:0:
198,2,125530,6,0,P|243:33|297:29,1,112,2|8,3:1|2:0,2:0:0:0:
350,9,126004,1,2,2:0:0:0:
350,9,126162,2,0,L|325:118,1,112,2|8,3:1|2:0,2:0:0:0:
240,191,126793,6,0,L|264:300,1,112,6|10,3:2|2:0,2:0:0:0:
274,355,127267,1,2,3:2:0:0:
376,310,127583,1,0,3:0:0:0:
376,309,127741,2,0,P|403:308|430:317,1,56,10|2,2:0|2:1,2:0:0:0:
482,296,128056,6,0,P|510:249|509:194,1,112,2|8,3:1|2:0,2:0:0:0:
469,163,128530,1,2,2:0:0:0:
469,163,128688,2,0,L|359:187,1,112,2|10,3:1|2:1,2:0:0:0:
258,236,129320,5,6,3:2:0:0:
174,161,129635,2,0,P|167:106|194:57,2,112,10|2|10,2:1|3:1|2:0,2:0:0:0:
258,236,130583,1,6,3:1:0:0:
230,344,130899,2,0,P|175:350|126:323,1,112,10|2,2:1|3:2,2:0:0:0:
94,277,131372,1,2,3:1:0:0:
94,277,131530,1,10,2:0:0:0:
54,172,131846,6,0,P|57:116|91:73,1,112,6|10,3:1|2:0,2:0:0:0:
141,46,132320,1,2,3:2:0:0:
247,93,132635,1,2,3:1:0:0:
247,93,132793,2,0,L|301:80,1,56,10|0,2:0|2:0,2:0:0:0:
351,106,133109,6,0,P|394:72|449:71,2,112,6|10|2,3:1|2:1|3:1,2:0:0:0:
325,156,133899,1,2,2:0:0:0:
325,156,134056,1,10,2:1:0:0:
363,261,134372,6,0,P|333:307|282:327,1,112,6|8,3:1|2:0,2:0:0:0:
234,308,134846,1,0,3:2:0:0:
234,308,135004,2,0,L|125:331,1,112,10|8,2:0|2:3,2:0:0:0:
14,309,135635,2,0,L|2:363,2,56,12|12|12,2:0|2:0|2:0,2:0:0:0:
80,218,136267,2,0,B|89:175|89:175|82:146|82:146|91:109,2,112,2|2|4,2:1|2:0|3:2,2:0:0:0:
256,192,137056,12,4,138793,3:1:0:0:
393,338,139425,6,0,L|448:327,2,56,6|2|10,3:2|3:2|2:1,2:0:0:0:
305,267,140056,2,0,L|315:211,1,56,2|2,2:1|3:2,2:0:0:0:
325,156,140372,1,10,2:1:0:0:
325,156,140530,2,0,B|297:177|262:166|262:166|245:149|221:149,1,112,2|2,3:2|3:2,2:0:0:0:
138,224,141162,1,2,2:0:0:0:
31,207,141478,1,2,3:2:0:0:
31,207,141635,2,0,L|19:152,1,56,10|0,2:1|2:0,2:0:0:0:
40,99,141951,6,0,P|95:100|143:72,1,112,2|10,3:1|2:0,2:0:0:0:
175,25,142425,2,0,L|284:47,1,112,0|0,3:0|3:0,2:0:0:0:
320,91,142899,1,10,2:1:0:0:
320,91,143056,1,2,3:2:0:0:
427,59,143372,6,0,P|465:98|467:152,1,112,2|2,2:0|2:0,2:0:0:0:
497,200,143846,2,0,L|387:222,1,112,2|10,3:1|2:1,2:0:0:0:
277,197,144478,2,0,L|265:251,2,56,6|2|10,3:1|3:2|2:1,2:0:0:0:
191,124,145109,6,0,P|143:151|87:150,1,112,2|10,2:1|2:1,2:0:0:0:
45,113,145583,1,2,3:2:0:0:
1,216,145899,1,2,2:0:0:0:
36,321,146214,1,2,2:0:0:0:
143,353,146530,2,0,L|252:330,1,112,2|0,3:2|2:0,2:0:0:0:
296,364,147004,6,0,P|318:314|305:261,1,112,2|10,3:2|2:1,2:0:0:0:
317,206,147478,2,0,P|263:219|213:196,1,112,2|0,3:2|3:0,2:0:0:0:
182,149,147951,1,10,2:1:0:0:
211,43,148267,5,6,3:2:0:0:
211,43,148425,2,0,L|322:23,1,112,0|0,3:0|3:0,2:0:0:0:
376,10,148899,2,0,P|398:60|385:113,1,112,2|8,3:2|2:0,2:0:0:0:
454,201,149530,6,0,L|464:256,2,56,4|2|10,3:2|3:2|2:1,2:0:0:0:
342,185,150162,2,0,L|362:296,1,112,2|10,2:1|2:1,2:0:0:0:
364,351,150635,1,2,3:2:0:0:
256,380,150951,1,2,2:0:0:0:
148,351,151267,1,2,3:2:0:0:
99,249,151583,1,2,3:2:0:0:
99,249,151741,2,0,L|109:193,1,56,10|0,2:1|2:0,2:0:0:0:
84,143,152056,6,0,P|139:143|183:111,1,112,6|10,3:1|2:1,2:0:0:0:
210,61,152530,1,0,3:0:0:0:
300,136,152846,2,0,L|286:190,1,56,0|10,3:0|2:0,2:0:0:0:
269,243,153162,1,2,3:2:0:0:
306,349,153478,6,0,P|350:316|405:317,1,112,0|2,2:0|3:2,2:0:0:0:
461,311,153951,2,0,L|447:365,2,56,2|2|10,3:1|3:2|2:1,2:0:0:0:
425,204,154583,2,0,L|438:149,2,56,6|0|10,3:1|3:0|2:1,2:0:0:0:
321,158,155214,2,0,P|267:166|218:141,1,112,2|10,2:1|2:1,2:0:0:0:
193,91,155688,5,2,3:2:0:0:
84,63,156004,1,2,2:0:0:0:
16,152,156320,1,2,2:0:0:0:
56,261,156635,1,0,3:2:0:0:
56,261,156793,2,0,L|109:277,1,56,10|0,2:0|2:0,2:0:0:0:
144,321,157109,6,0,L|251:288,1,112,6|10,3:2|2:0,2:0:0:0:
302,311,157583,2,0,P|326:261|315:207,1,112,0|0,3:0|3:0,2:0:0:0:
273,170,158056,1,10,2:0:0:0:
273,170,158214,1,0,3:2:0:0:
289,59,158530,2,0,P|336:26|388:26,1,112,0|0,3:0|3:0,2:0:0:0:
444,13,159004,2,0,L|460:123,1,112,2|8,3:2|2:0,2:0:0:0:
506,225,159635,6,0,L|489:335,1,112,6|10,3:2|2:0,2:0:0:0:
456,382,160109,1,0,3:0:0:0:
455,381,160267,2,0,P|411:349|356:350,1,112,2|10,2:0|2:0,2:0:0:0:
263,285,160899,6,0,L|286:175,1,112,2|10,3:2|2:0,2:0:0:0:
292,120,161372,2,0,B|253:123|228:99|228:99|204:109|204:109|174:83|137:87,1,168,0|10,3:0|2:0,2:0:0:0:
42,26,162162,6,0,P|20:76|32:131,1,112,6|10,3:2|2:0,2:0:0:0:
5,180,162635,1,0,3:0:0:0:
5,179,162793,2,0,P|59:179|103:213,1,112,2|10,2:0|2:0,2:0:0:0:
148,316,163425,6,0,P|202:316|246:282,1,112,2|10,3:2|2:0,2:0:0:0:
222,230,163899,2,0,P|194:152|228:78,1,168,0|10,3:0|2:0,2:0:0:0:
334,39,164688,6,0,B|351:64|382:69|382:69|406:56|434:59,1,112,6|10,3:2|2:0,2:0:0:0:
486,91,165162,1,0,3:0:0:0:
486,91,165320,2,0,P|506:141|490:194,1,112,2|10,2:0|2:0,2:0:0:0:
387,241,165951,5,6,3:2:0:0:
405,351,166267,2,0,P|453:374|508:365,2,112,10|2|10,2:0|2:0|2:0,2:0:0:0:
303,303,167214,2,0,P|247:303|203:335,1,112,6|10,3:2|2:0,2:0:0:0:
158,363,167688,2,0,P|77:363|28:299,1,168,0|10,3:0|2:0,2:0:0:0:
68,196,168478,5,6,3:2:0:0:
68,196,168635,2,0,B|92:215|123:215|123:215|173:196,1,112,8|0,2:0|3:0,2:0:0:0:
286,220,169267,1,8,3:2:0:0:
286,220,169425,2,0,L|295:164,1,56,8|8,2:0|2:0,2:0:0:0:
304,109,169741,5,6,3:2:0:0:
237,26,170056,1,10,2:0:0:0:
237,26,170214,2,0,P|181:25|137:58,1,112,0|0,3:0|3:0,2:0:0:0:
111,110,170688,1,8,2:0:0:0:
111,110,170846,1,4,3:2:0:0:
124,225,171162,1,10,3:2:0:0:
124,225,171320,2,0,P|68:225|24:192,2,112,10|0|8,3:2|2:0|2:0,2:0:0:0:
232,198,172267,6,0,L|213:308,1,112,6|10,3:1|2:0,2:0:0:0:
244,354,172741,1,0,3:0:0:0:
244,353,172899,2,0,P|291:326|346:329,1,112,2|10,2:1|2:0,2:0:0:0:
449,374,173530,2,0,P|476:326|473:271,1,112,2|10,3:1|2:0,2:0:0:0:
510,229,174004,1,0,3:0:0:0:
510,229,174162,2,0,L|399:209,1,112,2|10,2:1|2:0,2:0:0:0:
318,132,174793,6,0,L|207:151,1,112,2|10,3:1|2:0,2:0:0:0:
152,163,175267,1,0,3:0:0:0:
68,96,175583,1,0,3:0:0:0:
68,96,175741,2,0,P|40:144|45:199,1,112,10|2,2:0|3:1,2:0:0:0:
4,305,176372,2,0,B|85:291|66:356|163:339,1,168,10|0,2:0|3:0,2:0:0:0:
211,311,177004,1,10,2:0:0:0:
256,208,177320,6,0,L|238:97,1,112,6|10,3:2|2:0,2:0:0:0:
228,42,177793,1,0,3:0:0:0:
337,9,178109,1,0,3:0:0:0:
337,9,178267,2,0,P|382:39|441:39,1,112,10|2,2:2|3:2,2:0:0:0:
486,10,178741,1,2,3:1:0:0:
512,122,179056,1,0,3:0:0:0:
512,122,179214,2,0,L|494:232,1,112,2|10,2:1|2:1,2:0:0:0:
469,341,179846,6,0,P|424:311|369:311,1,112,6|10,3:1|2:0,2:0:0:0:
323,341,180320,1,0,3:0:0:0:
323,341,180478,2,0,L|305:231,1,112,2|10,2:0|2:0,2:0:0:0:
360,133,181109,2,0,P|345:79|302:45,1,112,2|10,3:1|2:0,2:0:0:0:
247,34,181583,1,0,3:0:0:0:
162,107,181899,1,0,3:0:0:0:
162,107,182056,2,0,L|107:116,1,56,10|0,2:0|3:0,2:0:0:0:
57,88,182372,6,0,B|22:108|17:149|17:149|22:184,1,112,14|10,2:1|2:0,2:0:0:0:
5,240,182846,1,0,3:0:0:0:
5,240,183004,2,0,L|29:349,1,112,12|8,2:0|2:0,2:0:0:0:
129,299,183635,2,0,L|116:244,2,56,12|12|12,2:0|2:0|2:0,2:0:0:0:
227,353,184267,2,0,B|261:301|325:320|325:320|357:369|422:353,1,224,2|4,2:0|2:0,2:0:0:0:
247,28,192320,6,0,P|219:74|226:128,1,112,10|10,2:0|2:1,2:0:0:0:
259,174,192793,1,10,2:1:0:0:
341,249,193109,2,0,L|395:238,1,56,10|10,2:1|2:1,2:0:0:0:
444,208,193425,1,0,3:1:0:0:
447,210,193583,2,0,B|465:229|465:229|490:238|490:238|515:266|508:314|465:335,1,168,14|8,2:1|2:0,2:0:0:0:
361,372,194372,5,2,3:2:0:0:
255,334,194688,1,10,2:0:0:0:
150,294,195004,6,0,L|96:305,2,56,4|2|10,3:2|3:2|2:1,2:0:0:0:
186,188,195635,2,0,L|175:133,1,56,2|2,2:1|2:0,2:0:0:0:
160,78,195951,1,10,2:1:0:0:
160,78,196109,1,2,3:2:0:0:
244,4,196425,1,2,2:0:0:0:
355,16,196741,1,2,3:2:0:0:
429,106,197056,1,2,3:2:0:0:
429,106,197214,2,0,L|416:159,1,56,10|0,2:1|2:0,2:0:0:0:
437,212,197530,6,0,L|328:237,1,112,6|10,3:1|2:1,2:0:0:0:
274,256,198004,1,0,3:0:0:0:
180,193,198320,2,0,L|192:138,1,56,0|10,3:0|2:0,2:0:0:0:
208,84,198635,1,2,3:2:0:0:
117,18,198951,2,0,P|73:50|64:104,1,112,0|2,2:0|3:2,2:0:0:0:
54,160,199425,2,0,L|0:172,2,56,2|2|10,3:1|3:2|2:1,2:0:0:0:
73,270,200056,6,0,L|18:282,2,56,6|0|10,3:1|3:0|2:1,2:0:0:0:
166,331,200688,2,0,L|220:318,1,56,2|0,2:1|2:0,2:0:0:0:
279,308,201004,1,10,2:1:0:0:
279,308,201162,1,2,3:2:0:0:
230,207,201478,1,2,2:0:0:0:
259,99,201793,1,2,2:0:0:0:
361,49,202109,1,0,3:2:0:0:
361,49,202267,2,0,L|415:61,1,56,10|0,2:0|2:0,2:0:0:0:
465,35,202583,6,0,P|495:80|490:135,1,112,6|10,3:2|2:0,2:0:0:0:
461,183,203056,2,0,L|351:207,1,112,0|0,3:0|3:0,2:0:0:0:
300,221,203530,1,10,2:0:0:0:
300,221,203688,1,0,3:2:0:0:
207,157,204004,2,0,P|153:168|102:146,1,112,0|0,3:0|3:0,2:0:0:0:
57,180,204478,2,0,P|45:233|67:284,1,112,2|8,3:2|2:0,2:0:0:0:
163,343,205109,6,0,B|192:321|230:317|230:317|266:332,1,112,6|10,3:2|2:0,2:0:0:0:
317,310,205583,1,0,3:0:0:0:
317,310,205741,2,0,P|358:344|413:343,1,112,2|10,2:0|2:0,2:0:0:0:
473,248,206372,6,0,L|448:138,1,112,2|10,3:2|2:0,2:0:0:0:
475,89,206846,2,0,P|414:34|333:45,1,168,0|10,3:0|2:0,2:0:0:0:
222,32,207635,6,0,L|246:141,1,112,6|10,3:2|2:0,2:0:0:0:
294,170,208109,1,0,3:0:0:0:
294,170,208267,2,0,P|321:217|313:272,1,112,2|10,2:0|2:0,2:0:0:0:
246,361,208899,6,0,P|199:332|145:341,1,112,2|10,3:2|2:0,2:0:0:0:
99,374,209372,2,0,B|54:351|44:300|44:300|66:268|59:230,1,168,0|10,3:0|2:0,2:0:0:0:
7,131,210162,6,0,P|62:120|116:107,1,112,6|10,3:2|2:0,2:0:0:0:
157,69,210635,1,0,3:0:0:0:
157,69,210793,2,0,P|167:124|180:178,1,112,2|10,2:0|2:0,2:0:0:0:
255,262,211425,1,6,3:2:0:0:
189,352,211741,2,0,P|133:362|79:375,2,112,10|2|10,2:0|2:0|2:0,2:0:0:0:
255,262,212688,6,0,P|299:294|354:294,1,112,6|10,3:2|2:0,2:0:0:0:
405,271,213162,2,0,B|422:209|422:209|406:165|406:165|420:110,1,168,0|10,3:0|2:0,2:0:0:0:
348,32,213951,5,6,3:2:0:0:
347,32,214109,2,0,P|302:63|247:65,1,112,8|0,2:0|3:0,2:0:0:0:
147,12,214741,1,8,3:2:0:0:
147,12,214899,2,0,L|92:26,1,56,8|8,2:0|2:0,2:0:0:0:
38,10,215214,5,6,3:2:0:0:
8,118,215530,1,10,2:0:0:0:
8,118,215688,2,0,B|8:163|27:196|27:196|58:212,1,112,0|0,3:0|3:0,2:0:0:0:
106,232,216162,1,8,2:0:0:0:
106,232,216320,1,4,3:2:0:0:
216,201,216635,1,10,3:2:0:0:
216,201,216793,2,0,B|229:159|229:159|223:144|223:144|236:93,2,112,10|0|8,3:2|2:0|2:0,2:0:0:0:
195,310,217741,6,0,P|250:310|294:343,1,112,6|10,3:1|2:0,2:0:0:0:
343,370,218214,1,0,3:0:0:0:
343,370,218372,2,0,L|451:341,1,112,2|10,3:1|2:0,2:0:0:0:
508,244,219004,6,0,P|516:190|494:140,1,112,2|10,3:1|2:0,2:0:0:0:
443,115,219478,2,0,L|334:143,1,112,2|0,3:1|3:0,2:0:0:0:
284,118,219951,1,10,2:1:0:0:
217,208,220267,6,0,P|236:259|220:311,1,112,6|10,3:2|2:0,2:0:0:0:
189,358,220741,2,0,P|120:313|39:326,1,168,0|10,3:0|2:0,2:0:0:0:
8,218,221530,5,6,3:1:0:0:
80,132,221846,1,10,2:0:0:0:
80,132,222004,1,0,3:0:0:0:
53,28,222320,1,0,3:0:0:0:
53,28,222478,2,0,P|108:25|156:52,1,112,10|4,2:0|3:2,2:0:0:0:
256,192,222951,12,2,227846,2:1:0:0:
