osu file format v14

[General]
AudioFilename: audio.mp3
AudioLeadIn: 0
PreviewTime: 139425
Countdown: 1
SampleSet: Soft
StackLeniency: 0.3
Mode: 0
LetterboxInBreaks: 0
WidescreenStoryboard: 1

[Editor]
Bookmarks: 13109,74688
DistanceSpacing: 1
BeatDivisor: 4
GridSize: 8
TimelineZoom: 2.4

[Metadata]
Title:Winter Diamond
TitleUnicode:Winter Diamond
Artist:Rita
ArtistUnicode:Rita
Creator:Shikibe Mayu
Version:Hard
Source:見上げてごらん、夜空の星を
Tags:shizuku- kazato asa miazora miagete goran, yozora no hoshi o complete soundtrack a sky full of stars & little planets pulltop willplus WILL-323-338CD WILL-323O KDSD-01006 MANA Kenichi Okuma おおくま けんいち Minao Ohse 逢瀬 水織 TWOFIVE eroge galgame visual novel vn version opening op 2 pop japanese video game
BeatmapID:2436157
BeatmapSetID:999834

[Difficulty]
HPDrainRate:4.5
CircleSize:3.5
OverallDifficulty:6.5
ApproachRate:8
SliderMultiplier:1.44
SliderTickRate:1

[Events]
//Background and Video events
0,0,"saya.jpg",0,0
//Break Periods
2,185099,191570
//Storyboard Layer 0 (Background)
//Storyboard Layer 1 (Fail)
//Storyboard Layer 2 (Pass)
//Storyboard Layer 3 (Foreground)
//Storyboard Layer 4 (Overlay)
//Storyboard Sound Samples

[TimingPoints]
478,315.789473684211,4,2,1,40,1,0
5214,-100,4,2,1,50,0,0
5530,-100,4,2,1,60,0,0
10583,-100,4,2,1,50,0,0
12399,-100,4,2,1,60,0,0
12714,-100,4,2,1,40,0,0
13109,-100,4,2,2,60,0,0
22583,-100,4,2,2,50,0,0
53530,-100,4,2,2,60,0,0
54004,-100,4,2,1,60,0,0
54162,-125,4,2,1,60,0,0
55109,-100,4,2,1,60,0,0
55503,-100,4,2,1,40,0,0
56056,-100,4,2,1,75,0,1
56372,-90.9090909090909,4,2,3,75,0,1
88899,-100,4,2,1,60,0,0
96478,-100,4,2,2,60,0,0
105320,-100,4,2,2,50,0,0
130898,-100,4,2,2,60,0,0
131214,-100,4,2,2,50,0,0
135004,-100,4,2,2,60,0,0
136899,-100,4,2,2,50,0,0
137372,-100,4,2,1,50,0,0
137530,-125,4,2,1,50,0,0
138004,-100,4,2,1,60,0,0
138871,-100,4,2,1,40,0,0
139425,-100,4,2,1,75,0,1
139741,-90.9090909090909,4,2,3,75,0,1
172267,-100,4,2,1,70,0,0
184267,-100,4,2,4,50,0,0
192320,-100,4,2,1,50,0,0
193583,-100,4,2,1,60,0,0
194608,-100,4,2,1,40,0,0
195004,-100,4,2,1,75,0,1
195320,-90.9090909090909,4,2,3,75,0,1
217741,-100,4,2,1,70,0,0
222793,-100,4,2,1,50,0,0
227846,-100,4,2,4,50,0,0

[Colours]
Combo1 : 97,182,233
Combo2 : 255,193,109

[HitObjects]
256,370,478,6,0,P|200:326|130:331,1,144,2|0,3:1|3:0,2:0:0:0:
49,279,951,2,0,L|34:349,2,72,2|0|2,2:0|3:0|2:0,2:0:0:0:
114,215,1425,2,0,L|99:144,1,72,2|2,3:1|2:0,2:0:0:0:
32,85,1741,5,0,3:0:0:0:
81,17,1899,2,0,P|150:17|196:70,1,144,2|2,2:0|2:0,2:0:0:0:
296,53,2372,2,0,L|282:124,1,72,2|2,3:1|2:0,2:0:0:0:
206,209,2688,2,0,L|220:279,1,72,0|2,3:0|2:0,2:0:0:0:
255,369,3004,6,0,B|304:342|304:342|386:372,1,144,2|0,3:1|3:0,2:0:0:0:
442,294,3478,2,0,L|512:279,2,72,2|0|2,2:0|3:0|2:0,2:0:0:0:
377,228,3951,2,0,L|391:157,1,72,2|2,3:1|2:0,2:0:0:0:
466,100,4267,5,0,3:0:0:0:
400,24,4425,2,0,P|347:70|278:61,1,144,2|2,2:0|2:0,2:0:0:0:
203,0,4899,1,2,3:1:0:0:
120,60,5056,1,8,2:0:0:0:
120,60,5135,1,8,2:0:0:0:
120,60,5214,2,0,L|83:68,3,36,8|8|8|8,2:0|2:0|2:0|2:0,2:0:0:0:
51,53,5530,6,0,B|25:122|25:122|54:143|58:181,1,144,6|10,3:1|2:0,2:0:0:0:
17,257,6004,2,0,L|29:327,1,72,0|2,3:0|2:0,2:0:0:0:
116,376,6320,1,0,3:0:0:0:
116,376,6478,2,0,L|128:305,1,72,10|2,2:1|2:0,2:0:0:0:
219,273,6793,5,0,3:2:0:0:
159,216,6951,2,0,L|146:145,2,72,2|8|2,2:0|2:0|2:0,2:0:0:0:
219,273,7425,2,0,B|296:257|296:257|315:286|346:299,1,144,2|10,3:1|2:0,2:0:0:0:
429,333,7899,1,0,3:0:0:0:
504,284,8056,6,0,P|494:212|486:141,1,144,2|10,3:1|2:0,2:0:0:0:
393,69,8530,2,0,P|388:104|384:140,1,72,0|2,3:0|2:0,2:0:0:0:
282,161,8846,1,0,3:0:0:0:
226,88,9004,6,0,P|173:43|103:49,1,144,10|2,2:1|3:2,2:0:0:0:
20,101,9478,2,0,P|13:66|7:30,1,72,0|10,3:0|2:0,2:0:0:0:
148,134,9793,1,0,3:0:0:0:
148,134,9951,2,0,P|134:203|119:277,1,144,2|10,2:1|2:0,2:0:0:0:
83,380,10425,5,0,2:0:0:0:
83,379,10583,2,0,P|134:331|204:340,1,144,4|0,3:2|3:0,2:0:0:0:
278,284,11056,1,2,2:1:0:0:
358,333,11214,2,0,P|364:298|370:262,1,72,0|2,3:0|2:0,2:0:0:0:
308,202,11530,2,0,P|301:167|295:131,1,72,8|0,2:3|2:0,2:0:0:0:
250,57,11846,5,0,3:0:0:0:
316,3,12004,1,2,2:1:0:0:
391,41,12162,2,0,P|425:34|461:28,1,72,0|8,3:0|2:0,2:0:0:0:
461,28,12399,1,8,2:0:0:0:
461,28,12478,1,4,2:3:0:0:
512,131,12635,1,0,3:0:0:0:
512,131,12714,1,8,2:0:0:0:
512,131,12793,2,0,L|505:167,3,36,8|8|8|8,2:0|2:0|2:0|2:0,2:0:0:0:
512,203,13109,6,0,P|476:201|443:215,1,72,6|2,3:1|3:2,2:0:0:0:
430,304,13425,1,10,2:1:0:0:
353,349,13583,1,2,3:2:0:0:
272,318,13741,2,0,P|259:247|248:175,1,144,2|10,3:1|2:0,2:0:0:0:
306,90,14214,2,0,P|270:91|237:76,1,72,2|2,2:1|3:2,2:0:0:0:
173,16,14530,2,0,P|137:14|104:29,1,72,2|8,2:1|2:0,2:0:0:0:
16,0,14846,6,0,P|27:71|39:142,1,144,2|2,2:1|3:1,2:0:0:0:
27,229,15320,2,0,P|62:229|95:214,1,72,10|2,2:0|2:1,2:0:0:0:
152,141,15635,6,0,B|200:150|200:150|226:181|226:181|280:191,1,144,2|10,3:1|2:0,2:0:0:0:
361,149,16109,1,2,3:2:0:0:
361,149,16188,1,2,3:2:0:0:
361,149,16267,2,0,L|345:78,1,72,2|0,3:1|3:0,2:0:0:0:
427,55,16583,2,0,L|443:126,1,72,10|0,2:0|2:0,2:0:0:0:
510,185,16899,6,0,P|509:254|457:301,1,144,2|8,3:1|2:0,2:0:0:0:
412,384,17372,2,0,P|365:331|295:331,1,144,2|2,2:1|3:1,2:0:0:0:
222,383,17846,1,10,2:0:0:0:
157,325,18004,1,2,2:0:0:0:
157,325,18162,6,0,L|170:254,1,72,2|2,3:1|3:2,2:0:0:0:
250,211,18478,1,10,2:1:0:0:
281,131,18635,1,2,3:2:0:0:
245,53,18793,2,0,P|190:8|119:12,1,144,2|10,3:1|2:0,2:0:0:0:
26,0,19267,6,0,L|39:70,1,72,2|0,2:1|2:0,2:0:0:0:
116,125,19583,2,0,L|102:195,1,72,2|8,2:1|2:0,2:0:0:0:
17,248,19899,2,0,P|17:317|68:366,1,144,2|2,2:1|2:1,2:0:0:0:
152,317,20372,1,8,2:0:0:0:
224,376,20530,1,2,2:1:0:0:
224,376,20688,6,0,L|246:233,1,144,2|10,3:1|2:0,2:0:0:0:
194,163,21162,1,2,3:2:0:0:
194,163,21241,1,2,3:2:0:0:
193,162,21320,2,0,P|185:128|190:92,1,72,2|0,3:1|3:0,2:0:0:0:
261,40,21635,2,0,P|295:49|331:44,1,72,10|0,2:1|2:0,2:0:0:0:
411,2,21951,6,0,P|422:73|434:144,1,144,2|10,3:2|2:0,2:0:0:0:
501,213,22425,1,2,2:0:0:0:
444,279,22583,2,0,P|438:314|432:350,1,72,2|2,3:1|3:2,2:0:0:0:
335,384,22899,2,0,P|341:349|347:313,1,72,10|2,2:1|2:0,2:0:0:0:
284,249,23214,6,0,P|212:260|142:272,2,144,6|10|2,3:2|2:0|3:1,2:0:0:0:
353,195,24004,1,0,3:0:0:0:
353,195,24162,2,0,B|363:159|363:159|352:126,1,72,10|2,2:1|2:1,2:0:0:0:
395,56,24478,6,0,P|341:10|272:19,1,144,0|10,2:0|2:0,2:0:0:0:
218,87,24951,1,2,2:0:0:0:
154,33,25109,2,0,P|118:26|82:22,1,72,2|0,3:1|3:2,2:0:0:0:
28,130,25425,2,0,P|63:123|99:119,1,72,10|0,2:1|3:0,2:0:0:0:
177,181,25741,6,0,P|161:251|151:322,1,144,6|10,3:1|2:1,2:0:0:0:
61,374,26214,1,2,3:2:0:0:
61,374,26372,2,0,P|55:338|48:303,1,72,2|0,3:1|3:0,2:0:0:0:
151,322,26688,6,0,P|221:306|292:296,1,144,14|2,2:1|3:2,2:0:0:0:
371,351,27162,1,0,3:0:0:0:
460,334,27320,2,0,P|504:279|497:210,1,144,10|2,2:1|3:2,2:0:0:0:
419,172,27793,1,2,3:1:0:0:
418,172,27951,2,0,P|383:180|347:183,1,72,10|0,2:0|3:0,2:0:0:0:
309,263,28267,6,0,P|264:208|271:139,1,144,6|10,3:1|2:0,2:0:0:0:
220,54,28741,2,0,P|255:50|290:42,1,72,2|2,3:1|3:2,2:0:0:0:
359,105,29056,1,2,3:1:0:0:
359,105,29214,2,0,P|394:108|429:116,1,72,10|0,2:0|2:0,2:0:0:0:
512,71,29530,6,0,P|490:139|480:210,1,144,2|8,3:1|2:0,2:0:0:0:
505,297,30004,1,2,2:0:0:0:
441,363,30162,2,0,P|405:356|370:350,1,72,0|2,3:0|2:1,2:0:0:0:
282,384,30478,2,0,P|275:348|269:313,1,72,10|2,2:0|2:1,2:0:0:0:
321,242,30793,6,0,P|308:171|296:100,1,144,6|10,3:1|2:0,2:0:0:0:
348,19,31267,2,0,P|312:12|277:6,1,72,2|2,3:2|3:1,2:0:0:0:
203,81,31583,2,0,P|167:87|132:93,1,72,0|10,3:1|2:0,2:0:0:0:
53,42,31899,1,2,2:1:0:0:
53,42,32056,6,0,B|87:84|87:84|64:171,1,144,6|10,3:2|2:0,2:0:0:0:
8,242,32530,1,0,3:0:0:0:
8,242,32609,1,8,2:0:0:0:
8,242,32688,2,0,L|19:314,1,72,8|0,2:0|3:0,2:0:0:0:
121,380,33004,2,0,L|126:344,3,36,8|8|8|8,2:0|2:0|2:0|2:0,2:0:0:0:
109,311,33320,6,0,L|181:300,1,72,6|0,3:1|3:2,2:0:0:0:
260,343,33635,1,10,2:1:0:0:
322,281,33793,1,2,2:1:0:0:
276,205,33951,2,0,P|243:142|261:74,1,144,2|10,3:1|2:0,2:0:0:0:
348,19,34425,6,0,L|420:8,1,72,2|2,2:1|3:2,2:0:0:0:
498,106,34741,2,0,L|426:95,1,72,2|8,2:0|2:0,2:0:0:0:
370,200,35056,2,0,B|456:185|456:185|475:209|498:221,1,144,2|2,2:1|3:1,2:0:0:0:
473,311,35530,2,0,L|401:322,1,72,10|2,2:0|2:1,2:0:0:0:
336,384,35846,6,0,P|286:334|290:265,1,144,2|10,3:1|2:0,2:0:0:0:
370,200,36320,1,2,3:2:0:0:
370,200,36399,1,2,3:2:0:0:
370,200,36478,2,0,L|358:128,1,72,2|0,3:1|3:0,2:0:0:0:
272,125,36793,2,0,L|260:53,1,72,10|0,2:0|2:0,2:0:0:0:
188,7,37109,6,0,P|118:7|73:60,1,144,2|8,3:1|2:0,2:0:0:0:
0,116,37583,2,0,P|69:116|115:170,1,144,2|2,2:1|2:1,2:0:0:0:
63,241,38056,1,8,2:0:0:0:
83,327,38214,1,2,2:0:0:0:
83,327,38372,6,0,P|118:333|153:340,1,72,6|0,3:1|3:2,2:0:0:0:
202,265,38688,2,0,P|237:258|272:251,1,72,10|2,2:1|2:0,2:0:0:0:
351,291,39004,2,0,P|392:234|377:166,1,144,2|10,3:1|2:0,2:0:0:0:
289,146,39478,6,0,P|253:152|218:159,1,72,2|2,2:1|3:2,2:0:0:0:
162,79,39793,2,0,P|197:72|232:65,1,72,2|8,2:1|2:0,2:0:0:0:
293,1,40109,2,0,P|347:44|417:37,1,144,2|2,2:1|2:1,2:0:0:0:
512,15,40583,2,0,P|505:50|498:85,1,72,10|2,2:0|2:1,2:0:0:0:
428,145,40899,6,0,P|441:215|455:286,1,144,2|10,3:1|2:0,2:0:0:0:
382,375,41372,1,2,2:0:0:0:
382,375,41451,1,2,2:0:0:0:
382,375,41530,2,0,P|375:339|368:304,1,72,2|0,3:1|3:0,2:0:0:0:
291,254,41846,2,0,P|298:218|305:183,1,72,10|0,2:1|2:0,2:0:0:0:
250,118,42162,6,0,P|178:132|108:146,1,144,2|8,3:1|2:0,2:0:0:0:
37,96,42635,1,2,2:0:0:0:
37,96,42793,2,0,P|23:129|24:165,1,72,2|0,3:1|3:0,2:0:0:0:
83,223,43109,2,0,L|76:258,3,36,8|8|8|8,2:0|2:0|2:0|2:0,2:0:0:0:
70,294,43425,6,0,P|119:343|190:338,1,144,6|10,3:2|2:0,2:0:0:0:
250,273,43899,1,2,0:2:0:0:
250,273,43978,1,2,2:0:0:0:
250,273,44056,2,0,P|243:237|237:202,1,72,2|0,3:1|3:0,2:0:0:0:
174,140,44372,1,10,2:0:0:0:
193,61,44530,1,2,2:1:0:0:
272,23,44688,6,0,P|328:65|398:58,1,144,2|8,3:1|2:0,2:0:0:0:
496,33,45162,1,2,2:0:0:0:
496,33,45241,1,2,2:0:0:0:
496,33,45320,2,0,P|488:68|480:103,1,72,2|0,3:1|3:2,2:0:0:0:
421,169,45635,2,0,P|428:204|436:239,1,72,10|0,2:1|3:0,2:0:0:0:
512,309,45951,6,0,P|443:294|383:331,1,144,6|10,3:2|2:1,2:0:0:0:
298,384,46425,1,0,2:0:0:0:
298,384,46583,2,0,P|290:348|282:313,1,72,2|0,3:1|3:0,2:0:0:0:
328,242,46899,2,0,P|320:206|312:171,1,72,10|0,2:0|2:0,2:0:0:0:
352,80,47214,6,0,P|411:117|480:102,2,144,6|10|2,3:1|2:1|3:2,2:0:0:0:
293,18,48004,1,2,3:1:0:0:
293,18,48162,2,0,L|222:34,1,72,10|0,2:0|3:0,2:0:0:0:
165,98,48478,6,0,B|140:55|90:46|90:46|51:82,1,144,6|10,3:1|2:0,2:0:0:0:
14,160,48951,1,2,3:2:0:0:
14,160,49030,1,2,3:2:0:0:
14,160,49109,2,0,L|30:230,1,72,2|2,3:2|3:1,2:0:0:0:
0,310,49425,2,0,L|16:380,1,72,10|0,2:0|2:0,2:0:0:0:
101,322,49741,6,0,P|171:325|221:374,1,144,6|10,3:1|2:1,2:0:0:0:
292,320,50214,1,2,2:0:0:0:
292,320,50372,2,0,L|278:249,1,72,2|2,3:1|2:0,2:0:0:0:
204,208,50688,2,0,L|190:137,1,72,10|2,2:1|2:0,2:0:0:0:
183,48,51004,6,0,B|233:48|262:81|262:81|315:66,1,144,6|8,3:1|2:0,2:0:0:0:
382,12,51478,1,0,3:2:0:0:
382,12,51556,1,0,3:0:0:0:
382,12,51635,2,0,L|416:21,3,36,10|8|8|8,2:0|2:0|2:0|2:0,2:0:0:0:
451,30,51951,2,0,L|460:64,3,36,8|8|4|4,2:3|2:3|2:3|2:3,2:0:0:0:
471,99,52267,5,12,2:0:0:0:
383,147,52425,1,12,2:0:0:0:
407,248,52583,1,12,2:0:0:0:
407,248,53530,5,4,3:2:0:0:
254,349,54004,5,2,2:0:0:0:
254,349,54162,2,0,L|242:292,1,57.6,2|2,2:0|2:0,2:0:0:0:
271,215,54478,2,0,L|259:158,1,57.6,2|2,2:0|2:0,2:0:0:0:
305,89,54793,5,4,3:2:0:0:
246,27,54951,1,8,2:0:0:0:
246,27,55030,1,8,2:0:0:0:
245,27,55109,2,0,P|209:34|175:44,1,72,8|8,2:0|2:0,2:0:0:0:
120,118,55425,6,0,P|102:114|85:109,3,36,4|8|8|8,3:2|2:0|2:0|2:0,2:0:0:0:
53,127,55741,2,0,P|63:161|67:197,1,72,8|8,2:0|2:0,2:0:0:0:
59,234,55978,1,8,2:0:0:0:
59,234,56056,5,6,3:2:0:0:
69,328,56214,1,2,3:2:0:0:
158,366,56372,2,0,L|235:351,1,79.2,10|0,2:1|3:0,2:0:0:0:
326,281,56688,2,0,L|248:266,1,79.2,2|2,2:1|3:2,2:0:0:0:
189,206,57004,1,10,2:1:0:0:
189,206,57162,6,0,P|165:132|202:65,1,158.4,2|2,3:2|3:2,2:0:0:0:
291,28,57635,1,10,2:1:0:0:
356,94,57793,2,0,P|395:93|432:76,1,79.2,2|2,2:0|3:1,2:0:0:0:
501,134,58109,1,2,3:2:0:0:
501,134,58267,2,0,L|482:211,1,79.2,10|0,2:1|2:0,2:0:0:0:
512,303,58583,6,0,P|458:357|381:350,1,158.4,2|10,3:1|2:0,2:0:0:0:
315,295,59056,1,0,3:0:0:0:
315,295,59135,1,0,3:0:0:0:
315,295,59214,2,0,L|329:217,1,79.2,2|0,2:1|3:0,2:0:0:0:
346,125,59530,1,10,2:1:0:0:
346,125,59688,6,0,P|269:136|206:92,1,158.4,2|2,3:2|2:0,2:0:0:0:
134,33,60162,1,10,2:1:0:0:
50,62,60320,1,2,2:0:0:0:
50,62,60399,1,2,2:0:0:0:
50,62,60478,2,0,P|43:101|37:140,1,79.2,2|2,3:1|3:2,2:0:0:0:
108,194,60793,2,0,P|101:233|95:272,1,79.2,10|0,2:1|2:0,2:0:0:0:
41,359,61109,5,6,3:1:0:0:
132,384,61267,1,2,3:2:0:0:
185,309,61425,2,0,P|191:269|198:230,1,79.2,10|0,2:1|3:0,2:0:0:0:
108,194,61741,2,0,P|101:154|94:115,1,79.2,2|0,2:1|3:0,2:0:0:0:
136,34,62056,1,10,2:1:0:0:
218,69,62214,6,0,P|295:69|352:17,1,158.4,2|2,3:2|2:0,2:0:0:0:
440,0,62688,1,10,2:1:0:0:
508,65,62846,1,2,2:0:0:0:
508,65,62925,1,2,0:0:0:0:
508,65,63004,2,0,L|492:142,1,79.2,2|0,3:1|3:2,2:0:0:0:
424,198,63320,2,0,L|439:275,1,79.2,10|0,2:1|2:0,2:0:0:0:
495,378,63635,6,0,P|432:332|357:346,1,158.4,2|10,3:2|2:0,2:0:0:0:
256,384,64109,2,0,B|269:328|269:328|248:288|248:288|261:233,1,158.4,2|0,3:2|3:0,2:0:0:0:
327,173,64583,1,10,2:1:0:0:
254,121,64741,5,0,3:2:0:0:
254,121,64820,1,0,3:0:0:0:
254,121,64899,2,0,L|240:42,1,79.2,6|0,3:2|3:0,2:0:0:0:
157,11,65214,1,14,2:0:0:0:
101,81,65372,2,0,L|22:67,1,79.2,0|2,3:0|3:2,2:0:0:0:
3,155,65688,1,0,3:0:0:0:
60,218,65846,2,0,L|53:257,3,39.6,8|8|8|8,2:0|2:0|2:0|2:0,2:0:0:0:
44,296,66162,5,4,3:2:0:0:
148,281,66320,1,2,3:2:0:0:
204,356,66478,2,0,L|281:338,1,79.2,10|0,2:1|3:0,2:0:0:0:
370,384,66793,2,0,L|388:307,1,79.2,2|0,2:1|2:0,2:0:0:0:
342,220,67109,1,10,2:1:0:0:
429,178,67267,6,0,P|481:122|467:47,1,158.4,2|0,3:2|2:0,2:0:0:0:
382,12,67741,1,10,2:1:0:0:
382,12,67899,2,0,L|303:24,1,79.2,2|2,3:2|3:2,2:0:0:0:
249,97,68214,2,0,L|170:85,2,79.2,2|10|0,3:2|2:0|2:0,2:0:0:0:
272,190,68688,6,0,L|114:166,1,158.4,2|10,3:1|2:0,2:0:0:0:
47,114,69162,1,0,3:0:0:0:
47,114,69241,1,2,2:0:0:0:
47,113,69320,2,0,P|31:149|33:188,1,79.2,2|0,2:1|3:0,2:0:0:0:
75,265,69635,1,10,2:0:0:0:
25,355,69793,6,0,P|82:304|157:318,1,158.4,2|0,3:2|2:0,2:0:0:0:
255,356,70267,1,10,2:1:0:0:
286,267,70425,1,2,3:2:0:0:
286,267,70504,1,0,3:0:0:0:
286,267,70583,2,0,L|271:189,1,79.2,2|0,3:1|3:2,2:0:0:0:
176,164,70899,2,0,L|197:47,1,118.8,10|0,2:1|2:0,2:0:0:0:
206,8,71214,5,6,3:1:0:0:
286,53,71372,1,0,3:0:0:0:
384,25,71530,2,0,L|369:102,1,79.2,10|0,2:1|3:0,2:0:0:0:
452,158,71846,2,0,L|437:235,1,79.2,2|0,2:1|3:0,2:0:0:0:
366,291,72162,1,10,2:1:0:0:
304,230,72320,6,0,P|248:177|172:187,1,158.4,2|2,3:2|2:0,2:0:0:0:
93,146,72793,1,10,2:1:0:0:
29,209,72951,2,0,L|43:286,1,79.2,2|2,2:0|3:2,2:0:0:0:
126,384,73267,2,0,L|140:306,1,79.2,0|10,3:2|2:0,2:0:0:0:
225,263,73583,1,0,2:0:0:0:
225,263,73741,6,0,B|282:280|282:280|299:316|299:316|354:336,2,158.4,6|10|0,3:2|2:0|2:0,2:0:0:0:
172,186,74530,1,0,3:0:0:0:
172,186,74688,2,0,L|186:108,1,79.2,10|0,2:0|3:2,2:0:0:0:
114,28,75004,5,6,3:2:0:0:
220,4,75162,1,0,3:0:0:0:
220,4,75241,1,0,3:0:0:0:
220,4,75320,2,0,P|254:22|293:20,1,79.2,10|0,2:0|3:0,2:0:0:0:
377,68,75635,2,0,L|415:59,3,39.6,2|0|0|0,3:2|3:0|3:0|3:0,2:0:0:0:
451,77,75951,2,0,L|459:115,3,39.6,8|8|8|8,2:0|2:0|2:0|2:0,2:0:0:0:
493,135,76267,6,0,P|512:209|476:278,1,158.4,6|10,3:2|2:0,2:0:0:0:
392,314,76741,1,0,3:0:0:0:
319,260,76899,2,0,L|338:181,1,79.2,2|0,2:0|3:0,2:0:0:0:
263,130,77214,2,0,L|282:51,1,79.2,10|0,2:0|3:0,2:0:0:0:
194,8,77530,6,0,P|117:6|63:61,1,158.4,2|10,3:2|2:0,2:0:0:0:
0,127,78004,1,0,3:0:0:0:
0,127,78162,2,0,P|76:125|130:180,1,158.4,2|10,2:0|2:0,2:0:0:0:
61,351,78793,6,0,P|20:285|41:211,1,158.4,6|10,3:2|2:0,2:0:0:0:
130,180,79267,1,0,3:0:0:0:
130,180,79425,2,0,L|207:164,1,79.2,2|0,2:0|3:0,2:0:0:0:
268,277,79741,2,0,L|190:261,1,79.2,10|0,2:0|3:0,2:0:0:0:
289,367,80056,6,0,P|348:319|350:242,1,158.4,2|10,3:2|2:0,2:0:0:0:
438,212,80530,1,0,3:0:0:0:
438,212,80688,2,0,L|453:134,1,79.2,2|0,2:0|3:0,2:0:0:0:
372,38,81004,2,0,L|356:115,1,79.2,10|0,2:0|3:0,2:0:0:0:
272,64,81320,6,0,B|183:49|216:106|120:90,1,158.4,6|10,3:2|2:0,2:0:0:0:
42,51,81793,1,0,3:0:0:0:
0,129,81951,2,0,L|17:206,1,79.2,2|0,2:0|3:0,2:0:0:0:
98,246,82267,2,0,L|80:323,1,79.2,10|0,2:0|3:0,2:0:0:0:
166,384,82583,6,0,L|201:229,1,158.4,6|10,3:2|2:0,2:0:0:0:
137,145,83056,1,0,2:0:0:0:
137,145,83214,2,0,L|154:67,1,79.2,2|0,2:0|3:0,2:0:0:0:
236,17,83530,2,0,P|283:50|341:43,1,118.8,10|0,2:0|2:0,2:0:0:0:
370,16,83846,6,0,P|446:17|488:80,1,158.4,6|10,3:2|2:0,2:0:0:0:
434,159,84320,2,0,P|446:237|460:315,1,158.4,0|0,3:0|3:0,2:0:0:0:
368,384,84793,2,0,P|360:345|354:305,1,79.2,10|0,2:0|2:0,2:0:0:0:
267,246,85109,5,6,3:2:0:0:
336,179,85267,2,0,P|343:140|349:100,1,79.2,8|8,2:0|2:0,2:0:0:0:
262,19,85583,2,0,P|254:57|248:97,1,79.2,0|8,3:0|2:0,2:0:0:0:
162,149,85899,1,8,3:2:0:0:
162,149,85978,1,8,2:0:0:0:
162,149,86056,2,0,P|158:129|155:109,3,39.6,8|8|8|8,2:0|2:0|2:0|2:0,2:0:0:0:
150,84,86372,6,0,P|73:85|31:148,1,158.4,6|10,3:2|2:0,2:0:0:0:
92,226,86846,2,0,B|108:280|108:280|93:320|93:320|109:377,1,158.4,0|0,3:0|3:0,2:0:0:0:
193,319,87320,1,8,2:0:0:0:
286,360,87478,1,4,3:2:0:0:
436,335,87793,5,10,3:2:0:0:
460,246,87951,1,10,3:2:0:0:
256,192,88425,5,0,3:0:0:0:
256,192,88504,1,0,3:0:0:0:
256,192,88583,2,0,B|231:150|231:150|240:80,1,118.800003625488,8|0,2:0|2:0,2:0:0:0:
263,44,88899,6,0,P|321:83|390:71,1,144,6|10,3:1|2:0,2:0:0:0:
487,23,89372,2,0,P|471:93|458:164,1,144,0|0,3:0|3:0,2:0:0:0:
382,217,89846,2,0,P|389:252|396:287,1,72,10|0,2:0|2:0,2:0:0:0:
484,376,90162,2,0,P|496:305|512:234,2,144,2|10|0,3:1|2:0|3:0,2:0:0:0:
305,277,91109,2,0,P|269:284|234:291,1,72,10|0,2:0|2:0,2:0:0:0:
173,231,91425,6,0,P|185:160|201:89,1,144,4|0,3:2|3:0,2:0:0:0:
117,32,91899,1,2,2:0:0:0:
117,32,92056,2,0,P|108:66|101:102,1,72,0|0,3:0|2:0,2:0:0:0:
26,150,92372,6,0,P|34:184|41:220,1,72,0|2,3:0|2:0,2:0:0:0:
103,288,92688,1,0,3:2:0:0:
103,288,92846,1,2,2:0:0:0:
58,379,93004,2,0,P|112:334|182:341,1,144,0|0,3:0|3:0,2:0:0:0:
256,384,93478,1,10,2:0:0:0:
300,310,93635,2,0,P|292:274|285:239,1,72,4|0,3:0|2:0,2:0:0:0:
200,204,93951,6,0,P|173:138|195:72,1,144,8|4,3:0|2:3,2:0:0:0:
264,8,94425,2,0,P|334:23|404:40,1,144,8|4,3:0|2:3,2:0:0:0:
488,0,94899,6,0,B|502:50|502:50|486:86|486:86|498:137,1,144,8|0,3:0|3:0,2:0:0:0:
446,209,95372,2,0,P|453:244|462:279,1,72,8|0,2:3|2:0,2:0:0:0:
380,349,95688,1,0,3:0:0:0:
380,349,95767,1,8,2:0:0:0:
380,349,95846,2,0,P|371:313|363:278,1,72,8|0,2:0|3:0,2:0:0:0:
300,208,96162,2,0,P|304:190|308:172,3,36,8|8|8|8,2:0|2:0|2:0|2:0,2:0:0:0:
318,137,96478,6,0,P|282:128|247:120,1,72,6|2,3:1|3:2,2:0:0:0:
195,52,96793,1,10,2:1:0:0:
110,76,96951,1,2,3:2:0:0:
32,29,97109,2,0,B|6:97|6:97|14:137|42:156,1,144,2|10,3:1|2:0,2:0:0:0:
124,201,97583,6,0,P|115:237|107:272,1,72,2|0,2:1|3:0,2:0:0:0:
14,291,97899,2,0,P|21:326|29:361,1,72,2|8,2:1|2:0,2:0:0:0:
121,378,98214,2,0,P|191:365|263:356,1,144,2|2,2:1|3:1,2:0:0:0:
338,298,98688,2,0,P|368:316|404:318,1,72,10|2,2:0|2:1,2:0:0:0:
480,265,99004,6,0,P|467:195|458:123,1,144,2|10,3:1|2:0,2:0:0:0:
478,32,99478,1,2,3:2:0:0:
478,32,99556,1,2,3:2:0:0:
478,32,99635,2,0,P|443:38|407:43,1,72,2|0,3:1|3:0,2:0:0:0:
345,109,99951,2,0,P|310:102|274:98,1,72,10|0,2:0|2:0,2:0:0:0:
187,5,100267,6,0,B|199:56|199:56|183:89|183:89|194:142,1,144,2|8,3:1|2:0,2:0:0:0:
125,202,100741,2,0,P|75:153|5:159,1,144,2|2,2:1|3:1,2:0:0:0:
47,236,101214,2,0,P|54:271|58:307,1,72,10|2,2:0|2:0,2:0:0:0:
172,382,101530,6,0,P|175:346|183:310,1,72,2|2,3:1|3:2,2:0:0:0:
250,250,101846,1,10,2:1:0:0:
250,250,102004,1,2,3:2:0:0:
211,171,102162,2,0,P|203:101|249:49,1,144,2|10,3:1|2:0,2:0:0:0:
322,96,102635,2,0,L|393:84,1,72,2|0,2:1|2:0,2:0:0:0:
480,48,102951,6,0,L|491:119,1,72,2|8,2:1|2:0,2:0:0:0:
441,189,103267,2,0,L|463:331,1,144,2|2,2:1|2:1,2:0:0:0:
385,377,103741,1,8,2:0:0:0:
385,377,103899,1,2,2:1:0:0:
311,318,104056,6,0,B|233:298|259:363|176:342,1,144,2|10,3:1|2:0,2:0:0:0:
198,261,104530,1,2,3:2:0:0:
198,261,104609,1,2,3:2:0:0:
198,261,104688,2,0,L|214:191,1,72,2|0,3:1|3:0,2:0:0:0:
156,127,105004,2,0,L|172:57,1,72,10|0,2:1|2:0,2:0:0:0:
113,1,105320,6,0,P|43:1|-1:55,1,144,2|10,3:2|2:0,2:0:0:0:
44,145,105793,1,2,2:0:0:0:
43,145,105951,2,0,L|27:215,1,72,2|2,3:1|3:2,2:0:0:0:
5,315,106267,2,0,P|58:307|102:335,1,108,10|0,2:1|2:0,2:0:0:0:
126,363,106583,6,0,P|195:343|266:331,1,144,6|10,3:2|2:0,2:0:0:0:
214,246,107056,1,2,3:2:0:0:
214,246,107214,2,0,L|228:175,1,72,2|0,3:1|3:0,2:0:0:0:
192,95,107530,1,10,2:1:0:0:
255,38,107688,6,0,P|313:0|382:15,1,144,2|2,2:1|2:0,2:0:0:0:
449,75,108162,1,10,2:0:0:0:
399,151,108320,1,2,2:0:0:0:
399,151,108399,1,2,2:0:0:0:
399,151,108478,2,0,L|415:222,1,72,2|0,3:1|3:2,2:0:0:0:
335,286,108793,2,0,L|319:215,1,72,10|0,2:1|3:0,2:0:0:0:
230,175,109109,6,0,B|146:150|175:209|92:189,1,144,6|10,3:1|2:1,2:0:0:0:
21,130,109583,1,2,3:2:0:0:
21,130,109662,1,2,3:2:0:0:
21,130,109741,2,0,L|0:198,1,72,2|0,3:1|3:0,2:0:0:0:
5,315,110056,6,0,P|74:309|125:357,1,144,14|0,2:1|2:0,2:0:0:0:
206,324,110530,1,0,3:0:0:0:
286,384,110688,2,0,P|300:313|315:243,1,144,10|2,2:1|3:2,2:0:0:0:
243,184,111162,1,2,3:1:0:0:
307,130,111320,2,0,P|299:94|292:59,1,72,10|0,2:0|3:0,2:0:0:0:
362,3,111635,6,0,P|432:3|479:54,1,144,6|10,3:1|2:0,2:0:0:0:
512,143,112109,2,0,P|441:143|394:194,1,144,2|2,3:1|3:1,2:0:0:0:
479,226,112583,2,0,L|464:296,1,72,10|0,2:0|2:0,2:0:0:0:
397,384,112899,5,2,3:1:0:0:
331,326,113056,1,2,2:0:0:0:
252,367,113214,2,0,L|237:296,1,72,8|2,2:0|2:0,2:0:0:0:
313,239,113530,5,0,3:0:0:0:
336,159,113688,1,2,2:1:0:0:
279,95,113846,2,0,L|208:109,1,72,10|2,2:0|2:1,2:0:0:0:
131,41,114162,6,0,P|62:35|8:80,1,144,6|10,3:1|2:0,2:0:0:0:
92,128,114635,2,0,L|78:199,1,72,2|2,3:2|3:1,2:0:0:0:
9,251,114951,2,0,L|23:322,1,72,0|10,3:1|2:0,2:0:0:0:
98,365,115267,1,2,2:1:0:0:
98,364,115425,6,0,P|164:337|235:328,1,144,6|10,3:2|2:0,2:0:0:0:
256,208,115899,1,0,3:0:0:0:
256,208,115978,1,8,2:0:0:0:
256,208,116056,2,0,P|289:221|324:226,1,72,8|0,2:0|3:0,2:0:0:0:
388,156,116372,2,0,L|393:120,3,36,8|8|8|8,2:0|2:0|2:0|2:0,2:0:0:0:
375,88,116688,6,0,P|410:81|446:76,1,72,6|0,3:1|3:2,2:0:0:0:
510,143,117004,1,10,2:1:0:0:
470,224,117162,1,2,2:1:0:0:
512,308,117320,2,0,P|470:362|401:362,1,144,2|10,3:1|2:0,2:0:0:0:
315,297,117793,6,0,L|325:225,1,72,2|2,2:1|3:2,2:0:0:0:
262,158,118109,2,0,L|272:86,1,72,2|8,2:0|2:0,2:0:0:0:
215,16,118425,2,0,P|162:62|92:58,1,144,2|2,2:1|3:1,2:0:0:0:
4,33,118899,2,0,L|14:105,1,72,10|2,2:0|2:1,2:0:0:0:
92,152,119214,6,0,B|83:204|83:204|98:237|98:237|88:291,1,144,2|10,3:1|2:0,2:0:0:0:
35,352,119688,1,2,3:2:0:0:
35,352,119767,1,2,3:2:0:0:
35,352,119846,2,0,P|64:371|100:371,1,72,2|0,3:1|3:0,2:0:0:0:
172,323,120162,2,0,L|182:251,1,72,10|0,2:0|2:0,2:0:0:0:
241,186,120478,6,0,L|231:114,2,72,2|0|8,3:1|2:0|2:0,2:0:0:0:
323,222,120951,2,0,P|374:174|444:174,1,144,2|2,2:1|2:1,2:0:0:0:
506,241,121425,2,0,L|496:313,1,72,8|2,2:0|2:0,2:0:0:0:
386,361,121741,6,0,L|396:289,1,72,6|0,3:1|3:2,2:0:0:0:
323,222,122056,1,10,2:1:0:0:
235,268,122214,1,2,2:0:0:0:
156,197,122372,2,0,L|176:53,1,144,2|10,3:1|2:0,2:0:0:0:
21,3,122846,6,0,P|13:37|24:72,1,72,2|2,2:1|3:2,2:0:0:0:
68,141,123162,2,0,L|58:213,1,72,2|8,2:1|2:0,2:0:0:0:
18,300,123478,2,0,B|72:291|72:291|108:319|125:361,1,144,2|2,2:1|2:1,2:0:0:0:
225,339,123951,2,0,L|235:267,1,72,10|2,2:0|2:1,2:0:0:0:
156,197,124267,6,0,L|176:53,1,144,2|10,3:1|2:0,2:0:0:0:
264,106,124741,1,2,2:0:0:0:
264,106,124820,1,2,2:0:0:0:
264,105,124899,2,0,P|298:93|333:88,1,72,2|0,3:1|3:0,2:0:0:0:
396,9,125214,2,0,P|430:20|465:25,1,72,10|0,2:1|2:0,2:0:0:0:
512,113,125530,6,0,P|497:183|489:255,1,144,2|8,3:1|2:0,2:0:0:0:
512,352,126004,1,2,2:0:0:0:
409,314,126162,1,2,3:1:0:0:
331,365,126320,1,0,3:0:0:0:
321,367,126399,1,8,2:0:0:0:
308,368,126478,2,0,P|290:372|272:376,3,36,8|8|8|8,2:0|2:0|2:0|2:0,2:0:0:0:
257,372,126793,6,0,B|245:324|245:324|258:286|258:286|244:233,1,144,6|10,3:2|2:0,2:0:0:0:
288,152,127267,1,2,3:2:0:0:
257,67,127425,2,0,P|221:68|187:56,1,72,2|0,3:1|3:0,2:0:0:0:
99,9,127741,1,10,2:0:0:0:
31,70,127899,1,2,2:1:0:0:
31,70,128056,6,0,P|44:140|55:211,1,144,2|8,3:1|2:0,2:0:0:0:
0,278,128530,1,2,2:0:0:0:
0,278,128688,2,0,P|30:295|67:295,1,72,2|0,3:1|3:2,2:0:0:0:
130,367,129004,2,0,P|160:350|197:350,1,72,10|0,2:1|3:0,2:0:0:0:
283,313,129320,6,0,P|350:338|417:363,2,144,6|10|2,3:2|2:1|3:1,2:0:0:0:
230,248,130109,1,0,3:0:0:0:
279,177,130267,2,0,P|271:141|263:106,1,72,10|0,2:0|2:0,2:0:0:0:
188,58,130583,6,0,B|112:44|132:99|52:87,2,144,6|10|2,3:1|2:1|3:2,2:0:0:0:
263,106,131372,1,2,3:1:0:0:
313,30,131530,2,0,P|348:22|383:14,1,72,10|0,2:0|3:0,2:0:0:0:
483,27,131846,6,0,B|502:71|509:116|509:116|479:157,1,144,6|10,3:1|2:0,2:0:0:0:
499,253,132320,2,0,P|463:245|428:237,1,72,2|2,3:2|3:2,2:0:0:0:
409,324,132635,2,0,P|444:331|479:339,2,72,2|10|0,3:1|2:0|2:0,2:0:0:0:
339,378,133109,6,0,P|320:347|320:311,1,72,6|0,3:1|2:0,2:0:0:0:
324,223,133425,2,0,B|272:235|272:235|253:257|253:257|194:274,1,144,10|2,2:1|3:1,2:0:0:0:
131,219,133899,1,2,2:0:0:0:
131,219,134056,2,0,L|140:147,1,72,10|2,2:1|2:0,2:0:0:0:
49,49,134372,6,0,B|11:87|11:87|11:131|37:173,1,144,6|8,3:1|2:0,2:0:0:0:
6,256,134846,1,0,3:2:0:0:
6,256,134925,1,0,3:0:0:0:
6,256,135004,2,0,L|12:291,3,36,10|8|8|8,2:0|2:0|2:0|2:0,2:0:0:0:
18,327,135320,2,0,L|53:320,3,36,8|8|4|4,2:3|2:3|2:3|2:3,2:0:0:0:
88,356,135635,5,12,2:0:0:0:
152,268,135793,1,12,2:0:0:0:
256,300,135951,1,12,2:0:0:0:
256,300,136899,5,4,3:2:0:0:
139,147,137372,5,2,2:0:0:0:
139,147,137530,2,0,L|130:203,2,57.6,2|2|2,2:0|2:0|2:0,2:0:0:0:
188,58,138004,6,0,B|239:49|270:83|270:83|322:69,1,144,6|8,3:1|2:0,2:0:0:0:
395,18,138478,2,0,B|428:37|428:37|461:29,1,72,8|8,2:0|2:0,2:0:0:0:
511,105,138793,2,0,L|504:140,3,36,4|8|8|8,3:2|2:0|2:0|2:0,2:0:0:0:
481,168,139109,2,0,L|487:203,3,36,8|8|8|8,2:0|2:0|2:0|2:0,2:0:0:0:
493,236,139425,5,6,3:2:0:0:
424,314,139583,1,2,3:2:0:0:
327,267,139741,2,0,L|341:188,1,79.2,10|0,2:1|3:0,2:0:0:0:
258,155,140056,2,0,L|243:76,1,79.2,2|2,2:1|3:2,2:0:0:0:
302,18,140372,1,10,2:1:0:0:
203,3,140530,6,0,B|168:23|162:62|162:62|129:36|83:44,1,158.4,2|2,3:2|3:2,2:0:0:0:
18,108,141004,1,10,2:1:0:0:
62,189,141162,2,0,L|46:266,1,79.2,2|2,2:0|3:1,2:0:0:0:
129,367,141478,1,2,3:2:0:0:
129,367,141635,2,0,L|144:289,1,79.2,10|0,2:1|2:0,2:0:0:0:
234,256,141951,6,0,P|289:309|366:306,2,158.4,2|10|2,3:1|2:0|2:1,2:0:0:0:
204,177,142741,1,0,3:0:0:0:
237,94,142899,5,10,2:1:0:0:
237,94,143056,2,0,B|293:83|293:83|317:50|317:50|375:36,1,158.4,2|2,3:2|2:0,2:0:0:0:
448,12,143530,1,10,2:1:0:0:
512,88,143688,1,2,2:0:0:0:
512,88,143846,2,0,L|496:165,1,79.2,2|2,3:1|3:2,2:0:0:0:
425,237,144162,2,0,L|448:353,1,118.8,10|0,2:1|2:0,2:0:0:0:
449,354,144478,5,6,3:1:0:0:
367,384,144635,1,2,3:2:0:0:
284,347,144793,2,0,L|260:230,1,118.8,10|0,2:1|2:0,2:0:0:0:
280,201,145109,2,0,B|293:164|293:164|283:125,1,79.2,2|0,2:1|2:0,2:0:0:0:
309,28,145425,1,10,2:1:0:0:
213,48,145583,6,0,P|152:96|76:81,1,158.4,2|0,3:2|2:0,2:0:0:0:
0,140,146056,1,10,2:1:0:0:
0,140,146214,2,0,L|12:218,1,79.2,2|2,2:0|3:2,2:0:0:0:
79,273,146530,1,2,3:2:0:0:
79,273,146688,2,0,L|65:358,1,79.2,10|0,2:1|2:0,2:0:0:0:
151,384,147004,6,0,B|191:369|199:327|199:327|183:248,1,158.4,2|10,3:2|2:0,2:0:0:0:
161,163,147478,2,0,B|218:153|250:194|250:194|283:194|306:180,1,158.4,2|0,3:2|3:0,2:0:0:0:
288,88,147951,1,10,2:1:0:0:
349,18,148109,5,0,3:2:0:0:
349,18,148188,1,0,3:0:0:0:
348,17,148267,2,0,P|383:37|422:36,1,79.2,6|0,3:2|3:0,2:0:0:0:
512,8,148583,1,14,2:0:0:0:
485,95,148741,2,0,L|498:172,1,79.2,0|2,3:0|3:2,2:0:0:0:
420,214,149056,1,0,3:0:0:0:
420,214,149135,1,8,2:0:0:0:
420,214,149214,2,0,L|426:252,3,39.6,8|8|8|8,2:0|2:0|2:0|2:0,2:0:0:0:
434,285,149530,5,4,3:2:0:0:
372,375,149688,1,2,3:2:0:0:
270,321,149846,2,0,L|193:335,1,79.2,10|0,2:1|3:0,2:0:0:0:
113,384,150162,2,0,P|67:330|77:248,1,158.4,2|10,2:1|2:0,2:0:0:0:
10,180,150635,6,0,L|165:211,1,158.4,2|0,3:2|2:0,2:0:0:0:
239,260,151109,1,10,2:1:0:0:
239,260,151267,2,0,P|252:223|249:183,1,79.2,2|2,3:2|3:2,2:0:0:0:
169,129,151583,1,2,3:2:0:0:
154,43,151741,2,0,P|200:6|258:6,1,118.8,10|0,2:1|2:0,2:0:0:0:
297,0,152056,6,0,P|346:58|422:51,1,158.4,6|10,3:1|2:0,2:0:0:0:
512,0,152530,2,0,B|499:58|499:58|518:94|518:94|506:151,1,158.4,0|0,3:0|3:0,2:0:0:0:
512,238,153004,1,10,2:0:0:0:
511,237,153162,6,0,P|471:233|436:249,1,79.2,2|2,3:2|3:2,2:0:0:0:
411,355,153478,2,0,P|371:358|336:342,1,79.2,0|10,2:0|2:0,2:0:0:0:
251,287,153793,2,0,P|260:248|267:209,1,79.2,2|2,3:2|3:2,2:0:0:0:
299,117,154109,1,2,3:2:0:0:
226,54,154267,2,0,P|187:63|148:70,1,79.2,10|0,2:1|2:0,2:0:0:0:
74,7,154583,5,6,3:1:0:0:
74,7,154741,1,0,3:0:0:0:
8,71,154899,2,0,P|17:109|24:148,1,79.2,10|0,2:1|3:0,2:0:0:0:
0,266,155214,2,0,B|39:238|78:258|78:258|99:289|142:291,1,158.4,2|10,2:1|2:1,2:0:0:0:
237,268,155688,6,0,P|243:228|253:190,1,79.2,2|0,3:2|2:0,2:0:0:0:
165,147,156004,2,0,P|158:107|148:69,1,79.2,2|10,2:0|2:1,2:0:0:0:
264,9,156320,2,0,P|337:38|415:37,1,158.4,2|0,2:0|3:2,2:0:0:0:
507,69,156793,1,10,2:0:0:0:
465,151,156951,1,2,2:0:0:0:
465,151,157030,1,2,2:0:0:0:
465,151,157109,2,0,B|432:191|432:191|438:249|487:277,1,158.4,6|10,3:2|2:0,2:0:0:0:
480,379,157583,2,0,B|423:363|423:363|397:330|397:330|341:314,1,158.4,0|0,3:0|3:0,2:0:0:0:
267,377,158056,1,10,2:0:0:0:
191,332,158214,6,0,P|196:292|202:252,1,79.2,0|6,3:2|3:2,2:0:0:0:
278,198,158530,1,0,3:0:0:0:
278,198,158688,2,0,P|271:158|265:118,1,79.2,10|0,2:0|3:0,2:0:0:0:
296,5,159004,2,0,P|276:2|256:-1,3,39.6,2|0|0|0,3:2|3:0|3:0|3:0,2:0:0:0:
214,19,159320,2,0,P|194:22|174:25,3,39.6,8|8|8|8,2:0|2:0|2:0|2:0,2:0:0:0:
136,15,159635,6,0,B|92:-7|49:27|49:27|35:90,1,158.4,6|10,3:2|2:0,2:0:0:0:
114,139,160109,1,0,3:0:0:0:
114,138,160267,2,0,P|106:177|100:216,1,79.2,2|0,2:0|3:0,2:0:0:0:
25,269,160583,2,0,P|32:307|38:346,1,79.2,10|0,2:0|3:0,2:0:0:0:
122,372,160899,6,0,P|200:369|255:314,1,158.4,2|10,3:2|2:0,2:0:0:0:
350,271,161372,1,0,3:0:0:0:
350,271,161530,2,0,P|272:268|217:213,1,158.4,2|10,2:0|2:0,2:0:0:0:
166,54,162162,6,0,B|203:19|247:19|247:19|269:45|307:45,1,158.4,6|10,3:2|2:0,2:0:0:0:
399,23,162635,1,0,3:0:0:0:
464,76,162793,2,0,P|456:115|447:154,1,79.2,2|0,2:0|3:0,2:0:0:0:
512,214,163109,2,0,P|503:252|494:291,1,79.2,10|0,2:0|3:0,2:0:0:0:
465,384,163425,6,0,P|404:335|328:347,1,158.4,2|10,3:2|2:0,2:0:0:0:
242,384,163899,1,0,3:0:0:0:
242,384,164056,2,0,B|277:348|277:291|277:291|252:240,1,158.4,2|10,2:0|2:0,2:0:0:0:
319,9,164688,6,0,P|269:67|192:70,1,158.4,6|10,3:2|2:0,2:0:0:0:
125,5,165162,1,0,3:0:0:0:
47,44,165320,2,0,B|35:79|35:79|51:118,1,79.2,2|0,2:0|3:0,2:0:0:0:
115,176,165635,2,0,B|126:211|126:211|110:250,1,79.2,10|0,2:0|3:0,2:0:0:0:
133,338,165951,6,0,B|95:343|67:326|67:326|25:338|0:383,2,158.4,6|10|2,3:2|2:0|2:0,2:0:0:0:
214,368,166741,1,0,3:0:0:0:
271,307,166899,2,0,L|254:228,1,79.2,10|0,2:0|3:0,2:0:0:0:
201,144,167214,6,0,P|236:75|310:57,1,158.4,6|10,3:2|2:0,2:0:0:0:
409,11,167688,2,0,B|395:67|395:67|413:105|413:105|398:161,1,158.4,0|0,3:0|3:0,2:0:0:0:
492,213,168162,2,0,L|476:290,1,79.2,10|0,2:0|3:0,2:0:0:0:
471,333,168399,1,0,3:0:0:0:
471,333,168478,5,6,3:2:0:0:
360,384,168635,2,0,L|343:305,1,79.2,8|8,2:0|2:0,2:0:0:0:
271,233,168951,2,0,L|114:263,1,158.4,0|8,3:0|3:2,2:0:0:0:
83,252,169346,1,8,2:0:0:0:
83,252,169425,2,0,L|74:290,2,39.6,8|8|8,2:0|0:0|0:0,2:0:0:0:
17,178,169741,6,0,P|4:103|57:49,1,158.4,6|10,3:2|2:0,2:0:0:0:
124,104,170214,2,0,L|278:69,1,158.4,0|0,3:0|3:0,2:0:0:0:
321,146,170688,5,8,2:0:0:0:
321,146,170846,1,4,3:2:0:0:
392,304,171162,5,10,3:2:0:0:
392,304,171320,1,10,3:2:0:0:
425,103,171793,5,0,3:0:0:0:
425,103,171951,2,0,B|406:132|406:132|322:144,1,118.8,8|0,2:0|2:0,2:0:0:0:
284,153,172267,6,0,P|242:97|172:98,1,144,6|10,3:1|2:0,2:0:0:0:
96,45,172741,1,0,3:0:0:0:
19,95,172899,2,0,P|27:130|34:165,1,72,2|0,2:1|3:0,2:0:0:0:
116,209,173214,2,0,P|107:244|100:279,1,72,10|0,2:0|2:0,2:0:0:0:
56,373,173530,6,0,P|111:330|180:341,1,144,2|10,3:1|2:0,2:0:0:0:
256,384,174004,1,0,3:0:0:0:
331,341,174162,2,0,P|400:330|456:373,1,144,2|10,2:1|2:0,2:0:0:0:
488,173,174793,6,0,B|435:209|435:209|355:202,1,144,2|10,3:1|2:0,2:0:0:0:
272,150,175267,1,0,3:0:0:0:
272,150,175425,2,0,P|281:115|288:80,1,72,2|0,2:1|3:0,2:0:0:0:
203,50,175741,2,0,P|168:59|133:66,1,72,10|0,2:0|2:0,2:0:0:0:
55,33,176056,6,0,P|9:86|15:156,2,144,2|10|2,3:1|2:0|2:0,2:0:0:0:
132,66,176846,1,0,3:0:0:0:
102,144,177004,2,0,P|111:179|118:214,1,72,10|0,2:0|3:0,2:0:0:0:
38,322,177320,6,0,B|75:289|75:289|121:297|157:332,1,144,6|10,3:2|2:0,2:0:0:0:
257,347,177793,1,0,3:0:0:0:
257,347,177951,2,0,P|249:311|240:276,1,72,2|0,2:1|3:0,2:0:0:0:
274,187,178267,2,0,P|266:151|257:116,1,72,10|0,2:2|2:0,2:0:0:0:
301,36,178583,5,2,3:2:0:0:
301,36,178741,2,0,P|335:44|371:52,1,72,2|10,3:1|2:0,2:0:0:0:
462,20,179056,1,0,3:0:0:0:
462,20,179214,2,0,P|503:76|492:146,1,144,2|10,2:1|2:1,2:0:0:0:
511,245,179688,1,0,2:0:0:0:
511,245,179846,6,0,P|457:198|387:203,1,144,6|10,3:1|2:0,2:0:0:0:
328,267,180320,1,0,3:0:0:0:
328,267,180478,2,0,L|312:337,2,72,2|0|10,2:0|3:0|2:0,2:0:0:0:
257,113,181109,6,0,P|186:119|122:88,1,144,2|10,3:1|2:0,2:0:0:0:
36,30,181583,2,0,P|67:93|60:164,1,144,0|0,3:0|3:0,2:0:0:0:
6,240,182056,2,0,L|12:275,3,36,10|0|0|0,2:0|3:0|3:0|3:0,2:0:0:0:
6,311,182372,6,0,B|59:297|59:297|138:338,1,144,14|10,2:1|2:0,2:0:0:0:
219,371,182846,1,0,3:0:0:0:
272,296,183004,2,0,L|256:226,1,72,12|0,2:0|3:0,2:0:0:0:
185,171,183320,2,0,L|176:135,3,36,8|8|8|4,2:0|2:0|2:3|2:3,2:0:0:0:
174,117,183635,5,12,2:0:0:0:
243,10,183793,1,12,2:0:0:0:
363,64,183951,1,12,2:0:0:0:
512,316,184267,6,0,B|463:275|408:308|408:308|390:362|328:363,1,216,2|0,2:0|2:0,2:0:0:0:
272,296,184899,1,4,2:0:0:0:
257,113,192320,6,0,B|299:85|299:85|353:95|370:140,1,144,10|10,2:0|2:1,2:0:0:0:
327,215,192793,2,0,P|291:208|256:202,1,72,10|0,2:1|3:1,2:0:0:0:
170,137,193109,2,0,P|134:143|99:149,1,72,10|10,2:1|2:1,2:0:0:0:
1,109,193425,1,0,3:1:0:0:
1,109,193583,6,0,P|18:178|30:249,1,144,14|8,2:1|2:0,2:0:0:0:
105,301,194056,2,0,P|96:335|90:371,1,72,8|8,2:0|2:0,2:0:0:0:
175,375,194372,2,0,P|177:357|182:339,3,36,2|0|8|8,3:2|3:0|2:0|2:0,2:0:0:0:
209,315,194688,2,0,P|206:297|201:279,3,36,10|8|8|8,2:0|2:0|2:0|2:0,2:0:0:0:
232,259,195004,5,4,3:2:0:0:
297,331,195162,1,2,3:2:0:0:
389,309,195320,2,0,P|393:270|402:232,1,79.2,10|0,2:1|3:0,2:0:0:0:
480,186,195635,2,0,P|475:146|466:108,1,79.2,2|2,2:1|2:0,2:0:0:0:
512,28,195951,1,10,2:1:0:0:
417,4,196109,6,0,P|340:7|294:68,1,158.4,2|2,3:2|2:0,2:0:0:0:
313,153,196583,1,10,2:1:0:0:
227,191,196741,2,0,P|234:229|242:268,1,79.2,2|2,3:2|3:1,2:0:0:0:
167,362,197056,2,0,P|158:323|150:284,2,79.2,2|10|0,3:2|2:1|2:0,2:0:0:0:
68,356,197530,6,0,P|14:303|25:228,1,158.4,6|10,3:1|2:1,2:0:0:0:
94,175,198004,1,0,3:0:0:0:
94,175,198083,1,0,3:0:0:0:
94,175,198162,2,0,P|85:135|77:96,1,79.2,2|0,2:1|3:0,2:0:0:0:
11,42,198478,1,10,2:0:0:0:
93,0,198635,6,0,B|137:30|137:30|177:5|237:5,1,158.4,2|0,3:2|2:0,2:0:0:0:
310,52,199109,2,0,L|295:129,1,79.2,10|2,2:1|3:2,2:0:0:0:
216,174,199425,1,2,3:1:0:0:
216,174,199583,1,2,3:2:0:0:
282,233,199741,2,0,L|304:349,1,118.8,10|0,2:1|2:0,2:0:0:0:
324,383,200056,5,6,3:1:0:0:
394,312,200214,1,0,3:0:0:0:
490,333,200372,2,0,P|500:294|505:255,1,79.2,10|0,2:1|3:0,2:0:0:0:
423,212,200688,2,0,P|413:173|408:134,1,79.2,2|0,2:1|2:0,2:0:0:0:
450,55,201004,1,10,2:1:0:0:
377,0,201162,6,0,P|316:47|240:33,1,158.4,2|2,3:2|2:0,2:0:0:0:
161,104,201635,1,10,2:1:0:0:
161,104,201793,2,0,L|143:25,1,79.2,2|2,2:0|3:2,2:0:0:0:
57,45,202109,2,0,L|74:123,1,79.2,0|10,3:2|2:0,2:0:0:0:
138,191,202425,1,0,2:0:0:0:
138,191,202583,6,0,B|55:205|90:251|6:271,2,158.4,6|10|2,3:2|2:0|3:2,2:0:0:0:
204,243,203372,1,0,3:0:0:0:
172,325,203530,1,10,2:0:0:0:
244,384,203688,6,0,P|321:365|399:358,1,158.4,0|0,3:2|3:0,2:0:0:0:
399,358,204083,1,0,3:0:0:0:
399,358,204162,1,10,2:0:0:0:
462,293,204320,1,0,3:0:0:0:
411,223,204478,2,0,L|404:183,3,39.6,2|0|0|0,3:2|3:0|3:0|3:0,2:0:0:0:
437,162,204793,2,0,L|442:122,3,39.6,8|8|8|8,2:0|2:0|2:0|2:0,2:0:0:0:
469,93,205109,6,0,P|406:47|331:64,1,158.4,6|10,3:2|2:0,2:0:0:0:
239,21,205583,1,0,3:0:0:0:
239,21,205741,2,0,P|284:83|267:158,1,158.4,2|10,2:0|2:0,2:0:0:0:
188,197,206214,1,0,3:0:0:0:
188,197,206372,6,0,B|146:137|82:168|82:168|65:201,1,158.4,2|10,3:2|2:0,2:0:0:0:
33,291,206846,2,0,B|75:351|139:320|139:320|156:287,1,158.4,0|0,3:0|3:0,2:0:0:0:
256,256,207320,1,10,2:0:0:0:
435,378,207635,6,0,P|447:299|468:223,1,158.4,6|10,3:2|2:0,2:0:0:0:
383,184,208109,1,0,3:0:0:0:
383,184,208267,2,0,P|376:144|366:106,1,79.2,2|0,2:0|3:0,2:0:0:0:
489,53,208583,2,0,P|478:91|472:130,1,79.2,10|0,2:0|3:0,2:0:0:0:
383,184,208899,6,0,P|327:130|250:136,1,158.4,2|10,3:2|2:0,2:0:0:0:
160,42,209372,2,0,B|176:90|176:90|157:133|157:133|175:190,1,158.4,0|0,3:0|3:0,2:0:0:0:
111,273,209846,2,0,L|86:197,1,79.2,10|0,2:0|2:0,2:0:0:0:
3,370,210162,6,0,B|20:338|54:331|54:331|85:364|139:352,1,158.4,6|10,3:2|2:0,2:0:0:0:
218,384,210635,1,0,3:0:0:0:
218,384,210793,2,0,B|234:335|234:335|215:292|215:292|233:234,1,158.4,2|10,2:0|2:0,2:0:0:0:
192,154,211267,1,0,3:0:0:0:
192,154,211425,5,6,3:2:0:0:
289,11,211741,1,10,2:0:0:0:
461,71,212056,1,2,2:0:0:0:
364,214,212372,1,10,2:0:0:0:
504,303,212688,6,0,B|481:276|436:276|436:276|412:312|363:308,1,158.4,6|10,3:2|2:0,2:0:0:0:
286,383,213162,2,0,P|267:305|245:229,1,158.4,0|0,3:0|3:0,2:0:0:0:
296,160,213635,2,0,P|305:121|316:83,1,79.2,10|0,2:0|2:0,2:0:0:0:
263,11,213951,5,6,3:2:0:0:
179,54,214109,2,0,P|140:44|102:33,1,79.2,8|8,2:0|2:0,2:0:0:0:
41,96,214425,2,0,P|51:134|61:172,1,79.2,0|8,3:0|2:0,2:0:0:0:
130,240,214741,1,8,3:2:0:0:
130,240,214820,1,8,2:0:0:0:
130,240,214899,2,0,P|124:259|119:278,3,39.6,8|8|8|8,2:0|2:0|2:0|2:0,2:0:0:0:
113,316,215214,6,0,B|161:347|161:347|216:340|242:292,1,158.4,6|10,3:2|2:0,2:0:0:0:
215,211,215688,2,0,B|202:150|202:150|217:116|217:116|205:58,1,158.4,0|0,3:0|3:0,2:0:0:0:
289,0,216162,1,8,2:0:0:0:
375,28,216320,1,4,3:2:0:0:
375,237,216635,5,10,3:2:0:0:
490,268,216793,1,10,3:2:0:0:
490,268,217267,5,0,3:0:0:0:
461,362,217425,2,0,P|403:368|354:335,1,118.8,8|0,2:0|2:0,2:0:0:0:
335,304,217741,6,0,P|345:232|357:161,1,144,6|10,3:1|2:0,2:0:0:0:
380,60,218214,1,0,3:0:0:0:
379,60,218372,2,0,P|309:67|253:25,1,144,2|10,3:1|2:0,2:0:0:0:
80,34,219004,6,0,P|43:93|66:159,1,144,2|10,3:1|2:0,2:0:0:0:
3,226,219478,2,0,P|73:211|143:194,1,144,2|0,3:1|3:0,2:0:0:0:
209,256,219951,2,0,P|201:291|193:326,1,72,10|0,2:1|2:0,2:0:0:0:
267,384,220267,6,0,P|310:329|379:332,1,144,6|10,3:2|2:0,2:0:0:0:
480,288,220741,2,0,P|410:290|367:236,1,144,0|0,3:0|3:0,2:0:0:0:
426,164,221214,2,0,L|414:93,1,72,10|0,2:0|2:0,2:0:0:0:
354,25,221530,6,0,B|327:50|323:89|323:89|295:64|257:68,1,144,6|10,3:1|2:0,2:0:0:0:
186,134,222004,1,0,3:0:0:0:
186,134,222162,2,0,L|115:123,1,72,2|0,3:1|3:0,2:0:0:0:
20,55,222478,1,10,2:0:0:0:
3,226,222793,5,4,3:2:0:0:
256,192,222872,12,2,227846,2:1:0:0:
