osu file format v14

[General]
AudioFilename: audio.mp3
AudioLeadIn: 0
PreviewTime: 54774
Countdown: 0
SampleSet: Soft
StackLeniency: 0.7
Mode: 0
LetterboxInBreaks: 0
WidescreenStoryboard: 1

[Editor]
Bookmarks: 33064
DistanceSpacing: 1
BeatDivisor: 2
GridSize: 32
TimelineZoom: 0.8999997

[Metadata]
Title:Winter Diamond
TitleUnicode:Winter Diamond
Artist:Rita
ArtistUnicode:Rita
Creator:Gorou
Version:Normal
Source:見上げてごらん、夜空の星を
Tags:impurepug resona stormiverse kirylln lmt cami djulus -mikanmymommy __ag 平井理子 hirai riko miagete goran yozora no deca o hoshi visual novel eroge video game japanese pop j-pop jpop pulltop wanpachi
BeatmapID:4443280
BeatmapSetID:2093285

[Difficulty]
HPDrainRate:4
CircleSize:3
OverallDifficulty:4
ApproachRate:5.5
SliderMultiplier:1
SliderTickRate:1

[Events]
//Background and Video events
0,0,"bg.jpg",0,0
//Break Periods
2,185159,191338
//Storyboard Layer 0 (Background)
//Storyboard Layer 1 (Fail)
//Storyboard Layer 2 (Pass)
//Storyboard Layer 3 (Foreground)
//Storyboard Layer 4 (Overlay)
//Storyboard Sound Samples

[TimingPoints]
538,315.789473684211,4,2,1,50,1,0
5195,-111.111111111111,4,2,2,50,0,0
5274,-111.111111111111,4,2,1,50,0,0
5353,-111.111111111111,4,2,2,50,0,0
5432,-111.111111111111,4,2,1,50,0,0
5590,-111.111111111111,4,2,1,80,0,0
12459,-111.111111111111,4,2,2,80,0,0
12538,-111.111111111111,4,2,1,80,0,0
12616,-111.111111111111,4,2,2,80,0,0
12695,-111.111111111111,4,2,1,80,0,0
12774,-111.111111111111,4,2,2,80,0,0
13011,-111.111111111111,4,2,1,80,0,0
13169,-111.111111111111,4,2,1,80,0,0
13485,-111.111111111111,4,2,1,60,0,0
32669,-111.111111111111,4,2,2,60,0,0
32906,-111.111111111111,4,2,1,60,0,0
32985,-111.111111111111,4,2,2,60,0,0
33064,-111.111111111111,4,2,1,60,0,0
33222,-111.111111111111,4,2,2,60,0,0
33380,-111.111111111111,4,2,1,60,0,0
43169,-111.111111111111,4,2,2,60,0,0
43485,-111.111111111111,4,2,1,60,0,0
51616,-111.111111111111,4,2,2,60,0,0
51695,-111.111111111111,4,2,1,60,0,0
51853,-111.111111111111,4,2,2,60,0,0
52011,-111.111111111111,4,2,1,60,0,0
52090,-111.111111111111,4,2,2,60,0,0
52169,-111.111111111111,4,2,1,60,0,0
52327,-111.111111111111,4,2,2,60,0,0
52485,-111.111111111111,4,2,1,60,0,0
53590,-111.111111111111,4,2,1,60,0,0
54853,-111.111111111111,4,2,1,60,0,0
55090,-111.111111111111,4,2,2,60,0,0
55169,-111.111111111111,4,2,1,60,0,0
55485,-111.111111111111,4,2,2,60,0,0
55643,-111.111111111111,4,2,1,64,0,0
55722,-111.111111111111,4,2,2,67,0,0
55801,-111.111111111111,4,2,1,70,0,0
56116,-100,4,2,1,80,0,1
58327,-100,4,2,1,80,0,1
58643,-100,4,2,1,80,0,1
59116,-100,4,2,1,80,0,1
61169,-100,4,2,1,80,0,1
61485,-100,4,2,1,80,0,1
64722,-100,4,2,2,80,0,1
64801,-100,4,2,1,80,0,1
64880,-100,4,2,2,80,0,1
64959,-100,4,2,1,80,0,1
65511,-100,4,2,2,80,0,1
65985,-100,4,2,1,80,0,1
66538,-100,4,2,1,80,0,1
67959,-100,4,2,1,80,0,1
68748,-100,4,2,1,80,0,1
73801,-100,4,2,1,80,0,1
75301,-100,4,2,2,80,0,1
75380,-100,4,2,1,80,0,1
75616,-100,4,2,2,80,0,1
75774,-100,4,2,1,80,0,1
75853,-100,4,2,2,80,0,1
76011,-100,4,2,1,80,0,1
76090,-100,4,2,2,80,0,1
76169,-100,4,2,1,80,0,1
76327,-100,4,2,1,80,0,1
77274,-100,4,2,1,80,0,1
85170,-100,4,2,1,80,0,1
85327,-100,4,2,2,80,0,1
85485,-100,4,2,1,80,0,1
85959,-100,4,2,2,80,0,1
86116,-100,4,2,1,80,0,1
86195,-100,4,2,2,80,0,1
86432,-100,4,2,1,80,0,1
88011,-111.111111111111,4,2,1,80,0,0
89274,-111.111111111111,4,2,1,80,0,0
91801,-111.111111111111,4,2,1,60,0,0
95827,-111.111111111111,4,2,1,40,0,0
95906,-111.111111111111,4,2,1,75,0,0
95985,-111.111111111111,4,2,2,60,0,0
96222,-111.111111111111,4,2,1,60,0,0
96301,-111.111111111111,4,2,2,60,0,0
96380,-111.111111111111,4,2,1,60,0,0
96459,-111.111111111111,4,2,2,60,0,0
96538,-111.111111111111,4,2,1,60,0,0
96853,-111.111111111111,4,2,1,60,0,0
108853,-111.111111111111,4,2,1,60,0,0
109169,-111.111111111111,4,2,1,60,0,0
109643,-111.111111111111,4,2,1,60,0,0
110116,-111.111111111111,4,2,1,60,0,0
110590,-111.111111111111,4,2,1,60,0,0
116038,-111.111111111111,4,2,2,60,0,0
116353,-111.111111111111,4,2,1,60,0,0
116432,-111.111111111111,4,2,2,60,0,0
116511,-111.111111111111,4,2,1,60,0,0
116590,-111.111111111111,4,2,2,60,0,0
116669,-111.111111111111,4,2,1,60,0,0
125748,-111.111111111111,4,2,1,60,0,0
125906,-111.111111111111,4,2,1,60,0,0
126538,-111.111111111111,4,2,2,60,0,0
126616,-111.111111111111,4,2,1,60,0,0
134985,-111.111111111111,4,2,2,60,0,0
135064,-111.111111111111,4,2,1,60,0,0
135222,-111.111111111111,4,2,2,60,0,0
135380,-111.111111111111,4,2,1,60,0,0
135459,-111.111111111111,4,2,2,60,0,0
135538,-111.111111111111,4,2,1,60,0,0
135696,-111.111111111111,4,2,2,60,0,0
135854,-111.111111111111,4,2,1,60,0,0
136959,-111.111111111111,4,2,1,60,0,0
138380,-111.111111111111,4,2,2,60,0,0
138538,-111.111111111111,4,2,1,60,0,0
138695,-111.111111111111,4,2,2,60,0,0
138853,-111.111111111111,4,2,1,60,0,0
138932,-111.111111111111,4,2,2,60,0,0
139011,-111.111111111111,4,2,1,60,0,0
139090,-111.111111111111,4,2,2,60,0,0
139169,-111.111111111111,4,2,1,60,0,0
139248,-111.111111111111,4,2,2,60,0,0
139327,-111.111111111111,4,2,1,60,0,0
139406,-111.111111111111,4,2,2,60,0,0
139485,-100,4,2,1,80,0,1
148249,-100,4,2,2,80,0,1
148328,-100,4,2,1,80,0,1
148801,-100,4,2,2,80,0,1
148959,-100,4,2,1,80,0,1
149038,-100,4,2,2,80,0,1
149274,-100,4,2,1,80,0,1
149353,-100,4,2,2,80,0,1
149432,-100,4,2,1,80,0,1
158670,-100,4,2,2,80,0,1
158749,-100,4,2,1,80,0,1
158827,-100,4,2,2,80,0,1
158906,-100,4,2,1,80,0,1
158985,-100,4,2,2,80,0,1
159143,-100,4,2,1,80,0,1
159222,-100,4,2,2,80,0,1
159380,-100,4,2,1,80,0,1
159459,-100,4,2,2,80,0,1
159538,-100,4,2,1,80,0,1
159696,-100,4,2,1,80,0,1
168538,-100,4,2,1,80,0,1
168696,-100,4,2,2,80,0,1
168854,-100,4,2,1,80,0,1
169328,-100,4,2,2,80,0,1
169485,-100,4,2,1,80,0,1
169564,-100,4,2,2,80,0,1
169801,-100,4,2,1,80,0,1
171380,-111.111111111111,4,2,1,80,0,0
182195,-111.111111111111,4,2,2,80,0,0
182906,-111.111111111111,4,2,2,80,0,0
183222,-111.111111111111,4,2,1,80,0,0
183538,-111.111111111111,4,2,2,80,0,0
183695,-111.111111111111,4,2,1,80,0,0
192853,-111.111111111111,4,2,2,80,0,0
193011,-111.111111111111,4,2,1,80,0,0
193643,-111.111111111111,4,2,2,80,0,0
193801,-111.111111111111,4,2,1,80,0,0
194116,-111.111111111111,4,2,2,80,0,0
194274,-111.111111111111,4,2,1,80,0,0
194590,-111.111111111111,4,2,2,80,0,0
194906,-111.111111111111,4,2,1,80,0,0
195064,-100,4,2,1,80,0,1
195380,-100,4,2,1,80,0,1
204222,-100,4,2,2,80,0,1
204380,-100,4,2,2,80,0,1
204459,-100,4,2,1,80,0,1
204695,-100,4,2,2,80,0,1
204853,-100,4,2,1,80,0,1
204932,-100,4,2,2,80,0,1
205090,-100,4,2,1,80,0,1
205169,-100,4,2,1,80,0,1
210222,-100,4,2,1,80,0,1
214012,-100,4,2,1,80,0,1
214169,-100,4,2,2,80,0,1
214327,-100,4,2,1,80,0,1
214564,-100,4,2,2,80,0,1
214959,-100,4,2,1,80,0,1
216853,-100,4,2,1,80,0,1
217485,-111.111111111111,4,2,1,80,0,0
217801,-111.111111111111,4,2,1,80,0,0
218274,-111.111111111111,4,2,1,80,0,0
223485,-111.111111111111,4,2,1,70,0,0
224116,-111.111111111111,4,2,1,60,0,0
224748,-111.111111111111,4,2,1,50,0,0
225380,-111.111111111111,4,2,1,40,0,0
226011,-111.111111111111,4,2,1,35,0,0
226643,-111.111111111111,4,2,1,30,0,0
227274,-111.111111111111,4,2,1,25,0,0
227906,-111.111111111111,4,2,3,20,0,0

[Colours]
Combo1 : 206,193,185
Combo2 : 96,239,255
Combo3 : 153,154,174
Combo4 : 169,151,255

[HitObjects]
74,86,5116,6,0,L|57:29,2,50,8|8|8,0:0|1:2|0:0,0:0:0:0:
61,129,5590,2,0,P|120:137|194:85,1,134.999995880127,4|0,1:0|3:0,0:0:0:0:
205,61,6222,2,0,P|276:49|331:60,1,89.9999972534181,2|8,1:0|0:0,0:0:0:0:
373,91,6853,1,2,1:0:0:0:
450,44,7169,1,8,0:0:0:0:
510,110,7485,2,0,L|496:170,1,44.999998626709,0|2,1:0|1:0,0:0:0:0:
487,197,7801,1,8,0:0:0:0:
511,283,8116,6,0,B|453:294|409:268|409:268|362:285,1,134.999995880127,2|0,1:0|3:0,0:0:0:0:
342,254,8748,2,0,P|344:306|324:360,1,89.9999972534181,2|8,0:0|0:0,0:0:0:0:
245,321,9380,1,0,1:0:0:0:
160,352,9695,1,8,0:0:0:0:
79,311,10011,2,0,L|33:322,2,44.999998626709,2|0|8,1:0|1:0|0:0,0:0:0:0:
76,220,10643,1,4,1:0:0:0:
256,192,10801,12,8,12538,0:0:0:0:
255,64,13169,6,0,P|264:118|241:165,1,89.9999972534181,4|8,1:0|0:0,0:0:0:0:
174,196,13801,2,0,L|70:183,1,89.9999972534181,0|8,1:0|0:0,0:0:0:0:
42,199,14274,2,0,B|26:238|26:238|38:305,1,89.9999972534181,0|0,0:0|1:0,0:0:0:0:
94,352,14906,1,0,1:0:0:0:
172,307,15222,1,0,1:0:0:0:
250,351,15538,1,0,0:0:0:0:
250,351,15695,6,0,B|299:335|323:333|323:333|354:350|392:343,1,134.999995880127,0|0,1:0|3:0,0:0:0:0:
424,331,16327,2,0,P|449:272|445:210,1,89.9999972534181,0|8,1:0|0:0,0:0:0:0:
395,175,16959,1,0,1:0:0:0:
458,111,17274,1,8,0:0:0:0:
398,43,17590,2,0,L|388:-5,2,44.999998626709,0|0|8,1:0|1:0|0:0,0:0:0:0:
316,82,18222,6,0,P|249:88|193:73,1,89.9999972534181,0|8,1:0|0:0,0:0:0:0:
187,62,18695,1,0,3:0:0:0:
187,62,18853,2,0,L|92:83,1,89.9999972534181,0|8,1:0|0:0,0:0:0:0:
65,111,19327,1,0,0:0:0:0:
30,194,19643,1,0,1:0:0:0:
111,232,19959,1,0,1:0:0:0:
184,179,20274,2,0,L|279:200,1,89.9999972534181,0|0,1:0|0:0,0:0:0:0:
317,195,20748,6,0,P|308:263|331:304,1,89.9999972534181,0|8,1:0|0:0,0:0:0:0:
240,332,21380,2,0,B|195:323|195:323|153:339|153:339|96:327,1,134.999995880127,0|0,1:0|0:0,0:0:0:0:
65,324,22011,2,0,P|54:263|66:210,1,89.9999972534181,0|8,1:0|0:0,0:0:0:0:
93,152,22643,1,0,1:0:0:0:
46,74,22959,1,8,0:0:0:0:
126,34,23274,6,0,B|221:19|191:76|322:47,1,179.999994506836,4|0,1:0|1:0,0:0:0:0:
389,30,24222,1,8,0:0:0:0:
389,30,24380,2,0,L|365:188,1,134.999995880127,0|8,0:0|0:0,0:0:0:0:
286,199,25169,1,0,1:0:0:0:
206,157,25485,1,8,0:0:0:0:
124,195,25801,6,0,P|112:254|126:306,1,89.9999972534181,4|8,1:2|0:0,0:0:0:0:
173,352,26432,1,0,1:0:0:0:
248,302,26748,2,0,B|312:285|312:285|379:300,1,134.999995880127,12|0,0:0|1:0,0:0:0:0:
421,315,27380,1,8,0:0:0:0:
504,282,27695,2,0,L|517:354,2,44.999998626709,0|0|8,1:0|1:0|0:0,0:0:0:0:
510,191,28327,6,0,P|494:153|504:83,1,89.9999972534181,4|8,1:0|0:0,0:0:0:0:
463,73,28801,2,0,P|425:89|355:79,1,89.9999972534181
343,57,29274,1,8,0:0:0:0:
264,100,29590,2,0,L|277:208,1,89.9999972534181,0|8,1:0|0:0,0:0:0:0:
318,268,30222,2,0,P|351:280|395:283,2,44.999998626709,0|0|8,1:0|1:0|0:0,0:0:0:0:
239,311,30853,6,0,P|185:293|121:324,1,89.9999972534181,4|8,1:2|0:0,0:0:0:0:
115,323,31327,2,0,L|12:302,1,89.9999972534181,0|0,3:0|1:0,0:0:0:0:
47,217,31959,2,0,B|45:184|27:159|27:159|30:116|63:84,1,134.999995880127,0|8,0:0|0:0,0:0:0:0:
138,60,32748,2,0,L|210:71,1,44.999998626709,8|8,0:0|0:0,0:0:0:0:
220,91,33064,2,0,L|292:80,1,44.999998626709,8|8,1:2|0:0,0:0:0:0:
294,50,33380,6,0,P|343:73|420:71,1,89.9999972534181,4|10,1:0|0:0,0:0:0:0:
444,138,34011,2,0,B|424:178|424:178|432:244,1,89.9999972534181,2|8,1:0|0:0,0:0:0:0:
451,262,34485,2,0,L|328:276,1,89.9999972534181,2|0,1:2|1:0,0:0:0:0:
292,329,35116,1,2,0:0:0:0:
211,289,35432,1,0,1:0:0:0:
128,324,35748,1,0,0:0:0:0:
128,324,35906,6,0,P|72:324|26:298,1,89.9999972534181,2|8,1:0|0:0,0:0:0:0:
19,222,36538,2,0,B|29:177|29:177|9:137|22:78,1,134.999995880127,0|0,1:0|0:0,0:0:0:0:
53,60,37169,2,0,L|170:75,1,89.9999972534181,0|8,1:0|0:0,0:0:0:0:
221,28,37801,1,2,1:0:0:0:
283,92,38116,2,0,P|274:129|256:163,1,44.999998626709,8|0,0:0|3:0,0:0:0:0:
240,168,38432,6,0,P|225:232|253:274,1,89.9999972534181,4|8,1:2|0:0,0:0:0:0:
243,296,38906,1,0,3:0:0:0:
243,296,39064,2,0,L|367:279,1,89.9999972534181,2|8,1:0|0:0,0:0:0:0:
371,261,39538,1,2,0:0:0:0:
450,301,39853,1,2,1:0:0:0:
506,230,40169,1,2,0:0:0:0:
459,152,40485,2,0,B|451:107|451:107|470:50,1,89.9999972534181,0|0,1:0|0:0,0:0:0:0:
478,21,40959,6,0,P|423:25|375:9,1,89.9999972534181,2|8,1:0|0:0,0:0:0:0:
301,32,41590,2,0,B|283:63|278:97|278:97|301:188,1,134.999995880127,2|0,1:0|0:0,0:0:0:0:
320,197,42222,2,0,P|301:275|304:309,1,89.9999972534181,0|8,1:0|0:0,0:0:0:0:
232,342,42853,2,0,L|176:331,1,44.999998626709,2|8,1:0|0:0,0:0:0:0:
145,348,43169,2,0,L|89:337,1,44.999998626709,8|8,0:0|0:0,0:0:0:0:
61,316,43485,6,0,B|41:276|41:276|69:241|74:211|74:211|49:180|55:138,1,179.999994506836,4|0,1:0|1:0,0:0:0:0:
146,143,44432,1,8,0:0:0:0:
146,143,44590,2,0,P|202:152|249:185,1,89.9999972534181,2|2,0:1|0:0,0:0:0:0:
259,202,45064,1,8,0:0:0:0:
301,281,45380,2,0,P|357:272|404:239,1,89.9999972534181,2|8,1:2|0:0,0:0:0:0:
447,190,46011,5,4,1:2:0:0:
480,106,46327,1,8,0:0:0:0:
390,93,46643,1,2,1:0:0:0:
313,46,46959,2,0,B|269:41|269:41|211:53,1,89.9999972534181,10|4,0:0|1:1,0:0:0:0:
151,104,47590,1,8,0:0:0:0:
75,55,47906,1,2,1:0:0:0:
75,55,48064,2,0,L|23:65,1,44.999998626709,0|8,1:0|0:0,0:0:0:0:
20,153,48538,6,0,P|42:205|37:247,1,89.9999972534181,4|8,1:2|0:0,0:0:0:0:
25,280,49011,2,0,L|135:269,1,89.9999972534181,0|0,3:0|1:0,0:0:0:0:
154,250,49485,1,8,0:0:0:0:
232,294,49801,2,0,B|272:305|272:305|344:281,1,89.9999972534181,4|8,1:2|0:0,0:0:0:0:
403,319,50432,1,2,1:0:0:0:
475,266,50748,1,8,0:0:0:0:
456,177,51064,6,0,B|402:154|349:172|349:172|299:145|299:145|255:162|196:142,1,269.999991760254,4|8,1:0|0:3,0:0:0:0:
135,77,52327,1,8,1:2:0:0:
135,77,52485,1,8,0:0:0:0:
135,77,52643,1,8,0:0:0:0:
256,192,53590,5,4,0:0:0:0:
256,192,54853,2,0,P|177:187|135:209,1,89.9999972534181,4|8,0:0|0:0,0:0:0:0:
89,234,55485,2,0,L|76:290,1,44.999998626709,12|8,1:2|0:0,0:0:0:0:
49,312,55801,2,0,L|62:368,1,44.999998626709,8|8,1:2|0:0,0:0:0:0:
103,379,56116,6,0,B|150:384|150:384|233:358,1,100,4|8,1:0|0:0,0:0:0:0:
277,304,56748,2,0,L|283:237,2,50,2|2|8,1:0|1:2|0:0,0:0:0:0:
317,333,57222,2,0,P|376:338|426:304,1,100,2|2,1:0|1:2,0:0:0:0:
477,245,57853,1,2,0:0:0:0:
426,158,58169,2,0,L|295:140,1,100,2|0,1:0|0:0,0:0:0:0:
292,107,58643,6,0,P|241:132|163:131,1,100,4|8,1:2|0:0,0:0:0:0:
137,216,59274,1,0,1:0:0:0:
52,162,59590,1,8,0:0:0:0:
52,162,59748,2,0,L|68:52,1,100,2|2,0:0|1:0,0:0:0:0:
82,15,60222,1,8,0:0:0:0:
175,51,60538,2,0,P|215:46|252:37,1,50,0|0,1:0|1:0,0:0:0:0:
268,20,60853,1,8,0:0:0:0:
363,49,61169,6,0,L|346:126,1,50,4|0,1:2|0:0,0:0:0:0:
312,128,61485,2,0,L|327:237,1,100,8|2,0:0|1:0,0:0:0:0:
294,322,62116,1,8,0:0:0:0:
294,322,62274,2,0,P|382:334|417:366,1,100,0|0,1:0|1:0,0:0:0:0:
475,287,62906,1,2,0:1:0:0:
449,190,63222,2,0,B|440:141|440:141|457:74,1,100,2|0,1:2|3:0,0:0:0:0:
457,42,63695,6,0,P|379:52|323:27,1,100,4|8,1:2|0:0,0:0:0:0:
265,11,64327,2,0,L|196:30,1,50,2|0,1:2|1:0,0:0:0:0:
180,59,64643,2,0,L|111:40,1,50,8|8,0:0|1:2,0:0:0:0:
89,19,64959,1,12,1:1:0:0:
89,19,65116,1,0,1:0:0:0:
23,94,65432,1,0,1:0:0:0:
71,181,65748,1,8,0:0:0:0:
71,181,65906,2,0,L|150:197,1,50,8|8,1:2|0:0,0:0:0:0:
169,181,66222,6,0,P|188:238|182:290,1,100,4|8,1:0|0:0,0:0:0:0:
250,352,66853,2,0,L|364:333,1,100,2|8,1:2|0:0,0:0:0:0:
397,348,67327,1,2,1:0:0:0:
463,273,67643,1,0,1:0:0:0:
428,178,67959,2,0,P|353:167|312:136,1,100,0|0,1:0|1:0,0:0:0:0:
299,118,68432,1,8,0:0:0:0:
258,26,68748,6,0,L|371:15,1,100,4|8,1:2|0:0,0:0:0:0:
457,4,69380,1,0,1:0:0:0:
487,99,69695,1,10,0:1:0:0:
487,99,69853,2,0,B|472:148|472:148|491:210,1,100,2|2,1:2|1:0,0:0:0:0:
500,242,70327,1,8,0:0:0:0:
451,329,70643,2,0,L|383:312,1,50,0|0,1:0|1:0,0:0:0:0:
364,284,70959,1,10,0:0:0:0:
265,298,71274,6,0,P|239:316|207:349,1,50,4|0,1:2|0:0,0:0:0:0:
178,347,71590,2,0,P|114:350|59:322,1,100,8|2,0:0|1:0,0:0:0:0:
47,299,72064,2,0,L|65:235,1,50,0|8,1:0|0:0,0:0:0:0:
89,209,72380,1,2,1:2:0:0:
29,129,72695,1,2,1:0:0:0:
89,49,73011,1,0,3:0:0:0:
185,73,73327,2,0,B|235:79|235:79|304:48,1,100,0|0,1:0|3:0,0:0:0:0:
318,26,73801,6,0,B|305:89|307:139|356:108|329:244,1,200,4|2,1:1|1:0,0:0:0:0:
261,291,74748,1,8,0:0:0:0:
261,291,74906,2,0,P|270:345|310:374,1,100,0|8,0:0|0:0,0:0:0:0:
353,371,75380,1,8,0:0:0:0:
440,323,75695,2,0,L|452:263,1,50,8|8,1:2|0:0,0:0:0:0:
467,226,76011,2,0,L|455:166,1,50,8|8,0:0|0:0,0:0:0:0:
410,157,76327,6,0,B|371:174|371:174|285:161,1,100,4|8,1:0|0:0,0:0:0:0:
278,130,76801,1,0,3:0:0:0:
237,99,76959,2,0,B|198:82|198:82|112:95,1,100,2|8,1:0|0:0,0:0:0:0:
64,154,77590,2,0,L|84:288,1,100,0|8,1:0|0:0,0:0:0:0:
99,298,78064,1,0,0:0:0:0:
139,327,78222,2,0,P|179:335|233:326,1,50,0|2,1:0|1:2,0:0:0:0:
236,322,78538,1,10,0:0:0:0:
297,243,78853,6,0,P|291:178|251:121,1,100,4|8,1:0|0:0,0:0:0:0:
236,116,79327,1,0,3:0:0:0:
188,101,79485,2,0,P|194:36|234:-21,1,100,0|10,1:0|0:1,0:0:0:0:
304,36,80116,2,0,L|427:18,1,100,0|8,1:0|0:0,0:0:0:0:
448,42,80590,1,0,0:0:0:0:
482,78,80748,2,0,P|516:90|551:85,2,50,0|0|8,1:0|1:0|0:0,0:0:0:0:
421,157,81380,6,0,L|434:260,1,100,4|8,1:2|0:0,0:0:0:0:
458,299,81853,1,0,0:0:0:0:
450,348,82011,2,0,L|347:335,1,100,2|8,1:0|0:0,0:0:0:0:
256,369,82643,1,4,1:1:0:0:
198,286,82959,2,0,P|201:267|220:227,1,50,8|0,0:0|0:0,0:0:0:0:
252,209,83274,2,0,B|260:159|260:159|230:99,1,100,2|10,1:0|0:0,0:0:0:0:
176,35,83906,6,0,L|58:53,1,100,4|8,1:2|0:0,0:0:0:0:
27,40,84380,2,0,B|4:84|4:84|12:134,1,100,2|0,0:0|1:0,0:0:0:0:
49,168,84853,1,12,0:0:0:0:
13,261,85169,1,4,1:0:0:0:
13,261,85327,2,0,L|36:327,1,50,8|8,1:2|0:0,0:0:0:0:
55,351,85643,2,0,P|113:333|172:345,1,100,8|8,0:0|0:0,0:0:0:0:
197,356,86116,1,8,0:0:0:0:
274,293,86432,6,0,P|277:243|260:196,1,100,4|8,1:0|0:0,0:0:0:0:
212,182,86906,2,0,L|243:47,1,100,0|2,3:0|1:2,0:0:0:0:
244,35,87380,1,8,0:0:0:0:
244,35,87538,1,4,1:2:0:0:
341,56,87853,1,8,0:0:0:0:
341,56,88011,1,8,0:0:0:0:
460,190,88643,1,8,0:0:0:0:
417,269,88959,6,0,P|363:271|310:302,1,89.9999972534181,4|8,1:0|0:0,0:0:0:0:
308,326,89432,1,0,0:0:0:0:
308,326,89590,2,0,P|263:326|221:309,1,89.9999972534181,0|8,1:0|0:0,0:0:0:0:
192,223,90222,2,0,L|211:112,1,89.9999972534181,0|8,1:0|0:0,0:0:0:0:
167,53,90853,1,0,1:0:0:0:
82,83,91169,2,0,P|72:104|67:151,1,44.999998626709,8|0,0:0|0:0,0:0:0:0:
75,169,91485,1,4,1:2:0:0:
256,192,91643,12,0,93380,1:0:0:0:
178,192,94011,6,0,B|135:180|135:180|38:198,2,134.999995880127,8|8|8,0:3|0:3|0:3,0:0:0:0:
306,234,95432,2,0,P|359:233|420:206,1,89.9999972534181,4|8,0:3|0:0,0:0:0:0:
435,203,95906,2,0,L|449:137,1,44.999998626709,8|8,0:0|0:0,0:0:0:0:
475,126,96222,2,0,L|461:60,1,44.999998626709,8|8,0:0|0:0,0:0:0:0:
439,44,96538,5,4,1:0:0:0:
349,36,96853,1,8,0:0:0:0:
284,98,97169,2,0,L|270:230,1,89.9999972534181,0|8,1:0|0:0,0:0:0:0:
244,221,97643,2,0,B|262:263|262:263|257:324,1,89.9999972534181,0|0,0:0|1:0,0:0:0:0:
196,372,98274,1,0,1:0:0:0:
136,303,98590,2,0,P|111:295|41:301,1,89.9999972534181,0|0,1:0|0:0,0:0:0:0:
14,267,99064,6,0,L|28:165,1,89.9999972534181,0|8,1:0|0:0,0:0:0:0:
68,161,99538,1,0,3:0:0:0:
68,161,99695,2,0,L|54:59,1,89.9999972534181,0|8,1:0|0:0,0:0:0:0:
129,19,100327,2,0,P|186:24|230:54,1,89.9999972534181,0|8,1:0|0:0,0:0:0:0:
275,105,100959,1,0,1:0:0:0:
223,178,101274,2,0,L|214:234,1,44.999998626709,8|0,0:0|0:0,0:0:0:0:
185,256,101590,6,0,B|180:298|180:298|211:356,1,89.9999972534181,0|8,1:2|0:0,0:0:0:0:
244,355,102064,1,0,3:0:0:0:
244,355,102222,2,0,P|309:334|358:348,1,89.9999972534181,0|8,1:0|0:0,0:0:0:0:
369,357,102695,1,0,1:0:0:0:
446,311,103011,1,0,1:0:0:0:
475,225,103327,2,0,L|453:115,1,89.9999972534181,0|0,0:0|1:0,0:0:0:0:
473,51,103959,1,0,0:0:0:0:
473,51,104116,6,0,P|411:48|372:18,1,89.9999972534181,0|8,1:2|0:0,0:0:0:0:
356,10,104590,1,0,3:0:0:0:
356,10,104748,2,0,L|246:32,1,89.9999972534181,0|8,1:0|0:0,0:0:0:0:
218,103,105380,1,0,1:0:0:0:
268,176,105695,1,8,0:0:0:0:
208,243,106011,2,0,L|233:309,2,44.999998626709,0|0|8,1:0|1:0|0:0,0:0:0:0:
121,215,106643,6,0,P|56:212|15:96,1,179.999994506836,4|0,1:0|1:0,0:0:0:0:
51,41,107590,1,8,0:0:0:0:
51,41,107748,2,0,P|105:32|153:52,1,89.9999972534181,0|0,3:0|1:0,0:0:0:0:
174,68,108222,1,8,0:0:0:0:
255,105,108538,2,0,L|360:81,1,89.9999972534181,0|8,1:0|0:0,0:0:0:0:
421,41,109169,5,4,1:2:0:0:
492,95,109485,1,8,0:0:0:0:
483,184,109801,1,0,1:0:0:0:
415,242,110116,2,0,B|369:227|369:227|242:244,1,134.999995880127,12|0,0:0|1:0,0:0:0:0:
243,216,110748,1,8,0:0:0:0:
172,272,111064,1,0,1:0:0:0:
172,272,111222,2,0,L|183:333,1,44.999998626709,0|8,1:0|0:0,0:0:0:0:
252,369,111695,6,0,P|307:374|371:343,1,89.9999972534181,4|8,1:2|0:0,0:0:0:0:
359,323,112169,2,0,P|415:325|462:344,1,89.9999972534181,0|0,0:0|1:0,0:0:0:0:
490,346,112643,1,8,0:0:0:0:
509,258,112959,2,0,L|485:150,1,89.9999972534181,0|8,1:0|0:0,0:0:0:0:
471,135,113432,1,0,0:0:0:0:
471,135,113590,2,0,L|483:85,2,44.999998626709,0|0|8,1:0|1:0|0:0,0:0:0:0:
388,172,114222,6,0,B|342:181|342:181|281:165,1,89.9999972534181,4|8,1:0|0:0,0:0:0:0:
271,135,114695,2,0,B|225:126|225:126|164:142,1,89.9999972534181,0|0,3:0|1:0,0:0:0:0:
139,147,115169,1,8,0:0:0:0:
53,120,115485,2,0,L|38:52,2,44.999998626709,0|0|8,1:3|1:0|0:0,0:0:0:0:
28,206,116116,2,0,P|19:241|22:283,1,44.999998626709,8|8,0:0|0:0,0:0:0:0:
1,291,116432,2,0,P|19:322|51:349,1,44.999998626709,8|8,1:2|0:0,0:0:0:0:
64,350,116748,6,0,L|191:333,1,89.9999972534181,4|8,1:0|0:0,0:0:0:0:
236,303,117380,2,0,B|247:257|247:257|230:194,1,89.9999972534181,2|8,1:0|0:0,0:0:0:0:
196,193,117853,1,2,0:0:0:0:
165,108,118169,1,2,1:0:0:0:
233,49,118485,2,0,L|346:64,1,89.9999972534181,2|0,0:0|1:0,0:0:0:0:
413,43,119116,1,0,3:0:0:0:
413,43,119274,6,0,P|436:87|430:142,1,89.9999972534181,2|8,1:2|0:0,0:0:0:0:
443,175,119748,1,0,3:0:0:0:
443,175,119906,2,0,P|399:198|344:192,1,89.9999972534181,2|10,1:2|0:1,0:0:0:0:
278,157,120538,2,0,L|269:101,2,44.999998626709,2|0|8,1:2|1:0|0:0,0:0:0:0:
249,192,121011,2,0,L|232:293,1,89.9999972534181,2|0,1:0|1:0,0:0:0:0:
215,322,121485,1,10,0:0:0:0:
296,360,121801,6,0,B|340:350|340:350|401:362,1,89.9999972534181,4|8,1:2|0:0,0:0:0:0:
429,356,122274,1,0,3:0:0:0:
429,356,122432,2,0,P|452:288|445:256,1,89.9999972534181,2|8,1:0|0:0,0:0:0:0:
419,238,122906,1,2,1:0:0:0:
452,154,123222,1,0,1:0:0:0:
386,91,123538,1,0,3:0:0:0:
306,132,123853,2,0,P|255:124|209:97,1,89.9999972534181,2|2,1:1|0:0,0:0:0:0:
194,70,124327,6,0,L|87:94,1,89.9999972534181,0|8,1:0|0:0,0:0:0:0:
42,153,124959,1,0,1:2:0:0:
42,153,125116,2,0,P|37:184|43:221,1,44.999998626709,2|8,1:1|0:0,0:0:0:0:
65,233,125432,2,0,B|113:223|113:223|181:241,1,89.9999972534181,2|2,0:0|1:2,0:0:0:0:
192,254,125906,1,8,0:0:0:0:
259,313,126222,2,0,L|331:298,1,44.999998626709,0|8,1:0|0:0,0:0:0:0:
344,321,126538,2,0,L|416:306,1,44.999998626709,8|8,0:0|0:0,0:0:0:0:
431,324,126853,6,0,B|445:284|470:260|470:260|460:208|460:208|486:139,1,179.999994506836,4|0,1:0|0:0,0:0:0:0:
506,73,127801,1,8,0:0:0:0:
506,73,127959,2,0,P|447:71|401:42,1,89.9999972534181,2|0,0:0|1:0,0:0:0:0:
387,27,128432,1,8,0:0:0:0:
303,60,128748,1,2,1:0:0:0:
300,150,129064,1,8,0:0:0:0:
220,192,129380,5,4,1:0:0:0:
144,143,129695,2,0,P|138:90|112:28,1,89.9999972534181,8|2,0:0|1:0,0:0:0:0:
40,82,130327,2,0,L|12:188,1,89.9999972534181,8|4,0:0|1:2,0:0:0:0:
21,259,130959,1,8,0:0:0:0:
109,243,131274,1,0,1:0:0:0:
109,243,131432,2,0,L|181:255,1,44.999998626709,2|8,1:0|0:0,0:0:0:0:
224,306,131906,6,0,P|273:285|324:283,1,89.9999972534181,4|8,1:2|0:0,0:0:0:0:
346,307,132380,2,0,P|396:327|465:315,1,89.9999972534181,2|2,0:0|1:0,0:0:0:0:
471,306,132853,1,8,0:0:0:0:
493,218,133169,2,0,L|470:120,1,89.9999972534181,4|8,1:2|0:0,0:0:0:0:
407,68,133801,1,2,1:2:0:0:
323,100,134116,1,8,0:0:0:0:
255,40,134432,6,0,B|159:72|87:13|87:13|-3:60,1,269.999991760254,4|10,1:0|0:0,0:0:0:0:
33,152,135695,1,8,0:0:0:0:
33,152,135853,1,8,0:0:0:0:
33,152,136011,1,8,0:0:0:0:
256,192,136959,5,4,0:0:0:0:
464,298,138064,2,0,P|416:306|353:345,1,89.9999972534181,12|8,0:0|1:2,0:0:0:0:
348,357,138538,1,8,1:2:0:0:
259,369,138853,2,0,L|204:351,1,44.999998626709,8|8,1:2|0:0,0:0:0:0:
170,357,139169,2,0,L|152:302,1,44.999998626709,8|8,1:2|0:0,0:0:0:0:
117,281,139485,6,0,B|127:235|127:235|111:169,1,100,4|8,1:0|0:0,0:0:0:0:
47,108,140116,2,0,L|-5:120,2,50,2|2|8,1:0|1:2|0:0,0:0:0:0:
79,69,140590,2,0,P|139:74|185:38,1,100,2|2,1:0|1:2,0:0:0:0:
262,12,141222,1,2,0:0:0:0:
325,90,141538,2,0,L|309:232,1,100,2|0,1:0|0:0,0:0:0:0:
282,228,142011,6,0,B|269:280|269:280|308:330,1,100,4|8,1:2|0:0,0:0:0:0:
394,342,142643,1,0,1:0:0:0:
472,279,142959,1,8,0:0:0:0:
472,279,143116,2,0,P|469:219|488:169,1,100,0|2,3:0|1:0,0:0:0:0:
505,137,143590,1,8,0:0:0:0:
428,71,143906,1,2,1:0:0:0:
338,115,144222,1,8,0:0:0:0:
239,98,144538,6,0,L|219:37,1,50,4|0,1:2|0:0,0:0:0:0:
176,33,144853,1,8,0:0:0:0:
79,60,145169,2,0,P|65:116|97:179,1,100,2|8,1:0|0:0,0:0:0:0:
115,187,145643,1,2,1:2:0:0:
51,264,145959,1,0,1:0:0:0:
125,330,146274,1,0,0:0:0:0:
216,290,146590,2,0,L|342:307,1,100,2|0,1:2|3:0,0:0:0:0:
357,330,147064,6,0,B|385:288|385:288|372:227,1,100,4|8,1:2|0:0,0:0:0:0:
293,181,147695,2,0,P|283:159|276:109,1,50,2|0,1:2|1:0,0:0:0:0:
241,98,148011,2,0,P|246:73|256:50,1,50,8|8,0:0|1:2,0:0:0:0:
298,21,148327,1,4,1:1:0:0:
298,21,148485,1,8,0:0:0:0:
397,11,148801,1,8,1:2:0:0:
462,94,149116,1,8,0:0:0:0:
462,94,149274,2,0,L|441:175,1,50,8|8,1:2|0:0,0:0:0:0:
467,189,149590,6,0,P|470:249|447:302,1,100,4|10,1:0|0:1,0:0:0:0:
365,327,150222,2,0,B|242:302,1,100,2|8,1:2|0:0,0:0:0:0:
217,297,150695,1,2,1:2:0:0:
122,330,151011,1,0,1:0:0:0:
49,261,151327,2,0,B|30:217|30:217|42:134,1,100,2|0,1:0|1:0,0:0:0:0:
21,117,151801,1,8,0:0:0:0:
79,36,152116,6,0,P|139:39|192:25,1,100,4|8,1:2|0:2,0:0:0:0:
276,11,152748,1,0,1:0:0:0:
336,97,153064,1,10,0:1:0:0:
336,97,153222,2,0,B|313:202,1,100,2|2,1:2|1:2,0:0:0:0:
278,229,153695,1,8,0:0:0:0:
322,318,154011,2,0,P|356:312|404:312,1,50,0|2,1:0|1:0,0:0:0:0:
417,331,154327,1,10,0:0:0:0:
486,259,154643,6,0,L|497:182,1,50,4|0,1:2|0:0,0:0:0:0:
510,162,154959,2,0,L|475:42,1,100,10|2,0:1|1:2,0:0:0:0:
392,20,155590,1,8,0:0:0:0:
392,20,155748,2,0,P|338:39|285:30,1,100,2|2,1:1|1:2,0:0:0:0:
198,11,156380,1,0,3:0:0:0:
110,58,156695,2,0,B|98:111|98:111|107:155,1,100,2|0,1:0|3:0,0:0:0:0:
102,205,157169,6,0,B|169:170|241:174|241:174|294:208,1,200,4|2,1:1|1:2,0:0:0:0:
341,288,158116,1,8,0:0:0:0:
341,288,158274,2,0,L|465:266,1,100,2|8,0:0|0:0,0:0:0:0:
489,276,158748,1,8,0:0:0:0:
508,177,159064,2,0,P|500:140|476:110,1,50,8|8,1:2|0:0,0:0:0:0:
477,82,159380,2,0,P|454:71|429:68,1,50,8|8,0:0|0:0,0:0:0:0:
384,90,159695,6,0,L|285:72,1,100,4|8,1:0|0:0,0:0:0:0:
239,51,160169,1,0,3:0:0:0:
191,65,160327,2,0,L|208:163,1,100,2|8,1:0|0:0,0:0:0:0:
288,224,160959,2,0,P|291:297|266:335,1,100,2|8,1:0|0:0,0:0:0:0:
239,349,161432,1,2,0:0:0:0:
189,359,161590,2,0,L|116:343,1,50,0|0,1:0|1:2,0:0:0:0:
90,358,161906,1,10,0:0:0:0:
31,276,162222,6,0,B|20:227|20:227|41:152,1,100,4|8,1:0|0:0,0:0:0:0:
54,133,162695,1,2,0:0:0:0:
78,89,162853,2,0,B|127:100|127:100|202:79,1,100,2|8,1:0|0:0,0:0:0:0:
260,34,163485,2,0,P|313:34|382:64,1,100,2|8,1:2|0:0,0:0:0:0:
390,86,163959,1,2,0:0:0:0:
428,117,164116,2,0,L|499:105,2,50,2|0|8,1:2|1:0|0:0,0:0:0:0:
357,188,164748,6,0,P|309:203|259:202,1,100,4|8,1:2|0:0,0:0:0:0:
217,175,165222,1,2,0:0:0:0:
179,142,165380,2,0,P|129:141|81:156,1,100,2|8,1:0|0:0,0:0:0:0:
8,225,166011,1,4,1:1:0:0:
76,297,166327,2,0,L|93:353,1,50,8|0,0:0|0:0,0:0:0:0:
139,357,166643,2,0,B|188:344|188:344|268:357,1,100,2|10,1:0|0:0,0:0:0:0:
332,380,167274,6,0,L|439:358,1,100,4|8,1:2|0:0,0:0:0:0:
474,335,167748,2,0,P|451:269|470:220,1,100,2|0,0:0|1:0,0:0:0:0:
496,209,168222,1,12,0:0:0:0:
428,142,168538,1,4,1:0:0:0:
428,142,168695,2,0,L|358:159,1,50,8|8,1:2|0:0,0:0:0:0:
330,164,169011,2,0,B|314:114|314:114|319:52,1,100,8|8,0:0|0:0,0:0:0:0:
340,21,169485,1,8,0:0:0:0:
241,5,169801,6,0,P|181:29|140:15,1,100,4|8,1:0|0:0,0:0:0:0:
101,35,170274,2,0,L|128:167,1,100,0|2,3:0|1:2,0:0:0:0:
153,178,170748,1,8,0:0:0:0:
153,178,170906,1,4,1:2:0:0:
81,247,171222,1,8,0:0:0:0:
81,247,171380,1,8,0:0:0:0:
226,352,172011,1,8,0:0:0:0:
300,302,172327,6,0,P|362:285|416:296,1,89.9999972534181,4|8,1:0|0:0,0:0:0:0:
434,302,172801,1,2,0:0:0:0:
434,302,172959,2,0,B|456:200,1,89.9999972534181,2|8,1:0|0:0,0:0:0:0:
376,166,173590,2,0,B|319:78,1,89.9999972534181,2|8,1:0|0:0,0:0:0:0:
240,115,174222,2,0,B|138:93,1,89.9999972534181,2|8,1:0|0:0,0:0:0:0:
65,121,174853,6,0,P|45:182|56:243,1,89.9999972534181,4|8,1:2|0:0,0:0:0:0:
29,249,175327,2,0,P|93:267|152:256,1,89.9999972534181,2|0,1:2|1:0,0:0:0:0:
158,282,175801,2,0,P|222:264|281:275,1,89.9999972534181,8|2,0:0|1:2,0:0:0:0:
331,242,176432,1,8,0:0:0:0:
396,304,176748,1,2,1:2:0:0:
477,265,177064,1,10,0:1:0:0:
500,178,177380,6,0,L|478:75,1,89.9999972534181,4|8,1:0|0:0,0:0:0:0:
484,45,177853,2,0,B|440:53|440:53|370:32,1,89.9999972534181,2|0,1:2|1:0,0:0:0:0:
359,14,178327,2,0,L|256:36,1,89.9999972534181,8|0,0:0|1:0,0:0:0:0:
226,30,178801,2,0,B|234:74|234:74|213:144,1,89.9999972534181,2|0,1:0|0:0,0:0:0:0:
188,149,179274,1,2,1:2:0:0:
103,118,179590,1,12,0:0:0:0:
51,192,179906,6,0,P|56:257|183:287,1,179.999994506836,4|0,1:0|1:0,0:0:0:0:
213,237,180853,1,8,0:0:0:0:
307,237,181169,2,0,P|321:282|321:345,1,89.9999972534181,0|8,1:0|0:0,0:0:0:0:
410,349,181801,2,0,L|428:283,1,44.999998626709,0|2,1:0|1:2,0:0:0:0:
453,273,182116,2,0,L|435:207,1,44.999998626709,8|8,0:0|3:2,0:0:0:0:
446,184,182432,6,0,P|393:193|335:173,1,89.9999972534181,4|10,1:1|0:0,0:0:0:0:
320,160,182906,1,8,1:2:0:0:
320,160,183064,1,10,1:2:0:0:
239,200,183380,2,0,L|178:189,1,44.999998626709,4|8,0:3|0:0,0:0:0:0:
150,185,183695,1,10,1:1:0:0:
150,185,183853,1,10,1:1:0:0:
150,185,184011,1,10,1:1:0:0:
256,32,184959,5,0,0:0:0:0:
256,192,192538,12,8,194432,0:0:0:0:
470,211,195064,6,0,L|408:198,1,50,4|0,1:0|0:0,0:0:0:0:
387,162,195380,2,0,P|316:167|263:200,1,100,8|2,0:0|1:0,0:0:0:0:
262,220,195853,2,0,P|266:242|259:283,1,50,0|8,1:0|0:0,0:0:0:0:
235,311,196169,1,2,1:2:0:0:
139,341,196485,1,0,1:0:0:0:
57,282,196801,2,0,B|46:232|46:232|68:176,1,100,2|2,0:1|1:2,0:0:0:0:
98,150,197274,1,8,0:0:0:0:
77,51,197590,6,0,P|144:50|191:16,1,100,4|8,1:2|0:0,0:0:0:0:
268,7,198222,1,2,1:2:0:0:
304,105,198538,1,10,0:1:0:0:
304,105,198695,2,0,B|405:123,1,100,0|2,1:0|1:1,0:0:0:0:
451,110,199169,1,8,0:0:0:0:
499,197,199485,2,0,P|486:223|476:278,1,50,0|0,1:0|1:0,0:0:0:0:
480,293,199801,1,8,0:0:0:0:
395,345,200116,6,0,L|326:327,1,50,4|2,1:0|0:0,0:0:0:0:
323,287,200432,2,0,B|276:306|276:306|201:293,1,100,10|2,0:1|1:0,0:0:0:0:
181,277,200906,2,0,P|141:288|115:305,1,50,0|8,1:0|0:0,0:0:0:0:
93,322,201222,1,2,1:2:0:0:
18,255,201538,1,2,1:0:0:0:
32,156,201853,1,2,0:0:0:0:
131,161,202169,2,0,L|264:136,1,100,2|0,1:2|3:0,0:0:0:0:
255,99,202643,6,0,B|300:121|337:101|337:101|392:134|392:134|469:124,1,200,4|0,1:0|1:0,0:0:0:0:
508,209,203590,1,8,0:0:0:0:
508,209,203748,2,0,P|470:252|467:297,1,100,2|8,1:0|0:0,0:0:0:0:
481,340,204222,1,12,1:2:0:0:
388,376,204538,2,0,L|326:362,1,50,8|8,0:0|1:2,0:0:0:0:
300,332,204853,2,0,L|238:346,1,50,8|8,0:0|1:2,0:0:0:0:
207,367,205169,6,0,P|187:309|201:237,1,100,4|8,1:0|0:0,0:0:0:0:
221,232,205643,1,2,0:0:0:0:
257,197,205801,2,0,P|277:139|263:67,1,100,2|8,1:0|0:0,0:0:0:0:
208,26,206432,2,0,L|84:47,1,100,2|8,1:0|0:0,0:0:0:0:
64,65,206906,1,0,0:0:0:0:
32,104,207064,2,0,P|28:143|40:196,1,50,2|0,1:2|1:0,0:0:0:0:
57,195,207380,1,8,0:0:0:0:
53,294,207695,6,0,B|102:309|102:309|184:282,1,100,4|8,1:1|0:0,0:0:0:0:
195,277,208169,1,2,0:1:0:0:
244,267,208327,2,0,B|293:252|293:252|375:279,1,100,0|8,1:0|0:0,0:0:0:0:
434,297,208959,2,0,P|454:251|450:202,1,100,2|8,1:0|0:0,0:0:0:0:
424,159,209432,1,0,0:0:0:0:
440,111,209590,2,0,L|461:54,2,50,2|0|8,1:0|1:0|0:0,0:0:0:0:
341,90,210222,6,0,L|216:110,1,100,4|10,1:0|0:1,0:0:0:0:
200,77,210695,1,0,0:0:0:0:
161,44,210853,2,0,L|36:64,1,100,2|8,1:2|0:0,0:0:0:0:
24,152,211485,1,6,1:2:0:0:
96,221,211801,2,0,P|102:249|92:290,1,50,8|0,0:0|3:0,0:0:0:0:
72,312,212116,2,0,P|114:346|186:322,1,100,2|8,1:0|0:0,0:0:0:0:
234,278,212748,6,0,L|217:164,1,100,4|8,1:0|0:0,0:0:0:0:
185,141,213222,2,0,B|172:90|172:90|202:33,1,100,2|0,0:0|1:0,0:0:0:0:
234,18,213695,1,10,0:1:0:0:
322,64,214011,1,4,1:2:0:0:
322,64,214169,2,0,L|392:50,1,50,8|8,0:0|0:0,0:0:0:0:
410,23,214485,2,0,P|474:32|511:79,1,100,8|8,0:0|0:0,0:0:0:0:
508,104,214959,1,8,0:0:0:0:
433,170,215274,6,0,L|451:293,1,100,4|10,1:0|0:1,0:0:0:0:
441,318,215748,2,0,B|395:308|395:308|302:332,1,100,0|2,0:0|1:0,0:0:0:0:
305,352,216222,1,8,0:0:0:0:
305,352,216380,1,4,1:2:0:0:
220,310,216695,1,8,0:2:0:0:
220,310,216853,1,8,0:2:0:0:
256,133,217485,1,8,0:0:0:0:
217,51,217801,6,0,P|153:47|114:30,1,89.9999972534181,4|8,1:0|0:0,0:0:0:0:
86,22,218274,1,2,0:0:0:0:
86,22,218432,1,0,1:0:0:0:
29,92,218748,1,10,0:1:0:0:
67,173,219064,2,0,B|79:218|79:218|68:268,1,89.9999972534181,2|8,1:1|0:0,0:0:0:0:
50,301,219538,2,0,L|163:317,1,89.9999972534181,2|2,0:0|1:0,0:0:0:0:
178,334,220011,1,8,0:0:0:0:
253,284,220327,6,0,P|314:268|369:285,1,89.9999972534181,4|8,1:2|0:0,0:0:0:0:
383,284,220801,2,0,P|398:241|395:197,1,89.9999972534181,2|0,0:0|1:0,0:0:0:0:
412,155,221274,1,8,0:0:0:0:
381,70,221590,2,0,L|270:46,1,89.9999972534181,4|8,1:2|0:0,0:0:0:0:
217,100,222222,2,0,P|206:137|209:177,1,44.999998626709,0|0,1:0|1:0,0:0:0:0:
218,186,222538,1,8,0:0:0:0:
297,227,222853,1,4,1:0:0:0:
256,192,223011,12,4,227906,0:0:0:0:
