osu file format v14

[General]
AudioFilename: audio.mp3
AudioLeadIn: 0
PreviewTime: 54774
Countdown: 0
SampleSet: Soft
StackLeniency: 0.7
Mode: 0
LetterboxInBreaks: 0
WidescreenStoryboard: 0

[Editor]
Bookmarks: 126853,184011
DistanceSpacing: 1
BeatDivisor: 4
GridSize: 16
TimelineZoom: 1.2

[Metadata]
Title:Winter Diamond
TitleUnicode:Winter Diamond
Artist:Rita
ArtistUnicode:Rita
Creator:Gorou
Version:Collab Extra
Source:見上げてごらん、夜空の星を
Tags:impurepug resona stormiverse kirylln lmt cami djulus -mikanmymommy __ag 平井理子 hirai riko miagete goran yozora no deca o hoshi visual novel eroge video game japanese pop j-pop jpop pulltop wanpachi
BeatmapID:4443279
BeatmapSetID:2093285

[Difficulty]
HPDrainRate:6
CircleSize:4
OverallDifficulty:8.5
ApproachRate:9.3
SliderMultiplier:1.5
SliderTickRate:1

[Events]
//Background and Video events
0,0,"bg.jpg",0,0
//Break Periods
2,184947,191826
//Storyboard Layer 0 (Background)
//Storyboard Layer 1 (Fail)
//Storyboard Layer 2 (Pass)
//Storyboard Layer 3 (Foreground)
//Storyboard Layer 4 (Overlay)
//Storyboard Sound Samples

[TimingPoints]
538,315.789473684211,4,2,1,50,1,0
5195,-100,4,2,2,50,0,0
5274,-100,4,2,1,50,0,0
5353,-100,4,2,2,50,0,0
5432,-100,4,2,1,50,0,0
5590,-76.9230769230769,4,2,1,80,0,0
12459,-76.9230769230769,4,2,2,80,0,0
12538,-76.9230769230769,4,2,1,80,0,0
12616,-76.9230769230769,4,2,2,80,0,0
12695,-76.9230769230769,4,2,1,80,0,0
12774,-76.9230769230769,4,2,2,80,0,0
13011,-76.9230769230769,4,2,1,80,0,0
13169,-90.9090909090909,4,2,1,80,0,0
13485,-90.9090909090909,4,2,1,60,0,0
32669,-90.9090909090909,4,2,2,60,0,0
32906,-90.9090909090909,4,2,1,60,0,0
32985,-90.9090909090909,4,2,2,60,0,0
33064,-90.9090909090909,4,2,1,60,0,0
33222,-90.9090909090909,4,2,2,60,0,0
33380,-90.9090909090909,4,2,1,60,0,0
43169,-90.9090909090909,4,2,2,60,0,0
43485,-90.9090909090909,4,2,1,60,0,0
51616,-90.9090909090909,4,2,2,60,0,0
51695,-90.9090909090909,4,2,1,60,0,0
51853,-90.9090909090909,4,2,2,60,0,0
52011,-90.9090909090909,4,2,1,60,0,0
52090,-90.9090909090909,4,2,2,60,0,0
52169,-90.9090909090909,4,2,1,60,0,0
52327,-66.6666666666667,4,2,2,60,0,0
52485,-66.6666666666667,4,2,1,60,0,0
53590,-200,4,2,1,60,0,0
54853,-90.9090909090909,4,2,1,60,0,0
55090,-90.9090909090909,4,2,2,60,0,0
55169,-90.9090909090909,4,2,1,60,0,0
55485,-90.9090909090909,4,2,2,60,0,0
55643,-90.9090909090909,4,2,1,64,0,0
55722,-90.9090909090909,4,2,2,67,0,0
55801,-90.9090909090909,4,2,1,70,0,0
56116,-83.3333333333333,4,2,1,80,0,1
58327,-66.6666666666667,4,2,1,80,0,1
58643,-100,4,2,1,80,0,1
59116,-83.3333333333333,4,2,1,80,0,1
61169,-66.6666666666667,4,2,1,80,0,1
61485,-83.3333333333333,4,2,1,80,0,1
64722,-83.3333333333333,4,2,2,80,0,1
64801,-83.3333333333333,4,2,1,80,0,1
64880,-83.3333333333333,4,2,2,80,0,1
64959,-66.6666666666667,4,2,1,80,0,1
65511,-66.6666666666667,4,2,2,80,0,1
65985,-66.6666666666667,4,2,1,80,0,1
66538,-83.3333333333333,4,2,1,80,0,1
67959,-76.9230769230769,4,2,1,80,0,1
68748,-83.3333333333333,4,2,1,80,0,1
73801,-66.6666666666667,4,2,1,80,0,1
75301,-66.6666666666667,4,2,2,80,0,1
75380,-66.6666666666667,4,2,1,80,0,1
75616,-66.6666666666667,4,2,2,80,0,1
75774,-66.6666666666667,4,2,1,80,0,1
75853,-66.6666666666667,4,2,2,80,0,1
76011,-66.6666666666667,4,2,1,80,0,1
76090,-66.6666666666667,4,2,2,80,0,1
76169,-66.6666666666667,4,2,1,80,0,1
76327,-76.9230769230769,4,2,1,80,0,1
77274,-83.3333333333333,4,2,1,80,0,1
85327,-83.3333333333333,4,2,2,80,0,1
85485,-83.3333333333333,4,2,1,80,0,1
85959,-83.3333333333333,4,2,2,80,0,1
86116,-83.3333333333333,4,2,1,80,0,1
86195,-83.3333333333333,4,2,2,80,0,1
86432,-83.3333333333333,4,2,1,80,0,1
88011,-90.9090909090909,4,2,1,80,0,0
89274,-90.9090909090909,4,2,1,80,0,0
91801,-90.9090909090909,4,2,1,60,0,0
95827,-90.9090909090909,4,2,1,40,0,0
95906,-66.6666666666667,4,2,1,75,0,0
95985,-66.6666666666667,4,2,2,60,0,0
96222,-66.6666666666667,4,2,1,60,0,0
96301,-66.6666666666667,4,2,2,60,0,0
96380,-50,4,2,1,60,0,0
96459,-66.6666666666667,4,2,2,60,0,0
96538,-66.6666666666667,4,2,1,60,0,0
96853,-90.9090909090909,4,2,1,60,0,0
108853,-71.4285714285714,4,2,1,60,0,0
109169,-66.6666666666667,4,2,1,60,0,0
109643,-76.9230769230769,4,2,1,60,0,0
110116,-100,4,2,1,60,0,0
110590,-90.9090909090909,4,2,1,60,0,0
116038,-90.9090909090909,4,2,2,60,0,0
116353,-90.9090909090909,4,2,1,60,0,0
116432,-90.9090909090909,4,2,2,60,0,0
116511,-90.9090909090909,4,2,1,60,0,0
116590,-90.9090909090909,4,2,2,60,0,0
116669,-90.9090909090909,4,2,1,60,0,0
125748,-66.6666666666667,4,2,1,60,0,0
125906,-90.9090909090909,4,2,1,60,0,0
126538,-90.9090909090909,4,2,2,60,0,0
126616,-90.9090909090909,4,2,1,60,0,0
134985,-90.9090909090909,4,2,2,60,0,0
135064,-90.9090909090909,4,2,1,60,0,0
135222,-90.9090909090909,4,2,2,60,0,0
135380,-90.9090909090909,4,2,1,60,0,0
135459,-90.9090909090909,4,2,2,60,0,0
135538,-90.9090909090909,4,2,1,60,0,0
135696,-66.6666666666667,4,2,2,60,0,0
135854,-66.6666666666667,4,2,1,60,0,0
136959,-166.666666666667,4,2,1,60,0,0
138380,-100,4,2,2,60,0,0
138538,-100,4,2,1,60,0,0
138695,-100,4,2,2,60,0,0
138853,-100,4,2,1,60,0,0
138932,-100,4,2,2,60,0,0
139011,-100,4,2,1,60,0,0
139090,-100,4,2,2,60,0,0
139169,-100,4,2,1,60,0,0
139248,-100,4,2,2,60,0,0
139327,-100,4,2,1,60,0,0
139406,-100,4,2,2,60,0,0
139485,-83.3333333333333,4,2,1,80,0,1
148249,-83.3333333333333,4,2,2,80,0,1
148328,-83.3333333333333,4,2,1,80,0,1
148801,-83.3333333333333,4,2,2,80,0,1
148959,-83.3333333333333,4,2,1,80,0,1
149038,-83.3333333333333,4,2,2,80,0,1
149274,-100,4,2,1,80,0,1
149353,-83.3333333333333,4,2,2,80,0,1
149432,-83.3333333333333,4,2,1,80,0,1
158670,-83.3333333333333,4,2,2,80,0,1
158749,-83.3333333333333,4,2,1,80,0,1
158827,-83.3333333333333,4,2,2,80,0,1
158906,-83.3333333333333,4,2,1,80,0,1
158985,-83.3333333333333,4,2,2,80,0,1
159143,-83.3333333333333,4,2,1,80,0,1
159222,-83.3333333333333,4,2,2,80,0,1
159380,-83.3333333333333,4,2,1,80,0,1
159459,-83.3333333333333,4,2,2,80,0,1
159538,-83.3333333333333,4,2,1,80,0,1
159696,-83.3333333333333,4,2,1,80,0,1
168696,-83.3333333333333,4,2,2,80,0,1
168854,-83.3333333333333,4,2,1,80,0,1
169328,-83.3333333333333,4,2,2,80,0,1
169485,-83.3333333333333,4,2,1,80,0,1
169564,-83.3333333333333,4,2,2,80,0,1
169801,-83.3333333333333,4,2,1,80,0,1
171380,-83.3333333333333,4,2,1,80,0,0
182195,-83.3333333333333,4,2,2,80,0,0
182906,-83.3333333333333,4,2,2,80,0,0
183222,-83.3333333333333,4,2,1,80,0,0
183538,-83.3333333333333,4,2,2,80,0,0
183695,-83.3333333333333,4,2,1,80,0,0
192853,-83.3333333333333,4,2,2,80,0,0
193011,-83.3333333333333,4,2,1,80,0,0
193643,-83.3333333333333,4,2,2,80,0,0
193801,-83.3333333333333,4,2,1,80,0,0
194116,-83.3333333333333,4,2,2,80,0,0
194274,-83.3333333333333,4,2,1,80,0,0
194590,-83.3333333333333,4,2,2,80,0,0
194906,-83.3333333333333,4,2,1,80,0,0
195064,-71.4285714285714,4,2,1,80,0,1
195380,-83.3333333333333,4,2,1,80,0,1
204222,-83.3333333333333,4,2,2,80,0,1
204380,-58.8235294117647,4,2,2,80,0,1
204459,-58.8235294117647,4,2,1,80,0,1
204695,-58.8235294117647,4,2,2,80,0,1
204853,-58.8235294117647,4,2,1,80,0,1
204932,-58.8235294117647,4,2,2,80,0,1
205090,-58.8235294117647,4,2,1,80,0,1
205169,-66.6666666666667,4,2,1,80,0,1
210222,-76.9230769230769,4,2,1,80,0,1
214169,-76.9230769230769,4,2,2,80,0,1
214327,-76.9230769230769,4,2,1,80,0,1
214564,-76.9230769230769,4,2,2,80,0,1
214959,-76.9230769230769,4,2,1,80,0,1
216853,-76.9230769230769,4,2,1,80,0,1
217485,-100,4,2,1,80,0,0
217801,-71.4285714285714,4,2,1,80,0,0
218274,-90.9090909090909,4,2,1,80,0,0
223485,-90.9090909090909,4,2,1,70,0,0
224116,-90.9090909090909,4,2,1,60,0,0
224748,-90.9090909090909,4,2,1,50,0,0
225380,-90.9090909090909,4,2,1,40,0,0
226011,-90.9090909090909,4,2,1,35,0,0
226643,-90.9090909090909,4,2,1,30,0,0
227274,-90.9090909090909,4,2,1,25,0,0
227906,-90.9090909090909,4,2,3,20,0,0

[Colours]
Combo1 : 206,193,185
Combo2 : 96,239,255
Combo3 : 153,154,174
Combo4 : 169,151,255

[HitObjects]
62,268,538,5,0,1:0:0:0:
67,254,853,1,0,1:0:0:0:
72,240,1169,1,0,1:0:0:0:
77,226,1485,1,0,1:0:0:0:
149,112,1801,5,0,1:0:0:0:
154,126,2116,1,0,1:0:0:0:
159,140,2432,1,0,1:0:0:0:
164,154,2748,1,0,1:0:0:0:
263,345,3064,5,0,1:0:0:0:
268,331,3379,1,0,1:0:0:0:
273,317,3695,1,0,1:0:0:0:
278,303,4011,1,0,1:0:0:0:
393,60,4327,5,0,1:0:0:0:
398,74,4642,1,0,1:0:0:0:
403,88,4958,1,0,1:0:0:0:
408,102,5116,2,0,L|426:166,1,37.5,8|8,0:0|0:0,0:0:0:0:
466,268,5274,5,8,1:2:0:0:
466,268,5353,1,8,0:0:0:0:
466,268,5432,1,8,0:0:0:0:
466,268,5511,1,8,0:0:0:0:
466,268,5590,2,0,B|407:282|407:282|343:244|343:244|273:257,1,194.999991073609,4|8,1:0|0:0,0:0:0:0:
72,349,6064,5,0,3:0:0:0:
72,349,6143,1,2,3:2:0:0:
72,349,6222,1,2,1:0:0:0:
206,194,6380,1,0,1:0:0:0:
13,78,6538,2,0,B|-10:123|-10:123|22:190,1,97.4999955368044,8|0,0:0|0:0,0:0:0:0:
172,94,6853,5,2,1:0:0:0:
89,124,7011,1,0,1:0:0:0:
11,255,7169,5,8,0:0:0:0:
108,273,7327,1,2,0:0:0:0:
108,273,7406,1,0,3:0:0:0:
108,273,7485,1,0,1:0:0:0:
208,382,7643,5,2,1:0:0:0:
170,199,7801,2,0,P|156:141|144:101,1,97.4999955368044,8|0,0:0|0:0,0:0:0:0:
375,346,8116,6,0,P|450:349|480:260,1,146.249993305207,2|0,1:0|0:0,0:0:0:0:
485,294,8432,2,0,P|474:238|472:174,1,97.4999955368044,8|0,0:0|3:0,0:0:0:0:
493,125,8669,1,0,3:0:0:0:
493,125,8748,1,2,0:0:0:0:
379,156,8906,1,2,1:0:0:0:
256,193,9064,2,0,P|298:233|360:234,1,97.4999955368044,8|0,0:0|0:0,0:0:0:0:
291,95,9380,5,0,1:0:0:0:
221,289,9538,1,0,1:0:0:0:
331,259,9695,5,8,0:0:0:0:
181,125,9853,1,2,0:0:0:0:
390,179,10011,5,2,1:0:0:0:
122,205,10169,1,0,1:0:0:0:
457,227,10327,5,8,0:0:0:0:
55,157,10485,1,0,0:0:0:0:
256,192,10643,5,4,1:0:0:0:
256,192,10722,12,4,12064,0:3:0:0:
494,47,12380,5,8,0:0:0:0:
494,47,12459,1,8,0:0:0:0:
494,47,12538,1,8,0:0:0:0:
490,94,12616,1,8,0:0:0:0:
459,131,12695,1,8,0:0:0:0:
413,143,12774,1,8,0:0:0:0:
368,125,12853,5,8,1:2:0:0:
365,116,12932,1,8,0:0:0:0:
362,106,13011,1,8,0:0:0:0:
359,96,13090,1,8,0:0:0:0:
357,85,13169,6,0,B|257:68|257:68|202:111,1,165.000005035401,4|8,1:0|0:0,0:0:0:0:
49,217,13643,1,0,3:0:0:0:
49,217,13722,1,0,3:2:0:0:
49,217,13801,1,0,1:0:0:0:
136,271,13959,1,0,1:0:0:0:
82,119,14116,1,8,0:0:0:0:
208,31,14274,6,0,B|223:69|223:69|199:123,1,82.5000025177003,0|0,0:0|1:0,0:0:0:0:
76,328,14590,2,0,P|41:318|-21:306,1,82.5000025177003,0|8,1:0|0:0,0:0:0:0:
148,182,14906,2,0,B|239:182|206:226|307:222,1,165.000005035401,0|0,1:0|1:0,0:0:0:0:
378,193,15380,5,8,0:0:0:0:
302,340,15538,1,0,0:0:0:0:
487,380,15695,2,0,P|466:302|445:199,1,165.000005035401,0|8,1:0|0:0,0:0:0:0:
322,23,16169,1,0,3:0:0:0:
318,30,16248,1,0,3:0:0:0:
315,37,16327,1,0,1:0:0:0:
413,67,16485,1,0,1:0:0:0:
290,251,16643,2,0,P|273:209|249:161,1,82.5000025177003,8|0,0:0|0:0,0:0:0:0:
458,145,16959,5,0,1:0:0:0:
362,166,17116,1,0,1:0:0:0:
155,106,17274,5,8,0:0:0:0:
242,91,17432,1,0,0:0:0:0:
383,8,17590,2,0,P|337:54|327:98,1,82.5000025177003,0|0,1:0|1:0,0:0:0:0:
285,353,17906,5,8,0:0:0:0:
342,287,18064,1,0,0:0:0:0:
279,169,18222,5,0,1:0:0:0:
221,234,18380,1,0,0:0:0:0:
69,117,18538,2,0,P|22:94|-37:81,1,82.5000025177003,8|0,0:0|3:0,0:0:0:0:
4,76,18774,1,0,3:0:0:0:
16,68,18853,1,0,1:0:0:0:
144,21,19011,5,0,1:0:0:0:
167,117,19169,1,8,0:0:0:0:
24,298,19327,6,0,P|19:258|56:194,1,82.5000025177003,0|0,0:0|1:0,0:0:0:0:
185,332,19643,2,0,P|152:356|78:356,1,82.5000025177003,0|8,1:0|0:0,0:0:0:0:
157,192,19959,2,0,P|206:255|185:332,1,165.000005035401,0|0,1:0|1:0,0:0:0:0:
27,237,20432,1,8,0:0:0:0:
110,266,20590,1,0,0:0:0:0:
308,64,20748,6,0,B|283:82|283:82|258:81|258:81|219:122|139:108,1,165.000005035401,0|8,1:0|0:0,0:0:0:0:
18,62,21222,1,0,0:0:0:0:
110,266,21380,5,0,1:0:0:0:
167,210,21538,1,0,1:0:0:0:
7,155,21695,2,0,P|49:166|95:170,1,82.5000025177003,8|0,0:0|0:0,0:0:0:0:
257,256,22011,5,0,1:0:0:0:
112,365,22169,2,0,P|166:352|200:329,1,82.5000025177003,0|8,1:0|0:0,0:0:0:0:
338,228,22485,5,0,0:0:0:0:
172,179,22643,1,0,1:0:0:0:
215,349,22801,1,0,1:0:0:0:
357,228,22959,2,0,P|371:164|313:111,1,123.75000377655,8|0,0:0|0:0,0:0:0:0:
338,120,23274,6,0,L|440:77,1,82.5000025177003,4|0,1:0|0:0,0:0:0:0:
459,16,23590,1,8,0:0:0:0:
316,0,23748,5,0,3:0:0:0:
311,13,23827,1,0,3:0:0:0:
306,26,23906,1,0,1:0:0:0:
235,48,24064,1,0,1:0:0:0:
164,69,24222,1,8,0:0:0:0:
456,199,24380,5,0,0:0:0:0:
320,175,24538,2,0,B|420:155|420:155|480:184,1,165.000005035401,0|8,1:0|0:0,0:0:0:0:
403,324,25011,2,0,L|420:228,1,82.5000025177003,0|0,0:0|1:0,0:0:0:0:
416,74,25327,1,0,1:0:0:0:
346,26,25485,2,0,B|318:12|318:12|274:47|295:102,1,123.75000377655,8|0,0:0|0:0,0:0:0:0:
313,178,25801,6,0,B|225:186|242:144|153:140,1,165.000005035401,4|8,1:2|0:0,0:0:0:0:
63,26,26274,2,0,P|70:51|75:75,1,41.2500012588501,0|0,0:0|3:0,0:0:0:0:
170,225,26432,2,0,P|154:266|141:331,1,82.5000025177003,0|0,1:0|0:0,0:0:0:0:
10,125,26748,6,0,P|84:154|150:110,1,165.000005035401,12|0,0:0|0:0,0:0:0:0:
182,39,27222,1,0,1:0:0:0:
150,111,27380,2,0,B|135:149|135:149|158:215,1,82.5000025177003,8|0,0:0|0:0,0:0:0:0:
237,230,27695,5,0,1:0:0:0:
23,327,27853,1,0,1:0:0:0:
91,373,28011,2,0,P|134:374|173:342,1,82.5000025177003,8|0,0:0|3:0,0:0:0:0:
226,214,28248,5,0,3:0:0:0:
210,207,28327,2,0,P|161:207|120:322,1,165.000005035401,4|8,1:0|0:0,0:0:0:0:
196,368,28801,2,0,P|192:313|176:260,1,82.5000025177003,0|0,0:0|1:0,0:0:0:0:
376,66,29116,1,0,0:0:0:0:
316,110,29274,2,0,P|307:150|305:191,1,82.5000025177003,8|0,0:0|0:0,0:0:0:0:
314,352,29590,5,0,1:0:0:0:
439,294,29748,1,0,1:0:0:0:
312,267,29906,1,8,0:0:0:0:
383,235,30064,1,0,0:0:0:0:
399,371,30222,5,0,1:0:0:0:
257,207,30380,1,0,1:0:0:0:
377,149,30538,1,8,0:0:0:0:
301,136,30695,1,0,3:0:0:0:
457,85,30853,6,0,B|476:83|504:62|504:62|474:186,1,165.000005035401,4|8,1:2|0:0,0:0:0:0:
429,228,31327,2,0,P|413:222|375:217,2,41.2500012588501,0|0|0,3:0|3:0|1:0,0:0:0:0:
512,37,31643,1,0,1:0:0:0:
393,143,31801,2,0,B|375:179|375:179|401:248,1,82.5000025177003,8|0,0:0|0:0,0:0:0:0:
473,281,32116,5,0,1:0:0:0:
331,331,32274,1,0,3:0:0:0:
509,362,32432,5,8,0:0:0:0:
301,255,32590,1,8,0:0:0:0:
301,255,32669,1,8,0:0:0:0:
301,255,32748,1,8,0:0:0:0:
488,136,32906,1,8,0:0:0:0:
488,101,32984,1,8,0:0:0:0:
475,70,33063,1,8,1:2:0:0:
451,46,33142,1,8,0:0:0:0:
419,33,33221,1,8,0:0:0:0:
385,34,33300,1,8,0:0:0:0:
354,49,33380,6,0,P|359:117|359:190,1,123.75000377655,4|0,1:0|0:0,0:0:0:0:
359,183,33695,2,0,B|396:198|396:198|449:179,1,82.5000025177003,10|0,0:0|3:0,0:0:0:0:
507,155,33932,1,0,3:0:0:0:
507,155,34011,1,2,1:0:0:0:
404,111,34169,1,0,1:0:0:0:
179,114,34327,5,8,0:0:0:0:
257,70,34485,2,0,P|340:105|352:197,1,165.000005035401,2|0,1:2|1:0,0:0:0:0:
184,349,34959,2,0,P|157:309|114:271,1,82.5000025177003,8|2,0:0|0:0,0:0:0:0:
302,254,35274,1,0,1:0:0:0:
272,330,35431,1,0,1:0:0:0:
161,200,35590,2,0,P|209:196|263:178,1,82.5000025177003,8|0,0:0|0:0,0:0:0:0:
486,299,35906,6,0,P|468:369|386:351,1,165.000005035401,2|8,1:0|0:0,0:0:0:0:
310,240,36380,1,0,3:0:0:0:
306,247,36459,1,0,3:0:0:0:
302,254,36538,1,0,1:0:0:0:
377,279,36695,1,0,1:0:0:0:
421,122,36853,2,0,L|400:33,1,82.5000025177003,10|0,0:0|0:0,0:0:0:0:
509,109,37169,5,0,1:0:0:0:
366,186,37327,1,2,1:0:0:0:
311,101,37485,5,8,0:0:0:0:
421,122,37643,1,0,0:0:0:0:
470,15,37801,5,2,1:0:0:0:
311,101,37959,1,0,1:0:0:0:
210,270,38116,5,8,0:0:0:0:
109,221,38274,1,0,3:0:0:0:
109,221,38353,1,0,3:0:0:0:
109,221,38432,2,0,P|127:182|142:121,1,82.5000025177003,4|0,1:2|0:0,0:0:0:0:
9,45,38748,2,0,P|33:80|79:123,1,82.5000025177003,8|0,0:0|3:0,0:0:0:0:
194,66,38985,1,0,3:0:0:0:
194,66,39064,2,0,P|101:58|58:118,1,165.000005035401,2|8,1:0|0:0,0:0:0:0:
39,321,39538,5,2,0:0:0:0:
105,366,39695,1,0,1:0:0:0:
39,321,39853,1,2,1:0:0:0:
105,366,40011,1,8,0:0:0:0:
172,329,40169,1,2,0:0:0:0:
106,207,40327,6,0,P|94:251|129:300,1,82.5000025177003,0|0,1:0|1:0,0:0:0:0:
274,184,40643,2,0,P|241:151|181:157,1,82.5000025177003,8|0,0:0|0:0,0:0:0:0:
186,341,40959,2,0,P|262:343|261:256,1,165.000005035401,2|8,1:0|0:0,0:0:0:0:
426,153,41432,5,0,3:0:0:0:
428,145,41511,1,0,3:0:0:0:
430,137,41590,1,2,1:0:0:0:
406,64,41748,1,2,1:2:0:0:
353,198,41906,5,10,0:0:0:0:
289,136,42064,1,0,0:0:0:0:
319,61,42222,1,0,1:0:0:0:
353,198,42380,5,2,1:0:0:0:
438,173,42538,1,8,0:0:0:0:
488,237,42696,1,0,0:0:0:0:
353,198,42853,5,2,1:0:0:0:
332,284,43011,2,0,P|305:306|271:313,1,41.2500012588501,8|0,0:0|3:0,0:0:0:0:
180,363,43169,1,8,0:0:0:0:
144,341,43247,1,8,0:0:0:0:
105,328,43326,1,8,0:0:0:0:
64,322,43405,1,8,0:0:0:0:
23,324,43485,6,0,P|72:342|87:253,1,165.000005035401,4|8,1:0|0:0,0:0:0:0:
21,148,43959,1,0,3:0:0:0:
18,155,44038,1,0,3:0:0:0:
15,162,44116,1,0,1:0:0:0:
167,100,44274,1,2,1:0:0:0:
44,0,44432,2,0,P|58:39|72:96,1,82.5000025177003,8|2,0:0|0:1,0:0:0:0:
173,331,44748,5,0,1:0:0:0:
189,258,44906,1,2,0:0:0:0:
206,188,45064,1,8,0:0:0:0:
173,331,45222,1,0,0:0:0:0:
290,217,45380,2,0,B|303:179|303:179|286:137,1,82.5000025177003,2|0,1:2|1:0,0:0:0:0:
92,314,45695,2,0,P|139:329|188:351,1,82.5000025177003,8|0,0:0|0:0,0:0:0:0:
474,254,46011,6,0,P|393:293|396:380,1,165.000005035401,4|8,1:2|0:0,0:0:0:0:
287,139,46485,2,0,P|297:170|300:200,1,41.2500012588501,0|0,3:0|3:0,0:0:0:0:
314,254,46643,2,0,L|226:279,1,82.5000025177003,2|0,1:0|0:0,0:0:0:0:
369,37,46959,2,0,B|443:17|443:17|504:53,1,123.75000377655,10|0,0:0|0:0,0:0:0:0:
430,104,47274,5,4,1:1:0:0:
430,104,47432,1,0,1:0:0:0:
496,205,47590,2,0,P|510:153|522:103,1,82.5000025177003,8|0,0:0|0:0,0:0:0:0:
369,37,47906,1,2,1:0:0:0:
307,125,48064,2,0,P|293:73|281:23,1,82.5000025177003,0|8,1:0|0:0,0:0:0:0:
72,32,48380,5,0,3:0:0:0:
72,32,48459,1,0,3:0:0:0:
72,32,48538,2,0,B|75:60|60:88|60:88|20:113|20:113|21:143|5:177,1,165.000005035401,4|8,1:2|0:0,0:0:0:0:
22,335,49011,1,0,3:0:0:0:
26,342,49090,1,0,3:0:0:0:
30,349,49169,1,2,1:2:0:0:
162,222,49327,1,0,1:0:0:0:
64,254,49485,1,8,0:0:0:0:
248,273,49643,1,2,0:0:0:0:
274,50,49801,6,0,B|245:26|245:26|178:69|209:150,1,165.000005035401,4|8,1:2|0:0,0:0:0:0:
306,195,50274,1,0,0:0:0:0:
137,340,50432,2,0,P|93:330|30:321,1,82.5000025177003,2|0,1:0|1:0,0:0:0:0:
320,186,50748,2,0,P|364:176|427:167,1,82.5000025177003,8|0,0:0|0:0,0:0:0:0:
68,96,51064,6,0,B|6:70|6:70|62:157,1,165.000005035401,4|8,1:0|0:0,0:0:0:0:
170,118,51538,5,8,0:0:0:0:
174,77,51616,1,8,1:2:0:0:
155,41,51695,1,10,0:0:0:0:
147,241,51853,5,8,1:2:0:0:
142,281,51931,1,8,0:2:0:0:
154,320,52010,1,8,0:3:0:0:
182,350,52089,1,8,0:0:0:0:
220,365,52168,1,8,0:0:0:0:
261,363,52247,1,8,0:0:0:0:
297,344,52327,2,0,L|376:317,1,56.2500021457673,8|0,1:2|0:0,0:0:0:0:
61,213,52485,2,0,L|-17:185,1,56.2500021457673,8|0,0:0|0:0,0:0:0:0:
277,67,52643,1,8,0:0:0:0:
285,74,53432,5,2,0:0:0:0:
285,74,53511,1,2,0:0:0:0:
285,74,53590,2,0,B|338:79|329:55|370:58|370:58|405:89|446:83|446:83|448:52|472:33,1,225,4|0,0:0|0:0,0:0:0:0:
468,35,54853,5,4,0:0:0:0:
278,178,55011,2,0,P|261:192|231:198,1,41.2500012588501,8|8,0:0|0:0,0:0:0:0:
323,108,55169,2,0,P|319:86|329:57,1,41.2500012588501,8|0,0:0|0:0,0:0:0:0:
394,349,55327,5,8,0:0:0:0:
361,181,55485,2,0,P|381:188|401:211,1,41.2500012588501,12|8,1:2|0:0,0:0:0:0:
394,349,55643,5,8,0:0:0:0:
360,357,55721,1,8,0:0:0:0:
327,366,55800,1,8,1:2:0:0:
294,374,55879,1,8,0:0:0:0:
262,360,55958,1,8,0:0:0:0:
231,346,56037,1,8,0:0:0:0:
200,331,56116,6,0,P|200:272|194:220,1,89.9999972534181,4|0,1:0|0:0,0:0:0:0:
7,31,56432,2,0,P|23:85|89:111,1,89.9999972534181,8|0,0:0|0:0,0:0:0:0:
111,155,56669,5,0,3:0:0:0:
111,155,56748,1,2,1:0:0:0:
0,230,56906,1,2,1:2:0:0:
91,31,57064,1,8,0:0:0:0:
224,211,57222,2,0,P|203:262|146:294,1,89.9999972534181,2|0,1:0|0:0,0:0:0:0:
14,124,57538,5,2,1:2:0:0:
111,155,57695,1,8,0:0:0:0:
263,325,57853,5,2,0:0:0:0:
66,384,58011,1,0,1:0:0:0:
357,233,58169,2,0,P|358:200|381:170,1,44.999998626709,2|0,1:0|3:0,0:0:0:0:
410,127,58327,2,0,P|394:40|313:66,1,168.750006437302,8|0,0:0|0:0,0:0:0:0:
320,62,58643,6,0,B|387:55|363:29|423:20,1,112.5,4|0,1:2|0:0,0:0:0:0:
510,35,58959,1,8,0:0:0:0:
414,9,59116,1,0,3:0:0:0:
418,15,59195,1,0,3:0:0:0:
422,20,59274,1,0,1:0:0:0:
446,107,59432,1,2,1:0:0:0:
364,243,59590,5,8,0:0:0:0:
512,210,59748,1,2,0:0:0:0:
407,95,59906,1,0,1:0:0:0:
211,221,60064,5,2,1:0:0:0:
365,384,60222,1,8,0:0:0:0:
426,175,60380,1,2,0:0:0:0:
92,331,60538,5,0,1:0:0:0:
335,284,60695,1,0,1:0:0:0:
335,284,60774,1,0,3:0:0:0:
335,284,60853,2,0,B|324:234|349:243|336:196,1,89.9999972534181,8|0,0:0|0:0,0:0:0:0:
195,21,61169,6,0,P|141:100|65:79,1,168.750006437302,4|0,1:2|0:0,0:0:0:0:
46,5,61485,2,0,P|76:29|86:100,1,89.9999972534181,8|0,0:0|0:0,0:0:0:0:
41,157,61722,5,0,3:0:0:0:
41,157,61801,1,2,1:0:0:0:
335,284,61959,1,2,1:2:0:0:
280,203,62116,5,8,0:0:0:0:
104,384,62274,2,0,P|80:362|12:337,1,89.9999972534181,0|0,1:0|0:0,0:0:0:0:
280,203,62590,2,0,P|272:234|285:306,1,89.9999972534181,0|8,1:0|0:0,0:0:0:0:
41,157,62906,1,2,0:1:0:0:
154,108,63064,1,0,1:0:0:0:
62,37,63222,1,2,1:2:0:0:
184,291,63380,5,8,0:0:0:0:
343,59,63538,1,0,3:0:0:0:
343,59,63616,1,0,3:0:0:0:
343,59,63695,2,0,P|429:38|469:125,1,179.999994506836,4|8,1:2|0:0,0:0:0:0:
489,354,64169,5,0,3:0:0:0:
480,309,64247,1,0,1:0:0:0:
469,266,64326,1,2,1:2:0:0:
250,8,64485,5,0,1:0:0:0:
243,52,64563,1,0,3:0:0:0:
236,96,64642,1,8,0:0:0:0:
229,141,64722,1,8,0:0:0:0:
222,185,64800,1,8,1:2:0:0:
225,194,64880,1,8,0:0:0:0:
227,202,64959,2,0,P|254:213|289:210,1,56.2500021457673,12|0,1:1|0:0,0:0:0:0:
354,254,65116,2,0,P|380:242|403:215,1,56.2500021457673,0|0,1:0|0:0,0:0:0:0:
448,159,65274,1,12,0:0:0:0:
106,72,65432,5,0,1:0:0:0:
97,64,65510,1,8,0:0:0:0:
89,55,65589,1,8,0:0:0:0:
109,372,65748,5,8,0:0:0:0:
145,323,65826,1,8,0:0:0:0:
124,266,65906,1,8,1:2:0:0:
65,252,65984,1,8,0:0:0:0:
21,294,66063,5,8,0:0:0:0:
19,305,66143,1,8,0:0:0:0:
18,316,66222,2,0,P|99:308|202:311,1,168.750006437302,4|0,1:0|0:0,0:0:0:0:
195,314,66538,2,0,B|210:270|210:270|193:223,1,89.9999972534181,8|0,0:0|0:0,0:0:0:0:
148,166,66774,1,0,3:0:0:0:
148,166,66853,1,2,1:2:0:0:
193,95,67011,1,0,1:0:0:0:
146,27,67169,1,8,0:0:0:0:
115,246,67327,6,0,P|82:223|57:161,1,89.9999972534181,2|0,1:0|0:0,0:0:0:0:
350,30,67643,2,0,P|371:69|372:113,1,89.9999972534181,0|8,1:0|0:0,0:0:0:0:
283,90,67959,2,0,B|344:76|344:76|406:110|406:110|476:91,1,194.999991073609,0|0,1:0|1:0,0:0:0:0:
510,31,68432,1,8,0:0:0:0:
369,276,68590,5,0,3:0:0:0:
369,276,68669,1,0,3:0:0:0:
369,276,68748,2,0,P|393:350|515:333,1,179.999994506836,4|8,1:2|0:0,0:0:0:0:
492,195,69222,1,0,3:0:0:0:
484,189,69301,1,0,3:0:0:0:
476,183,69380,1,0,1:0:0:0:
449,284,69538,1,0,1:0:0:0:
261,225,69695,1,10,0:1:0:0:
289,127,69853,1,2,1:2:0:0:
320,380,70011,5,0,0:0:0:0:
144,328,70169,1,2,1:0:0:0:
196,152,70327,1,8,0:0:0:0:
372,204,70485,1,0,0:0:0:0:
256,264,70643,5,0,1:0:0:0:
10,320,70801,1,0,1:0:0:0:
83,366,70959,2,0,B|101:324|101:324|86:267,1,89.9999972534181,10|0,0:0|3:0,0:0:0:0:
49,175,71195,5,0,3:0:0:0:
49,175,71274,2,0,B|60:84|60:84|97:54,1,134.999995880127,4|0,1:2|0:0,0:0:0:0:
166,6,71590,2,0,P|181:57|162:107,1,89.9999972534181,8|0,0:0|0:0,0:0:0:0:
7,95,71906,5,2,1:0:0:0:
182,183,72064,1,0,1:0:0:0:
311,37,72222,1,8,0:0:0:0:
486,125,72380,1,2,1:2:0:0:
486,125,72695,5,2,1:0:0:0:
273,228,72853,1,8,0:0:0:0:
426,29,73011,1,0,3:0:0:0:
426,29,73090,1,0,3:0:0:0:
426,29,73169,1,2,1:2:0:0:
461,253,73327,1,0,1:0:0:0:
224,154,73485,2,0,L|115:174,1,89.9999972534181,8|0,0:0|3:0,0:0:0:0:
58,182,73722,5,0,3:0:0:0:
58,182,73801,2,0,L|252:219,1,168.750006437302,4|0,1:1|0:0,0:0:0:0:
339,149,74116,2,0,B|313:203|313:203|331:278,1,112.500004291535,8|0,0:0|3:0,0:0:0:0:
506,323,74353,1,0,3:0:0:0:
506,323,74432,2,0,B|475:269|405:283|405:283|392:319|352:337,1,168.750006437302,2|0,1:0|0:0,0:0:0:0:
326,255,74748,1,8,0:0:0:0:
452,85,74906,1,0,0:0:0:0:
300,332,75064,6,0,P|258:356|208:345,1,56.2500021457673,4|0,1:2|0:0,0:0:0:0:
112,209,75222,1,8,0:0:0:0:
146,228,75300,1,8,0:0:0:0:
150,268,75379,1,8,0:0:0:0:
23,347,75538,5,8,0:0:0:0:
23,347,75616,1,8,3:2:0:0:
23,347,75695,1,8,1:2:0:0:
46,296,75774,1,4,0:3:0:0:
94,267,75853,1,8,0:0:0:0:
150,268,75932,1,8,0:0:0:0:
189,308,76011,2,0,B|206:296|206:296|195:251,1,56.2500021457673,8|8,0:0|0:0,0:0:0:0:
179,150,76169,2,0,B|143:136|143:136|112:148,1,56.2500021457673,8|8,0:0|0:0,0:0:0:0:
0,172,76327,6,0,P|33:179|45:48,1,194.999991073609,4|8,1:0|0:0,0:0:0:0:
162,2,76801,1,0,3:0:0:0:
158,10,76879,1,0,3:0:0:0:
155,19,76958,1,2,1:0:0:0:
237,85,77116,1,0,1:0:0:0:
485,30,77274,2,0,P|441:39|360:54,1,89.9999972534181,8|0,0:0|0:0,0:0:0:0:
290,19,77590,5,0,1:0:0:0:
474,293,77748,2,0,P|464:249|450:168,1,89.9999972534181,2|8,1:0|0:0,0:0:0:0:
474,124,78064,1,0,0:0:0:0:
297,234,78222,5,0,1:0:0:0:
352,120,78380,1,2,1:2:0:0:
188,269,78538,1,10,0:0:0:0:
411,218,78695,1,0,0:0:0:0:
228,359,78853,6,0,P|146:356|98:272,1,179.999994506836,4|8,1:0|0:0,0:0:0:0:
13,116,79327,1,0,3:0:0:0:
17,123,79406,1,0,3:0:0:0:
21,130,79485,1,0,1:0:0:0:
93,71,79643,1,0,1:0:0:0:
111,267,79801,5,10,0:1:0:0:
34,231,79959,1,0,0:0:0:0:
93,71,80116,1,0,1:0:0:0:
192,121,80274,5,2,1:0:0:0:
202,200,80432,1,8,0:0:0:0:
21,130,80590,1,0,0:0:0:0:
112,172,80748,5,0,1:0:0:0:
112,172,80906,1,0,1:0:0:0:
256,25,81064,1,8,0:0:0:0:
451,109,81222,5,0,3:0:0:0:
451,109,81301,1,0,3:0:0:0:
451,109,81380,2,0,B|438:181|499:153|492:236,1,134.999995880127,4|0,1:2|0:0,0:0:0:0:
492,230,81695,2,0,P|446:228|376:236,1,89.9999972534181,8|0,0:0|0:0,0:0:0:0:
266,289,81932,5,0,3:0:0:0:
266,289,82011,1,2,1:0:0:0:
417,359,82169,1,0,1:0:0:0:
308,189,82327,5,8,0:0:0:0:
92,285,82485,1,2,0:0:0:0:
148,54,82643,6,0,B|198:-6|198:-6|189:82,1,134.999995880127,4|0,1:1|0:0,0:0:0:0:
262,96,82959,2,0,P|221:54|161:60,1,89.9999972534181,8|0,0:0|0:0,0:0:0:0:
45,180,83274,1,2,1:0:0:0:
54,267,83432,1,0,1:2:0:0:
235,317,83590,2,0,P|291:302|316:247,1,89.9999972534181,10|0,0:0|3:0,0:0:0:0:
236,238,83827,5,0,3:0:0:0:
236,238,83906,2,0,P|167:268|172:384,1,179.999994506836,4|8,1:2|0:0,0:0:0:0:
137,107,84380,6,0,B|127:29|45:30|45:30|67:97,1,179.999994506836,2|0,0:0|1:0,0:0:0:0:
12,226,84853,2,0,P|58:208|116:199,1,89.9999972534181,12|0,0:0|0:0,0:0:0:0:
235,84,85090,5,0,3:0:0:0:
243,75,85169,2,0,P|272:81|304:87,1,44.999998626709,4|0,1:0|0:0,0:0:0:0:
458,76,85327,5,8,1:2:0:0:
486,45,85406,1,8,0:0:0:0:
479,6,85485,1,8,0:0:0:0:
306,243,85643,5,8,0:0:0:0:
278,274,85722,1,8,0:0:0:0:
285,313,85801,1,8,0:0:0:0:
512,372,85959,5,8,0:0:0:0:
493,331,86037,1,8,0:0:0:0:
460,301,86116,1,8,0:0:0:0:
418,286,86195,1,8,0:0:0:0:
373,288,86274,1,8,0:0:0:0:
368,295,86353,1,8,0:0:0:0:
362,302,86432,6,0,P|433:305|399:200,1,179.999994506836,4|8,1:0|0:0,0:0:0:0:
244,20,86906,1,0,3:0:0:0:
233,11,86985,1,0,3:0:0:0:
223,3,87064,1,2,1:0:0:0:
438,214,87222,1,2,1:2:0:0:
140,169,87380,1,8,0:0:0:0:
408,33,87538,1,4,1:2:0:0:
417,26,87853,5,8,0:0:0:0:
273,301,88011,1,8,0:0:0:0:
306,168,88485,5,0,1:0:0:0:
301,157,88564,1,0,1:0:0:0:
296,146,88643,1,8,0:0:0:0:
116,335,88959,6,0,B|26:357|26:357|79:300,1,165.000005035401,4|8,1:0|0:0,0:0:0:0:
132,249,89432,1,0,0:0:0:0:
5,125,89590,2,0,B|-12:163|-12:163|9:216,1,82.5000025177003,0|0,1:0|1:0,0:0:0:0:
182,161,89906,1,8,0:0:0:0:
29,31,90064,1,0,0:0:0:0:
89,168,90222,6,0,P|116:99|220:82,1,165.000005035401,0|8,1:0|0:0,0:0:0:0:
400,197,90695,2,0,P|445:182|491:173,1,82.5000025177003,0|0,0:0|1:0,0:0:0:0:
485,90,91011,1,0,1:0:0:0:
397,337,91169,2,0,P|309:305|226:300,1,165.000005035401,8|4,0:0|1:2,0:0:0:0:
241,307,91801,5,0,1:0:0:0:
244,314,92116,1,0,1:0:0:0:
247,321,92432,1,0,1:0:0:0:
250,328,92748,1,0,1:0:0:0:
253,335,93064,1,0,1:0:0:0:
256,342,93380,1,0,1:0:0:0:
256,342,93538,1,0,3:0:0:0:
355,121,93695,5,8,0:0:0:0:
319,136,93773,1,2,3:2:0:0:
310,171,93852,1,0,3:0:0:0:
325,200,93931,1,2,3:2:0:0:
334,206,94011,6,0,P|385:201|427:79,1,165.000005035401,8|0,0:3|1:0,0:0:0:0:
264,265,94485,2,0,P|213:273|141:166,1,165.000005035401,8|0,0:3|0:0,0:0:0:0:
371,341,94959,2,0,P|417:362|515:277,1,165.000005035401,8|0,0:3|1:0,0:0:0:0:
426,268,95432,5,4,0:3:0:0:
226,184,95590,2,0,P|237:137|254:93,1,82.5000025177003,0|8,1:0|0:0,0:0:0:0:
300,39,95827,5,8,0:0:0:0:
300,39,95906,2,0,P|322:63|323:102,1,56.2500021457673,8|8,0:0|0:0,0:0:0:0:
284,237,96064,1,8,0:0:0:0:
234,267,96143,1,8,0:0:0:0:
182,256,96222,2,0,P|157:229|146:193,1,56.2500021457673,8|8,0:0|0:0,0:0:0:0:
10,130,96380,2,0,B|54:119|34:111|81:102,1,75,8|8,0:0|0:0,0:0:0:0:
208,31,96538,6,0,P|237:90|340:80,1,168.750006437302,4|0,1:0|0:0,0:0:0:0:
331,89,96853,2,0,P|326:46|328:-1,1,82.5000025177003,8|0,0:0|3:0,0:0:0:0:
327,6,97090,1,0,3:0:0:0:
327,6,97169,1,0,1:0:0:0:
500,141,97327,1,0,1:0:0:0:
300,209,97485,1,8,0:0:0:0:
424,42,97643,6,0,P|386:99|366:147,1,82.5000025177003,0|0,0:0|1:0,0:0:0:0:
445,348,97959,2,0,P|483:291|503:243,1,82.5000025177003,0|8,1:0|0:0,0:0:0:0:
270,123,98274,2,0,P|209:206|228:263,1,165.000005035401,0|0,1:0|1:0,0:0:0:0:
379,111,98748,5,8,0:0:0:0:
300,209,98906,1,0,0:0:0:0:
477,365,99063,2,0,B|459:322|459:322|484:261|484:261|454:184,1,165.000005035401,0|8,1:0|0:0,0:0:0:0:
386,97,99537,1,0,3:0:0:0:
382,104,99616,1,0,3:0:0:0:
379,111,99695,1,0,1:0:0:0:
379,268,99853,1,0,1:0:0:0:
300,209,100011,2,0,P|283:167|259:119,1,82.5000025177003,8|0,0:0|0:0,0:0:0:0:
438,16,100327,5,0,1:0:0:0:
386,97,100485,1,0,1:0:0:0:
460,165,100643,2,0,P|477:123|501:75,1,82.5000025177003,8|0,0:0|0:0,0:0:0:0:
330,14,100959,5,0,1:0:0:0:
261,44,101116,1,0,1:0:0:0:
166,148,101274,5,8,0:0:0:0:
92,130,101431,1,0,0:0:0:0:
14,65,101590,5,0,1:2:0:0:
131,30,101748,1,0,0:2:0:0:
166,148,101906,1,8,0:0:0:0:
48,182,102064,1,0,3:0:0:0:
45,190,102143,1,0,3:0:0:0:
42,197,102222,1,0,1:0:0:0:
22,270,102380,1,0,1:0:0:0:
284,368,102538,5,8,0:0:0:0:
284,368,102695,2,0,P|243:295|151:317,1,165.000005035401,0|0,1:0|1:0,0:0:0:0:
62,383,103169,2,0,P|79:343|91:298,1,82.5000025177003,8|0,0:0|0:0,0:0:0:0:
14,154,103485,2,0,P|40:188|73:221,1,82.5000025177003,0|0,1:0|1:0,0:0:0:0:
219,322,103801,5,8,0:0:0:0:
295,305,103959,1,0,0:0:0:0:
399,365,104116,6,0,B|407:336|427:310|427:310|390:270|385:213,1,165.000005035401,0|8,1:2|0:0,0:0:0:0:
429,150,104590,1,0,3:0:0:0:
431,142,104669,1,0,3:0:0:0:
433,134,104748,1,0,1:0:0:0:
377,81,104906,1,0,1:0:0:0:
505,5,105064,2,0,B|455:21|455:21|414:4,1,82.5000025177003,8|0,0:0|0:0,0:0:0:0:
249,149,105380,5,0,1:0:0:0:
312,197,105538,1,0,1:0:0:0:
381,158,105695,2,0,B|392:130|392:130|376:80,1,82.5000025177003,8|0,0:0|0:0,0:0:0:0:
490,212,106011,5,0,1:0:0:0:
318,106,106169,1,0,1:0:0:0:
314,298,106327,1,8,0:0:0:0:
137,175,106485,5,0,3:0:0:0:
137,175,106564,1,0,3:0:0:0:
137,175,106643,2,0,P|83:114|-1:175,1,165.000005035401,4|8,1:0|0:0,0:0:0:0:
64,24,107116,1,0,0:0:0:0:
6,119,107274,2,0,P|3:183|32:220,1,82.5000025177003,0|0,1:0|1:0,0:0:0:0:
215,368,107590,2,0,P|218:304|189:267,1,82.5000025177003,8|0,0:0|3:0,0:0:0:0:
203,284,107827,5,0,3:0:0:0:
195,279,107906,1,0,1:0:0:0:
19,351,108064,1,0,1:0:0:0:
107,315,108222,2,0,P|105:271|107:220,1,82.5000025177003,8|0,0:0|0:0,0:0:0:0:
271,25,108538,6,0,B|289:62|289:62|275:119,1,82.5000025177003,0|0,1:0|1:0,0:0:0:0:
222,158,108774,1,0,3:0:0:0:
239,125,108853,2,0,B|333:109|291:181|403:178,1,157.499995193482,8|0,0:0|0:0,0:0:0:0:
461,220,109169,6,0,P|484:147|402:214,1,225.000008583069,4|8,1:2|0:0,0:0:0:0:
419,373,109643,6,0,P|434:310|421:287,1,48.7499977684022,0|0,1:0|3:0,0:0:0:0:
371,251,109801,2,0,B|306:260|306:260|254:299,1,97.4999955368044,0|0,1:0|0:0,0:0:0:0:
33,374,110116,6,0,B|-22:360|-22:360|-22:357|-22:357|65:332,1,150,12|0,0:0|1:0,0:0:0:0:
64,332,110590,1,0,1:0:0:0:
139,363,110748,2,0,P|140:314|137:274,1,82.5000025177003,8|0,0:0|0:0,0:0:0:0:
232,94,111064,1,0,1:0:0:0:
182,150,111222,1,0,1:0:0:0:
182,150,111380,2,0,P|184:210|291:243,1,165.000005035401,8|4,0:0|1:2,0:0:0:0:
380,186,111853,5,0,3:0:0:0:
378,177,111932,1,0,3:0:0:0:
376,168,112011,1,8,0:0:0:0:
270,251,112169,2,0,L|177:280,1,82.5000025177003,0|0,0:0|1:0,0:0:0:0:
290,139,112485,1,0,1:0:0:0:
508,304,112643,2,0,L|417:278,1,82.5000025177003,8|0,0:0|0:0,0:0:0:0:
477,169,112959,5,0,1:0:0:0:
349,309,113116,1,0,1:0:0:0:
412,365,113274,1,8,0:0:0:0:
412,365,113432,1,0,0:0:0:0:
428,281,113590,5,0,1:0:0:0:
318,114,113748,1,0,1:0:0:0:
341,39,113906,1,8,0:0:0:0:
396,96,114064,1,0,0:0:0:0:
283,188,114222,6,0,P|194:184|105:190,1,165.000005035401,4|8,1:0|0:0,0:0:0:0:
28,73,114695,1,0,3:0:0:0:
31,65,114774,1,0,3:0:0:0:
34,57,114853,1,0,1:0:0:0:
106,18,115011,1,0,1:0:0:0:
166,78,115169,1,8,0:0:0:0:
92,119,115327,1,0,0:0:0:0:
159,210,115485,5,0,1:3:0:0:
34,57,115643,1,0,1:0:0:0:
254,71,115801,5,8,0:0:0:0:
52,222,115959,1,8,0:0:0:0:
46,227,116038,1,8,1:2:0:0:
40,232,116116,1,8,0:0:0:0:
316,355,116274,5,8,0:0:0:0:
312,314,116352,1,8,0:0:0:0:
285,284,116432,1,8,1:2:0:0:
245,277,116510,1,8,0:0:0:0:
209,296,116589,1,8,0:0:0:0:
192,333,116668,1,8,0:0:0:0:
201,372,116748,6,0,B|252:360|252:360|294:315|294:315|367:300,1,165.000005035401,4|8,1:0|0:0,0:0:0:0:
471,252,117222,1,0,3:0:0:0:
474,259,117301,1,0,3:0:0:0:
477,266,117380,1,2,1:0:0:0:
410,364,117538,1,0,1:0:0:0:
459,174,117695,1,8,0:0:0:0:
271,227,117853,6,0,P|298:257|324:300,1,82.5000025177003,2|0,0:0|1:0,0:0:0:0:
391,93,118169,2,0,P|403:54|427:10,1,82.5000025177003,2|8,1:0|0:0,0:0:0:0:
498,0,118485,5,2,0:0:0:0:
481,77,118643,1,0,1:0:0:0:
370,226,118801,5,0,1:0:0:0:
299,106,118959,1,8,0:0:0:0:
172,30,119116,5,0,3:0:0:0:
172,30,119195,1,0,3:0:0:0:
172,30,119274,2,0,B|149:122|92:71|77:166,1,165.000005035401,2|8,1:2|0:0,0:0:0:0:
9,292,119748,1,0,3:0:0:0:
12,299,119827,1,0,3:0:0:0:
15,306,119906,1,2,1:2:0:0:
92,335,120064,1,0,1:0:0:0:
173,262,120222,5,10,0:1:0:0:
27,384,120380,1,0,0:0:0:0:
12,164,120538,5,2,1:2:0:0:
91,209,120695,1,0,1:0:0:0:
255,317,120853,1,8,0:0:0:0:
267,114,121011,2,0,P|195:102|170:186,1,165.000005035401,2|0,1:0|1:0,0:0:0:0:
22,372,121485,2,0,B|45:366|45:366|67:340|67:340|110:331,1,82.5000025177003,10|0,0:0|3:0,0:0:0:0:
145,288,121722,5,0,3:0:0:0:
160,277,121801,2,0,P|201:336|247:349,1,82.5000025177003,4|0,1:2|1:0,0:0:0:0:
427,166,122116,2,0,P|382:196|371:251,1,82.5000025177003,8|0,0:0|3:0,0:0:0:0:
387,299,122353,5,0,3:0:0:0:
391,305,122432,1,2,1:0:0:0:
487,348,122590,1,2,1:2:0:0:
508,243,122748,5,8,0:0:0:0:
267,352,122906,2,0,P|252:269|312:286,1,165.000005035401,2|0,1:0|1:0,0:0:0:0:
388,229,123380,2,0,B|406:268|406:268|386:314,1,82.5000025177003,10|0,0:0|3:0,0:0:0:0:
390,304,123616,1,0,3:0:0:0:
390,304,123695,1,0,1:0:0:0:
298,120,123853,1,2,1:1:0:0:
344,59,124011,1,8,0:0:0:0:
471,117,124169,5,2,0:0:0:0:
260,200,124327,2,0,B|169:184|220:138|112:128,1,165.000005035401,0|8,1:0|0:0,0:0:0:0:
15,101,124801,1,2,3:2:0:0:
11,108,124880,1,0,3:0:0:0:
7,115,124959,1,0,1:2:0:0:
230,85,125116,6,0,B|241:46|241:46|227:7,1,82.5000025177003,2|8,1:1|0:0,0:0:0:0:
50,206,125432,2,0,P|65:271|73:365,1,123.75000377655,2|0,0:0|0:0,0:0:0:0:
64,335,125748,2,0,P|103:350|116:316,1,56.2500021457673,2|0,1:2|0:0,0:0:0:0:
216,238,125906,2,0,B|171:246|190:264|144:275,1,82.5000025177003,8|0,0:0|3:0,0:0:0:0:
71,327,126143,1,0,3:0:0:0:
81,319,126222,1,0,1:0:0:0:
5,258,126380,5,8,0:0:0:0:
297,359,126538,1,8,0:0:0:0:
314,347,126616,1,8,0:0:0:0:
332,338,126695,1,8,0:0:0:0:
351,329,126774,1,8,0:0:0:0:
372,321,126853,2,0,B|462:302|443:354|536:342,1,165.000005035401,4|8,1:0|0:0,0:0:0:0:
512,178,127327,2,0,B|424:157|446:211|348:195,1,165.000005035401,2|0,0:1|1:0,0:0:0:0:
214,172,127801,1,8,0:0:0:0:
287,120,127959,1,2,0:0:0:0:
132,222,128116,6,0,P|183:250|219:286,1,82.5000025177003,0|0,1:0|1:0,0:0:0:0:
215,79,128432,2,0,P|165:109|116:122,1,82.5000025177003,8|0,0:0|0:0,0:0:0:0:
297,222,128748,2,0,P|295:163|308:114,1,82.5000025177003,2|2,1:0|1:2,0:0:0:0:
120,243,129064,2,0,P|171:271|207:307,1,82.5000025177003,8|0,0:0|0:0,0:0:0:0:
444,294,129380,6,0,P|390:281|347:278,1,82.5000025177003,4|0,1:0|0:0,0:0:0:0:
377,94,129695,2,0,P|422:101|469:107,1,82.5000025177003,8|0,0:0|0:0,0:0:0:0:
295,234,130011,1,2,1:0:0:0:
460,191,130169,1,2,0:0:0:0:
286,117,130327,2,0,P|234:129|183:130,1,82.5000025177003,8|0,0:0|0:0,0:0:0:0:
43,270,130643,6,0,P|64:223|178:216,1,165.000005035401,4|8,1:2|0:0,0:0:0:0:
225,302,131116,1,2,0:1:0:0:
162,378,131274,1,0,1:0:0:0:
315,293,131432,1,2,1:0:0:0:
166,208,131590,1,8,0:0:0:0:
166,382,131748,1,0,0:0:0:0:
404,266,131906,6,0,P|386:212|376:150,1,82.5000025177003,4|0,1:2|0:0,0:0:0:0:
225,302,132222,1,8,0:0:0:0:
286,168,132380,2,0,P|294:121|319:74,1,82.5000025177003,2|0,0:0|1:0,0:0:0:0:
202,53,132695,2,0,P|234:9|265:-7,1,82.5000025177003,2|8,1:0|0:0,0:0:0:0:
411,114,133011,1,0,0:0:0:0:
205,144,133169,6,0,B|147:156|147:156|114:197|114:197|51:206,2,165.000005035401,4|8|2,1:2|0:0|1:2,0:0:0:0:
275,263,133959,1,2,1:0:0:0:
275,263,134116,2,0,P|225:246|179:244,1,82.5000025177003,8|0,0:0|0:0,0:0:0:0:
58,120,134432,6,0,P|70:75|77:20,1,82.5000025177003,4|0,1:0|0:0,0:0:0:0:
381,62,134748,2,0,P|362:122|356:166,1,82.5000025177003,8|8,0:0|0:0,0:0:0:0:
402,214,134985,1,8,1:2:0:0:
402,214,135064,1,10,0:0:0:0:
118,359,135222,1,8,1:2:0:0:
102,320,135300,1,8,0:0:0:0:
76,289,135379,1,8,0:3:0:0:
103,259,135458,1,8,0:0:0:0:
121,222,135537,1,8,0:0:0:0:
205,46,135696,6,0,P|222:95|227:114,1,56.2500021457673,8|0,0:0|0:0,0:0:0:0:
367,199,135853,2,0,P|344:243|343:266,1,56.2500021457673,8|0,0:0|0:0,0:0:0:0:
279,319,136011,1,8,0:0:0:0:
216,193,136801,5,2,0:0:0:0:
216,193,136880,1,2,0:0:0:0:
216,193,136959,2,0,B|139:145|56:191|55:257|55:257|88:267|102:293,1,269.999991760254,4|0,0:0|0:0,0:0:0:0:
34,332,138064,5,12,0:0:0:0:
231,75,138380,6,0,L|252:134,1,37.5,8|0,1:2|0:0,0:0:0:0:
348,115,138538,2,0,L|332:158,1,37.5,8|0,1:2|0:0,0:0:0:0:
184,175,138695,2,0,L|214:201,1,37.5,8|0,1:2|0:0,0:0:0:0:
435,244,138853,5,8,1:2:0:0:
384,256,138931,1,8,0:0:0:0:
335,270,139010,1,8,0:0:0:0:
286,285,139089,1,8,0:0:0:0:
237,302,139168,1,8,1:2:0:0:
189,320,139247,1,8,0:0:0:0:
141,340,139326,1,8,0:0:0:0:
94,361,139405,1,8,0:0:0:0:
48,384,139484,5,4,1:0:0:0:
103,170,139643,1,2,0:0:0:0:
125,27,139801,5,8,0:0:0:0:
200,199,139959,1,0,0:0:0:0:
49,267,140116,5,2,1:0:0:0:
223,119,140274,1,2,1:2:0:0:
26,43,140432,1,8,0:0:0:0:
234,289,140590,6,0,P|278:253|328:229,1,89.9999972534181,2|0,1:0|0:0,0:0:0:0:
96,206,140906,2,0,P|132:250|156:300,1,89.9999972534181,2|8,1:2|0:0,0:0:0:0:
175,74,141222,2,0,P|131:110|81:134,1,89.9999972534181,2|0,0:0|1:0,0:0:0:0:
313,157,141538,2,0,P|277:113|253:63,1,89.9999972534181,2|8,1:0|0:0,0:0:0:0:
202,185,141853,1,0,0:0:0:0:
416,360,142011,6,0,B|425:269|498:324|513:186,2,179.999994506836,4|8|0,1:2|0:0|1:0,0:0:0:0:
512,354,142801,1,2,1:2:0:0:
333,185,142959,1,8,0:0:0:0:
509,31,143116,5,0,3:0:0:0:
509,31,143195,1,0,3:0:0:0:
509,31,143274,1,0,1:0:0:0:
335,108,143432,1,2,1:0:0:0:
495,227,143590,1,8,0:0:0:0:
335,108,143748,1,2,0:0:0:0:
369,262,143906,6,0,L|264:303,1,89.9999972534181,2|0,1:0|1:0,0:0:0:0:
213,163,144222,2,0,L|315:195,1,89.9999972534181,8|0,0:0|0:0,0:0:0:0:
90,365,144538,5,4,1:2:0:0:
12,243,144695,1,0,0:0:0:0:
136,205,144853,1,8,0:0:0:0:
207,328,145011,1,0,0:0:0:0:
376,67,145169,5,2,1:0:0:0:
298,189,145326,1,2,1:2:0:0:
422,227,145484,1,8,0:0:0:0:
500,116,145643,2,0,L|468:16,1,89.9999972534181,2|0,1:2|0:0,0:0:0:0:
224,53,145959,5,0,1:0:0:0:
297,96,146116,2,0,P|242:86|208:191,1,179.999994506836,10|0,0:1|1:0,0:0:0:0:
359,340,146590,1,2,1:2:0:0:
359,340,146748,2,0,L|335:237,1,89.9999972534181,8|0,0:0|3:0,0:0:0:0:
385,100,147064,1,4,1:2:0:0:
468,115,147222,1,0,0:0:0:0:
432,191,147380,1,8,0:0:0:0:
241,128,147538,5,2,0:1:0:0:
314,174,147695,1,2,1:2:0:0:
238,230,147853,1,0,1:0:0:0:
129,125,148011,5,8,0:0:0:0:
317,16,148169,1,8,1:2:0:0:
317,16,148248,1,8,0:0:0:0:
317,16,148327,2,0,P|323:51|334:80,1,44.999998626709,4|0,1:1|0:0,0:0:0:0:
449,106,148485,2,0,P|435:129|414:185,1,44.999998626709,8|0,0:0|0:0,0:0:0:0:
235,136,148643,2,0,P|257:163|275:195,1,44.999998626709,8|0,0:0|0:0,0:0:0:0:
488,205,148801,2,0,P|449:219|428:245,1,44.999998626709,8|8,1:2|0:0,0:0:0:0:
292,288,148959,5,8,0:0:0:0:
296,278,149038,1,8,0:0:0:0:
301,271,149116,1,8,0:0:0:0:
307,264,149195,1,8,0:0:0:0:
328,231,149274,5,8,1:2:0:0:
371,264,149352,1,8,0:0:0:0:
381,318,149431,1,8,0:0:0:0:
353,365,149510,1,8,0:0:0:0:
300,381,149589,5,4,1:0:0:0:
107,316,149748,1,2,0:0:0:0:
29,332,149906,5,10,0:1:0:0:
243,189,150064,1,0,0:0:0:0:
173,153,150222,5,2,1:2:0:0:
31,54,150380,1,0,1:0:0:0:
173,153,150538,1,8,0:0:0:0:
22,198,150695,6,0,P|59:171|110:114,1,89.9999972534181,2|0,1:2|0:0,0:0:0:0:
169,40,151011,1,0,1:0:0:0:
241,72,151169,1,8,0:0:0:0:
343,159,151327,5,2,1:0:0:0:
219,241,151485,1,0,0:0:0:0:
189,141,151643,5,0,1:0:0:0:
298,284,151801,1,8,0:0:0:0:
189,141,151959,1,0,0:0:0:0:
44,250,152116,6,0,P|37:325|135:342,1,179.999994506836,4|8,1:2|0:2,0:2:0:0:
190,296,152590,1,2,0:1:0:0:
368,355,152748,1,0,1:0:0:0:
424,295,152906,1,0,1:0:0:0:
190,296,153064,5,10,0:1:0:0:
420,214,153222,1,2,1:2:0:0:
372,150,153380,2,0,L|402:55,1,89.9999972534181,0|2,0:0|1:2,0:0:0:0:
354,5,153695,5,8,0:0:0:0:
472,141,153853,1,2,0:0:0:0:
319,263,154011,1,0,1:0:0:0:
319,263,154090,1,0,3:0:0:0:
319,263,154169,1,2,1:0:0:0:
201,112,154327,1,10,0:0:0:0:
125,359,154485,5,0,3:0:0:0:
143,327,154564,1,0,3:0:0:0:
158,291,154643,1,4,1:2:0:0:
201,112,154801,1,0,0:0:0:0:
355,333,154959,5,10,0:1:0:0:
280,153,155116,1,0,0:0:0:0:
508,287,155274,5,2,1:2:0:0:
370,163,155432,1,0,1:2:0:0:
447,116,155590,5,8,0:0:0:0:
195,182,155748,2,0,P|243:163|317:144,1,89.9999972534181,2|0,1:1|0:0,0:0:0:0:
86,168,156064,2,0,P|66:106|47:46,1,89.9999972534181,2|8,1:2|0:0,0:0:0:0:
201,382,156380,2,0,P|213:329|242:267,1,89.9999972534181,0|0,3:0|1:2,0:0:0:0:
119,278,156695,2,0,P|76:262|25:252,1,89.9999972534181,2|8,1:0|0:0,0:0:0:0:
170,38,157011,5,0,3:0:0:0:
170,38,157090,1,0,3:0:0:0:
170,38,157169,2,0,P|197:139|213:226,1,179.999994506836,4|8,1:1|0:0,0:0:0:0:
226,295,157643,1,0,0:0:0:0:
136,256,157801,1,2,1:2:0:0:
283,148,157959,1,0,0:0:0:0:
117,107,158116,5,8,0:0:0:0:
321,248,158274,2,0,P|375:266|427:294,1,89.9999972534181,2|4,0:0|1:2,0:0:0:0:
473,147,158590,6,0,L|415:165,1,44.999998626709,8|8,0:0|0:0,0:0:0:0:
364,98,158748,2,0,L|332:145,1,44.999998626709,8|8,0:0|0:0,0:0:0:0:
298,230,158906,2,0,L|240:203,1,44.999998626709,8|8,0:0|0:2,0:0:0:0:
73,89,159064,5,8,1:2:0:0:
73,89,159143,1,4,0:3:0:0:
73,89,159222,2,0,P|86:136|90:171,1,44.999998626709,8|8,0:0|0:0,0:0:0:0:
67,361,159380,1,8,0:0:0:0:
23,326,159458,1,8,0:0:0:0:
14,272,159537,1,8,0:0:0:0:
42,225,159616,1,8,0:0:0:0:
95,209,159695,5,4,1:0:0:0:
240,292,159853,1,0,0:0:0:0:
293,133,160011,1,8,0:0:0:0:
162,62,160169,1,0,3:0:0:0:
206,173,160327,5,2,1:0:0:0:
344,225,160485,1,0,1:0:0:0:
433,111,160643,1,8,0:0:0:0:
300,52,160801,1,0,0:0:0:0:
322,141,160959,6,0,P|314:186|308:229,2,89.9999972534181,2|0|8,1:0|1:0|0:0,0:0:0:0:
388,24,161432,1,2,0:0:0:0:
211,38,161590,2,0,P|255:44|300:52,1,89.9999972534181,0|0,1:0|1:2,0:0:0:0:
500,105,161906,2,0,P|456:111|412:119,1,89.9999972534181,10|0,0:0|0:0,0:0:0:0:
92,174,162222,5,4,1:0:0:0:
212,112,162380,1,0,0:0:0:0:
122,23,162538,1,8,0:0:0:0:
9,71,162695,1,2,0:0:0:0:
305,277,162853,5,2,1:0:0:0:
219,196,163011,1,0,1:0:0:0:
333,145,163169,1,8,0:0:0:0:
424,232,163327,1,0,0:0:0:0:
160,360,163485,5,2,1:2:0:0:
213,294,163643,2,0,P|207:251|182:199,1,89.9999972534181,2|8,1:0|0:0,0:0:0:0:
53,263,163959,5,2,0:0:0:0:
245,138,164116,2,0,P|216:84|178:57,1,89.9999972534181,2|0,1:2|1:0,0:0:0:0:
37,21,164432,1,8,0:0:0:0:
34,29,164511,1,0,3:0:0:0:
32,37,164590,1,4,3:0:0:0:
30,45,164669,1,0,3:0:0:0:
25,61,164748,5,4,1:2:0:0:
124,173,164906,1,0,0:0:0:0:
256,114,165064,1,8,0:0:0:0:
157,2,165222,1,2,0:0:0:0:
339,201,165380,5,2,1:0:0:0:
448,245,165538,1,0,1:0:0:0:
512,154,165695,1,8,0:0:0:0:
405,105,165853,1,2,0:0:0:0:
367,328,166011,5,4,1:1:0:0:
376,339,166169,1,0,0:0:0:0:
448,245,166327,5,8,0:0:0:0:
418,178,166485,1,0,0:0:0:0:
256,284,166643,5,2,1:0:0:0:
246,357,166801,1,0,1:2:0:0:
456,257,166959,5,10,0:0:0:0:
477,124,167116,1,0,3:0:0:0:
477,124,167195,1,0,3:0:0:0:
477,124,167274,6,0,P|454:69|327:86,1,179.999994506836,4|8,1:2|0:0,0:0:0:0:
246,357,167748,5,2,0:0:0:0:
203,299,167906,1,0,1:0:0:0:
252,241,168064,1,0,1:0:0:0:
242,81,168222,5,12,0:0:0:0:
281,144,168380,1,0,0:0:0:0:
299,301,168538,5,4,1:0:0:0:
177,229,168695,1,8,1:2:0:0:
157,197,168774,1,8,0:0:0:0:
145,164,168853,1,8,0:0:0:0:
3,200,169011,5,8,0:0:0:0:
24,154,169090,1,8,0:0:0:0:
33,109,169169,1,8,0:0:0:0:
76,13,169327,1,8,0:0:0:0:
204,94,169485,5,8,0:0:0:0:
262,109,169564,1,8,0:0:0:0:
310,84,169643,1,8,0:0:0:0:
357,50,169722,1,8,0:0:0:0:
410,66,169801,1,4,1:0:0:0:
323,263,169959,1,0,0:0:0:0:
443,243,170116,5,8,0:0:0:0:
259,346,170274,1,0,3:0:0:0:
443,243,170432,1,2,1:0:0:0:
214,105,170590,5,2,1:2:0:0:
323,263,170748,1,8,0:0:0:0:
104,289,170906,2,0,P|119:247|127:203,1,89.9999972534181,4|0,1:2|0:0,0:0:0:0:
84,116,171143,1,0,0:0:0:0:
84,116,171222,1,8,0:0:0:0:
398,72,171380,2,0,P|386:115|380:159,1,89.9999972534181,8|0,0:0|0:0,0:0:0:0:
96,130,171853,5,0,1:0:0:0:
96,130,171932,1,0,1:0:0:0:
96,130,172011,2,0,B|182:91|183:172|246:164,1,134.999995880127,8|0,0:0|0:0,0:0:0:0:
217,161,172327,2,0,P|260:176|320:166,1,89.9999972534181,4|0,1:0|0:0,0:0:0:0:
470,21,172643,2,0,P|414:15|373:35,1,89.9999972534181,8|2,0:0|0:0,0:0:0:0:
511,217,172959,5,2,1:0:0:0:
433,176,173116,1,0,0:0:0:0:
383,240,173274,5,8,0:0:0:0:
304,282,173432,1,0,0:0:0:0:
130,166,173590,5,2,1:0:0:0:
270,207,173748,1,0,1:0:0:0:
90,348,173906,5,8,0:0:0:0:
185,309,174064,1,0,0:0:0:0:
45,194,174222,5,2,1:0:0:0:
30,282,174380,1,2,1:2:0:0:
197,223,174538,5,8,0:0:0:0:
130,166,174695,1,0,0:0:0:0:
414,24,174853,6,0,P|428:73|374:193,1,179.999994506836,4|8,1:2|0:0,0:0:0:0:
42,192,175327,2,0,P|40:125|122:38,1,179.999994506836,2|0,1:2|1:0,0:0:0:0:
321,260,175801,2,0,P|302:202|298:149,1,89.9999972534181,8|0,0:0|0:0,0:0:0:0:
311,66,176116,5,2,1:2:0:0:
246,111,176274,1,2,1:0:0:0:
124,150,176432,5,8,0:0:0:0:
211,198,176590,1,0,0:0:0:0:
56,308,176748,5,2,1:2:0:0:
172,273,176906,1,0,1:0:0:0:
74,220,177064,5,10,0:1:0:0:
250,302,177222,1,0,0:0:0:0:
346,211,177380,6,0,B|443:180|409:245|535:205,1,179.999994506836,4|8,1:0|0:0,0:0:0:0:
206,113,177853,2,0,B|109:82|143:147|17:107,1,179.999994506836,2|0,1:2|1:0,0:0:0:0:
332,24,178327,2,0,B|377:5|420:27|420:27|411:76|363:96,1,179.999994506836,8|0,0:0|1:0,0:0:0:0:
288,233,178801,5,2,1:0:0:0:
490,195,178959,2,0,P|432:177|393:164,1,89.9999972534181,8|0,0:0|0:0,0:0:0:0:
444,353,179274,2,0,P|383:332|337:319,1,89.9999972534181,2|0,1:2|0:0,0:0:0:0:
252,60,179590,2,0,P|276:130|279:167,1,89.9999972534181,12|0,0:0|0:0,0:0:0:0:
180,225,179906,5,4,1:0:0:0:
267,287,180064,1,2,0:1:0:0:
168,231,180222,5,8,0:0:0:0:
179,356,180380,1,2,0:0:0:0:
155,229,180538,5,0,1:0:0:0:
51,352,180695,1,0,1:0:0:0:
146,219,180853,5,8,0:0:0:0:
10,212,181011,1,2,0:1:0:0:
146,205,181169,5,0,1:0:0:0:
68,83,181327,1,0,1:0:0:0:
155,195,181485,5,8,0:0:0:0:
228,61,181643,1,2,0:0:0:0:
168,192,181801,5,0,1:0:0:0:
180,199,181880,5,0,3:0:0:0:
184,212,181959,5,2,1:2:0:0:
180,225,182037,5,0,3:0:0:0:
168,231,182116,5,8,0:0:0:0:
155,229,182195,5,8,0:0:0:0:
146,219,182274,5,8,3:2:0:0:
146,205,182353,5,0,3:0:0:0:
155,195,182431,5,4,1:1:0:0:
102,49,182590,1,10,0:1:0:0:
250,174,182748,5,10,0:0:0:0:
334,0,182906,1,8,1:2:0:0:
409,339,183064,5,10,1:2:0:0:
352,136,183222,1,8,0:3:0:0:
421,228,183380,5,4,0:3:0:0:
494,60,183538,1,8,0:0:0:0:
494,60,183616,1,8,0:0:0:0:
494,60,183695,1,10,1:1:0:0:
313,265,183853,1,10,1:1:0:0:
76,147,184011,1,10,1:1:0:0:
43,264,192380,5,12,0:0:0:0:
211,330,192538,1,0,1:0:0:0:
113,177,192696,1,8,1:3:0:0:
102,357,192853,1,8,1:2:0:0:
217,216,193011,1,8,0:2:0:0:
176,86,193169,5,8,1:2:0:0:
137,271,193327,1,8,0:0:0:0:
322,310,193485,1,8,1:2:0:0:
361,125,193643,1,12,1:2:0:0:
358,116,193722,1,8,0:0:0:0:
355,107,193801,2,0,P|360:84|363:47,1,44.999998626709,8|0,1:2|0:0,0:0:0:0:
477,26,193959,5,8,0:0:0:0:
489,66,194037,1,8,0:0:0:0:
512,99,194116,1,8,1:2:0:0:
483,126,194195,1,8,0:0:0:0:
462,162,194274,2,0,L|409:179,1,44.999998626709,8|0,0:0|0:0,0:0:0:0:
88,207,194432,5,8,0:0:0:0:
35,252,194511,1,8,0:0:0:0:
32,324,194590,1,8,0:0:0:0:
83,366,194669,1,8,0:0:0:0:
138,360,194748,1,8,1:2:0:0:
160,331,194827,1,8,0:0:0:0:
155,292,194906,1,8,0:0:0:0:
129,278,194985,1,8,0:0:0:0:
108,289,195064,6,0,B|184:317|184:317|260:291,1,157.499995193482,4|0,1:0|0:0,0:0:0:0:
256,292,195380,2,0,P|254:243|262:178,1,89.9999972534181,8|0,0:0|3:0,0:0:0:0:
306,126,195616,1,0,3:0:0:0:
306,126,195695,1,2,1:0:0:0:
177,23,195853,1,0,1:0:0:0:
16,172,196011,1,8,0:0:0:0:
145,275,196169,2,0,P|102:237|72:217,1,89.9999972534181,2|0,1:2|0:0,0:0:0:0:
306,126,196485,2,0,P|294:182|292:218,1,89.9999972534181,0|8,1:0|0:0,0:0:0:0:
97,62,196801,2,0,P|151:43|183:27,1,89.9999972534181,2|0,0:1|1:0,0:0:0:0:
331,37,197116,5,2,1:2:0:0:
172,151,197274,1,8,0:0:0:0:
356,242,197432,1,0,3:0:0:0:
356,242,197511,1,0,3:0:0:0:
356,242,197590,2,0,B|395:266|438:234|438:234|462:186|518:193,1,179.999994506836,4|8,1:2|0:0,0:0:0:0:
297,133,198064,1,0,3:0:0:0:
295,141,198143,1,0,3:0:0:0:
293,149,198222,1,2,1:2:0:0:
321,323,198380,1,0,1:0:0:0:
407,172,198538,5,10,0:1:0:0:
242,246,198695,1,0,1:0:0:0:
417,280,198853,1,0,0:0:0:0:
289,40,199011,5,2,1:1:0:0:
334,232,199169,1,8,0:0:0:0:
151,171,199327,1,2,0:0:0:0:
268,133,199485,5,0,1:0:0:0:
151,171,199643,1,0,1:0:0:0:
10,282,199801,5,8,0:0:0:0:
276,372,199959,1,0,3:0:0:0:
270,364,200038,1,0,3:0:0:0:
264,356,200116,1,4,1:0:0:0:
223,291,200274,1,2,0:0:0:0:
266,31,200432,5,10,0:1:0:0:
307,96,200590,1,0,0:0:0:0:
113,227,200748,5,2,1:0:0:0:
399,157,200906,1,0,1:0:0:0:
198,166,201064,5,8,0:0:0:0:
309,222,201222,1,2,1:2:0:0:
293,307,201380,5,0,0:0:0:0:
278,142,201538,2,0,P|280:89|299:35,1,89.9999972534181,2|8,1:0|0:0,0:0:0:0:
227,254,201853,1,2,0:0:0:0:
157,286,202011,1,0,1:0:0:0:
350,243,202169,2,0,P|394:271|432:314,1,89.9999972534181,2|8,1:2|0:0,0:0:0:0:
154,147,202485,5,0,3:0:0:0:
154,147,202564,1,0,3:0:0:0:
154,147,202643,2,0,P|99:177|66:63,1,179.999994506836,4|8,1:0|0:0,0:0:0:0:
255,14,203116,2,0,B|275:57|275:57|252:125,1,89.9999972534181,2|0,0:1|1:0,0:0:0:0:
365,8,203432,1,0,1:0:0:0:
229,199,203590,2,0,P|241:241|253:301,1,89.9999972534181,8|2,0:0|1:0,0:0:0:0:
258,367,203906,5,4,1:2:0:0:
452,268,204064,1,8,0:0:0:0:
459,272,204143,1,8,0:0:0:0:
464,279,204222,2,0,P|483:311|479:343,1,44.999998626709,12|0,1:2|0:0,0:0:0:0:
413,363,204380,2,0,P|388:327|388:273,1,63.7500012159348,8|8,0:0|0:0,0:0:0:0:
476,17,204538,5,8,0:0:0:0:
512,66,204616,1,8,0:0:0:0:
491,123,204696,1,8,1:2:0:0:
432,137,204774,1,8,0:0:0:0:
388,95,204853,1,8,0:0:0:0:
344,53,204932,1,8,0:0:0:0:
285,67,205010,1,8,1:2:0:0:
264,124,205090,1,8,0:0:0:0:
300,173,205169,6,0,P|302:90|289:24,1,112.500004291535,4|0,1:0|3:0,0:0:0:0:
252,2,205406,1,0,3:0:0:0:
252,2,205485,1,8,0:0:0:0:
15,111,205643,5,2,0:0:0:0:
97,138,205801,1,2,1:0:0:0:
23,91,205959,1,0,1:0:0:0:
29,270,206116,5,8,0:0:0:0:
250,205,206274,1,0,0:0:0:0:
326,334,206432,5,2,1:0:0:0:
244,361,206590,1,2,1:2:0:0:
318,314,206748,1,8,0:0:0:0:
445,249,206906,5,0,0:0:0:0:
344,191,207064,1,2,1:2:0:0:
241,290,207222,1,0,1:0:0:0:
241,290,207380,1,8,0:0:0:0:
179,364,207538,5,0,3:0:0:0:
179,364,207616,1,0,3:0:0:0:
179,364,207695,1,4,1:1:0:0:
192,182,207853,1,0,0:0:0:0:
33,255,208011,1,8,0:0:0:0:
17,130,208169,5,2,0:1:0:0:
145,258,208327,1,0,1:0:0:0:
293,172,208485,1,0,1:0:0:0:
173,66,208643,1,8,0:0:0:0:
358,14,208801,5,2,0:0:0:0:
358,14,208959,1,2,1:0:0:0:
449,59,209116,1,0,1:0:0:0:
384,142,209274,1,8,0:0:0:0:
289,90,209432,1,0,0:0:0:0:
403,140,209590,5,2,1:0:0:0:
458,210,209748,1,0,1:0:0:0:
460,289,209906,1,8,0:0:0:0:
431,365,210064,1,2,3:2:0:0:
431,365,210143,1,0,3:0:0:0:
431,365,210222,5,4,1:0:0:0:
356,253,210380,1,0,0:0:0:0:
313,346,210538,5,10,0:1:0:0:
314,172,210695,1,0,0:0:0:0:
33,261,210853,5,2,1:2:0:0:
220,290,211011,1,0,1:0:0:0:
249,103,211169,1,8,0:0:0:0:
70,82,211327,1,0,3:0:0:0:
70,82,211406,1,0,3:0:0:0:
70,82,211485,5,6,1:2:0:0:
120,145,211643,1,2,0:1:0:0:
143,378,211801,5,8,0:0:0:0:
205,212,211959,1,0,3:0:0:0:
213,206,212038,1,0,3:0:0:0:
221,200,212116,2,0,B|220:114|267:153|264:60,1,146.249993305207,2|0,1:0|0:0,0:0:0:0:
264,64,212432,2,0,P|311:34|342:-18,1,97.4999955368044,8|0,0:0|0:0,0:0:0:0:
339,296,212748,2,0,P|431:295|462:209,1,194.999991073609,4|8,1:0|0:0,0:0:0:0:
107,225,213222,2,0,P|30:257|43:367,1,194.999991073609,2|0,0:0|1:0,0:0:0:0:
199,254,213695,5,10,0:1:0:0:
68,145,213853,1,0,0:0:0:0:
123,346,214011,5,4,1:2:0:0:
296,261,214169,1,8,0:0:0:0:
339,260,214248,1,8,0:0:0:0:
373,289,214327,1,8,0:0:0:0:
494,360,214485,5,8,0:0:0:0:
489,351,214564,1,8,0:0:0:0:
484,342,214643,1,8,0:0:0:0:
500,87,214801,5,8,0:0:0:0:
479,130,214879,1,8,0:0:0:0:
441,160,214959,1,8,0:0:0:0:
393,168,215037,1,8,0:0:0:0:
347,153,215116,1,8,0:0:0:0:
350,143,215195,1,8,0:0:0:0:
352,133,215274,1,4,1:0:0:0:
409,69,215432,1,0,0:0:0:0:
263,45,215590,5,10,0:1:0:0:
358,257,215748,1,0,0:0:0:0:
197,148,215906,5,2,1:2:0:0:
419,68,216064,1,2,1:0:0:0:
134,262,216222,1,8,0:0:0:0:
395,355,216380,1,4,1:2:0:0:
405,361,216695,5,8,0:2:0:0:
263,75,216853,1,8,0:2:0:0:
29,297,217327,5,0,1:0:0:0:
29,297,217406,1,0,1:0:0:0:
29,297,217485,2,0,P|59:337|137:334,1,112.5,8|0,0:0|0:0,0:0:0:0:
127,339,217801,6,0,P|123:287|127:235,1,104.999996795654,4|0,1:0|3:0,0:0:0:0:
159,163,218038,1,0,3:0:0:0:
159,163,218116,1,8,0:0:0:0:
48,18,218274,1,2,0:0:0:0:
14,93,218432,1,0,1:0:0:0:
233,202,218590,5,0,1:0:0:0:
267,127,218748,1,10,0:1:0:0:
199,86,218906,1,0,0:0:0:0:
95,336,219064,6,0,P|48:307|2:292,1,82.5000025177003,2|0,1:1|1:0,0:0:0:0:
22,297,219301,1,0,3:0:0:0:
22,297,219380,1,8,0:0:0:0:
93,224,219538,1,2,0:0:0:0:
86,136,219695,5,0,1:0:0:0:
255,221,219853,1,2,1:0:0:0:
157,288,220011,5,8,0:0:0:0:
403,192,220169,1,0,3:0:0:0:
410,187,220248,1,0,3:0:0:0:
417,182,220327,2,0,P|484:183|497:291,1,165.000005035401,4|8,1:2|0:0,0:0:0:0:
317,140,220801,2,0,P|325:94|331:41,1,82.5000025177003,2|0,0:0|1:0,0:0:0:0:
416,52,221116,5,0,1:0:0:0:
285,245,221274,2,0,P|292:285|297:326,1,82.5000025177003,8|0,0:0|0:0,0:0:0:0:
373,358,221590,5,4,1:2:0:0:
411,291,221748,1,2,1:0:0:0:
484,311,221906,1,8,0:0:0:0:
446,374,222064,1,2,0:1:0:0:
192,124,222222,5,0,1:0:0:0:
113,62,222380,1,0,1:0:0:0:
22,110,222538,1,8,0:0:0:0:
108,188,222695,1,0,3:0:0:0:
108,188,222774,1,0,3:0:0:0:
108,188,222853,1,4,1:0:0:0:
256,192,223011,12,4,227906,0:0:0:0:
