osu file format v14

[General]
AudioFilename: audio.mp3
AudioLeadIn: 0
PreviewTime: 56572
Countdown: 0
SampleSet: Soft
StackLeniency: 0.6
Mode: 0
LetterboxInBreaks: 0
WidescreenStoryboard: 1

[Editor]
DistanceSpacing: 0.9
BeatDivisor: 4
GridSize: 32
TimelineZoom: 3.099999

[Metadata]
Title:Winter Diamond
TitleUnicode:Winter Diamond
Artist:Rita
ArtistUnicode:Rita
Creator:Dubturt
Version:Insane
Source:見上げてごらん、夜空の星を
Tags:miagete goran yozora no hoshi o a sky full of stars pulltop eroge visual novel vn opening op 2
BeatmapID:1601399
BeatmapSetID:761598

[Difficulty]
HPDrainRate:6
CircleSize:4
OverallDifficulty:7
ApproachRate:9
SliderMultiplier:1.6
SliderTickRate:1

[Events]
//Background and Video events
0,0,"cropped-1920-1080-711959.jpg",0,0
Video,-115,"vid.avi"
//Break Periods
//Storyboard Layer 0 (Background)
//Storyboard Layer 1 (Fail)
//Storyboard Layer 2 (Pass)
//Storyboard Layer 3 (Foreground)
//Storyboard Sound Samples

[TimingPoints]
1072,315.789473684211,4,2,1,35,1,0
1072,-111.111111111111,4,2,1,35,0,0
5650,-111.111111111111,4,2,1,45,0,0
6124,-100,4,2,1,60,0,0
13703,-111.111111111111,4,2,1,55,0,0
54124,-111.111111111111,4,2,1,50,0,0
55387,-111.111111111111,4,2,1,55,0,0
55545,-111.111111111111,4,2,1,60,0,0
56177,-111.111111111111,4,2,1,65,0,0
56650,-90.9090909090908,4,2,1,70,0,1
76861,-100,4,2,1,65,0,0
99598,-100,4,2,1,25,0,0

[Colours]
Combo1 : 173,173,173
Combo2 : 66,66,255
Combo3 : 0,130,191

[HitObjects]
83,80,1072,6,0,L|21:7,2,71.9999978027344,10|2|10,0:0|0:0|0:0,0:0:0:0:
200,90,1545,2,0,L|262:163,2,71.9999978027344,2|10|2,0:0|0:0|0:0,0:0:0:0:
123,181,2019,6,0,L|119:280,1,71.9999978027344,10|2,0:0|0:0,0:0:0:0:
211,313,2335,1,10,0:0:0:0:
285,243,2493,2,0,P|333:238|385:255,1,71.9999978027344,2|10,0:0|0:0,0:0:0:0:
436,317,2808,1,2,0:0:0:0:
494,216,2966,2,0,L|496:130,1,71.9999978027344,10|2,0:0|0:0,0:0:0:0:
374,83,3282,2,0,L|407:166,1,71.9999978027344,10|2,0:0|0:0,0:0:0:0:
385,5,3598,6,0,P|336:11|305:115,1,143.999995605469,10|10,0:0|0:0,0:0:0:0:
422,148,4072,2,0,P|471:142|501:100,2,71.9999978027344,2|10|2,0:0|0:0|0:0,0:0:0:0:
297,119,4545,2,0,L|224:147,1,71.9999978027344,10|2,0:0|0:0,0:0:0:0:
147,237,4861,1,10,0:0:0:0:
49,187,5019,2,0,P|47:132|56:95,2,71.9999978027344,2|10|2,0:0|0:0|0:0,0:0:0:0:
147,237,5493,1,10,0:0:0:0:
239,365,5650,5,2,3:2:0:0:
271,361,5728,1,0,3:0:0:0:
303,358,5807,1,0,3:0:0:0:
335,355,5886,1,0,3:0:0:0:
367,352,5965,1,0,3:0:0:0:
400,349,6044,1,0,3:0:0:0:
431,345,6124,6,0,L|431:174,1,160,6|0,0:0|1:0,0:0:0:0:
340,118,6598,2,0,L|340:215,1,80,2|8,0:0|0:0,0:0:0:0:
267,258,6914,1,8,0:0:0:0:
267,258,7072,2,0,P|205:266|168:253,1,80,0|0,1:0|0:0,0:0:0:0:
114,180,7387,5,8,0:0:0:0:
114,180,7545,2,0,P|176:172|213:185,1,80,10|0,0:0|1:0,0:0:0:0:
30,256,7861,1,2,0:0:0:0:
30,256,8019,2,0,L|30:170,1,80,10|10,0:0|0:0,0:0:0:0:
121,70,8335,2,0,L|121:156,1,80,0|0,1:0|0:0,0:0:0:0:
160,260,8650,6,0,B|207:268|207:268|323:206,1,160,10|0,0:0|1:0,0:0:0:0:
302,105,9124,2,0,L|204:154,1,80,2|8,0:0|0:0,0:0:0:0:
382,158,9440,1,8,0:0:0:0:
382,158,9598,2,0,L|453:122,1,80,0|0,1:0|0:0,0:0:0:0:
302,105,9914,5,8,0:0:0:0:
302,105,10072,2,0,P|292:161|307:212,1,80,10|0,0:0|1:0,0:0:0:0:
385,319,10387,1,2,0:0:0:0:
385,319,10545,2,0,P|395:263|380:212,1,80,10|10,0:0|0:0,0:0:0:0:
294,284,10861,2,0,L|189:295,1,80,0|0,1:0|0:0,0:0:0:0:
81,242,11177,6,0,B|114:207|114:207|253:194,1,160,4|10,0:0|0:0,0:0:0:0:
299,106,11650,1,2,0:0:0:0:
299,106,11808,2,0,L|203:112,1,80,10|0,0:0|0:0,0:0:0:0:
217,281,12124,2,0,L|313:275,1,80,4|2,3:0|0:0,0:0:0:0:
380,203,12440,5,10,0:0:0:0:
296,276,12598,2,0,B|293:319|293:319|306:366,1,80,2|10,1:2|0:0,0:0:0:0:
408,310,12914,2,0,L|463:318,2,40,0|0|8,3:0|3:0|0:0,0:0:0:0:
207,285,13229,1,0,3:0:0:0:
207,285,13308,1,0,3:0:0:0:
207,285,13387,1,8,3:2:0:0:
171,285,13466,1,0,3:0:0:0:
135,285,13545,1,0,3:0:0:0:
98,285,13624,1,0,3:0:0:0:
61,285,13703,6,0,L|62:196,1,71.9999978027344,4|0,0:0|0:0,0:0:0:0:
149,43,14019,2,0,L|148:132,1,71.9999978027344,0|0,1:0|0:0,0:0:0:0:
226,279,14335,2,0,L|227:190,1,71.9999978027344,8|8,0:0|0:0,0:0:0:0:
298,82,14650,1,0,1:0:0:0:
226,207,14808,6,0,P|171:213|145:205,1,71.9999978027344,2|8,0:0|0:0,0:0:0:0:
298,82,15124,2,0,P|353:76|379:84,1,71.9999978027344,10|0,0:0|1:0,0:0:0:0:
449,168,15440,2,0,L|449:239,1,71.9999978027344,2|8,0:0|0:0,0:0:0:0:
327,295,15755,1,2,0:0:0:0:
327,295,15914,2,0,L|366:211,1,71.9999978027344,0|2,1:0|0:0,0:0:0:0:
408,348,16229,6,0,P|330:342|234:352,1,143.999995605469,10|0,0:0|1:0,0:0:0:0:
137,289,16703,1,10,0:0:0:0:
137,289,16782,1,8,0:0:0:0:
137,289,16861,2,0,P|187:286|234:293,1,71.9999978027344,8|0,0:0|0:0,0:0:0:0:
92,215,17177,2,0,P|42:212|-5:219,1,71.9999978027344,0|0,1:0|0:0,0:0:0:0:
7,366,17493,6,0,P|63:369|158:366,1,143.999995605469,8|0,0:0|1:0,0:0:0:0:
222,288,17966,1,0,0:0:0:0:
222,288,18124,2,0,L|222:193,1,71.9999978027344,8|0,0:0|0:0,0:0:0:0:
151,111,18440,1,0,1:0:0:0:
109,227,18598,1,0,0:0:0:0:
249,138,18756,6,0,L|330:142,1,71.9999978027344,10|0,0:0|0:0,0:0:0:0:
399,87,19072,1,0,1:0:0:0:
467,176,19229,1,8,0:0:0:0:
467,176,19308,1,8,0:0:0:0:
467,176,19387,2,0,P|469:222|463:256,1,71.9999978027344,8|8,0:0|0:0,0:0:0:0:
343,319,19703,1,0,1:0:0:0:
271,203,19861,6,0,L|359:210,1,71.9999978027344,2|8,0:0|0:0,0:0:0:0:
247,102,20177,2,0,L|175:107,1,71.9999978027344,10|0,0:0|1:0,0:0:0:0:
66,171,20493,2,0,P|62:206|65:242,1,71.9999978027344,2|8,0:0|0:0,0:0:0:0:
194,305,20807,1,2,0:0:0:0:
194,305,20966,2,0,P|197:242|188:203,1,71.9999978027344,0|2,1:0|0:0,0:0:0:0:
109,348,21282,6,0,L|285:346,1,143.999995605469,8|0,0:0|1:0,0:0:0:0:
355,307,21756,1,10,0:0:0:0:
355,307,21835,1,8,0:0:0:0:
355,307,21914,2,0,L|363:219,1,71.9999978027344,8|0,0:0|0:0,0:0:0:0:
253,156,22229,2,0,L|266:234,1,71.9999978027344,0|0,1:0|0:0,0:0:0:0:
353,121,22545,5,8,0:0:0:0:
177,213,22703,1,0,0:0:0:0:
223,60,22861,2,0,L|234:139,1,71.9999978027344,0|0,1:0|0:0,0:0:0:0:
120,268,23177,2,0,P|98:223|107:180,1,71.9999978027344,10|0,0:0|0:0,0:0:0:0:
232,131,23493,2,0,P|254:176|245:219,1,71.9999978027344,2|0,1:2|0:0,0:0:0:0:
332,210,23808,6,0,P|330:146|280:60,1,143.999995605469,6|0,0:0|1:0,0:0:0:0:
193,29,24282,1,8,0:0:0:0:
193,29,24361,1,8,0:0:0:0:
193,29,24440,2,0,L|107:35,1,71.9999978027344,8|0,0:0|0:0,0:0:0:0:
27,95,24756,1,0,1:0:0:0:
110,163,24914,1,2,0:0:0:0:
14,227,25072,6,0,P|6:292|19:326,1,71.9999978027344,8|0,0:0|0:0,0:0:0:0:
102,349,25387,2,0,L|181:337,1,71.9999978027344,0|0,1:0|0:0,0:0:0:0:
252,265,25703,2,0,L|351:297,1,71.9999978027344,10|0,0:0|0:0,0:0:0:0:
209,194,26019,2,0,P|173:232|168:279,1,71.9999978027344,2|0,1:2|0:0,0:0:0:0:
79,227,26335,6,0,P|106:173|197:104,1,143.999995605469,4|0,0:0|1:0,0:0:0:0:
253,45,26808,1,10,0:0:0:0:
253,45,26887,1,8,0:0:0:0:
253,45,26966,2,0,L|337:46,1,71.9999978027344,8|0,0:0|0:0,0:0:0:0:
456,134,27282,2,0,L|292:135,1,143.999995605469,4|8,0:0|0:0,0:0:0:0:
414,43,27756,5,0,0:0:0:0:
456,134,27914,2,0,P|459:183|457:302,1,143.999995605469,2|10,1:2|0:0,0:0:0:0:
357,233,28387,1,2,0:0:0:0:
319,324,28545,2,0,P|373:335|415:318,1,71.9999978027344,0|0,1:0|0:0,0:0:0:0:
342,205,28861,6,0,P|299:209|218:294,1,143.999995605469,6|2,0:0|1:2,0:0:0:0:
105,336,29335,1,10,0:0:0:0:
105,336,29414,1,8,0:0:0:0:
105,336,29493,2,0,L|103:240,1,71.9999978027344,8|8,0:0|0:0,0:0:0:0:
183,111,29808,2,0,L|184:209,1,71.9999978027344,0|0,1:0|0:0,0:0:0:0:
98,93,30124,6,0,P|137:42|236:37,2,143.999995605469,10|0|10,0:0|1:0|0:0,0:0:0:0:
31,173,30914,1,0,0:0:0:0:
106,247,31072,2,0,L|190:248,1,71.9999978027344,0|0,1:0|0:0,0:0:0:0:
269,315,31387,6,0,P|292:256|255:170,1,143.999995605469,12|0,0:0|1:0,0:0:0:0:
185,99,31861,1,10,0:0:0:0:
185,99,31940,1,8,0:0:0:0:
185,99,32019,2,0,L|260:91,1,71.9999978027344,8|0,0:0|0:0,0:0:0:0:
158,194,32335,2,0,L|83:202,1,71.9999978027344,0|0,1:0|0:0,0:0:0:0:
185,99,32650,5,8,0:0:0:0:
236,266,32808,1,0,0:0:0:0:
361,135,32966,1,0,1:0:0:0:
252,175,33124,2,0,L|310:189,2,35.9999989013672,0|0|8,3:0|3:0|3:2,0:0:0:0:
130,217,33440,1,0,3:0:0:0:
130,217,33519,1,0,3:0:0:0:
130,217,33598,1,0,1:0:0:0:
120,247,33677,1,0,3:0:0:0:
123,279,33756,1,0,3:0:0:0:
135,308,33835,1,0,3:0:0:0:
156,332,33914,6,0,L|260:336,1,71.9999978027344,4|0,0:0|0:0,0:0:0:0:
312,269,34229,1,0,1:0:0:0:
373,362,34387,1,8,0:0:0:0:
373,362,34466,1,8,0:0:0:0:
373,362,34545,2,0,L|467:364,1,71.9999978027344,8|8,0:0|0:0,0:0:0:0:
332,234,34861,1,0,1:0:0:0:
182,310,35019,6,0,P|246:326|268:321,1,71.9999978027344,2|8,0:0|0:0,0:0:0:0:
197,207,35335,2,0,P|133:191|111:196,1,71.9999978027344,10|0,0:0|1:0,0:0:0:0:
13,210,35650,2,0,L|14:138,1,71.9999978027344,2|8,0:0|0:0,0:0:0:0:
117,57,35965,1,2,0:0:0:0:
117,57,36124,2,0,L|96:135,1,71.9999978027344,0|2,1:0|0:0,0:0:0:0:
42,24,36440,6,0,B|105:40|105:40|207:22,1,143.999995605469,10|0,0:0|1:0,0:0:0:0:
300,44,36914,1,10,0:0:0:0:
300,44,36993,1,8,0:0:0:0:
300,44,37072,2,0,L|305:135,1,71.9999978027344,8|0,0:0|0:0,0:0:0:0:
173,208,37387,2,0,L|203:128,1,71.9999978027344,0|0,1:0|0:0,0:0:0:0:
278,199,37703,6,0,P|321:201|387:112,1,143.999995605469,8|0,0:0|1:0,0:0:0:0:
303,115,38177,1,0,0:0:0:0:
303,115,38335,2,0,L|197:115,1,71.9999978027344,8|0,0:0|0:0,0:0:0:0:
124,68,38650,1,0,1:0:0:0:
169,193,38808,1,0,0:0:0:0:
34,144,38966,6,0,L|33:236,1,71.9999978027344,4|0,0:0|0:0,0:0:0:0:
119,313,39282,1,0,1:0:0:0:
173,223,39440,1,8,0:0:0:0:
173,223,39519,1,8,0:0:0:0:
173,223,39598,2,0,L|261:223,1,71.9999978027344,8|8,0:0|0:0,0:0:0:0:
324,162,39914,1,0,1:0:0:0:
321,290,40072,6,0,L|425:290,1,71.9999978027344,2|8,0:0|0:0,0:0:0:0:
245,223,40387,2,0,L|141:223,1,71.9999978027344,10|0,0:0|1:0,0:0:0:0:
318,120,40703,2,0,P|324:155|320:190,1,71.9999978027344,2|8,0:0|0:0,0:0:0:0:
175,293,41018,1,2,0:0:0:0:
175,293,41177,2,0,P|169:240|177:208,1,71.9999978027344,0|2,1:0|0:0,0:0:0:0:
263,304,41493,6,0,P|248:352|136:366,1,143.999995605469,8|0,0:0|1:0,0:0:0:0:
61,316,41966,1,10,0:0:0:0:
61,316,42045,1,8,0:0:0:0:
61,316,42124,2,0,L|59:226,1,71.9999978027344,8|0,0:0|0:0,0:0:0:0:
179,133,42440,2,0,L|181:223,1,71.9999978027344,0|0,1:0|0:0,0:0:0:0:
78,147,42756,5,8,0:0:0:0:
198,46,42914,1,0,0:0:0:0:
201,218,43072,2,0,L|278:222,1,71.9999978027344,0|0,1:0|0:0,0:0:0:0:
162,125,43387,1,10,0:0:0:0:
108,226,43545,1,0,3:0:0:0:
108,226,43624,1,0,3:0:0:0:
108,226,43703,1,2,1:2:0:0:
106,258,43782,1,0,3:0:0:0:
104,290,43861,1,0,3:0:0:0:
101,322,43940,1,0,3:0:0:0:
99,354,44019,6,0,L|262:360,1,143.999995605469,6|0,0:0|1:0,0:0:0:0:
325,252,44493,1,8,0:0:0:0:
325,252,44572,1,8,0:0:0:0:
325,252,44650,2,0,L|241:251,1,71.9999978027344,8|0,0:0|0:0,0:0:0:0:
352,340,44966,1,0,1:0:0:0:
457,273,45124,1,2,0:0:0:0:
457,273,45282,6,0,L|457:193,1,71.9999978027344,8|0,0:0|0:0,0:0:0:0:
340,80,45598,2,0,L|340:160,1,71.9999978027344,0|0,1:0|0:0,0:0:0:0:
210,262,45914,2,0,B|172:273|172:273|113:257,1,71.9999978027344,10|0,0:0|0:0,0:0:0:0:
270,154,46229,2,0,B|308:143|308:143|367:159,1,71.9999978027344,2|0,1:2|0:0,0:0:0:0:
212,94,46545,6,0,P|185:143|214:222,1,143.999995605469,4|0,0:0|1:0,0:0:0:0:
278,323,47019,1,10,0:0:0:0:
278,323,47098,1,8,0:0:0:0:
278,323,47177,2,0,L|190:329,1,71.9999978027344,8|0,0:0|0:0,0:0:0:0:
91,224,47493,2,0,P|134:238|151:260,1,71.9999978027344,0|0,1:0|0:0,0:0:0:0:
74,310,47808,5,12,0:0:0:0:
82,137,47966,1,0,0:0:0:0:
9,209,48124,2,0,P|92:224|168:190,1,143.999995605469,2|10,1:2|0:0,0:0:0:0:
223,126,48598,1,2,0:0:0:0:
297,209,48756,2,0,P|300:267|294:302,1,71.9999978027344,0|0,1:0|0:0,0:0:0:0:
200,341,49072,6,0,B|254:327|254:327|367:355,1,143.999995605469,6|2,0:0|1:2,0:0:0:0:
451,311,49545,1,10,0:0:0:0:
451,311,49624,1,8,0:0:0:0:
451,311,49703,2,0,L|444:234,1,71.9999978027344,8|8,0:0|0:0,0:0:0:0:
329,140,50019,2,0,L|336:217,1,71.9999978027344,0|0,1:0|0:0,0:0:0:0:
390,81,50335,6,0,P|326:57|245:108,1,143.999995605469,12|0,0:0|1:0,0:0:0:0:
182,176,50808,1,0,0:0:0:0:
71,135,50966,2,0,P|65:97|74:57,1,71.9999978027344,8|0,0:0|0:0,0:0:0:0:
195,186,51282,2,0,P|201:224|192:264,1,71.9999978027344,0|0,1:0|0:0,0:0:0:0:
61,336,51598,6,0,P|52:296|116:219,1,143.999995605469,12|0,0:0|1:0,0:0:0:0:
210,286,52072,2,0,L|210:351,2,35.9999989013672,0|0|8,3:0|3:0|0:0,0:0:0:0:
281,169,52387,1,0,3:0:0:0:
311,159,52466,1,0,3:3:0:0:
342,164,52545,1,0,1:0:0:0:
371,179,52624,1,0,3:0:0:0:
395,200,52703,1,0,3:0:0:0:
411,228,52782,1,0,3:0:0:0:
420,259,52861,5,8,1:2:0:0:
337,330,53019,1,8,1:2:0:0:
311,159,53177,1,8,1:2:0:0:
311,159,54124,5,4,0:0:0:0:
256,192,54203,12,0,55229,0:0:0:0:
180,91,55387,5,4,0:0:0:0:
269,157,55545,2,0,L|324:144,2,35.9999989013672,0|0|0,3:0|3:0|3:0,0:0:0:0:
191,256,55861,2,0,L|136:269,2,35.9999989013672,0|0|4,3:0|3:0|3:2,0:0:0:0:
316,306,56177,1,0,3:0:0:0:
316,306,56256,1,0,3:0:0:0:
316,306,56335,1,0,3:0:0:0:
348,309,56414,1,0,3:0:0:0:
379,303,56493,1,0,3:0:0:0:
407,287,56572,1,0,3:0:0:0:
431,265,56650,6,0,L|431:162,1,88.000002685547,6|0,0:0|0:0,0:0:0:0:
267,89,56966,2,0,P|284:158|311:189,1,88.000002685547,2|10,1:2|0:0,0:0:0:0:
293,170,57203,1,8,0:0:0:0:
293,170,57282,1,8,0:0:0:0:
366,92,57440,1,2,0:0:0:0:
244,6,57598,1,0,1:0:0:0:
183,134,57756,6,0,P|200:188|221:221,1,88.000002685547,2|8,0:0|0:0,0:0:0:0:
361,251,58072,2,0,P|344:197|323:164,1,88.000002685547,2|0,0:0|1:0,0:0:0:0:
276,307,58387,1,10,0:0:0:0:
276,307,58466,1,8,0:0:0:0:
276,307,58545,2,0,L|174:317,1,88.000002685547,8|2,0:0|0:0,0:0:0:0:
83,285,58861,2,0,P|68:241|83:187,1,88.000002685547,0|0,1:0|0:0,0:0:0:0:
152,66,59177,6,0,P|179:135|132:243,1,176.000005371094,10|0,0:0|1:0,0:0:0:0:
269,150,59650,1,8,0:0:0:0:
269,150,59729,1,8,0:0:0:0:
269,150,59808,2,0,L|367:161,1,88.000002685547,8|0,0:0|0:0,0:0:0:0:
299,236,60124,1,2,1:2:0:0:
235,68,60282,6,0,L|417:91,1,176.000005371094,2|0,0:0|0:0,0:0:0:0:
484,166,60756,1,0,1:0:0:0:
396,226,60914,1,8,0:0:0:0:
396,226,60993,1,8,0:0:0:0:
396,226,61072,2,0,L|422:314,1,88.000002685547,10|0,0:0|0:0,0:0:0:0:
303,384,61387,2,0,L|303:280,1,88.000002685547,2|0,1:2|0:0,0:0:0:0:
206,218,61703,6,0,L|180:306,1,88.000002685547,12|0,0:0|0:0,0:0:0:0:
70,360,62019,2,0,P|40:315|40:259,1,88.000002685547,2|10,1:2|0:0,0:0:0:0:
35,282,62256,1,8,0:0:0:0:
35,282,62335,1,8,0:0:0:0:
100,187,62493,1,2,0:0:0:0:
188,322,62650,1,0,1:0:0:0:
260,226,62808,6,0,L|255:122,1,88.000002685547,2|8,0:0|0:0,0:0:0:0:
371,78,63124,2,0,L|356:176,1,88.000002685547,2|0,0:0|1:0,0:0:0:0:
271,49,63440,1,10,0:0:0:0:
271,49,63519,1,8,0:0:0:0:
271,49,63598,2,0,P|205:62|176:104,1,88.000002685547,8|2,0:0|0:0,0:0:0:0:
80,148,63914,2,0,P|102:110|101:67,1,88.000002685547,0|0,1:0|0:0,0:0:0:0:
171,160,64229,6,0,P|174:213|273:289,1,176.000005371094,10|0,0:0|1:0,0:0:0:0:
122,293,64703,1,8,0:0:0:0:
122,293,64782,1,8,0:0:0:0:
122,293,64861,2,0,L|15:302,1,88.000002685547,8|0,0:0|0:0,0:0:0:0:
174,184,65177,2,0,L|281:193,1,88.000002685547,2|2,1:2|0:0,0:0:0:0:
389,101,65493,6,0,P|318:107|289:125,1,88.000002685547,10|2,0:0|0:0,0:0:0:0:
385,191,65808,1,6,1:2:0:0:
472,89,65966,2,0,L|472:29,2,44.0000013427735,0|0|10,3:0|3:0|0:0,0:0:0:0:
479,190,66282,1,0,3:0:0:0:
479,190,66361,1,0,3:0:0:0:
479,190,66440,1,2,1:2:0:0:
477,229,66519,1,0,3:0:0:0:
477,268,66598,1,0,3:0:0:0:
477,307,66677,1,0,3:0:0:0:
477,346,66756,6,0,L|355:356,1,88.000002685547,6|0,0:0|0:0,0:0:0:0:
272,256,67072,2,0,L|386:278,1,88.000002685547,2|10,1:2|0:0,0:0:0:0:
358,272,67308,1,8,0:0:0:0:
358,272,67387,1,8,0:0:0:0:
284,355,67545,1,2,0:0:0:0:
198,222,67703,1,0,1:0:0:0:
111,332,67861,6,0,P|58:340|11:328,1,88.000002685547,2|8,0:0|0:0,0:0:0:0:
98,215,68177,2,0,P|151:207|198:219,1,88.000002685547,2|0,0:0|1:0,0:0:0:0:
291,177,68493,1,10,0:0:0:0:
291,177,68572,1,8,0:0:0:0:
291,177,68650,2,0,L|293:87,1,88.000002685547,8|2,0:0|0:0,0:0:0:0:
170,223,68966,2,0,L|171:310,1,88.000002685547,0|0,1:0|0:0,0:0:0:0:
208,149,69282,6,0,P|141:147|88:232,1,176.000005371094,10|0,0:0|1:0,0:0:0:0:
55,120,69756,1,8,0:0:0:0:
55,120,69835,1,8,0:0:0:0:
55,120,69914,2,0,L|53:28,1,88.000002685547,8|0,0:0|0:0,0:0:0:0:
150,3,70229,1,2,1:2:0:0:
214,98,70387,6,0,P|281:106|381:56,1,176.000005371094,2|0,0:0|0:0,0:0:0:0:
460,38,70861,1,0,1:0:0:0:
444,138,71019,1,8,0:0:0:0:
444,138,71098,1,8,0:0:0:0:
444,138,71177,2,0,P|439:195|455:245,1,88.000002685547,10|0,0:0|0:0,0:0:0:0:
374,291,71493,2,0,L|256:302,1,88.000002685547,2|0,1:2|0:0,0:0:0:0:
156,174,71808,6,0,P|219:186|256:231,1,88.000002685547,12|0,0:0|0:0,0:0:0:0:
93,306,72124,2,0,P|30:294|-7:249,1,88.000002685547,2|10,1:2|0:0,0:0:0:0:
12,279,72361,1,8,0:0:0:0:
12,279,72440,1,8,0:0:0:0:
116,194,72598,1,2,0:0:0:0:
196,321,72756,1,0,1:0:0:0:
303,255,72914,6,0,L|330:154,1,88.000002685547,2|8,0:0|0:0,0:0:0:0:
216,77,73229,2,0,L|233:187,1,88.000002685547,2|0,0:0|1:0,0:0:0:0:
317,46,73545,1,10,0:0:0:0:
317,46,73624,1,8,0:0:0:0:
317,46,73703,2,0,P|378:51|430:79,1,88.000002685547,8|2,0:0|0:0,0:0:0:0:
360,215,74019,2,0,L|348:119,1,88.000002685547,0|0,1:0|0:0,0:0:0:0:
447,230,74335,6,0,P|404:291|278:264,1,176.000005371094,14|0,0:0|1:0,0:0:0:0:
207,197,74808,1,8,0:0:0:0:
207,197,74887,1,8,0:0:0:0:
207,197,74966,2,0,P|196:259|216:316,1,88.000002685547,8|0,0:0|0:0,0:0:0:0:
85,376,75282,2,0,P|96:314|76:257,1,88.000002685547,2|2,1:2|0:0,0:0:0:0:
19,215,75598,5,14,0:0:0:0:
89,106,75756,2,0,L|88:37,2,44.0000013427735,0|0|0,3:0|3:0|1:0,0:0:0:0:
191,216,76072,2,0,L|190:259,2,44.0000013427735,0|0|8,3:0|3:0|0:0,0:0:0:0:
236,75,76387,1,0,3:0:0:0:
236,75,76466,1,0,3:0:0:0:
236,75,76545,1,2,1:2:0:0:
274,64,76624,1,0,3:0:0:0:
312,71,76703,1,0,3:0:0:0:
347,89,76782,1,0,3:0:0:0:
378,111,76861,6,0,P|382:164|380:280,1,160,6|0,0:0|1:0,0:0:0:0:
302,341,77335,1,10,0:0:0:0:
302,341,77414,1,8,0:0:0:0:
302,341,77493,2,0,L|193:351,1,80,10|0,0:0|0:0,0:0:0:0:
138,280,77808,2,0,L|42:292,1,80,2|0,1:2|0:0,0:0:0:0:
148,189,78124,6,0,P|208:227|219:323,1,160,10|0,0:0|1:0,0:0:0:0:
306,268,78598,1,2,0:0:0:0:
306,268,78756,2,0,P|281:190|223:131,1,160,10|2,0:0|1:2,0:0:0:0:
12,48,79387,6,0,B|56:68|56:68|199:26,1,160,14|0,0:0|1:0,0:0:0:0:
272,62,79861,1,10,0:0:0:0:
272,62,79940,1,8,0:0:0:0:
272,62,80019,2,0,L|279:155,1,80,10|0,0:0|0:0,0:0:0:0:
194,203,80335,2,0,L|229:300,1,80,2|0,1:2|0:0,0:0:0:0:
172,112,80650,6,0,P|117:171|134:279,1,160,10|0,0:0|1:0,0:0:0:0:
30,219,81124,1,2,0:0:0:0:
30,219,81282,2,0,P|38:157|97:72,1,160,10|2,0:0|1:2,0:0:0:0:
328,12,81914,6,0,P|323:102|334:193,1,160,14|0,0:0|1:0,0:0:0:0:
290,277,82387,1,10,0:0:0:0:
290,277,82466,1,8,0:0:0:0:
290,277,82545,2,0,P|357:288|392:276,1,80,10|0,0:0|0:0,0:0:0:0:
466,228,82861,2,0,P|473:181|453:125,1,80,2|0,1:2|0:0,0:0:0:0:
236,150,83177,6,0,L|406:188,1,160,14|2,0:0|1:2,0:0:0:0:
301,80,83650,1,0,0:0:0:0:
301,80,83808,2,0,L|207:58,1,80,10|0,0:0|0:0,0:0:0:0:
112,66,84124,2,0,P|95:128|107:177,1,80,2|0,1:2|0:0,0:0:0:0:
186,283,84440,6,0,L|174:102,1,160,14|0,0:0|1:0,0:0:0:0:
93,226,84914,1,10,0:0:0:0:
93,226,84993,1,8,0:0:0:0:
93,226,85072,2,0,L|98:331,1,80,10|0,0:0|0:0,0:0:0:0:
188,364,85387,2,0,P|229:351|261:313,1,80,6|0,1:2|0:0,0:0:0:0:
334,161,85703,5,14,0:0:0:0:
372,322,85861,1,2,3:2:0:0:
199,277,86019,1,0,1:0:0:0:
341,133,86177,5,2,3:2:0:0:
302,253,86335,1,10,0:0:0:0:
230,137,86493,1,2,3:2:0:0:
194,139,86572,1,0,3:0:0:0:
158,141,86650,1,2,1:2:0:0:
122,143,86729,1,0,3:0:0:0:
86,147,86808,1,0,3:0:0:0:
50,149,86887,1,0,3:0:0:0:
13,149,86966,6,0,L|14:244,1,80,6|0,0:0|0:0,0:0:0:0:
83,329,87282,1,0,1:0:0:0:
83,329,87440,2,0,P|129:322|180:334,1,80,2|8,0:0|0:0,0:0:0:0:
255,267,87756,1,2,0:0:0:0:
171,182,87914,1,2,1:2:0:0:
227,54,88072,6,0,P|304:46|361:118,1,160,14|10,0:0|0:0,0:0:0:0:
404,196,88545,1,10,0:0:0:0:
178,170,88861,1,2,0:0:0:0:
276,134,89019,1,0,3:0:0:0:
276,134,89098,1,0,3:0:0:0:
276,134,89177,2,0,L|283:240,1,80,8|0,0:0|0:0,0:0:0:0:
189,280,89493,6,0,B|238:261|238:261|373:283,1,160,6|0,0:0|1:0,0:0:0:0:
445,215,89966,1,10,0:0:0:0:
445,215,90045,1,8,0:0:0:0:
445,215,90124,2,0,L|359:190,1,80,10|0,0:0|0:0,0:0:0:0:
318,111,90440,2,0,L|241:146,1,80,2|0,1:2|0:0,0:0:0:0:
212,235,90756,6,0,P|164:203|162:92,1,160,10|0,0:0|1:0,0:0:0:0:
226,27,91229,1,2,0:0:0:0:
226,27,91387,2,0,L|326:35,1,80,10|0,0:0|0:0,0:0:0:0:
383,155,91703,2,0,L|289:108,1,80,2|0,1:2|0:0,0:0:0:0:
441,98,92019,6,0,P|462:147|397:237,1,160,14|0,0:0|1:0,0:0:0:0:
331,319,92493,1,2,0:0:0:0:
331,319,92650,2,0,L|221:328,1,80,10|0,0:0|0:0,0:0:0:0:
189,217,92966,2,0,L|291:248,1,80,2|0,1:2|0:0,0:0:0:0:
161,302,93282,6,0,L|48:321,1,80,12|0,0:0|0:0,0:0:0:0:
193,220,93598,1,0,1:0:0:0:
193,220,93756,2,0,L|295:251,1,80,2|10,0:0|0:0,0:0:0:0:
375,200,94072,1,2,3:2:0:0:
375,200,94150,1,0,3:0:0:0:
375,200,94229,2,0,P|380:144|361:89,1,80,2|0,1:2|0:0,0:0:0:0:
256,64,94545,5,6,0:0:0:0:
256,192,94624,12,2,99598,0:0:0:0:
