osu file format v14

[General]
AudioFilename: audio.mp3
AudioLeadIn: 0
PreviewTime: 56572
Countdown: 0
SampleSet: Soft
StackLeniency: 0.7
Mode: 0
LetterboxInBreaks: 0
WidescreenStoryboard: 1

[Editor]
DistanceSpacing: 0.9
BeatDivisor: 4
GridSize: 32
TimelineZoom: 3.099999

[Metadata]
Title:Winter Diamond
TitleUnicode:Winter Diamond
Artist:Rita
ArtistUnicode:Rita
Creator:Dubturt
Version:Hard
Source:見上げてごらん、夜空の星を
Tags:miagete goran yozora no hoshi o a sky full of stars pulltop eroge visual novel vn opening op 2
BeatmapID:1601398
BeatmapSetID:761598

[Difficulty]
HPDrainRate:5
CircleSize:3.8
OverallDifficulty:6
ApproachRate:7.5
SliderMultiplier:1.4
SliderTickRate:1

[Events]
//Background and Video events
0,0,"cropped-1920-1080-711959.jpg",0,0
Video,-115,"vid.avi"
//Break Periods
2,6324,10352
//Storyboard Layer 0 (Background)
//Storyboard Layer 1 (Fail)
//Storyboard Layer 2 (Pass)
//Storyboard Layer 3 (Foreground)
//Storyboard Sound Samples

[TimingPoints]
1072,315.789473684211,4,2,1,35,1,0
1072,-111.111111111111,4,2,1,35,0,0
5650,-111.111111111111,4,2,1,45,0,0
6124,-100,4,2,1,60,0,0
13703,-111.111111111111,4,2,1,55,0,0
54124,-111.111111111111,4,2,1,50,0,0
55387,-111.111111111111,4,2,1,55,0,0
55545,-111.111111111111,4,2,1,60,0,0
56177,-111.111111111111,4,2,1,65,0,0
56650,-90.9090909090908,4,2,1,70,0,1
76861,-100,4,2,1,65,0,0
99598,-100,4,2,1,25,0,0

[Colours]
Combo1 : 173,173,173
Combo2 : 66,66,255
Combo3 : 0,130,191

[HitObjects]
96,32,1072,6,0,L|32:32,2,62.9999980773926,10|2|10,0:0|0:0|0:0,0:0:0:0:
169,80,1545,2,0,L|233:80,2,62.9999980773926,2|10|2,0:0|0:0|0:0,0:0:0:0:
102,139,2019,2,0,L|38:139,2,62.9999980773926,10|2|10,0:0|0:0|0:0,0:0:0:0:
166,199,2492,6,0,L|230:199,2,62.9999980773926,2|10|2,0:0|0:0|0:0,0:0:0:0:
89,243,2966,2,0,P|82:287|94:330,1,62.9999980773926,10|2,0:0|0:0,0:0:0:0:
161,348,3282,2,0,P|207:343|249:353,1,62.9999980773926,10|2,0:0|0:0,0:0:0:0:
310,363,3598,6,0,P|371:361|414:293,1,125.999996154785,10|10,0:0|0:0,0:0:0:0:
350,249,4072,2,0,P|303:254|266:243,2,62.9999980773926,2|10|2,0:0|0:0|0:0,0:0:0:0:
386,168,4545,2,0,P|433:163|470:174,2,62.9999980773926,10|2|10,0:0|0:0|0:0,0:0:0:0:
309,122,5019,6,0,P|262:127|225:116,2,62.9999980773926,2|10|2,0:0|0:0|0:0,0:0:0:0:
351,44,5493,1,10,0:0:0:0:
431,77,5650,2,0,L|475:77,4,31.4999990386963,2|0|0|0|0,3:2|3:0|3:0|3:0|3:0,0:0:0:0:
351,44,6124,5,6,0:0:0:0:
193,307,11177,6,0,P|126:325|32:288,1,140,4|10,0:0|0:0,0:0:0:0:
123,233,11650,1,2,0:0:0:0:
123,233,11808,2,0,L|123:141,1,70,10|0,0:0|0:0,0:0:0:0:
202,104,12124,2,0,L|202:205,1,70,4|2,3:0|0:0,0:0:0:0:
274,241,12440,5,10,0:0:0:0:
274,241,12598,2,0,P|315:246|358:241,1,70,2|10,1:2|0:0,0:0:0:0:
427,294,12914,2,0,L|489:293,2,35,0|0|8,3:0|3:0|0:0,0:0:0:0:
460,200,13229,2,0,L|522:199,2,35,0|0|8,3:0|3:0|3:2,0:0:0:0:
488,108,13545,1,0,3:0:0:0:
488,108,13703,6,0,L|346:108,1,125.999996154785,4|0,0:0|1:0,0:0:0:0:
295,166,14177,1,0,0:0:0:0:
243,94,14335,2,0,P|203:149|232:224,1,125.999996154785,8|0,0:0|1:0,0:0:0:0:
285,253,14808,6,0,P|256:277|160:274,1,125.999996154785,2|10,0:0|0:0,0:0:0:0:
213,202,15282,1,0,1:0:0:0:
284,149,15440,2,0,P|296:91|275:7,1,125.999996154785,2|2,0:0|0:0,0:0:0:0:
203,63,15914,2,0,P|210:104|194:137,1,62.9999980773926,0|2,1:0|0:0,0:0:0:0:
120,137,16229,6,0,P|138:176|238:192,1,125.999996154785,10|0,0:0|1:0,0:0:0:0:
241,285,16703,1,2,0:0:0:0:
316,330,16861,2,0,L|400:331,1,62.9999980773926,8|0,0:0|0:0,0:0:0:0:
437,260,17177,2,0,P|442:213|430:177,1,62.9999980773926,0|0,1:0|0:0,0:0:0:0:
375,136,17493,6,0,P|421:111|510:147,1,125.999996154785,8|0,0:0|1:0,0:0:0:0:
438,198,17966,1,0,0:0:0:0:
399,277,18124,2,0,L|314:287,1,62.9999980773926,8|0,0:0|0:0,0:0:0:0:
258,327,18440,2,0,P|249:273|253:242,1,62.9999980773926,0|0,1:0|0:0,0:0:0:0:
264,177,18756,6,0,P|216:180|162:256,1,125.999996154785,10|0,0:0|1:0,0:0:0:0:
111,304,19229,1,0,0:0:0:0:
37,254,19387,2,0,L|35:120,1,125.999996154785,8|0,0:0|1:0,0:0:0:0:
81,52,19861,6,0,B|113:28|113:28|228:46,1,125.999996154785,2|10,0:0|0:0,0:0:0:0:
283,66,20335,1,0,1:0:0:0:
258,147,20493,2,0,L|126:125,1,125.999996154785,2|2,0:0|0:0,0:0:0:0:
176,217,20966,2,0,L|265:233,1,62.9999980773926,0|2,1:0|0:0,0:0:0:0:
320,213,21282,6,0,P|341:179|317:84,1,125.999996154785,8|0,0:0|1:0,0:0:0:0:
277,24,21756,1,2,0:0:0:0:
365,27,21914,2,0,L|453:27,1,62.9999980773926,8|0,0:0|0:0,0:0:0:0:
491,88,22229,2,0,P|492:142|480:177,1,62.9999980773926,0|0,1:0|0:0,0:0:0:0:
430,216,22545,6,0,P|479:239|511:238,2,62.9999980773926,8|0|0,0:0|0:0|1:0,0:0:0:0:
368,151,23019,1,0,0:0:0:0:
368,151,23177,2,0,P|310:131|234:158,1,125.999996154785,10|2,0:0|1:2,0:0:0:0:
95,60,23808,6,0,P|95:109|92:207,1,125.999996154785,6|0,0:0|1:0,0:0:0:0:
42,259,24282,1,0,0:0:0:0:
114,309,24440,2,0,P|171:297|245:312,1,125.999996154785,8|0,0:0|1:0,0:0:0:0:
318,272,24914,1,2,0:0:0:0:
318,272,25072,6,0,P|272:232|245:228,1,62.9999980773926,8|0,0:0|0:0,0:0:0:0:
193,189,25387,2,0,P|239:149|266:145,1,62.9999980773926,0|0,1:0|0:0,0:0:0:0:
296,81,25703,2,0,P|242:60|170:104,1,125.999996154785,10|2,0:0|1:2,0:0:0:0:
114,143,26177,1,0,0:0:0:0:
114,143,26335,5,4,0:0:0:0:
256,245,26650,1,0,1:0:0:0:
398,143,26966,1,8,0:0:0:0:
256,245,27282,2,0,L|256:378,1,125.999996154785,4|8,0:0|0:0,0:0:0:0:
337,327,27756,5,0,0:0:0:0:
337,327,27914,2,0,L|337:186,1,125.999996154785,2|10,1:2|0:0,0:0:0:0:
303,119,28387,1,2,0:0:0:0:
390,133,28545,2,0,P|415:166|425:200,1,62.9999980773926,0|0,1:0|0:0,0:0:0:0:
509,167,28861,6,0,P|483:114|427:54,1,125.999996154785,6|2,0:0|1:2,0:0:0:0:
350,55,29335,2,0,P|313:74|228:62,1,125.999996154785,2|8,0:0|0:0,0:0:0:0:
144,49,29808,1,0,1:0:0:0:
50,198,30124,6,0,P|42:253|52:329,2,125.999996154785,10|0|10,0:0|1:0|0:0,0:0:0:0:
124,149,30914,1,0,0:0:0:0:
124,149,31072,2,0,L|212:161,1,62.9999980773926,0|0,1:0|0:0,0:0:0:0:
259,107,31387,6,0,B|235:80|235:80|119:63,1,125.999996154785,12|0,0:0|1:0,0:0:0:0:
59,91,31861,1,2,0:0:0:0:
124,149,32019,2,0,P|127:189|120:223,1,62.9999980773926,8|0,0:0|0:0,0:0:0:0:
53,266,32335,2,0,P|50:306|57:340,1,62.9999980773926,0|0,1:0|0:0,0:0:0:0:
135,294,32650,6,0,L|272:294,1,125.999996154785,8|0,0:0|1:0,0:0:0:0:
333,243,33124,2,0,L|409:243,1,62.9999980773926,0|8,3:0|3:2,0:0:0:0:
441,155,33440,1,0,3:0:0:0:
441,155,33519,1,0,3:0:0:0:
441,155,33598,2,0,L|409:155,3,31.4999990386963,0|0|0|0,1:0|3:0|3:0|3:0,0:0:0:0:
375,125,33914,6,0,P|315:108|253:139,1,125.999996154785,4|0,0:0|1:0,0:0:0:0:
324,202,34387,1,0,0:0:0:0:
222,208,34545,2,0,P|193:181|198:75,1,125.999996154785,8|0,0:0|1:0,0:0:0:0:
101,65,35019,6,0,P|93:106|102:193,1,125.999996154785,2|10,0:0|0:0,0:0:0:0:
153,260,35493,1,0,1:0:0:0:
115,334,35650,2,0,P|178:340|238:283,1,125.999996154785,2|2,0:0|0:0,0:0:0:0:
265,205,36124,1,0,1:0:0:0:
308,291,36282,1,2,0:0:0:0:
355,221,36440,6,0,P|388:260|373:342,1,125.999996154785,10|0,0:0|1:0,0:0:0:0:
308,291,36914,1,2,0:0:0:0:
240,355,37072,2,0,L|154:362,1,62.9999980773926,8|0,0:0|0:0,0:0:0:0:
90,344,37387,2,0,P|77:310|84:268,1,62.9999980773926,0|0,1:0|0:0,0:0:0:0:
148,229,37703,6,0,B|176:195|176:195|176:94,1,125.999996154785,8|0,0:0|1:0,0:0:0:0:
97,71,38177,1,0,0:0:0:0:
171,24,38335,2,0,L|247:24,1,62.9999980773926,8|0,0:0|0:0,0:0:0:0:
288,93,38650,1,0,1:0:0:0:
350,23,38808,1,0,0:0:0:0:
372,104,38966,6,0,P|351:153|329:168,1,62.9999980773926,4|0,0:0|0:0,0:0:0:0:
257,174,39282,2,0,P|278:223|300:238,1,62.9999980773926,0|0,1:0|0:0,0:0:0:0:
371,246,39598,2,0,P|349:290|277:314,1,125.999996154785,8|0,0:0|1:0,0:0:0:0:
210,259,40072,6,0,P|152:247|80:287,1,125.999996154785,2|10,0:0|0:0,0:0:0:0:
158,331,40545,1,0,1:0:0:0:
242,355,40703,2,0,B|304:341|304:341|393:360,1,125.999996154785,2|2,0:0|0:0,0:0:0:0:
437,302,41177,2,0,L|437:227,1,62.9999980773926,0|2,1:0|0:0,0:0:0:0:
360,194,41493,6,0,P|394:162|494:169,1,125.999996154785,8|0,0:0|1:0,0:0:0:0:
437,239,41966,1,2,0:0:0:0:
358,279,42124,2,0,L|266:279,1,62.9999980773926,8|0,0:0|0:0,0:0:0:0:
212,246,42440,2,0,P|206:206|212:177,1,62.9999980773926,0|0,1:0|0:0,0:0:0:0:
248,104,42756,6,0,P|306:100|386:82,2,125.999996154785,8|0|10,0:0|1:0|0:0,0:0:0:0:
165,72,43545,1,0,3:0:0:0:
165,72,43624,1,0,3:0:0:0:
165,72,43703,2,0,L|111:98,3,31.4999990386963,2|0|0|0,1:2|0:0|0:0|0:0,0:0:0:0:
113,123,44019,6,0,P|119:194|111:254,1,125.999996154785,6|0,0:0|1:0,0:0:0:0:
101,336,44493,1,0,0:0:0:0:
181,301,44650,2,0,L|325:305,1,125.999996154785,8|0,0:0|1:0,0:0:0:0:
369,241,45124,6,0,B|341:219|341:219|231:216,1,125.999996154785,2|0,0:0|0:0,0:0:0:0:
161,220,45598,2,0,P|125:226|86:220,1,62.9999980773926,0|0,1:0|0:0,0:0:0:0:
36,158,45914,2,0,L|27:70,1,62.9999980773926,10|0,0:0|0:0,0:0:0:0:
118,35,46229,2,0,L|118:111,1,62.9999980773926,2|0,1:2|0:0,0:0:0:0:
197,157,46545,6,0,L|206:69,1,62.9999980773926,4|0,0:0|0:0,0:0:0:0:
252,20,46861,2,0,P|294:17|330:26,1,62.9999980773926,0|2,1:0|0:0,0:0:0:0:
355,99,47177,2,0,P|409:103|434:92,1,62.9999980773926,8|0,0:0|0:0,0:0:0:0:
488,48,47493,2,0,P|501:99|495:128,1,62.9999980773926,0|0,1:0|0:0,0:0:0:0:
483,195,47808,6,0,P|432:209|394:294,1,125.999996154785,12|2,0:0|1:2,0:0:0:0:
353,346,48282,1,0,0:0:0:0:
290,284,48440,2,0,L|147:283,1,125.999996154785,10|0,0:0|1:0,0:0:0:0:
79,310,48914,1,0,0:0:0:0:
79,310,49072,6,0,P|81:205|71:169,1,125.999996154785,6|2,0:0|1:2,0:0:0:0:
39,105,49545,2,0,B|83:95|83:95|159:134,1,125.999996154785,2|8,0:0|0:0,0:0:0:0:
203,206,50019,1,0,1:0:0:0:
240,46,50335,6,0,P|299:46|319:56,1,62.9999980773926,12|0,0:0|0:0,0:0:0:0:
336,128,50650,2,0,P|334:170|343:200,1,62.9999980773926,0|0,1:0|0:0,0:0:0:0:
414,236,50966,2,0,P|416:278|407:308,1,62.9999980773926,8|0,0:0|0:0,0:0:0:0:
338,349,51282,2,0,P|279:349|259:339,1,62.9999980773926,0|0,1:0|0:0,0:0:0:0:
183,318,51598,6,0,P|212:275|288:254,1,125.999996154785,12|0,0:0|1:0,0:0:0:0:
340,187,52072,2,0,L|398:187,2,31.4999990386963,0|0|8,3:0|3:0|0:0,0:0:0:0:
402,102,52387,1,0,3:0:0:0:
402,102,52466,1,0,3:3:0:0:
402,102,52545,2,0,L|349:102,3,31.4999990386963,0|0|0|0,1:0|3:0|3:0|3:0,0:0:0:0:
328,83,52861,5,8,0:2:0:0:
241,63,53019,1,8,0:2:0:0:
160,95,53177,1,8,0:2:0:0:
160,95,54124,5,4,0:0:0:0:
256,192,54203,12,4,55387,0:0:0:0:
341,62,56650,6,0,B|397:62|397:62|437:83,1,77.0000023498536,6|0,0:0|0:0,0:0:0:0:
408,180,56966,2,0,B|352:180|352:180|312:159,1,77.0000023498536,2|2,1:2|0:0,0:0:0:0:
246,105,57282,2,0,P|194:101|143:115,2,77.0000023498536,8|2|0,0:0|0:0|1:0,0:0:0:0:
333,170,57756,6,0,P|340:250|326:338,1,154.000004699707,2|2,0:0|0:0,0:0:0:0:
229,362,58229,1,0,1:0:0:0:
133,312,58387,2,0,L|43:325,1,77.0000023498536,2|8,0:0|0:0,0:0:0:0:
105,225,58703,2,0,L|201:213,1,77.0000023498536,2|0,0:0|1:0,0:0:0:0:
219,120,59019,1,0,0:0:0:0:
219,120,59177,6,0,P|262:146|273:258,1,154.000004699707,10|0,0:0|1:0,0:0:0:0:
181,215,59650,1,0,0:0:0:0:
231,310,59808,2,0,P|297:324|334:311,1,77.0000023498536,8|0,0:0|0:0,0:0:0:0:
408,288,60124,1,2,1:2:0:0:
408,288,60282,6,0,L|413:124,1,154.000004699707,2|0,0:0|0:0,0:0:0:0:
341,51,60756,2,0,P|297:46|239:57,1,77.0000023498536,0|0,1:0|0:0,0:0:0:0:
199,136,61072,2,0,P|243:141|301:130,1,77.0000023498536,10|0,0:0|0:0,0:0:0:0:
332,229,61387,1,2,1:2:0:0:
122,340,61703,6,0,B|83:352|83:352|41:339,1,77.0000023498536,12|0,0:0|0:0,0:0:0:0:
48,232,62019,2,0,B|82:221|82:221|121:233,1,77.0000023498536,2|2,1:2|0:0,0:0:0:0:
226,262,62335,2,0,P|272:257|321:138,1,154.000004699707,8|0,0:0|1:0,0:0:0:0:
239,26,62808,6,0,P|224:81|246:181,1,154.000004699707,2|2,0:0|0:0,0:0:0:0:
308,89,63282,1,0,1:0:0:0:
391,21,63440,2,0,P|454:27|472:46,1,77.0000023498536,2|8,0:0|0:0,0:0:0:0:
413,131,63756,1,2,0:0:0:0:
413,131,63914,2,0,P|410:176|421:220,1,77.0000023498536,0|0,1:0|0:0,0:0:0:0:
486,271,64229,6,0,P|440:296|336:262,1,154.000004699707,10|0,0:0|1:0,0:0:0:0:
284,182,64703,1,0,0:0:0:0:
186,228,64861,2,0,L|190:324,1,77.0000023498536,8|0,0:0|0:0,0:0:0:0:
85,336,65177,1,2,1:2:0:0:
33,241,65335,1,2,0:0:0:0:
33,241,65493,6,0,L|26:152,1,77.0000023498536,10|2,0:0|0:0,0:0:0:0:
87,82,65808,1,6,1:2:0:0:
183,137,65966,2,0,L|192:207,2,38.5000011749268,0|0|10,3:0|3:0|0:0,0:0:0:0:
255,57,66282,1,0,3:0:0:0:
255,57,66361,1,0,3:0:0:0:
255,57,66440,2,0,L|268:116,3,38.5000011749268,2|0|0|0,1:2|3:0|3:0|3:0,0:0:0:0:
284,145,66756,6,0,P|330:149|372:128,1,77.0000023498536,6|0,0:0|0:0,0:0:0:0:
447,70,67072,2,0,P|466:134|462:165,1,77.0000023498536,2|2,1:2|0:0,0:0:0:0:
438,247,67387,2,0,P|407:300|320:311,1,154.000004699707,8|0,0:0|1:0,0:0:0:0:
344,228,67861,6,0,P|281:232|231:314,1,154.000004699707,2|2,0:0|0:0,0:0:0:0:
133,347,68335,1,0,1:0:0:0:
43,287,68493,2,0,P|37:222|44:199,1,77.0000023498536,2|8,0:0|0:0,0:0:0:0:
133,158,68808,1,2,0:0:0:0:
133,158,68966,2,0,P|139:223|132:246,1,77.0000023498536,0|0,1:0|0:0,0:0:0:0:
49,118,69282,6,0,P|85:83|202:105,1,154.000004699707,10|0,0:0|1:0,0:0:0:0:
241,179,69756,1,0,0:0:0:0:
325,112,69914,2,0,B|366:111|366:111|415:157,1,77.0000023498536,8|0,0:0|0:0,0:0:0:0:
474,205,70229,1,2,1:2:0:0:
474,205,70387,6,0,B|476:115|476:115|421:49,1,154.000004699707,2|0,0:0|0:0,0:0:0:0:
338,16,70861,2,0,L|227:19,1,77.0000023498536,0|0,1:0|0:0,0:0:0:0:
153,33,71177,1,10,0:0:0:0:
153,33,71335,1,0,0:0:0:0:
223,114,71493,2,0,P|228:160|225:220,1,77.0000023498536,2|0,1:2|0:0,0:0:0:0:
133,242,71808,6,0,L|30:251,1,77.0000023498536,12|0,0:0|0:0,0:0:0:0:
147,337,72124,2,0,L|231:346,1,77.0000023498536,2|2,1:2|0:0,0:0:0:0:
319,304,72440,2,0,P|329:254|316:142,1,154.000004699707,8|0,0:0|1:0,0:0:0:0:
217,113,72914,6,0,P|297:114|400:77,1,154.000004699707,2|2,0:0|0:0,0:0:0:0:
456,33,73387,1,0,1:0:0:0:
454,140,73545,2,0,L|459:236,1,77.0000023498536,2|8,0:0|0:0,0:0:0:0:
349,225,73861,2,0,L|365:320,1,77.0000023498536,2|0,0:0|1:0,0:0:0:0:
458,343,74177,1,0,0:0:0:0:
458,343,74335,6,0,L|281:357,1,154.000004699707,14|0,0:0|1:0,0:0:0:0:
197,338,74808,1,0,0:0:0:0:
105,280,74966,2,0,P|99:222|103:195,1,77.0000023498536,8|0,0:0|0:0,0:0:0:0:
45,125,75282,1,2,1:2:0:0:
45,125,75440,6,0,P|90:105|145:119,1,77.0000023498536,2|14,0:0|0:0,0:0:0:0:
197,57,75756,2,0,L|197:-1,2,38.5000011749268,0|0|0,3:0|3:0|1:0,0:0:0:0:
258,146,76072,2,0,L|258:204,2,38.5000011749268,0|0|8,3:0|3:0|0:0,0:0:0:0:
324,60,76387,1,0,3:0:0:0:
324,60,76466,1,0,3:0:0:0:
324,60,76545,2,0,L|389:65,3,38.5000011749268,2|0|0|0,1:2|3:0|3:0|3:0,0:0:0:0:
409,78,76861,6,0,P|415:132|415:235,1,140,6|0,0:0|1:0,0:0:0:0:
347,288,77335,1,2,0:0:0:0:
347,288,77493,2,0,P|283:302|203:288,1,140,10|2,0:0|1:2,0:0:0:0:
186,195,77966,1,0,0:0:0:0:
186,195,78124,6,0,P|133:225|119:320,1,140,10|0,0:0|1:0,0:0:0:0:
177,374,78598,1,2,0:0:0:0:
177,374,78756,2,0,L|345:379,1,140,10|2,0:0|1:2,0:0:0:0:
438,224,79387,6,0,P|457:158|395:89,1,140,14|0,0:0|1:0,0:0:0:0:
355,174,79861,1,2,0:0:0:0:
355,174,80019,2,0,B|303:179|303:179|229:118,1,140,10|2,0:0|1:2,0:0:0:0:
151,70,80493,1,0,0:0:0:0:
151,70,80650,6,0,P|92:101|77:183,1,140,10|0,0:0|1:0,0:0:0:0:
172,164,81124,1,2,0:0:0:0:
172,164,81282,2,0,P|231:195|246:277,1,140,10|2,0:0|1:2,0:0:0:0:
25,318,81914,6,0,L|25:178,1,140,14|0,0:0|1:0,0:0:0:0:
10,81,82387,1,2,0:0:0:0:
10,81,82545,2,0,P|68:90|159:71,1,140,10|2,0:0|1:2,0:0:0:0:
338,29,83177,5,14,0:0:0:0:
434,199,83493,1,2,1:2:0:0:
338,355,83808,1,10,0:0:0:0:
224,199,84124,1,2,1:2:0:0:
78,62,84440,6,0,B|48:94|48:94|48:217,1,140,14|0,0:0|1:0,0:0:0:0:
132,275,84914,2,0,L|132:132,1,140,2|0,0:0|0:0,0:0:0:0:
212,79,85387,2,0,P|258:78|331:146,1,140,6|14,1:2|0:0,0:0:0:0:
233,166,85861,2,0,L|175:166,2,35,2|0|0,3:2|3:0|1:0,0:0:0:0:
311,225,86177,2,0,L|369:225,2,35,2|0|10,3:2|3:0|0:0,0:0:0:0:
225,273,86493,1,2,3:2:0:0:
225,273,86572,1,0,3:0:0:0:
225,273,86650,2,0,L|224:335,3,35,2|0|0|0,1:2|3:0|3:0|3:0,0:0:0:0:
196,354,86966,6,0,P|156:366|70:305,1,140,6|0,0:0|1:0,0:0:0:0:
132,240,87440,2,0,B|155:173|155:173|111:94,1,140,2|2,0:0|0:0,0:0:0:0:
75,19,87914,1,2,1:2:0:0:
75,19,88072,6,0,P|115:7|201:68,1,140,14|10,0:0|0:0,0:0:0:0:
268,116,88545,1,10,0:0:0:0:
268,116,89493,6,0,P|340:110|408:48,1,140,6|0,0:0|1:0,0:0:0:0:
478,26,89966,1,2,0:0:0:0:
464,123,90124,2,0,P|442:188|457:255,1,140,10|2,0:0|1:2,0:0:0:0:
308,342,90756,6,0,B|273:360|273:360|159:360,1,140,10|0,0:0|1:0,0:0:0:0:
112,281,91229,1,2,0:0:0:0:
154,192,91387,2,0,B|189:174|189:174|303:174,1,140,10|2,0:0|1:2,0:0:0:0:
112,281,92019,6,0,P|68:249|54:160,1,140,14|0,0:0|1:0,0:0:0:0:
15,76,92493,1,2,0:0:0:0:
110,94,92650,2,0,P|172:94|278:65,1,140,10|2,0:0|1:2,0:0:0:0:
444,70,93282,6,0,L|459:162,1,70,12|0,0:0|0:0,0:0:0:0:
356,133,93598,2,0,L|363:222,1,70,0|2,1:0|0:0,0:0:0:0:
264,178,93914,2,0,L|265:257,1,70,10|2,0:0|3:2,0:0:0:0:
168,232,94229,2,0,L|164:323,1,70,2|0,1:2|0:0,0:0:0:0:
256,192,94545,12,2,99598,0:0:0:0:
