osu file format v14

[General]
AudioFilename: Rita - Winter Diamond.mp3
AudioLeadIn: 0
PreviewTime: 56642
Countdown: 0
SampleSet: Soft
StackLeniency: 0.4
Mode: 0
LetterboxInBreaks: 0
WidescreenStoryboard: 0

[Editor]
Bookmarks: 81976
DistanceSpacing: 1
BeatDivisor: 2
GridSize: 4
TimelineZoom: 2.5

[Metadata]
Title:Winter Diamond
TitleUnicode:Winter Diamond
Artist:Rita
ArtistUnicode:Rita
Creator:BeatofIke
Version:Normal
Source:見上げてごらん、夜空の星を
Tags:pulltop opening eroge visual novel vn miagete goran yozora no hoshi o night sky full of stars vicksen twofive yow yashima takahiro motoi ayumu taguchi makoto konno asta takashima eiji minao ohse ookuma kenichi pkhg
BeatmapID:807427
BeatmapSetID:367869

[Difficulty]
HPDrainRate:4
CircleSize:3.5
OverallDifficulty:5
ApproachRate:5.5
SliderMultiplier:1
SliderTickRate:1

[Events]
//Background and Video events
Video,0,"Video.avi"
0,0,"BG.jpg",0,0
//Break Periods
2,6316,10044
//Storyboard Layer 0 (Background)
//Storyboard Layer 1 (Fail)
//Storyboard Layer 2 (Pass)
//Storyboard Layer 3 (Foreground)
//Storyboard Sound Samples

[TimingPoints]
1064,315.789473684211,4,2,1,50,1,0
6116,-100,4,2,1,60,0,0
11169,-100,4,2,1,50,0,0
13695,-100,4,2,1,60,0,0
54116,-100,4,2,1,50,0,0
55379,-100,4,2,1,60,0,0
56642,-100,4,2,1,80,0,1
76853,-100,4,2,1,70,0,0
88537,-100,4,2,1,50,0,0
89485,-100,4,2,1,60,0,0
94537,-100,4,2,1,50,0,0

[Colours]
Combo1 : 212,212,212
Combo2 : 85,0,170
Combo3 : 0,0,170
Combo4 : 255,0,128

[HitObjects]
168,108,1064,6,0,P|120:96|72:108,1,100,10|8,0:0|0:0,0:0:0:0:
36,144,1537,2,0,P|24:192|36:240,1,100,2|0,0:0|0:0,0:0:0:0:
72,276,2011,2,0,P|120:288|168:276,1,100,10|8,0:0|0:0,0:0:0:0:
204,240,2485,2,0,P|216:192|204:144,1,100,2|0,0:0|0:0,0:0:0:0:
168,108,2958,1,10,0:0:0:0:
256,64,3274,1,10,0:0:0:0:
344,108,3590,6,0,P|392:96|440:108,1,100,10|8,0:0|0:0,0:0:0:0:
476,144,4064,2,0,P|488:192|476:240,1,100,2|0,0:0|0:0,0:0:0:0:
440,276,4537,2,0,P|392:288|344:276,1,100,10|8,0:0|0:0,0:0:0:0:
308,240,5011,2,0,P|296:192|308:144,1,100,2|0,0:0|0:0,0:0:0:0:
344,108,5485,1,10,0:0:0:0:
256,64,5800,1,2,3:2:0:0:
168,108,6116,1,6,0:0:0:0:
232,216,11169,6,0,P|189:190|164:148,1,100,14|8,0:0|0:0,0:0:0:0:
164,97,11642,2,0,P|189:54|231:29,1,100,2|0,0:0|0:0,0:0:0:0:
282,29,12116,2,0,P|324:54|349:96,1,100,10|8,3:2|0:0,0:0:0:0:
350,148,12590,2,0,P|324:190|282:215,1,100,2|0,3:2|3:2,0:0:0:0:
256,260,13064,1,10,3:2:0:0:
206,348,13379,1,10,3:2:0:0:
306,348,13695,6,0,P|354:336|402:348,1,100,6|0,0:0|1:2,0:0:0:0:
444,258,14327,1,0,0:0:0:0:
402,168,14642,1,0,1:2:0:0:
402,168,14800,2,0,P|354:180|306:168,1,100
264,140,15274,1,0,1:2:0:0:
224,112,15432,2,0,P|176:100|128:112,1,100
84,140,15906,1,0,1:2:0:0:
84,240,16221,6,0,L|84:340,1,100,2|0,0:0|1:2,0:0:0:0:
128,364,16695,1,0,0:0:0:0:
128,364,16853,2,0,B|168:364|168:364|188:372|188:372|228:372,1,100,0|0,0:0|1:2,0:0:0:0:
280,288,17485,2,0,B|320:288|320:288|340:296|340:296|380:296,1,100,0|0,0:0|1:2,0:0:0:0:
480,296,18116,1,0,0:0:0:0:
480,296,18432,2,0,L|480:246,1,50,0|0,1:2|0:0,0:0:0:0:
476,196,18748,6,0,B|437:196|437:196|417:188|417:188|377:188,1,100,2|0,0:0|1:2,0:0:0:0:
306,116,19379,1,0,0:0:0:0:
306,16,19695,1,0,1:2:0:0:
306,16,19853,2,0,B|206:16,1,100
168,48,20327,1,0,1:2:0:0:
130,80,20485,2,0,L|130:180,1,100
100,220,20958,1,0,1:2:0:0:
52,308,21274,6,0,P|100:320|148:308,1,100,2|0,0:0|1:2,0:0:0:0:
190,280,21748,1,0,0:0:0:0:
232,252,21906,2,0,P|280:239|328:252,1,100,0|0,0:0|1:2,0:0:0:0:
412,308,22537,1,0,0:0:0:0:
496,252,22853,1,0,1:2:0:0:
412,196,23169,2,0,B|412:96,1,100,0|0,0:0|1:2,0:0:0:0:
344,24,23800,5,4,0:0:0:0:
288,108,24116,1,0,1:2:0:0:
188,108,24432,1,0,0:0:0:0:
132,24,24748,1,0,1:2:0:0:
132,24,24906,2,0,P|83:11|-1:64,1,150,0|0,0:0|1:2,0:0:0:0:
85,112,25695,2,0,L|112:212,1,100,0|0,0:0|1:2,0:0:0:0:
42,284,26327,5,6,0:0:0:0:
138,308,26642,1,0,1:2:0:0:
206,236,26958,1,0,0:0:0:0:
304,236,27274,2,0,L|404:236,1,100,6|0,1:2|0:0,0:0:0:0:
448,148,27906,2,0,L|348:148,1,100,0|0,1:2|0:0,0:0:0:0:
308,120,28379,1,0,0:0:0:0:
268,92,28537,1,0,1:2:0:0:
268,92,28853,6,0,L|164:92,1,100,6|0,0:0|1:2,0:0:0:0:
128,122,29327,2,0,P|140:170|128:218,1,100
88,248,29800,1,0,1:2:0:0:
40,336,30116,2,0,P|88:348|136:336,1,100,0|0,0:0|1:2,0:0:0:0:
184,248,30748,1,2,0:0:0:0:
284,248,31064,1,2,1:2:0:0:
332,160,31379,6,0,P|380:147|428:160,1,100,6|0,0:0|1:2,0:0:0:0:
464,196,31853,1,0,0:0:0:0:
380,248,32169,2,0,L|380:300,2,50,0|0|0,0:0|1:2|0:0,0:0:0:0:
332,160,32800,2,0,L|332:108,1,50,2|0,0:0|1:2,0:0:0:0:
300,72,33116,2,0,L|200:72,1,100,2|2,3:2|3:2,0:0:0:0:
164,108,33590,2,0,L|164:160,1,50,0|0,3:2|3:2,0:0:0:0:
128,192,33906,6,0,P|129:239|160:280,1,100,6|0,0:0|1:2,0:0:0:0:
256,312,34537,1,0,0:0:0:0:
352,279,34853,1,0,1:2:0:0:
352,279,35011,2,0,P|382:241|384:192,1,100,0|0,0:0|0:0,0:0:0:0:
348,158,35485,2,0,L|348:108,1,50,0|0,1:2|0:0,0:0:0:0:
256,72,35958,2,0,L|256:128,2,50,0|0|0,0:0|1:2|0:0,0:0:0:0:
220,36,36432,6,0,P|171:24|124:36,1,100,2|0,0:0|1:2,0:0:0:0:
88,72,36906,2,0,L|88:124,1,50,0|0,0:0|0:0,0:0:0:0:
38,208,37379,1,0,1:2:0:0:
137,208,37695,2,0,B|176:208|176:208|196:216|196:216|236:216,1,100,0|0,0:0|1:2,0:0:0:0:
332,240,38327,1,0,0:0:0:0:
332,240,38642,2,0,L|332:290,1,50,0|0,1:2|0:0,0:0:0:0:
360,332,38958,6,0,P|408:344|456:332,1,100,6|0,0:0|1:2,0:0:0:0:
496,240,39590,1,0,0:0:0:0:
414,182,39906,1,0,1:2:0:0:
414,182,40064,2,0,L|414:82,1,100,0|0,0:0|0:0,0:0:0:0:
386,42,40537,1,0,1:2:0:0:
386,42,40695,2,0,P|337:30|290:42,1,100,0|0,0:0|0:0,0:0:0:0:
258,82,41169,1,0,1:2:0:0:
204,164,41485,6,0,L|104:164,1,100,2|0,0:0|1:2,0:0:0:0:
66,196,41958,1,0,0:0:0:0:
66,196,42116,2,0,L|66:296,1,100,0|0,0:0|1:2,0:0:0:0:
134,370,42748,2,0,L|234:370,1,100,0|0,0:0|1:2,0:0:0:0:
300,296,43379,2,0,L|299:196,1,100,0|0,0:0|3:2,0:0:0:0:
280,100,44011,5,6,0:0:0:0:
204,164,44327,1,0,1:2:0:0:
299,196,44642,1,0,0:0:0:0:
376,132,44958,2,0,L|428:124,1,50,0|0,1:2|0:0,0:0:0:0:
476,136,45274,2,0,P|488:184|476:232,1,100,2|0,0:0|1:2,0:0:0:0:
388,284,45906,2,0,P|376:332|388:380,1,100,0|0,0:0|1:2,0:0:0:0:
476,332,46537,5,6,0:0:0:0:
476,232,46853,1,0,1:2:0:0:
388,284,47169,1,0,0:0:0:0:
300,232,47485,1,0,1:2:0:0:
300,332,47801,1,6,0:0:0:0:
388,284,48116,1,0,1:2:0:0:
388,184,48432,2,0,L|388:128,2,50,0|0|0,0:0|0:0|1:2,0:0:0:0:
464,120,49064,6,0,P|440:76|396:56,1,100,6|0,0:0|1:2,0:0:0:0:
348,56,49537,2,0,L|248:56,1,100,0|0,0:0|0:0,0:0:0:0:
196,56,50011,1,0,1:2:0:0:
96,56,50327,1,6,0:0:0:0:
144,144,50642,1,0,1:2:0:0:
96,228,50958,1,0,0:0:0:0:
196,228,51274,1,0,1:2:0:0:
256,308,51590,6,0,B|296:308|296:308|316:316|316:316|354:316,1,100,6|0,0:0|1:2,0:0:0:0:
415,236,52221,2,0,B|377:236|377:236|357:228|357:228|317:228,1,100,0|0,1:2|3:2,0:0:0:0:
256,148,52853,2,0,L|256:96,2,50,0|0|0,1:2|1:2|1:2,0:0:0:0:
196,228,53485,1,0,0:0:0:0:
256,308,53800,1,2,0:0:0:0:
256,192,54116,12,4,55379,0:0:0:0:
256,206,56642,6,0,L|256:256,2,50,4|0|0,0:0|0:0|1:2,0:0:0:0:
172,152,57274,2,0,L|172:204,2,50,0|0|0,0:0|0:0|1:2,0:0:0:0:
208,116,57748,2,0,P|256:104|304:116,1,100
340,152,58221,2,0,L|340:204,1,50,0|0,1:2|0:0,0:0:0:0:
256,256,58695,2,0,L|256:204,1,50,0|0,0:0|1:2,0:0:0:0:
172,152,59169,6,0,L|72:152,1,100,2|0,0:0|1:2,0:0:0:0:
4,80,59800,1,0,0:0:0:0:
72,8,60116,1,0,1:2:0:0:
72,8,60274,2,0,L|172:8,1,100
224,8,60748,1,0,1:2:0:0:
292,80,61064,2,0,L|392:80,1,100,0|0,0:0|1:2,0:0:0:0:
478,130,61695,5,4,0:0:0:0:
392,180,62011,1,0,1:2:0:0:
306,230,62327,2,0,L|206:230,1,100,0|0,0:0|1:2,0:0:0:0:
174,268,62800,1,0,0:0:0:0:
256,324,63116,2,0,L|256:376,2,50,2|0|2,0:0|1:2|0:0,0:0:0:0:
338,268,63748,1,2,0:0:0:0:
306,230,63906,1,0,1:2:0:0:
256,144,64221,5,0,0:0:0:0:
176,84,64537,1,0,1:2:0:0:
256,24,64853,1,0,0:0:0:0:
336,84,65169,2,0,L|388:84,2,50,0|0|2,1:2|0:0|0:0,0:0:0:0:
256,144,65800,2,0,L|256:244,1,100,0|0,1:2|3:2,0:0:0:0:
206,332,66432,1,2,3:2:0:0:
306,332,66748,5,4,0:0:0:0:
399,368,67064,1,0,1:2:0:0:
492,332,67379,2,0,P|504:283|492:235,1,100,0|0,0:0|1:2,0:0:0:0:
466,194,67853,2,0,L|366:194,1,100,0|0,0:0|0:0,0:0:0:0:
336,154,68327,1,0,1:2:0:0:
306,114,68485,2,0,L|206:114,1,100,0|0,0:0|0:0,0:0:0:0:
173,156,68958,1,0,1:2:0:0:
256,210,69274,5,2,0:0:0:0:
336,270,69590,1,0,1:2:0:0:
256,330,69906,1,0,0:0:0:0:
176,270,70221,1,0,1:2:0:0:
176,270,70379,2,0,L|76:270,1,100,0|0,0:0|0:0,0:0:0:0:
24,270,70853,1,0,1:2:0:0:
24,170,71169,1,0,0:0:0:0:
124,170,71485,1,0,1:2:0:0:
190,98,71800,5,4,0:0:0:0:
256,26,72116,1,0,1:2:0:0:
322,98,72432,1,0,0:0:0:0:
256,174,72748,1,0,1:2:0:0:
256,174,72906,2,0,L|256:274,1,100,0|2,0:0|0:0,0:0:0:0:
300,298,73379,2,0,L|306:348,1,50,0|2,1:2|0:0,0:0:0:0:
206,348,73853,2,0,L|212:298,1,50,2|2,0:0|1:2,0:0:0:0:
172,206,74327,5,4,0:0:0:0:
206,114,74642,1,0,1:2:0:0:
306,114,74958,1,0,0:0:0:0:
340,206,75274,1,0,1:2:0:0:
306,243,75432,2,0,L|206:243,1,100
172,206,75906,1,0,1:2:0:0:
256,154,76221,5,2,0:0:0:0:
306,68,76537,1,2,0:0:0:0:
206,68,76853,2,0,B|166:68|166:68|146:76|146:76|108:76,1,100,6|0,0:0|1:2,0:0:0:0:
64,102,77327,1,0,0:0:0:0:
64,102,77485,2,0,P|51:150|64:198,1,100,0|0,0:0|1:2,0:0:0:0:
108,286,78116,2,0,P|121:334|108:382,1,100,2|0,0:0|1:2,0:0:0:0:
56,382,78590,2,0,L|208:382,1,150,2|0,0:0|1:2,0:0:0:0:
306,382,79379,6,0,B|346:382|346:382|366:374|366:374|404:374,1,100,6|0,0:0|1:2,0:0:0:0:
448,348,79853,1,2,0:0:0:0:
448,348,80011,2,0,P|461:300|448:252,1,100,0|0,0:0|1:2,0:0:0:0:
404,164,80642,2,0,P|391:116|404:68,1,100,2|0,0:0|1:2,0:0:0:0:
456,68,81116,2,0,L|304:68,1,150,2|0,0:0|1:2,0:0:0:0:
206,68,81906,6,0,B|166:68|166:68|146:76|146:76|108:76,1,100,6|0,0:0|1:2,0:0:0:0:
64,102,82380,1,2,0:0:0:0:
64,102,82538,2,0,P|51:150|64:198,1,100,2|0,0:0|1:2,0:0:0:0:
108,286,83169,2,0,P|121:334|108:382,1,100,6|0,0:0|1:2,0:0:0:0:
20,334,83800,1,0,0:0:0:0:
108,286,84116,1,0,1:2:0:0:
206,264,84432,6,0,L|306:264,1,100,6|0,0:0|1:2,0:0:0:0:
332,221,84906,2,0,L|281:135,1,100,2|0,0:0|0:0,0:0:0:0:
231,135,85379,2,0,L|180:221,1,100,2|2,1:2|0:0,0:0:0:0:
206,264,85853,1,2,3:2:0:0:
256,350,86169,1,2,3:2:0:0:
306,264,86485,1,2,3:2:0:0:
332,221,86642,1,2,3:2:0:0:
304,126,86958,6,0,P|256:139|208:126,1,100,6|0,0:0|1:2,0:0:0:0:
168,98,87432,2,0,P|121:85|73:98,1,100,0|0,0:0|0:0,0:0:0:0:
32,126,87906,2,0,L|32:178,1,50,0|6,1:2|0:0,0:0:0:0:
120,222,88379,2,0,L|120:172,1,50,2|2,1:2|1:2,0:0:0:0:
209,126,88853,2,0,L|209:176,2,50,0|0|0,0:0|3:2|1:2,0:0:0:0:
256,192,89485,12,6,93274,0:0:0:0:
256,192,94537,12,2,99590,0:0:0:0:
