osu file format v14

[General]
AudioFilename: Rita - Winter Diamond.mp3
AudioLeadIn: 0
PreviewTime: 56642
Countdown: 0
SampleSet: Soft
StackLeniency: 0.4
Mode: 0
LetterboxInBreaks: 0
WidescreenStoryboard: 0

[Editor]
Bookmarks: 81976
DistanceSpacing: 1.8
BeatDivisor: 4
GridSize: 4
TimelineZoom: 2.899999

[Metadata]
Title:Winter Diamond
TitleUnicode:Winter Diamond
Artist:Rita
ArtistUnicode:Rita
Creator:BeatofIke
Version:Insane
Source:見上げてごらん、夜空の星を
Tags:pulltop opening eroge visual novel vn miagete goran yozora no hoshi o night sky full of stars vicksen twofive yow yashima takahiro motoi ayumu taguchi makoto konno asta takashima eiji minao ohse ookuma kenichi pkhg
BeatmapID:853734
BeatmapSetID:367869

[Difficulty]
HPDrainRate:6
CircleSize:4
OverallDifficulty:7
ApproachRate:8.5
SliderMultiplier:1.4
SliderTickRate:1

[Events]
//Background and Video events
Video,0,"Video.avi"
0,0,"BG.jpg",0,0
//Break Periods
//Storyboard Layer 0 (Background)
//Storyboard Layer 1 (Fail)
//Storyboard Layer 2 (Pass)
//Storyboard Layer 3 (Foreground)
//Storyboard Sound Samples

[TimingPoints]
1064,315.789473684211,4,2,1,50,1,0
6116,-100,4,2,1,60,0,0
11169,-100,4,2,1,50,0,0
13695,-100,4,2,1,60,0,0
54116,-100,4,2,1,50,0,0
55379,-100,4,2,1,60,0,0
55695,-100,4,2,1,65,0,0
56011,-100,4,2,1,70,0,0
56327,-100,4,2,1,75,0,0
56642,-100,4,2,1,80,0,1
76853,-100,4,2,1,70,0,0
88537,-71.4285714285714,4,2,1,50,0,0
88853,-100,4,2,1,50,0,0
89485,-100,4,2,1,60,0,0
94537,-100,4,2,1,50,0,0

[Colours]
Combo1 : 212,212,212
Combo2 : 85,0,170
Combo3 : 0,0,170
Combo4 : 255,0,128

[HitObjects]
116,344,1064,6,0,P|150:351|184:344,1,70,10|2,0:0|0:0,0:0:0:0:
256,300,1379,1,10,0:0:0:0:
396,256,1537,2,0,P|362:263|328:256,1,70,2|10,0:0|0:0,0:0:0:0:
256,212,1853,1,2,0:0:0:0:
116,168,2011,2,0,P|150:175|184:168,1,70,10|2,0:0|0:0,0:0:0:0:
256,124,2327,1,10,0:0:0:0:
396,80,2485,2,0,P|362:87|328:80,1,70,2|10,0:0|0:0,0:0:0:0:
256,36,2800,1,2,0:0:0:0:
184,168,2958,5,10,0:0:0:0:
328,80,3116,1,2,0:0:0:0:
184,80,3274,1,10,0:0:0:0:
328,168,3432,1,2,0:0:0:0:
256,36,3590,6,0,L|256:176,1,140,10|10,0:0|0:0,0:0:0:0:
192,232,4064,2,0,L|122:232,1,70,2|10,0:0|0:0,0:0:0:0:
60,288,4379,1,2,0:0:0:0:
122,344,4537,2,0,L|194:344,1,70,10|2,0:0|0:0,0:0:0:0:
256,288,4853,1,10,0:0:0:0:
320,232,5011,2,0,L|390:232,1,70,2|10,0:0|0:0,0:0:0:0:
452,288,5327,1,2,0:0:0:0:
390,344,5485,2,0,L|320:344,1,70,10|2,0:0|3:2,0:0:0:0:
288,316,5721,1,0,3:2:0:0:
256,288,5800,2,0,L|256:252,2,35,2|0|2,3:2|3:2|3:2,0:0:0:0:
192,344,6116,6,0,B|144:344|144:344|112:376|112:376|64:376,1,140,6|0,0:0|1:2,0:0:0:0:
8,292,6590,2,0,L|78:292,1,70,2|0,0:0|0:0,0:0:0:0:
210,236,6906,1,0,0:0:0:0:
210,236,7064,2,0,L|140:236,1,70,2|0,1:2|0:0,0:0:0:0:
8,180,7379,1,0,0:0:0:0:
8,180,7537,2,0,L|78:180,1,70,2|0,0:0|1:2,0:0:0:0:
210,124,7853,1,0,0:0:0:0:
210,124,8011,2,0,L|140:124,1,70,2|0,0:0|0:0,0:0:0:0:
140,236,8327,2,0,L|210:236,1,70,2|0,1:2|0:0,0:0:0:0:
412,180,8642,6,0,L|272:180,1,140,2|0,0:0|1:2,0:0:0:0:
140,236,9116,2,0,L|140:305,1,70,2|0,0:0|0:0,0:0:0:0:
80,364,9432,1,0,0:0:0:0:
256,356,9590,2,0,L|256:284,1,70,2|0,1:2|0:0,0:0:0:0:
256,200,9906,1,0,0:0:0:0:
372,236,10064,2,0,L|372:305,1,70,2|0,0:0|1:2,0:0:0:0:
432,364,10379,1,0,0:0:0:0:
256,356,10537,2,0,L|256:286,1,70,2|0,0:0|0:0,0:0:0:0:
256,130,10853,2,0,L|256:200,1,70,2|0,1:2|0:0,0:0:0:0:
196,68,11169,6,0,P|256:37|316:68,1,140,14|8,0:0|0:0,0:0:0:0:
336,156,11642,1,2,0:0:0:0:
256,200,11800,1,10,0:0:0:0:
176,156,11958,1,0,0:0:0:0:
96,200,12116,2,0,L|96:272,1,70,10|0,3:2|0:0,0:0:0:0:
54,344,12432,1,8,0:0:0:0:
138,344,12590,2,0,L|210:344,1,70,2|10,3:2|0:0,0:0:0:0:
256,274,12906,5,0,3:2:0:0:
256,274,12985,1,0,3:2:0:0:
256,274,13064,1,10,3:2:0:0:
304,344,13221,1,0,3:2:0:0:
304,344,13300,1,0,3:2:0:0:
304,344,13379,1,10,3:2:0:0:
344,344,13458,1,0,3:2:0:0:
384,344,13537,1,0,3:2:0:0:
424,344,13616,1,0,3:2:0:0:
464,344,13695,6,0,P|471:310|464:276,1,70,6|0,0:0|0:0,0:0:0:0:
387,236,14011,2,0,P|380:203|387:169,1,70,0|2,1:2|0:0,0:0:0:0:
464,132,14327,2,0,P|471:98|464:64,1,70,0|2,0:0|0:0,0:0:0:0:
389,24,14642,1,0,1:2:0:0:
314,64,14800,2,0,P|279:71|245:63,1,70,2|2,0:0|0:0,0:0:0:0:
168,32,15116,2,0,P|133:24|99:31,1,70,0|0,0:0|1:2,0:0:0:0:
52,100,15432,2,0,P|73:164|136:192,1,140,2|2,0:0|0:0,0:0:0:0:
208,234,15906,1,0,1:2:0:0:
136,276,16064,1,2,0:0:0:0:
136,276,16221,6,0,P|73:303|52:367,1,140,2|0,0:0|1:2,0:0:0:0:
136,360,16695,1,2,0:0:0:0:
210,318,16853,2,0,L|282:318,1,70,0|2,0:0|0:0,0:0:0:0:
354,360,17169,2,0,L|426:360,1,70,0|2,1:2|0:0,0:0:0:0:
508,352,17485,2,0,B|508:316|477:292|477:292|508:268|508:232,1,140,2|0,0:0|1:2,0:0:0:0:
424,224,17958,1,2,0:0:0:0:
424,224,18116,2,0,L|354:224,1,70,0|2,0:0|0:0,0:0:0:0:
304,292,18432,1,0,1:2:0:0:
256,360,18590,1,2,0:0:0:0:
208,292,18748,6,0,L|136:292,2,70,2|0|0,0:0|0:0|1:2,0:0:0:0:
256,360,19221,1,0,0:0:0:0:
304,292,19379,2,0,L|376:292,1,70
428,356,19695,1,0,1:2:0:0:
480,292,19853,2,0,L|480:220,1,70
374,222,20169,2,0,L|374:292,1,70,0|0,0:0|1:2,0:0:0:0:
428,356,20485,1,0,0:0:0:0:
480,292,20642,1,0,0:0:0:0:
374,292,20800,2,0,L|304:292,1,70,0|0,0:0|1:2,0:0:0:0:
218,292,21116,1,0,0:0:0:0:
132,292,21274,6,0,L|63:292,1,70,2|0,0:0|0:0,0:0:0:0:
62,208,21590,2,0,L|132:208,1,70,0|0,1:2|0:0,0:0:0:0:
132,376,21906,2,0,B|62:376|62:376|20:376|0:348,1,140,0|0,0:0|1:2,0:0:0:0:
62,208,22379,1,0,0:0:0:0:
62,208,22537,6,0,L|132:208,1,70
188,144,22853,2,0,L|214:80,1,70,0|0,1:2|0:0,0:0:0:0:
298,80,23169,2,0,L|324:144,1,70,0|0,0:0|0:0,0:0:0:0:
380,208,23485,2,0,L|450:208,1,70,0|0,1:2|0:0,0:0:0:0:
476,288,23800,6,0,P|414:315|353:288,1,140,4|0,0:0|1:2,0:0:0:0:
290,228,24274,1,0,0:0:0:0:
290,228,24432,2,0,P|256:221|222:229,1,70
159,286,24748,1,0,1:2:0:0:
159,286,24906,2,0,P|97:313|35:287,1,140,0|0,0:0|0:2,0:0:0:0:
98,228,25379,1,0,1:2:0:0:
36,168,25537,1,0,0:0:0:0:
36,168,25695,2,0,P|98:141|161:169,1,140,0|0,0:0|1:2,0:0:0:0:
222,228,26169,1,0,0:0:0:0:
222,228,26327,5,6,0:0:0:0:
348,56,26642,2,0,P|382:49|416:56,1,70,2|0,1:2|0:0,0:0:0:0:
414,194,26958,2,0,P|380:201|346:194,1,70,2|0,0:0|0:0,0:0:0:0:
160,124,27274,2,0,L|300:124,1,140,6|0,1:2|0:0,0:0:0:0:
348,56,27748,1,0,0:0:0:0:
348,56,27906,2,0,P|382:49|416:56,1,70,2|0,1:2|0:0,0:0:0:0:
463,126,28221,1,0,0:0:0:0:
500,202,28379,1,2,0:0:0:0:
414,194,28537,2,0,P|391:169|381:135,1,70,0|0,1:2|0:0,0:0:0:0:
500,202,28853,6,0,P|464:264|400:280,1,140,6|0,0:0|1:2,0:0:0:0:
332,228,29327,2,0,L|262:228,1,70
196,280,29642,2,0,L|126:279,1,70,0|0,0:0|1:2,0:0:0:0:
48,313,29958,1,0,0:0:0:0:
48,313,30116,2,0,P|52:237|98:199,1,140,0|0,0:0|1:2,0:0:0:0:
196,280,30590,1,0,0:0:0:0:
196,280,30748,2,0,L|124:280,1,70,2|0,0:0|0:0,0:0:0:0:
70,116,31064,2,0,L|142:116,1,70,2|0,1:2|0:0,0:0:0:0:
224,116,31379,6,0,P|288:100|324:40,1,140,6|0,0:0|1:2,0:0:0:0:
408,40,31853,2,0,L|408:112,1,70
478,156,32169,2,0,L|478:228,1,70,0|0,0:0|1:2,0:0:0:0:
408,274,32485,2,0,L|408:346,2,70,0|0|2,0:0|0:0|0:2,0:0:0:0:
338,228,32958,5,0,1:2:0:0:
292,300,33116,1,2,3:2:0:0:
292,300,33195,1,0,3:2:0:0:
292,300,33274,1,0,3:2:0:0:
224,248,33432,1,2,3:2:0:0:
188,244,33511,1,0,3:2:0:0:
152,240,33590,1,0,3:2:0:0:
116,236,33669,1,0,3:2:0:0:
80,231,33748,2,0,L|68:199,1,35,0|0,3:2|3:2,0:0:0:0:
44,116,33906,6,0,P|80:112|116:128,1,70,6|0,0:0|0:0,0:0:0:0:
184,168,34221,2,0,P|196:135|192:101,1,70,0|2,1:2|0:0,0:0:0:0:
128,44,34537,2,0,P|188:16|256:44,1,140,0|0,0:0|1:2,0:0:0:0:
286,119,35011,2,0,L|274:191,1,70,0|2,0:0|0:0,0:0:0:0:
214,247,35327,1,0,0:0:0:0:
296,268,35485,1,0,1:2:0:0:
154,307,35642,2,0,P|133:278|130:244,1,70,2|0,0:0|0:0,0:0:0:0:
356,208,35958,2,0,P|376:236|381:271,1,70,2|0,0:0|1:2,0:0:0:0:
296,268,36274,1,0,0:0:0:0:
286,130,36432,6,0,L|356:130,1,70,2|0,0:0|0:0,0:0:0:0:
368,46,36748,2,0,L|299:46,1,70,0|2,1:2|0:0,0:0:0:0:
220,78,37064,2,0,P|202:144|241:201,1,140,0|0,0:0|1:2,0:0:0:0:
356,130,37537,1,0,0:0:0:0:
356,130,37695,2,0,L|284:130,1,70,2|0,0:0|0:0,0:0:0:0:
220,78,38011,2,0,L|148:78,1,70,0|2,1:2|0:0,0:0:0:0:
169,200,38327,2,0,L|239:200,1,70,0|2,0:0|0:0,0:0:0:0:
356,130,38642,6,0,L|377:64,1,70,0|2,1:2|0:0,0:0:0:0:
461,64,38958,2,0,L|482:130,1,70,6|0,0:0|0:0,0:0:0:0:
418,184,39274,2,0,L|418:256,1,70,0|0,1:2|0:0,0:0:0:0:
480,307,39590,2,0,P|418:334|356:308,1,140,0|0,0:0|1:2,0:0:0:0:
291,254,40064,2,0,L|221:254,1,70,0|0,0:0|0:0,0:0:0:0:
156,308,40379,2,0,L|86:308,1,70,0|0,0:0|1:2,0:0:0:0:
21,254,40695,1,0,0:0:0:0:
21,254,40853,1,0,0:0:0:0:
86,200,41011,2,0,L|156:200,1,70,0|0,0:0|1:2,0:0:0:0:
206,132,41327,1,0,0:0:0:0:
256,64,41485,6,0,B|312:64|312:64|332:84|332:84|388:84,1,140,2|0,0:0|1:2,0:0:0:0:
456,132,41958,1,0,0:0:0:0:
388,180,42116,2,0,L|316:180,1,70,0|0,0:0|0:0,0:0:0:0:
256,236,42432,1,0,1:2:0:0:
194,180,42590,1,0,0:0:0:0:
194,180,42748,2,0,L|122:180,1,70,0|0,0:0|0:0,0:0:0:0:
16,292,43064,2,0,L|86:292,1,70,0|0,1:2|0:0,0:0:0:0:
170,292,43379,1,0,0:0:0:0:
232,348,43537,5,0,3:2:0:0:
268,348,43616,1,0,3:2:0:0:
304,348,43695,1,0,3:2:0:0:
340,348,43774,1,0,3:2:0:0:
376,348,43853,1,0,3:2:0:0:
412,348,43932,1,0,3:2:0:0:
448,348,44011,6,0,P|488:312|476:232,1,140,6|0,0:0|1:2,0:0:0:0:
408,184,44485,1,0,0:0:0:0:
408,184,44642,2,0,L|336:184,1,70
354,280,44958,2,0,L|424:280,1,70,0|0,1:2|0:0,0:0:0:0:
476,136,45274,6,0,L|476:64,1,70,2|0,0:0|0:0,0:0:0:0:
408,16,45590,1,0,1:2:0:0:
340,64,45748,1,0,0:0:0:0:
272,16,45906,2,0,L|200:16,1,70
134,64,46221,2,0,L|134:135,1,70,0|0,1:2|0:0,0:0:0:0:
56,176,46537,5,6,0:0:0:0:
134,216,46695,1,0,0:0:0:0:
208,176,46853,1,0,1:2:0:0:
134,134,47011,1,0,0:0:0:0:
134,216,47169,2,0,L|134:285,1,70,0|0,0:0|0:0,0:0:0:0:
72,344,47485,2,0,P|134:371|196:345,1,140,0|6,1:2|0:0,0:0:0:0:
268,232,47958,1,0,0:0:0:0:
268,232,48116,2,0,L|340:232,1,70,0|0,1:2|0:0,0:0:0:0:
408,344,48432,2,0,L|336:344,1,70
197,344,48748,1,0,1:2:0:0:
125,232,48906,1,0,0:0:0:0:
268,232,49064,6,0,P|295:294|268:357,1,140,6|0,0:0|1:2,0:0:0:0:
126,357,49537,2,0,P|98:294|126:231,1,140,0|0,0:0|0:0,0:0:0:0:
197,186,50011,2,0,L|197:117,1,70,0|0,1:2|0:0,0:0:0:0:
256,56,50327,2,0,L|328:56,1,70,6|0,0:0|0:0,0:0:0:0:
410,140,50642,2,0,L|340:140,1,70,0|0,1:2|0:0,0:0:0:0:
197,186,50958,2,0,L|267:186,1,70
351,270,51274,2,0,L|281:270,1,70,0|0,1:2|0:0,0:0:0:0:
138,316,51590,5,6,0:0:0:0:
138,316,51906,1,0,1:2:0:0:
68,270,52064,2,0,L|14:270,2,35,0|0|0,3:2|3:2|1:2,0:0:0:0:
138,224,52379,1,0,3:2:0:0:
174,224,52458,1,0,3:2:0:0:
210,224,52537,1,0,3:2:0:0:
246,224,52616,1,0,3:2:0:0:
282,224,52695,1,0,3:2:0:0:
318,224,52774,1,0,3:2:0:0:
354,224,52853,5,0,1:2:0:0:
460,292,53011,1,0,1:2:0:0:
354,360,53169,1,0,1:2:0:0:
354,360,53485,2,0,L|214:360,1,140,0|2,0:0|0:0,0:0:0:0:
256,192,54116,12,2,55064,0:0:0:0:
76,236,55379,5,4,0:0:0:0:
148,192,55537,1,0,1:2:0:0:
148,192,55695,1,0,1:2:0:0:
220,236,55853,1,0,3:2:0:0:
220,236,55932,1,0,3:2:0:0:
220,236,56011,2,0,L|256:236,3,35,0|0|0|0,1:2|3:2|1:2|3:2,0:0:0:0:
284,268,56327,2,0,L|320:268,3,35,0|0|0|0,3:2|3:2|3:2|3:2,0:0:0:0:
348,300,56642,6,0,P|382:307|416:300,1,70,4|0,0:0|0:0,0:0:0:0:
465,228,56958,2,0,P|489:255|499:288,1,70,0|0,1:2|0:0,0:0:0:0:
381,217,57274,2,0,P|392:184|415:159,2,70,0|0|0,0:0|0:0|1:2,0:0:0:0:
500,148,57748,2,0,P|468:92|396:76,1,140,0|0,0:0|0:0,0:0:0:0:
336,132,58221,1,0,1:2:0:0:
272,76,58379,2,0,L|200:76,1,70,0|0,0:0|0:0,0:0:0:0:
140,132,58695,2,0,L|70:132,1,70,0|0,0:0|1:2,0:0:0:0:
8,76,59011,1,0,0:0:0:0:
202,76,59169,6,0,P|224:144|192:200,1,140,2|0,0:0|1:2,0:0:0:0:
140,264,59642,1,0,0:0:0:0:
84,200,59800,2,0,L|12:200,2,70,0|0|0,0:0|0:0|1:2,0:0:0:0:
140,264,60274,2,0,P|200:280|264:240,1,140,0|0,0:0|0:0,0:0:0:0:
320,180,60748,2,0,L|392:180,1,70,0|2,1:2|0:0,0:0:0:0:
440,296,61064,2,0,L|371:296,1,70,0|2,0:0|0:0,0:0:0:0:
263,241,61379,1,0,1:2:0:0:
320,180,61537,1,0,0:0:0:0:
448,132,61695,6,0,P|464:164|464:200,1,70,4|0,0:0|0:0,0:0:0:0:
320,180,62011,2,0,P|304:149|303:114,1,70,0|0,1:2|0:0,0:0:0:0:
348,40,62327,2,0,P|276:32|228:76,1,140,0|0,0:0|1:2,0:0:0:0:
196,152,62800,2,0,L|124:152,1,70,0|0,0:0|0:0,0:0:0:0:
2,216,63116,2,0,L|72:216,1,70,2|0,0:0|1:2,0:0:0:0:
210,268,63432,2,0,L|140:268,1,70,2|0,0:0|0:0,0:0:0:0:
16,332,63748,2,0,L|88:332,1,70,2|0,0:0|1:2,0:0:0:0:
154,384,64064,1,0,0:0:0:0:
264,332,64221,6,0,P|292:292|272:208,1,140,0|0,0:0|1:2,0:0:0:0:
140,268,64695,1,2,0:0:0:0:
140,268,64853,2,0,L|210:268,1,70,0|2,0:0|0:0,0:0:0:0:
272,208,65169,2,0,L|342:208,1,70,0|0,1:2|0:0,0:0:0:0:
404,268,65485,5,2,0:0:0:0:
464,208,65642,1,2,0:0:0:0:
404,152,65800,1,0,1:2:0:0:
342,96,65958,1,2,3:2:0:0:
308,96,66037,1,0,3:2:0:0:
272,96,66116,1,0,3:2:0:0:
210,40,66274,1,2,3:2:0:0:
176,40,66353,1,0,3:2:0:0:
140,40,66432,2,0,L|106:40,3,35,2|0|0|0,3:2|3:2|3:2|3:2,0:0:0:0:
70,40,66748,6,0,P|44:64|36:96,1,70,4|0,0:0|0:0,0:0:0:0:
76,172,67064,1,0,1:2:0:0:
116,248,67221,1,0,0:0:0:0:
160,315,67379,2,0,P|92:324|42:279,1,140,0|0,0:0|1:2,0:0:0:0:
116,248,67853,2,0,P|148:236|188:240,1,70,0|0,0:0|0:0,0:0:0:0:
244,296,68169,2,0,P|278:298|311:286,1,70,0|0,0:0|1:2,0:0:0:0:
385,252,68485,2,0,P|335:207|268:216,1,140,0|0,0:0|0:0,0:0:0:0:
244,296,68958,2,0,L|264:364,1,70,0|0,1:2|0:0,0:0:0:0:
405,320,69274,6,0,B|385:253|385:253|455:253,1,140,2|0,0:0|1:2,0:0:0:0:
488,176,69748,1,0,0:0:0:0:
488,176,69906,2,0,L|416:176,1,70,0|0,0:0|0:0,0:0:0:0:
383,99,70221,1,0,1:2:0:0:
383,99,70379,2,0,P|319:75|255:100,1,140,0|0,0:0|0:0,0:0:0:0:
218,176,70853,2,0,L|146:176,1,70,0|2,1:2|0:0,0:0:0:0:
112,252,71169,1,0,0:0:0:0:
184,296,71327,1,2,0:0:0:0:
256,252,71485,2,0,L|328:252,1,70,0|0,1:2|0:0,0:0:0:0:
412,248,71800,6,0,P|408:284|388:312,1,70,4|0,0:0|0:0,0:0:0:0:
372,172,72116,2,0,P|416:164|492:216,1,140,0|0,1:2|0:0,0:0:0:0:
389,311,72590,1,0,0:0:0:0:
256,252,72748,1,0,1:2:0:0:
372,172,72906,6,0,P|368:136|348:108,1,70,0|0,0:0|0:0,0:0:0:0:
203,44,73221,2,0,P|207:78|226:107,1,70,2|0,0:0|1:2,0:0:0:0:
351,23,73537,2,0,P|317:27|288:46,1,70,2|0,0:0|0:0,0:0:0:0:
224,192,73853,2,0,P|258:188|287:169,2,70,2|0|0,0:0|1:2|0:0,0:0:0:0:
144,168,74327,6,0,P|76:192|52:252,1,140,4|0,0:0|1:2,0:0:0:0:
26,332,74800,1,2,0:0:0:0:
26,332,74958,2,0,P|61:335|94:324,1,70,0|2,0:0|0:0,0:0:0:0:
136,252,75274,1,0,1:2:0:0:
144,168,75432,2,0,L|148:96,1,70,2|2,0:0|0:0,0:0:0:0:
188,24,75748,5,2,3:2:0:0:
224,16,75827,1,0,3:2:0:0:
260,8,75906,1,0,3:2:0:0:
296,0,75985,1,0,3:2:0:0:
332,8,76064,1,2,3:2:0:0:
368,16,76142,1,0,3:2:0:0:
404,24,76221,2,0,L|408:60,3,35,0|0|2|0,3:2|3:2|3:2|3:2,0:0:0:0:
440,72,76537,2,0,L|444:108,3,35,0|0|0|0,3:2|3:2|3:2|3:2,0:0:0:0:
476,120,76853,6,0,P|512:172|496:244,1,140,6|0,0:0|1:2,0:0:0:0:
448,312,77327,1,2,0:0:0:0:
380,263,77485,2,0,P|343:206|360:140,1,140,2|0,0:0|1:2,0:0:0:0:
428,192,77958,1,0,0:0:0:0:
496,243,78116,6,0,P|513:177|476:120,1,140,2|0,0:0|1:2,0:0:0:0:
359,140,78590,2,0,P|342:205|380:263,1,140,2|0,0:0|0:0,0:0:0:0:
448,312,79064,1,0,1:2:0:0:
36,120,79379,6,0,P|0:172|16:244,1,140,6|0,0:0|1:2,0:0:0:0:
64,312,79853,1,2,0:0:0:0:
132,263,80011,2,0,P|169:206|152:140,1,140,2|0,0:0|1:2,0:0:0:0:
84,192,80484,1,0,0:0:0:0:
15,243,80642,6,0,P|-1:177|36:120,1,140,2|0,0:0|1:2,0:0:0:0:
152,140,81116,2,0,P|169:205|132:263,1,140,2|0,0:0|0:0,0:0:0:0:
64,312,81590,1,0,1:2:0:0:
312,66,81906,6,0,P|339:129|312:192,1,140,6|0,0:0|1:2,0:0:0:0:
256,254,82379,1,2,0:0:0:0:
200,192,82537,2,0,P|172:129|199:66,1,140,2|0,0:0|1:2,0:0:0:0:
256,130,83011,1,0,0:0:0:0:
312,66,83169,5,6,0:0:0:0:
424,192,83485,1,0,1:2:0:0:
312,318,83800,1,0,0:0:0:0:
200,192,84116,2,0,L|128:192,1,70,0|0,1:2|0:0,0:0:0:0:
72,132,84432,6,0,L|0:132,1,70,6|0,0:0|0:0,0:0:0:0:
2,252,84748,1,0,1:2:0:0:
2,252,84906,2,0,L|72:252,1,70,2|0,0:0|0:0,0:0:0:0:
130,192,85221,1,0,0:0:0:0:
130,192,85379,2,0,L|200:192,1,70,2|0,1:2|0:0,0:0:0:0:
256,254,85695,5,2,0:0:0:0:
312,192,85853,1,2,3:2:0:0:
347,192,85932,1,0,3:2:0:0:
382,192,86011,1,0,3:2:0:0:
428,120,86169,2,0,L|464:120,2,35,2|0|0,3:2|3:2|3:2,0:0:0:0:
364,64,86485,1,2,3:2:0:0:
328,64,86564,1,0,3:2:0:0:
292,64,86642,1,2,3:2:0:0:
256,64,86721,1,0,3:2:0:0:
220,64,86800,1,0,3:2:0:0:
184,64,86879,1,0,3:2:0:0:
148,64,86958,5,6,0:0:0:0:
84,120,87116,1,0,0:0:0:0:
130,192,87274,1,0,1:2:0:0:
130,192,87432,2,0,L|200:192,1,70,0|0,0:0|0:0,0:0:0:0:
256,254,87748,5,0,0:0:0:0:
326,376,87906,1,0,1:2:0:0:
186,376,88064,1,6,0:0:0:0:
256,68,88379,5,2,1:2:0:0:
256,68,88537,2,0,B|284:114|256:160|256:160|228:208|256:254,1,195.999994018555,2|0,1:2|0:0,0:0:0:0:
328,208,89011,1,0,3:2:0:0:
184,116,89169,2,0,L|112:116,1,70,0|0,1:2|0:0,0:0:0:0:
28,116,89485,5,6,0:0:0:0:
256,254,89800,1,0,1:2:0:0:
328,208,89958,1,2,0:0:0:0:
400,254,90116,1,2,0:0:0:0:
328,300,90274,2,0,L|328:372,2,70,0|0|0,0:0|1:2|0:0,0:0:0:0:
400,254,90748,5,2,0:0:0:0:
184,116,91064,1,0,1:2:0:0:
112,70,91221,1,2,0:0:0:0:
40,116,91379,1,2,0:0:0:0:
112,162,91537,2,0,L|112:234,2,70,0|0|0,0:0|1:2|0:0,0:0:0:0:
184,116,92011,6,0,B|236:116|236:116|264:144|264:144|312:144,1,140,6|0,0:0|1:2,0:0:0:0:
300,60,92485,2,0,B|352:60|352:60|380:88|380:88|428:88,1,140,2|0,0:0|0:0,0:0:0:0:
492,144,92958,1,0,1:2:0:0:
312,144,93274,5,6,0:0:0:0:
328,228,93432,1,0,0:0:0:0:
344,312,93590,1,0,1:2:0:0:
168,312,93906,1,0,0:0:0:0:
184,228,94064,1,0,0:0:0:0:
200,144,94221,1,0,1:2:0:0:
256,192,94537,12,2,99590,0:0:0:0:
