osu file format v14

[General]
AudioFilename: Rita - Winter Diamond.mp3
AudioLeadIn: 0
PreviewTime: 56642
Countdown: 0
SampleSet: Soft
StackLeniency: 0.4
Mode: 0
LetterboxInBreaks: 0
WidescreenStoryboard: 0

[Editor]
Bookmarks: 81976
DistanceSpacing: 1.3
BeatDivisor: 4
GridSize: 4
TimelineZoom: 3.299999

[Metadata]
Title:Winter Diamond
TitleUnicode:Winter Diamond
Artist:Rita
ArtistUnicode:Rita
Creator:BeatofIke
Version:Hard
Source:見上げてごらん、夜空の星を
Tags:pulltop opening eroge visual novel vn miagete goran yozora no hoshi o night sky full of stars vicksen twofive yow yashima takahiro motoi ayumu taguchi makoto konno asta takashima eiji minao ohse ookuma kenichi pkhg
BeatmapID:813555
BeatmapSetID:367869

[Difficulty]
HPDrainRate:5
CircleSize:4
OverallDifficulty:6
ApproachRate:7
SliderMultiplier:1.2
SliderTickRate:1

[Events]
//Background and Video events
Video,0,"Video.avi"
0,0,"BG.jpg",0,0
//Break Periods
2,6316,10269
//Storyboard Layer 0 (Background)
//Storyboard Layer 1 (Fail)
//Storyboard Layer 2 (Pass)
//Storyboard Layer 3 (Foreground)
//Storyboard Sound Samples

[TimingPoints]
1064,315.789473684211,4,2,1,50,1,0
6116,-100,4,2,1,60,0,0
11169,-100,4,2,1,50,0,0
13695,-100,4,2,1,60,0,0
54116,-100,4,2,1,50,0,0
55379,-100,4,2,1,60,0,0
56642,-100,4,2,1,80,0,1
76853,-100,4,2,1,70,0,0
88537,-100,4,2,1,50,0,0
89485,-100,4,2,1,60,0,0
94537,-100,4,2,1,50,0,0

[Colours]
Combo1 : 212,212,212
Combo2 : 85,0,170
Combo3 : 0,0,170
Combo4 : 255,0,128

[HitObjects]
320,256,1064,6,0,L|377:237,2,60,10|2|10,0:0|0:0|0:0,0:0:0:0:
296,330,1538,2,0,L|331:378,2,60,2|10|2,0:0|0:0|0:0,0:0:0:0:
216,330,2012,2,0,L|180:378,2,60,10|2|10,0:0|0:0|0:0,0:0:0:0:
192,256,2485,2,0,L|134:237,2,60,2|10|2,0:0|0:0|0:0,0:0:0:0:
256,212,2958,2,0,L|256:152,1,60,10|2,0:0|0:0,0:0:0:0:
325,113,3274,1,10,0:0:0:0:
325,113,3432,1,2,0:0:0:0:
310,34,3590,6,0,P|256:12|202:34,1,120,10|10,0:0|0:0,0:0:0:0:
187,113,4064,2,0,L|133:143,2,60,2|10|2,0:0|0:0|0:0,0:0:0:0:
256,152,4537,2,0,L|256:220,2,60,10|2|10,0:0|0:0|0:0,0:0:0:0:
325,113,5011,2,0,L|378:143,2,60,2|10|2,0:0|0:0|0:0,0:0:0:0:
256,74,5485,1,10,0:0:0:0:
256,152,5642,2,0,L|256:184,4,30,2|0|2|0|2,3:2|3:2|3:2|3:2|3:2,0:0:0:0:
256,74,6116,1,6,0:0:0:0:
202,70,11169,6,0,P|256:48|310:70,1,120,14|8,0:0|0:0,0:0:0:0:
256,186,11642,2,0,L|256:126,1,60,2|10,0:0|0:0,0:0:0:0:
310,242,11958,1,0,0:0:0:0:
310,242,12116,2,0,P|256:264|202:242,1,120,10|8,3:2|0:0,0:0:0:0:
88,186,12590,2,0,L|148:186,1,60,2|10,3:2|0:0,0:0:0:0:
202,242,12906,6,0,L|202:272,2,30,0|0|10,3:2|3:2|3:2,0:0:0:0:
310,242,13221,2,0,L|310:272,2,30,0|0|10,3:2|3:2|3:2,0:0:0:0:
256,186,13537,1,0,3:2:0:0:
256,58,13695,6,0,B|300:58|300:58|320:82|320:82|364:82,1,120,6|0,0:0|1:2,0:0:0:0:
432,122,14169,1,0,0:0:0:0:
364,162,14327,2,0,B|320:162|320:162|300:186|300:186|256:186,1,120,0|0,0:0|1:2,0:0:0:0:
200,242,14800,2,0,P|146:264|92:242,1,120
36,186,15274,1,0,1:2:0:0:
92,129,15432,2,0,P|146:108|200:130,1,120
256,186,15906,2,0,L|316:186,1,60,0|0,1:2|0:0,0:0:0:0:
396,186,16221,6,0,P|432:246|424:294,1,120,2|0,0:0|1:2,0:0:0:0:
390,364,16695,1,0,0:0:0:0:
390,364,16853,2,0,L|270:364,1,120,0|0,0:0|1:2,0:0:0:0:
232,296,17327,1,0,0:0:0:0:
194,228,17485,2,0,B|150:228|150:228|130:252|130:252|86:252,1,120,0|0,0:0|1:2,0:0:0:0:
8,252,17958,2,0,P|11:281|28:305,1,60
272,228,18432,2,0,P|267:198|249:174,1,60,0|0,1:2|0:0,0:0:0:0:
174,151,18748,6,0,P|210:105|268:98,1,120,2|0,0:0|1:2,0:0:0:0:
342,124,19221,1,0,0:0:0:0:
416,148,19379,2,0,P|474:141|510:95,1,120,0|0,0:0|1:2,0:0:0:0:
436,70,19853,1,0,0:0:0:0:
396,226,20169,2,0,L|380:286,1,60,0|0,0:0|1:2,0:0:0:0:
358,360,20485,2,0,P|418:352|454:308,1,120
396,226,20958,2,0,L|336:226,1,60,0|0,1:2|0:0,0:0:0:0:
282,284,21274,6,0,L|162:284,1,120,2|0,0:0|1:2,0:0:0:0:
108,342,21748,1,0,0:0:0:0:
108,342,21906,2,0,L|48:342,1,60
48,226,22221,2,0,L|108:226,1,60,0|0,1:2|0:0,0:0:0:0:
162,168,22537,2,0,L|282:168,1,120,0|0,0:0|1:2,0:0:0:0:
360,168,23011,1,0,0:0:0:0:
360,168,23169,2,0,P|414:144|468:168,1,120,0|0,0:0|1:2,0:0:0:0:
414,314,23800,6,0,B|370:314|370:314|350:338|350:338|306:338,1,120,4|0,0:0|1:2,0:0:0:0:
246,288,24274,1,0,0:0:0:0:
246,288,24432,2,0,L|186:288,1,60
126,340,24748,1,0,1:2:0:0:
126,340,24906,2,0,L|66:340,2,60
186,288,25379,2,0,L|246:288,1,60,0|0,1:2|0:0,0:0:0:0:
306,338,25695,2,0,B|350:338|350:338|370:314|370:314|414:314,1,120,0|0,0:0|1:2,0:0:0:0:
458,248,26169,1,0,0:0:0:0:
458,248,26327,5,6,0:0:0:0:
334,154,26642,1,0,1:2:0:0:
178,154,26958,1,0,0:0:0:0:
256,290,27274,2,0,L|256:170,1,120,6|0,1:2|0:0,0:0:0:0:
256,92,27748,1,0,0:0:0:0:
202,36,27906,2,0,P|255:13|309:36,1,120,2|0,1:2|0:0,0:0:0:0:
364,92,28379,1,2,0:0:0:0:
418,36,28537,1,0,1:2:0:0:
418,192,28853,5,6,0:0:0:0:
418,192,29169,1,0,1:2:0:0:
484,234,29327,2,0,P|506:288|484:342,1,120
418,384,29800,1,0,1:2:0:0:
298,288,30116,2,0,L|418:288,1,120,0|0,0:0|1:2,0:0:0:0:
418,192,30590,1,0,0:0:0:0:
418,192,30748,2,0,L|298:192,1,120,2|2,0:0|1:2,0:0:0:0:
256,126,31221,1,0,0:0:0:0:
214,192,31379,6,0,B|170:192|170:192|150:216|150:216|106:216,1,120,6|0,0:0|1:2,0:0:0:0:
64,282,31853,2,0,L|4:282,1,60
4,150,32169,2,0,L|64:150,1,60,0|0,0:0|1:2,0:0:0:0:
106,84,32485,2,0,B|150:84|150:84|170:60|170:60|214:60,1,120,0|2,0:0|0:0,0:0:0:0:
256,126,32958,1,0,1:2:0:0:
298,60,33116,2,0,B|342:60|342:60|362:84|362:84|406:84,1,120,2|2,3:2|3:2,0:0:0:0:
448,150,33590,1,0,3:2:0:0:
344,208,33748,1,0,3:2:0:0:
256,126,33906,6,0,P|228:138|200:136,1,60,6|0,0:0|0:0,0:0:0:0:
128,104,34221,2,0,P|98:101|71:113,1,60,0|0,1:2|0:0,0:0:0:0:
112,180,34537,2,0,B|124:220|124:220|112:256|112:256|124:296,1,120,0|0,0:0|1:2,0:0:0:0:
100,370,35011,2,0,P|158:366|197:323,1,120
232,252,35485,1,0,1:2:0:0:
308,264,35642,2,0,P|366:260|405:217,1,120
331,188,36116,1,0,1:2:0:0:
392,140,36274,1,0,0:0:0:0:
320,112,36432,6,0,L|308:52,1,60,2|0,0:0|0:0,0:0:0:0:
203,53,36748,2,0,L|192:112,1,60,0|0,1:2|0:0,0:0:0:0:
148,176,37064,2,0,P|206:187|256:156,1,120,0|0,0:0|1:2,0:0:0:0:
320,112,37537,1,0,0:0:0:0:
384,156,37695,6,0,L|384:216,1,60
446,264,38011,1,0,1:2:0:0:
384,312,38169,1,0,0:0:0:0:
322,264,38327,2,0,L|262:264,1,60
189,237,38642,1,0,1:2:0:0:
124,196,38800,1,0,0:0:0:0:
48,180,38958,6,0,P|48:212|64:244,1,60,6|0,0:0|0:0,0:0:0:0:
189,237,39274,2,0,P|200:209|199:179,1,60,0|0,1:2|0:0,0:0:0:0:
124,76,39590,2,0,L|124:196,1,120,0|0,0:0|1:2,0:0:0:0:
124,276,40064,2,0,L|124:336,1,60
58,237,40379,1,0,0:0:0:0:
189,237,40537,1,0,1:2:0:0:
256,276,40695,2,0,L|316:276,1,60
376,224,41011,2,0,L|436:224,1,60,0|0,0:0|1:2,0:0:0:0:
491,167,41327,1,0,0:0:0:0:
491,167,41485,6,0,P|515:220|496:276,1,120,2|0,0:0|1:2,0:0:0:0:
416,148,41958,1,0,0:0:0:0:
416,148,42116,2,0,P|396:96|420:40,1,120,0|0,0:0|1:2,0:0:0:0:
472,96,42590,1,0,0:0:0:0:
322,96,42748,2,0,L|260:96,1,60
204,40,43064,2,0,L|144:40,1,60,0|0,1:2|0:0,0:0:0:0:
88,96,43379,1,0,0:0:0:0:
32,152,43537,2,0,L|0:152,5,30,0|0|0|0|0|0,3:2|3:2|3:2|3:2|3:2|3:2,0:0:0:0:
32,152,44011,6,0,B|32:196|32:196|56:216|56:216|56:260,1,120,6|0,0:0|1:2,0:0:0:0:
16,330,44485,1,0,0:0:0:0:
96,330,44642,2,0,L|156:330,1,60
216,280,44958,1,0,1:2:0:0:
296,280,45116,1,0,0:0:0:0:
256,212,45274,2,0,L|256:92,1,120,2|0,0:0|1:2,0:0:0:0:
216,24,45748,1,0,0:0:0:0:
296,24,45906,2,0,P|320:44|332:76,1,60
398,108,46221,2,0,P|378:132|346:144,1,60,0|0,1:2|0:0,0:0:0:0:
256,212,46537,5,6,0:0:0:0:
256,92,46695,1,0,0:0:0:0:
216,24,46853,2,0,P|193:42|181:69,1,60,0|0,1:2|0:0,0:0:0:0:
114,108,47169,2,0,P|134:132|166:144,1,60
256,212,47485,2,0,L|256:92,1,120,0|6,1:2|0:0,0:0:0:0:
216,24,47958,1,0,0:0:0:0:
296,24,48116,2,0,B|340:24|340:24|360:48|360:48|404:48,1,120,0|0,1:2|0:0,0:0:0:0:
452,108,48590,1,0,0:0:0:0:
420,180,48748,2,0,L|420:240,1,60,0|0,1:2|0:0,0:0:0:0:
385,311,49064,6,0,P|443:316|488:278,1,120,6|0,0:0|1:2,0:0:0:0:
451,107,49537,2,0,P|393:102|349:141,1,120
420,180,50011,2,0,L|420:240,1,60,0|0,1:2|0:0,0:0:0:0:
488,278,50327,2,0,P|443:316|385:311,1,120,6|0,0:0|1:2,0:0:0:0:
316,272,50800,1,0,0:0:0:0:
248,232,50958,2,0,P|189:227|145:265,1,120,0|0,0:0|1:2,0:0:0:0:
216,304,51432,1,0,0:0:0:0:
216,304,51590,1,6,0:0:0:0:
188,112,51906,5,0,1:2:0:0:
256,74,52064,2,0,L|256:42,2,30,0|0|0,3:2|3:2|1:2,0:0:0:0:
324,112,52379,2,0,L|356:112,2,30,0|0|0,3:2|3:2|3:2,0:0:0:0:
256,150,52695,1,0,3:2:0:0:
188,188,52853,1,0,1:2:0:0:
256,226,53011,1,0,1:2:0:0:
324,188,53169,1,0,1:2:0:0:
256,328,53485,5,0,0:0:0:0:
256,328,53800,1,2,0:0:0:0:
256,192,54116,12,4,55379,0:0:0:0:
160,300,56642,5,4,0:0:0:0:
228,340,56800,1,0,0:0:0:0:
296,300,56958,2,0,L|358:299,1,60,0|0,1:2|0:0,0:0:0:0:
436,300,57274,2,0,P|432:328|412:356,2,60,0|0|0,0:0|0:0|1:2,0:0:0:0:
396,232,57748,2,0,P|373:177|395:123,1,120
452,178,58221,1,0,1:2:0:0:
296,178,58379,2,0,L|236:176,1,60
178,122,58695,2,0,L|118:122,1,60,0|0,0:0|1:2,0:0:0:0:
60,176,59011,1,0,0:0:0:0:
60,176,59169,6,0,P|38:122|60:68,1,120,2|0,0:0|1:2,0:0:0:0:
118,14,59642,1,0,0:0:0:0:
118,14,59800,2,0,L|178:14,1,60
236,68,60116,1,0,1:2:0:0:
236,68,60274,2,0,P|258:122|236:176,1,120
178,230,60748,2,0,L|118:230,1,60,0|2,1:2|0:0,0:0:0:0:
84,300,61064,1,0,0:0:0:0:
148,348,61221,1,2,0:0:0:0:
212,300,61379,1,0,1:2:0:0:
300,116,61695,5,4,0:0:0:0:
236,68,61852,1,0,0:0:0:0:
172,116,62011,2,0,L|112:116,1,60,0|0,1:2|0:0,0:0:0:0:
56,60,62327,2,0,P|34:114|56:168,1,120,0|0,0:0|1:2,0:0:0:0:
120,216,62800,2,0,L|128:284,1,60
211,311,63116,2,0,L|204:252,1,60,2|0,0:0|1:2,0:0:0:0:
288,284,63432,2,0,L|296:352,1,60,2|0,0:0|0:0,0:0:0:0:
368,372,63748,1,2,0:0:0:0:
440,343,63906,2,0,L|448:284,1,60,0|0,1:2|0:0,0:0:0:0:
422,210,64221,6,0,P|367:188|313:210,1,120,0|0,0:0|1:2,0:0:0:0:
368,268,64695,1,2,0:0:0:0:
368,112,64853,2,0,P|364:84|344:60,1,60,0|2,0:0|0:0,0:0:0:0:
256,16,65169,1,0,1:2:0:0:
167,60,65327,1,0,0:0:0:0:
167,60,65485,2,0,P|148:82|144:112,1,60,2|2,0:0|0:0,0:0:0:0:
196,172,65800,1,0,1:2:0:0:
256,224,65958,2,0,L|256:256,2,30,2|0|0,3:2|3:2|3:2,0:0:0:0:
316,172,66274,1,2,3:2:0:0:
316,172,66353,1,0,3:2:0:0:
316,172,66432,2,0,L|336:148,3,30,2|0|0|0,3:2|3:2|3:2|3:2,0:0:0:0:
368,112,66748,5,4,0:0:0:0:
320,48,66906,1,0,0:0:0:0:
320,48,67064,2,0,L|260:48,1,60,0|0,1:2|0:0,0:0:0:0:
180,48,67379,2,0,B|136:48|136:48|116:72|116:72|72:72,1,120,0|0,0:0|1:2,0:0:0:0:
16,128,67853,2,0,P|11:157|16:186,1,60
92,212,68169,2,0,P|97:241|92:270,1,60,0|0,0:0|1:2,0:0:0:0:
20,304,68485,2,0,P|15:333|20:362,1,60
163,362,68800,1,0,0:0:0:0:
163,362,68958,2,0,P|168:333|164:304,1,60,0|0,1:2|0:0,0:0:0:0:
220,248,69274,6,0,P|275:270|329:248,1,120,2|0,0:0|1:2,0:0:0:0:
375,185,69748,1,0,0:0:0:0:
375,185,69906,2,0,L|435:197,1,60
492,144,70221,1,0,1:2:0:0:
492,144,70379,2,0,P|512:198|488:252,1,120
375,185,70853,2,0,L|387:125,1,60,0|2,1:2|0:0,0:0:0:0:
448,80,71169,1,0,0:0:0:0:
378,50,71327,1,2,0:0:0:0:
316,96,71485,1,0,1:2:0:0:
184,96,71800,5,4,0:0:0:0:
122,50,71958,1,0,0:0:0:0:
52,80,72116,1,0,1:2:0:0:
113,126,72274,1,0,0:0:0:0:
113,126,72432,2,0,L|124:184,1,60
80,248,72748,1,0,1:2:0:0:
80,248,72906,2,0,P|136:260|188:228,1,120,0|2,0:0|0:0,0:0:0:0:
256,188,73379,1,0,1:2:0:0:
324,228,73537,2,0,P|374:259|432:248,1,120,2|2,0:0|0:0,0:0:0:0:
387,184,74011,1,0,1:2:0:0:
256,268,74327,5,4,0:0:0:0:
125,184,74642,1,0,1:2:0:0:
256,96,74958,1,0,0:0:0:0:
296,28,75116,1,0,0:0:0:0:
216,28,75274,1,0,1:2:0:0:
256,96,75432,2,0,L|256:156,1,60,0|2,0:0|0:0,0:0:0:0:
192,200,75748,6,0,L|160:200,2,30,2|0|0,3:2|3:2|3:2,0:0:0:0:
256,244,76064,2,0,L|256:276,2,30,2|0|0,3:2|3:2|3:2,0:0:0:0:
320,200,76379,1,2,3:2:0:0:
320,200,76458,1,0,3:2:0:0:
320,200,76537,2,0,L|352:200,3,30,0|0|0|0,3:2|3:2|3:2|3:2,0:0:0:0:
390,200,76853,6,0,P|404:256|374:308,1,120,6|0,0:0|1:2,0:0:0:0:
312,356,77327,1,0,0:0:0:0:
312,356,77485,2,0,B|276:356|256:339|256:339|236:356|200:356,1,120,0|0,0:0|1:2,0:0:0:0:
137,307,77958,1,0,0:0:0:0:
137,307,78116,2,0,P|108:256|122:200,1,120,2|0,0:0|1:2,0:0:0:0:
196,168,78590,2,0,L|316:168,1,120,2|0,0:0|0:0,0:0:0:0:
391,200,79064,1,0,1:2:0:0:
424,48,79379,6,0,B|380:48|380:48|360:72|360:72|316:72,1,120,6|0,0:0|1:2,0:0:0:0:
256,20,79853,1,2,0:0:0:0:
196,72,80011,2,0,B|152:72|152:72|132:48|132:48|88:48,1,120,0|0,0:0|1:2,0:0:0:0:
24,92,80485,1,0,0:0:0:0:
24,92,80642,2,0,P|2:147|24:201,1,120,2|0,0:0|1:2,0:0:0:0:
80,256,81116,2,0,P|102:311|80:365,1,120,2|0,0:0|0:0,0:0:0:0:
24,310,81590,1,0,1:2:0:0:
180,310,81906,6,0,B|236:332|236:332|292:310,1,120,6|0,0:0|1:2,0:0:0:0:
364,276,82379,1,2,0:0:0:0:
364,276,82537,2,0,B|420:254|420:254|476:276,1,120,2|0,0:0|1:2,0:0:0:0:
420,128,83169,1,6,0:0:0:0:
256,52,83485,1,0,1:2:0:0:
92,128,83800,1,0,0:0:0:0:
256,204,84116,1,0,1:2:0:0:
416,284,84432,6,0,B|380:284|360:301|360:301|340:284|304:284,1,120,6|0,0:0|1:2,0:0:0:0:
312,364,84906,2,0,B|276:364|256:347|256:347|236:364|200:364,1,120,2|0,0:0|0:0,0:0:0:0:
208,284,85379,2,0,B|172:284|152:301|152:301|132:284|96:284,1,120,2|2,1:2|0:0,0:0:0:0:
76,204,85853,2,0,L|44:204,2,30,2|0|0,3:2|3:2|3:2,0:0:0:0:
152,184,86169,2,0,L|152:152,2,30,2|0|0,3:2|3:2|3:2,0:0:0:0:
228,204,86485,1,2,3:2:0:0:
228,204,86564,1,0,3:2:0:0:
228,204,86642,2,0,L|260:204,3,30,2|0|0|0,3:2|3:2|3:2|3:2,0:0:0:0:
296,204,86958,6,0,L|416:204,1,120,6|0,0:0|1:2,0:0:0:0:
475,149,87432,2,0,P|497:203|476:258,1,120
416,312,87906,1,0,1:2:0:0:
416,312,88064,2,0,L|296:312,1,120,6|2,0:0|1:2,0:0:0:0:
216,312,88537,1,2,1:2:0:0:
96,192,88853,2,0,L|36:192,2,60,0|0|0,0:0|3:2|1:2,0:0:0:0:
216,72,89485,6,0,L|216:192,1,120,6|0,0:0|1:2,0:0:0:0:
256,260,89958,1,2,0:0:0:0:
296,192,90116,2,0,L|296:72,1,120,2|0,0:0|1:2,0:0:0:0:
416,192,90748,6,0,L|296:192,1,120,2|0,0:0|1:2,0:0:0:0:
256,260,91221,1,2,0:0:0:0:
216,192,91379,2,0,L|96:192,1,120,2|0,0:0|1:2,0:0:0:0:
96,328,92011,6,0,L|216:328,1,120,6|0,0:0|1:2,0:0:0:0:
256,260,92484,1,2,0:0:0:0:
296,328,92642,2,0,L|416:328,1,120,0|0,0:0|1:2,0:0:0:0:
496,192,93274,5,6,0:0:0:0:
336,192,93590,1,0,1:2:0:0:
176,192,93906,1,0,0:0:0:0:
16,192,94221,1,0,1:2:0:0:
256,192,94537,12,2,99590,0:0:0:0:
