osu file format v14

[General]
AudioFilename: audio.mp3
AudioLeadIn: 0
PreviewTime: 54768
Countdown: 0
SampleSet: Soft
StackLeniency: 0.3
Mode: 0
LetterboxInBreaks: 0
WidescreenStoryboard: 0

[Editor]
DistanceSpacing: 1
BeatDivisor: 4
GridSize: 4
TimelineZoom: 3.599999

[Metadata]
Title:Winter Diamond
TitleUnicode:Winter Diamond
Artist:Rita
ArtistUnicode:Rita
Creator:Alexsander
Version:Expert
Source:見上げてごらん、夜空の星を
Tags:op opening 2 miagete goran yozora no hoshi o a sky full of stars pulltop eroge visual novel vn full version kenichi ookuma minao ohse Japanese
BeatmapID:2116001
BeatmapSetID:1010886

[Difficulty]
HPDrainRate:7
CircleSize:4.2
OverallDifficulty:8.7
ApproachRate:9.2
SliderMultiplier:1.9
SliderTickRate:1

[Events]
//Background and Video events
0,0,"bg top.jpg",0,0
//Break Periods
2,185153,191804
//Storyboard Layer 0 (Background)
//Storyboard Layer 1 (Fail)
//Storyboard Layer 2 (Pass)
//Storyboard Layer 3 (Foreground)
//Storyboard Layer 4 (Overlay)
//Storyboard Sound Samples

[TimingPoints]
532,315.789473684211,4,2,1,40,1,0
532,-111.111111111111,4,2,1,40,0,0
5584,-100,4,2,1,70,0,0
10637,-125,4,2,1,50,0,0
13163,-111.111111111111,4,2,1,60,0,0
51058,-100,4,2,1,70,0,0
52953,-153.846153846154,4,2,1,40,0,0
53584,-133.333333333333,4,2,1,50,0,0
54847,-100,4,2,1,65,0,0
56110,-90.9090909090909,4,2,1,70,0,1
76321,-100,4,2,1,65,0,0
88005,-142.857142857143,4,2,1,40,0,0
88953,-125,4,2,1,50,0,0
91479,-142.857142857143,4,2,1,50,0,0
93689,-111.111111111111,4,2,1,50,0,0
96532,-111.111111111111,4,2,1,60,0,0
134426,-111.111111111111,4,2,1,70,0,0
136321,-153.846153846154,4,2,1,40,0,0
136953,-133.333333333333,4,2,1,50,0,0
138058,-100,4,2,1,65,0,0
139479,-90.9090909090909,4,2,1,70,0,1
159689,-100,4,2,1,65,0,0
171374,-142.857142857143,4,2,1,40,0,0
172321,-125,4,2,1,50,0,0
182426,-125,4,2,1,65,0,0
184321,-200,4,2,1,30,0,0
184953,-200,4,2,1,50,0,0
192374,-100,4,2,1,70,0,1
195058,-90.9090909090909,4,2,1,70,0,1
205163,-100,4,2,1,65,0,0
216847,-142.857142857143,4,2,1,40,0,0
217795,-125,4,2,1,55,0,0
222847,-125,4,2,1,45,0,0
228532,-125,4,2,1,35,0,0
229163,-125,4,2,1,25,0,0
229795,-125,4,2,1,10,0,0
230426,-125,4,2,1,5,0,0

[Colours]
Combo1 : 234,222,222
Combo2 : 31,41,153
Combo3 : 209,40,79
Combo4 : 223,133,70

[HitObjects]
102,159,532,6,0,P|139:150|203:171,1,85.4999973907472,2|0,3:2|0:0,0:0:0:0:
300,203,847,1,0,3:0:0:0:
186,345,1005,6,0,P|159:317|145:251,1,85.4999973907472,2|0,0:0|3:0,0:0:0:0:
184,159,1321,1,0,0:0:0:0:
308,280,1479,6,0,L|211:279,1,85.4999973907472,2|0,3:2|0:0,0:0:0:0:
337,375,1795,1,0,3:0:0:0:
382,205,1953,6,0,L|382:119,1,85.4999973907472,2|0,0:0|3:0,0:0:0:0:
308,280,2268,1,0,0:0:0:0:
473,205,2426,5,2,3:2:0:0:
297,170,2584,1,2,0:0:0:0:
474,120,2742,1,2,3:2:0:0:
311,44,2900,1,2,0:0:0:0:
473,205,3058,6,0,L|474:116,1,85.4999973907472,2|0,3:2|0:0,0:0:0:0:
390,11,3374,1,0,3:0:0:0:
297,170,3532,6,0,L|382:170,1,85.4999973907472,2|0,0:0|3:2,0:0:0:0:
253,266,3847,1,0,0:0:0:0:
233,81,4005,6,0,P|273:60|322:69,1,85.4999973907472,2|0,3:2|0:0,0:0:0:0:
382,170,4321,1,0,3:2:0:0:
202,188,4479,6,0,L|113:184,1,85.4999973907472,2|0,0:0|3:0,0:0:0:0:
242,276,4795,1,0,0:0:0:0:
285,140,4953,1,0,3:0:0:0:
157,259,5110,5,0,1:0:0:0:
155,293,5188,1,0,1:0:0:0:
166,325,5267,1,0,1:0:0:0:
187,352,5346,1,0,1:0:0:0:
216,370,5425,1,0,1:0:0:0:
249,377,5504,1,0,1:0:0:0:
292,372,5584,6,0,P|354:325|440:353,1,142.5,4|0,3:2|0:0,0:0:0:0:
427,343,5900,1,8,0:0:0:0:
236,271,6058,1,2,0:0:0:0:
252,254,6137,1,0,3:0:0:0:
268,237,6216,1,0,3:0:0:0:
397,223,6374,1,0,3:0:0:0:
201,341,6532,2,0,P|164:304|160:256,1,95,8|0,0:0|0:0,0:0:0:0:
216,117,6847,5,0,3:0:0:0:
330,271,7005,2,0,L|236:271,1,95,2|8,0:0|0:0,0:0:0:0:
406,209,7321,1,0,0:0:0:0:
284,348,7479,1,0,3:0:0:0:
313,172,7637,1,0,3:0:0:0:
450,347,7795,2,0,P|393:360|353:343,1,95,8|0,0:0|0:0,0:0:0:0:
410,130,8110,6,0,L|405:309,1,142.5,0|0,3:0|0:0,0:0:0:0:
405,289,8426,1,8,0:0:0:0:
338,94,8584,1,2,0:0:0:0:
350,74,8663,1,0,3:0:0:0:
371,64,8742,1,0,3:0:0:0:
483,157,8900,1,0,3:0:0:0:
323,267,9058,2,0,P|274:271|232:246,1,95,8|0,0:0|0:0,0:0:0:0:
142,141,9374,5,0,3:0:0:0:
327,101,9532,2,0,L|290:206,1,95,2|8,0:0|0:0,0:0:0:0:
432,130,9847,1,0,0:0:0:0:
323,16,10005,2,0,P|273:30|247:66,1,95,0|0,3:0|3:0,0:0:0:0:
68,94,10321,2,0,P|118:108|144:144,1,95,8|0,0:0|0:0,0:0:0:0:
68,321,10637,6,0,L|75:147,1,152,6|0,3:2|3:0,0:0:0:0:
145,277,11110,1,2,0:0:0:0:
0,278,11268,2,0,L|4:174,1,76,0|0,3:0|0:0,0:0:0:0:
149,202,11584,2,0,L|146:277,1,76,10|0,3:0|0:0,0:0:0:0:
231,121,11900,5,2,3:2:0:0:
74,169,12058,1,10,3:0:0:0:
74,169,12216,1,2,3:2:0:0:
234,249,12374,1,0,1:0:0:0:
234,249,12453,1,0,1:0:0:0:
234,249,12532,1,0,1:0:0:0:
98,55,12689,1,0,1:0:0:0:
83,82,12768,1,0,1:0:0:0:
70,110,12847,5,0,1:0:0:0:
73,147,12925,1,0,1:0:0:0:
77,185,13004,1,0,1:0:0:0:
81,223,13083,1,0,1:0:0:0:
90,261,13163,6,0,L|183:251,1,85.4999973907472,6|0,3:2|0:0,0:0:0:0:
313,183,13479,1,8,0:0:0:0:
264,296,13637,1,2,0:0:0:0:
223,125,13795,2,0,L|242:220,1,85.4999973907472,2|0,3:2|3:0,0:0:0:0:
348,271,14110,1,8,0:0:0:0:
290,76,14268,6,0,P|247:45|196:48,1,85.4999973907472,2|0,0:0|3:0,0:0:0:0:
157,172,14584,2,0,P|205:150|228:104,1,85.4999973907472,2|8,0:0|0:0,0:0:0:0:
113,10,14900,2,0,L|156:101,1,85.4999973907472,2|0,0:0|3:0,0:0:0:0:
97,225,15216,2,0,L|60:147,1,85.4999973907472,2|8,3:2|0:0,0:0:0:0:
32,293,15532,1,0,0:0:0:0:
197,227,15689,6,0,P|279:229|326:308,1,170.999994781494,2|8,3:2|0:0,0:0:0:0:
219,377,16163,1,0,3:0:0:0:
219,377,16242,1,0,3:0:0:0:
219,377,16321,2,0,P|221:326|258:295,1,85.4999973907472,2|0,3:2|0:0,0:0:0:0:
410,303,16637,2,0,L|313:297,1,85.4999973907472,8|0,0:0|0:0,0:0:0:0:
462,188,16953,6,0,P|486:236|476:273,1,85.4999973907472,0|0,3:0|0:0,0:0:0:0:
362,185,17268,2,0,L|360:94,1,85.4999973907472,8|2,0:0|0:0,0:0:0:0:
268,218,17584,1,0,3:0:0:0:
268,218,17742,1,0,3:0:0:0:
208,85,17900,1,8,0:0:0:0:
178,249,18058,1,2,0:0:0:0:
28,131,18216,6,0,P|59:104|104:97,1,85.4999973907472,6|0,3:2|0:0,0:0:0:0:
215,163,18532,1,8,0:0:0:0:
95,272,18689,1,0,3:0:0:0:
95,272,18768,1,0,3:0:0:0:
95,272,18847,2,0,L|96:181,1,85.4999973907472,2|0,3:2|3:0,0:0:0:0:
181,95,19163,1,8,0:0:0:0:
332,196,19321,6,0,L|238:197,1,85.4999973907472,2|0,0:0|3:0,0:0:0:0:
332,305,19637,2,0,L|417:304,1,85.4999973907472,2|8,0:0|0:0,0:0:0:0:
451,156,19953,2,0,P|421:180|410:231,1,85.4999973907472,2|0,0:0|3:0,0:0:0:0:
455,374,20268,2,0,P|449:336|410:300,1,85.4999973907472,2|8,3:2|0:0,0:0:0:0:
314,380,20584,1,0,0:0:0:0:
176,252,20742,6,0,B|214:215|214:215|344:224,1,170.999994781494,2|8,3:2|0:0,0:0:0:0:
432,136,21216,1,0,3:0:0:0:
432,136,21295,1,0,3:0:0:0:
432,136,21374,2,0,L|345:124,1,85.4999973907472,2|0,3:2|3:0,0:0:0:0:
467,0,21689,2,0,P|487:42|468:92,1,85.4999973907472,8|0,0:0|0:0,0:0:0:0:
348,40,22005,6,0,L|263:28,1,85.4999973907472,0|0,3:0|0:0,0:0:0:0:
157,142,22321,2,0,P|137:104|145:63,1,85.4999973907472,8|0,0:0|0:0,0:0:0:0:
225,182,22637,1,2,3:2:0:0:
97,197,22795,1,0,3:0:0:0:
245,306,22953,2,0,L|246:176,1,128.249996086121,8|0,0:0|0:0,0:0:0:0:
268,103,23268,6,0,B|330:106|330:106|372:80|372:80|450:88,1,170.999994781494,6|8,3:2|0:0,0:0:0:0:
392,246,23742,1,0,3:0:0:0:
392,246,23821,1,0,3:0:0:0:
392,246,23900,2,0,L|390:151,1,85.4999973907472,0|0,3:0|0:0,0:0:0:0:
478,274,24216,1,8,0:0:0:0:
340,326,24374,6,0,B|257:284|264:369|165:321,1,170.999994781494,2|0,3:2|0:0,0:0:0:0:
193,164,24847,2,0,P|218:205|210:258,1,85.4999973907472,8|0,0:0|0:0,0:0:0:0:
63,240,25163,2,0,L|159:217,1,85.4999973907472,2|0,3:2|0:0,0:0:0:0:
300,261,25479,2,0,L|204:238,1,85.4999973907472,8|0,0:0|0:0,0:0:0:0:
83,124,25795,6,0,P|140:89|208:111,1,128.249996086121,6|0,3:2|0:0,0:0:0:0:
213,127,26110,1,8,0:0:0:0:
350,66,26268,1,0,3:0:0:0:
357,86,26347,1,0,3:0:0:0:
362,106,26426,2,0,L|355:195,1,85.4999973907472,2|0,3:2|0:0,0:0:0:0:
459,351,26742,2,0,B|440:335|406:337|406:337|385:364|344:367|344:367|320:358|303:334,1,170.999994781494,12|0,0:0|3:0,0:0:0:0:
212,209,27216,5,0,3:0:0:0:
356,187,27374,2,0,L|353:277,1,85.4999973907472,10|0,0:0|0:0,0:0:0:0:
296,115,27689,1,0,3:0:0:0:
296,115,27847,2,0,P|328:94|391:103,1,85.4999973907472,2|8,3:2|0:0,0:0:0:0:
435,185,28163,1,0,0:0:0:0:
239,187,28321,6,0,P|200:130|242:43,1,170.999994781494,6|8,3:2|0:0,0:0:0:0:
386,4,28795,2,0,L|296:0,1,85.4999973907472,2|0,0:0|3:0,0:0:0:0:
201,133,29110,2,0,L|386:134,1,170.999994781494,2|0,3:2|0:0,0:0:0:0:
489,262,29584,6,0,P|430:212|346:237,1,170.999994781494,2|8,3:2|0:0,0:0:0:0:
284,346,30058,1,0,0:0:0:0:
410,312,30216,1,0,3:0:0:0:
410,312,30374,1,0,3:0:0:0:
272,255,30532,2,0,P|256:212|264:171,1,85.4999973907472,8|0,0:0|0:0,0:0:0:0:
457,114,30847,6,0,P|377:72|299:129,1,170.999994781494,6|8,3:2|0:0,0:0:0:0:
374,218,31321,1,0,3:0:0:0:
388,187,31399,1,0,3:0:0:0:
387,153,31478,1,0,3:0:0:0:
262,173,31637,2,0,L|176:172,1,85.4999973907472,2|8,0:0|0:0,0:0:0:0:
52,311,31953,1,2,0:0:0:0:
52,311,32032,1,2,0:0:0:0:
52,311,32110,5,6,3:2:0:0:
83,164,32268,1,2,3:2:0:0:
150,327,32426,1,8,0:0:0:0:
262,173,32584,1,2,1:2:0:0:
288,167,32662,1,0,1:2:0:0:
313,177,32742,1,0,1:2:0:0:
372,355,32900,1,0,1:2:0:0:
372,355,32978,1,0,1:2:0:0:
372,355,33057,5,0,1:2:0:0:
345,323,33137,1,0,1:2:0:0:
310,302,33215,1,0,1:2:0:0:
268,305,33295,1,0,1:2:0:0:
231,326,33374,6,0,P|208:289|212:237,1,85.4999973907472,6|0,3:2|0:0,0:0:0:0:
280,97,33689,1,8,0:0:0:0:
284,226,33847,1,2,0:0:0:0:
132,157,34005,2,0,L|238:159,1,85.4999973907472,2|0,3:2|3:0,0:0:0:0:
79,225,34321,1,8,0:0:0:0:
21,39,34479,6,0,P|58:65|71:109,1,85.4999973907472,2|0,0:0|3:0,0:0:0:0:
0,238,34795,2,0,P|2:195|29:163,1,85.4999973907472,2|8,0:0|0:0,0:0:0:0:
117,305,35110,2,0,L|14:304,1,85.4999973907472,2|0,0:0|3:0,0:0:0:0:
183,234,35426,2,0,L|268:234,1,85.4999973907472,2|8,0:0|0:0,0:0:0:0:
344,342,35742,1,0,0:0:0:0:
365,154,35900,6,0,L|364:345,1,170.999994781494,2|8,3:2|0:0,0:0:0:0:
480,242,36374,1,0,3:0:0:0:
480,242,36453,1,0,3:0:0:0:
480,242,36532,2,0,L|477:153,1,85.4999973907472,2|0,3:2|3:0,0:0:0:0:
365,68,36847,2,0,L|365:159,1,85.4999973907472,8|0,0:0|0:0,0:0:0:0:
196,175,37163,6,0,P|235:159|285:178,1,85.4999973907472,0|0,3:0|0:0,0:0:0:0:
210,317,37479,2,0,P|169:328|129:314,1,85.4999973907472,8|0,0:0|0:0,0:0:0:0:
26,180,37795,1,0,3:0:0:0:
26,180,37953,1,0,3:0:0:0:
57,346,38110,1,8,0:0:0:0:
173,249,38268,1,2,0:0:0:0:
315,378,38426,6,0,P|367:378|410:349,1,85.4999973907472,6|0,3:2|0:0,0:0:0:0:
469,256,38742,1,8,0:0:0:0:
338,168,38900,1,2,3:2:0:0:
338,168,38979,1,0,3:0:0:0:
338,168,39058,2,0,L|343:262,1,85.4999973907472,2|0,3:2|0:0,0:0:0:0:
412,110,39374,1,8,0:0:0:0:
256,32,39532,6,0,P|213:26|174:42,1,85.4999973907472,2|0,0:0|3:0,0:0:0:0:
80,159,39847,2,0,P|123:165|162:149,1,85.4999973907472,2|8,0:0|0:0,0:0:0:0:
97,6,40163,2,0,L|113:89,1,85.4999973907472,2|0,0:0|3:0,0:0:0:0:
253,184,40479,2,0,L|218:78,1,85.4999973907472,2|8,0:0|0:0,0:0:0:0:
181,232,40795,1,0,0:0:0:0:
341,327,40953,6,0,P|277:276|200:305,1,170.999994781494,2|8,3:2|0:0,0:0:0:0:
78,227,41426,1,0,3:0:0:0:
78,227,41505,1,0,3:0:0:0:
78,227,41584,2,0,L|71:116,1,85.4999973907472,2|0,3:2|0:0,0:0:0:0:
121,316,41900,2,0,P|162:323|200:305,1,85.4999973907472,8|0,0:0|0:0,0:0:0:0:
324,208,42216,6,0,L|214:207,1,85.4999973907472,0|0,3:0|0:0,0:0:0:0:
360,101,42532,2,0,P|400:91|449:112,1,85.4999973907472,8|2,0:0|1:2,0:0:0:0:
439,104,42768,1,0,1:0:0:0:
439,104,42847,1,0,1:0:0:0:
242,65,43005,1,0,1:0:0:0:
242,65,43084,1,0,1:0:0:0:
242,65,43163,5,0,1:0:0:0:
211,94,43241,1,0,1:0:0:0:
200,135,43320,1,0,1:0:0:0:
209,176,43399,1,0,1:0:0:0:
238,207,43479,6,0,B|292:226|292:226|416:203,1,170.999994781494,4|8,3:2|0:0,0:0:0:0:
482,340,43953,1,0,3:0:0:0:
482,340,44032,1,0,3:0:0:0:
482,340,44110,2,0,L|387:362,1,85.4999973907472,0|0,3:0|0:0,0:0:0:0:
295,300,44426,1,8,0:0:0:0:
129,380,44584,6,0,L|114:200,1,170.999994781494,2|0,0:0|0:0,0:0:0:0:
48,64,45058,2,0,L|54:156,1,85.4999973907472,8|0,0:0|0:0,0:0:0:0:
192,212,45374,2,0,P|236:218|280:202,1,85.4999973907472,2|0,3:2|0:0,0:0:0:0:
430,249,45689,2,0,P|386:243|342:259,1,85.4999973907472,8|0,0:0|0:0,0:0:0:0:
247,108,46005,6,0,B|285:127|285:127|374:106,1,128.249996086121,6|0,3:2|0:0,0:0:0:0:
392,88,46321,2,0,L|385:-4,1,85.4999973907472,8|0,0:0|0:0,0:0:0:0:
512,160,46637,2,0,P|464:152|421:174,1,85.4999973907472,2|0,3:2|0:0,0:0:0:0:
378,345,46953,2,0,L|345:215,1,128.249996086121,8|0,0:0|0:0,0:0:0:0:
302,162,47268,6,0,P|257:165|203:143,1,85.4999973907472,6|0,3:2|0:0,0:0:0:0:
121,256,47584,2,0,L|144:347,1,85.4999973907472,10|0,0:0|0:0,0:0:0:0:
13,233,47900,1,0,3:0:0:0:
13,233,48058,2,0,L|39:135,1,85.4999973907472,2|8,3:2|0:0,0:0:0:0:
56,303,48374,1,0,0:0:0:0:
128,136,48532,6,0,P|185:105|278:147,1,170.999994781494,6|8,3:2|0:0,0:0:0:0:
304,294,49005,1,0,3:0:0:0:
311,260,49083,1,0,3:0:0:0:
302,228,49162,1,0,3:0:0:0:
133,295,49321,2,0,L|329:293,1,170.999994781494,2|0,3:2|0:0,0:0:0:0:
488,196,49795,6,0,P|434:204|381:158,1,128.249996086121,6|0,3:2|0:0,0:0:0:0:
389,129,50110,2,0,L|293:128,1,85.4999973907472,8|0,0:0|0:0,0:0:0:0:
154,47,50426,2,0,P|195:35|243:49,1,85.4999973907472,2|0,3:2|0:0,0:0:0:0:
214,208,50742,2,0,B|196:171|196:171|198:123,1,85.4999973907472,8|0,0:0|0:0,0:0:0:0:
366,300,51058,6,0,L|143:301,1,190,6|8,3:2|0:0,0:0:0:0:
299,215,51532,1,0,1:2:0:0:
299,215,51610,1,0,1:2:0:0:
299,215,51689,1,0,1:2:0:0:
106,159,51847,5,0,1:2:0:0:
101,112,51926,1,0,1:2:0:0:
136,80,52005,1,0,1:2:0:0:
167,115,52084,1,0,1:2:0:0:
209,133,52163,1,0,1:2:0:0:
256,128,52242,1,0,1:2:0:0:
293,97,52321,5,4,0:0:0:0:
264,290,52479,1,8,0:0:0:0:
219,37,52637,1,12,0:0:0:0:
219,37,52953,6,0,L|229:138,1,92.6249957599642,2|0,0:0|0:0,0:0:0:0:
231,154,53268,2,0,P|272:165|337:131,1,92.6249957599642,2|0,0:0|0:0,0:0:0:0:
392,162,53584,6,0,L|393:237,1,71.2500027179719,6|0,0:0|0:0,0:0:0:0:
359,327,53900,1,2,0:0:0:0:
246,317,54058,2,0,B|201:323|170:290|170:290|120:298|68:336|68:336|102:259|31:204,1,320.625012230874,2|0,0:0|0:0,0:0:0:0:
26,199,54847,5,4,0:1:0:0:
126,76,55005,1,0,1:2:0:0:
171,65,55083,1,0,1:2:0:0:
214,82,55162,1,0,1:2:0:0:
279,231,55321,1,0,1:2:0:0:
234,242,55400,1,0,1:2:0:0:
191,225,55479,1,0,1:2:0:0:
382,101,55637,5,0,1:0:0:0:
403,142,55715,1,0,1:0:0:0:
399,189,55794,1,0,1:0:0:0:
371,227,55874,1,0,1:0:0:0:
350,269,55952,1,0,1:0:0:0:
351,316,56031,1,0,1:0:0:0:
375,356,56110,5,6,3:2:0:0:
306,155,56268,1,2,0:0:0:0:
461,290,56426,1,8,0:0:0:0:
260,248,56584,1,0,3:0:0:0:
260,248,56663,1,0,3:0:0:0:
260,248,56742,1,2,3:2:0:0:
422,79,56900,1,0,3:2:0:0:
350,269,57058,1,8,0:0:0:0:
176,118,57216,6,0,P|214:84|288:94,1,104.500003189087,2|0,3:2|3:0,0:0:0:0:
175,238,57532,2,0,P|137:204|63:214,1,104.500003189087,2|8,0:0|0:0,0:0:0:0:
173,368,57847,1,2,3:2:0:0:
173,368,57926,1,0,3:0:0:0:
173,368,58005,1,0,3:0:0:0:
304,232,58163,2,0,P|288:184|244:157,1,104.500003189087,2|8,3:2|0:0,0:0:0:0:
396,205,58479,1,0,0:0:0:0:
261,326,58637,6,0,P|201:247|244:157,1,209.000006378174,2|8,3:2|0:0,0:0:0:0:
435,118,59110,1,0,3:2:0:0:
435,118,59189,1,0,3:0:0:0:
435,118,59268,1,0,3:0:0:0:
304,233,59426,1,0,3:0:0:0:
314,44,59584,1,8,0:0:0:0:
451,234,59742,6,0,B|437:281|382:303|382:303|320:283|300:225,1,209.000006378174,2|0,3:2|0:0,0:0:0:0:
233,68,60216,1,8,0:0:0:0:
380,193,60374,1,0,3:0:0:0:
380,193,60453,1,0,3:0:0:0:
380,193,60532,1,2,3:2:0:0:
209,243,60689,1,0,3:2:0:0:
348,102,60847,2,0,P|382:146|365:216,1,104.500003189087,10|0,0:0|0:0,0:0:0:0:
187,11,61163,5,6,3:2:0:0:
191,235,61321,1,2,0:0:0:0:
277,55,61479,1,8,0:0:0:0:
306,268,61637,1,0,3:2:0:0:
306,268,61716,1,0,3:0:0:0:
306,268,61795,1,2,3:2:0:0:
210,108,61953,1,0,3:2:0:0:
223,314,62110,1,8,0:0:0:0:
348,102,62268,6,0,L|457:102,1,104.500003189087,2|0,3:2|3:0,0:0:0:0:
403,296,62584,2,0,L|292:297,1,104.500003189087,2|8,0:0|0:0,0:0:0:0:
467,220,62900,1,2,3:2:0:0:
467,220,62979,1,0,3:0:0:0:
467,220,63058,1,0,3:0:0:0:
261,208,63216,2,0,P|214:187|192:141,1,104.500003189087,2|8,3:2|0:0,0:0:0:0:
373,192,63532,1,0,0:0:0:0:
218,353,63689,6,0,B|155:387|155:387|20:364,1,209.000006378174,2|8,3:2|0:0,0:0:0:0:
68,168,64163,1,0,3:0:0:0:
68,168,64242,1,0,3:0:0:0:
68,168,64321,1,0,3:0:0:0:
138,304,64479,1,0,3:0:0:0:
192,141,64637,1,8,0:0:0:0:
235,331,64795,1,2,0:0:0:0:
251,353,64874,1,2,0:0:0:0:
273,369,64953,6,0,L|390:357,1,104.500003189087,2|0,3:2|0:0,0:0:0:0:
508,182,65268,1,4,3:2:0:0:
331,160,65426,1,0,1:0:0:0:
331,160,65505,1,0,1:0:0:0:
331,160,65584,1,0,1:0:0:0:
452,284,65742,1,0,1:0:0:0:
472,266,65821,1,0,1:0:0:0:
501,229,65900,5,0,1:0:0:0:
508,182,65979,1,0,1:0:0:0:
496,137,66058,1,0,1:0:0:0:
466,101,66137,1,0,1:0:0:0:
417,84,66216,5,6,3:2:0:0:
323,248,66374,1,2,0:0:0:0:
508,182,66532,1,8,0:0:0:0:
330,76,66689,1,0,3:0:0:0:
330,76,66768,1,0,3:0:0:0:
330,76,66847,1,2,3:2:0:0:
325,266,67005,1,0,3:2:0:0:
421,68,67163,1,8,0:0:0:0:
214,209,67321,6,0,L|222:321,1,104.500003189087,2|0,3:2|3:0,0:0:0:0:
278,126,67637,2,0,P|228:101|171:115,1,104.500003189087,2|8,0:0|0:0,0:0:0:0:
95,189,67953,1,2,3:2:0:0:
95,189,68032,1,0,3:0:0:0:
95,189,68110,1,0,3:0:0:0:
297,259,68268,2,0,P|263:219|214:208,1,104.500003189087,2|8,3:2|0:0,0:0:0:0:
371,157,68584,1,0,0:0:0:0:
399,346,68742,6,0,B|274:365|274:365|213:306,1,209.000006378174,2|8,3:2|0:0,0:0:0:0:
268,91,69216,1,0,3:0:0:0:
268,91,69295,1,0,3:0:0:0:
268,91,69374,1,0,3:0:0:0:
297,259,69532,1,0,3:0:0:0:
110,181,69689,1,8,0:0:0:0:
357,153,69847,6,0,B|414:171|428:220|428:220|419:283|340:305,1,209.000006378174,2|0,3:2|0:0,0:0:0:0:
268,124,70321,1,8,0:0:0:0:
473,141,70479,1,0,3:2:0:0:
473,141,70558,1,0,3:0:0:0:
473,141,70637,1,2,3:2:0:0:
297,229,70795,1,0,3:0:0:0:
405,54,70953,2,0,B|471:39|471:39|509:50,1,104.500003189087,10|0,0:0|0:0,0:0:0:0:
414,257,71268,5,6,3:2:0:0:
268,124,71426,1,2,0:0:0:0:
276,330,71584,1,8,0:0:0:0:
368,136,71742,1,0,3:0:0:0:
368,136,71821,1,0,3:0:0:0:
368,136,71900,1,2,3:2:0:0:
380,357,72058,1,0,3:2:0:0:
252,236,72216,1,8,0:0:0:0:
458,126,72374,6,0,P|494:162|501:229,1,104.500003189087,2|0,3:2|3:0,0:0:0:0:
372,76,72689,2,0,P|409:113|459:127,1,104.500003189087,2|8,0:0|0:0,0:0:0:0:
485,301,73005,1,2,3:2:0:0:
485,301,73084,1,0,3:0:0:0:
485,301,73163,1,0,3:0:0:0:
303,225,73321,2,0,P|253:238|218:277,1,104.500003189087,2|8,3:2|0:0,0:0:0:0:
379,320,73637,1,0,0:0:0:0:
459,127,73795,6,0,B|400:99|354:138|354:138|298:149|253:92,1,209.000006378174,6|8,3:2|0:0,0:0:0:0:
100,164,74268,1,0,3:0:0:0:
100,164,74347,1,0,3:0:0:0:
100,164,74426,2,0,L|208:165,1,104.500003189087,0|0,3:0|3:0,0:0:0:0:
87,38,74742,1,8,0:0:0:0:
0,239,74900,6,0,L|227:241,1,209.000006378174,6|0,3:2|1:0,0:0:0:0:
208,240,75295,1,0,1:2:0:0:
208,240,75374,1,0,1:2:0:0:
53,331,75532,1,0,1:2:0:0:
53,331,75610,1,0,1:2:0:0:
53,331,75689,1,0,1:2:0:0:
110,123,75847,1,0,1:2:0:0:
136,125,75926,1,0,1:2:0:0:
152,145,76005,5,0,1:2:0:0:
196,159,76084,1,0,1:2:0:0:
242,159,76163,1,0,1:2:0:0:
286,142,76242,1,0,1:2:0:0:
329,110,76321,6,0,P|357:227|371:338,1,190,6|8,0:0|0:0,0:0:0:0:
193,241,76795,1,0,3:0:0:0:
193,241,76874,1,0,3:0:0:0:
193,241,76953,2,0,P|237:216|300:231,1,95,2|0,3:2|0:0,0:0:0:0:
420,136,77268,2,0,L|303:102,1,95,8|0,0:0|0:0,0:0:0:0:
133,167,77584,6,0,P|217:148|277:255,1,190,2|8,3:2|0:0,0:0:0:0:
214,343,78058,1,2,0:0:0:0:
108,252,78216,2,0,P|107:205|133:167,1,95,0|0,3:0|0:0,0:0:0:0:
304,128,78532,2,0,L|274:234,1,95,8|0,0:0|0:0,0:0:0:0:
121,72,78847,6,0,B|148:40|170:30|170:30|320:59,1,190,6|8,0:0|0:0,0:0:0:0:
133,167,79321,1,0,3:0:0:0:
133,167,79400,1,0,3:0:0:0:
133,167,79479,2,0,L|121:72,1,95,2|0,3:2|0:0,0:0:0:0:
278,219,79795,2,0,L|266:314,1,95,8|0,0:0|0:0,0:0:0:0:
420,150,80110,6,0,B|319:180|326:103|226:147,1,190,2|8,3:2|0:0,0:0:0:0:
138,241,80584,1,2,0:0:0:0:
266,313,80742,2,0,P|288:261|273:219,1,95,0|0,3:0|0:0,0:0:0:0:
122,147,81058,2,0,L|139:253,1,95,8|0,0:0|0:0,0:0:0:0:
310,370,81374,6,0,P|357:297|340:182,1,190,6|8,0:2|0:0,0:0:0:0:
220,362,81847,1,0,3:0:0:0:
220,362,81926,1,0,3:0:0:0:
220,362,82005,2,0,P|264:379|310:370,1,95,2|0,3:2|0:0,0:0:0:0:
267,178,82321,2,0,L|275:296,1,95,8|0,0:0|0:0,0:0:0:0:
35,200,82637,6,0,P|75:151|171:167,1,142.5,6|0,0:2|0:0,0:0:0:0:
178,151,82953,2,0,P|153:97|170:51,1,95,8|0,0:0|0:0,0:0:0:0:
208,244,83268,2,0,P|256:209|264:161,1,95,0|0,3:0|0:0,0:0:0:0:
117,235,83584,2,0,P|126:293|166:322,1,95,8|0,0:0|0:0,0:0:0:0:
360,182,83900,6,0,L|253:177,1,95,6|0,0:2|0:0,0:0:0:0:
402,259,84216,1,8,0:0:0:0:
413,110,84374,1,0,3:0:0:0:
413,110,84453,1,0,3:0:0:0:
413,110,84532,2,0,L|306:105,1,95,2|0,3:2|0:0,0:0:0:0:
175,29,84847,1,8,0:0:0:0:
174,193,85005,1,2,0:0:0:0:
185,174,85084,1,2,0:0:0:0:
197,156,85163,5,6,0:0:0:0:
186,304,85321,1,8,0:0:0:0:
77,146,85479,1,8,0:0:0:0:
295,237,85637,1,0,1:2:0:0:
341,244,85715,1,0,1:2:0:0:
381,221,85794,1,0,1:2:0:0:
238,134,85953,1,0,1:2:0:0:
199,161,86031,1,0,1:2:0:0:
176,202,86110,1,0,1:2:0:0:
173,249,86189,1,0,1:2:0:0:
191,292,86268,1,0,1:2:0:0:
226,324,86347,1,0,1:2:0:0:
268,347,86426,6,0,L|369:338,1,95,6|0,3:2|0:0,0:0:0:0:
471,244,86742,1,8,0:0:0:0:
329,149,86900,2,0,L|341:251,1,95,2|0,0:0|3:0,0:0:0:0:
388,84,87216,1,2,0:0:0:0:
260,208,87374,1,8,0:0:0:0:
454,313,87532,6,0,L|434:146,1,142.5,6|0,1:2|0:0,0:0:0:0:
406,159,87847,1,0,1:0:0:0:
313,341,88005,6,0,P|261:351|208:331,1,99.7499969558717,2|0,1:2|0:0,0:0:0:0:
190,307,88321,2,0,P|149:295|110:308,1,66.4999979705811,2|0,0:0|0:0,0:0:0:0:
91,316,88558,1,0,3:0:0:0:
91,316,88637,2,0,L|76:224,1,66.4999979705811,0|0,1:0|0:0,0:0:0:0:
144,120,88953,6,0,P|192:97|286:147,1,152,4|8,0:0|0:0,0:0:0:0:
201,213,89426,1,0,0:0:0:0:
68,126,89584,2,0,P|79:85|104:56,1,76,0|0,3:0|0:0,0:0:0:0:
248,31,89900,2,0,P|237:72|212:101,1,76,8|0,0:0|0:0,0:0:0:0:
49,212,90216,6,0,L|215:213,1,152,0|8,3:0|0:0,0:0:0:0:
306,290,90689,1,2,0:0:0:0:
306,290,90847,2,0,P|333:259|336:206,1,76,2|0,3:2|0:0,0:0:0:0:
209,137,91163,2,0,L|198:238,1,76,8|0,0:0|0:0,0:0:0:0:
286,64,91479,6,0,P|232:22|161:48,1,132.999995941162,4|0,0:0|3:0,0:0:0:0:
96,127,91953,1,2,0:0:0:0:
200,212,92110,2,0,L|273:211,1,66.4999979705811,0|0,3:0|0:0,0:0:0:0:
237,321,92426,2,0,L|170:321,1,66.4999979705811,0|0,3:0|0:0,0:0:0:0:
320,281,92742,5,2,0:0:0:0:
360,384,92900,1,2,0:0:0:0:
423,264,93058,2,0,P|437:228|435:194,1,66.4999979705811,0|0,3:0|0:0,0:0:0:0:
343,149,93374,2,0,P|329:113|331:79,1,66.4999979705811,0|0,3:0|0:0,0:0:0:0:
460,165,93689,6,0,L|428:214,1,42.7499986953736,8|0,0:0|0:0,0:0:0:0:
313,231,93847,2,0,L|345:280,1,42.7499986953736,2|0,0:0|0:0,0:0:0:0:
422,72,94005,6,0,L|229:70,1,170.999994781494,2|0,3:2|3:0,0:0:0:0:
122,126,94479,2,0,P|203:136|251:70,1,170.999994781494,10|0,0:0|0:0,0:0:0:0:
150,235,94953,2,0,L|52:232,1,85.4999973907472,2|0,3:2|0:0,0:0:0:0:
218,352,95268,5,2,3:2:0:0:
258,202,95426,1,8,3:0:0:0:
109,307,95584,1,2,3:2:0:0:
279,283,95742,1,8,0:0:0:0:
122,126,95900,1,8,0:0:0:0:
182,300,96058,1,0,1:0:0:0:
196,326,96137,1,0,1:0:0:0:
222,353,96216,5,0,1:0:0:0:
258,361,96295,1,0,1:0:0:0:
295,359,96374,1,0,1:0:0:0:
328,341,96453,1,0,1:0:0:0:
348,308,96532,6,0,P|356:267|341:221,1,85.4999973907472,6|0,3:2|0:0,0:0:0:0:
215,142,96847,1,8,0:0:0:0:
276,267,97005,1,2,0:0:0:0:
394,141,97163,2,0,L|295:141,1,85.4999973907472,2|0,3:2|3:0,0:0:0:0:
439,235,97479,1,8,0:0:0:0:
461,60,97637,6,0,P|427:37|370:43,1,85.4999973907472,2|0,0:0|3:0,0:0:0:0:
237,28,97953,2,0,P|271:5|328:11,1,85.4999973907472,2|8,0:0|0:0,0:0:0:0:
305,159,98268,2,0,L|293:59,1,85.4999973907472,2|0,0:0|3:0,0:0:0:0:
172,158,98584,2,0,L|160:258,1,85.4999973907472,2|8,3:2|0:0,0:0:0:0:
80,122,98900,1,0,0:0:0:0:
110,308,99058,6,0,P|187:329|236:265,1,170.999994781494,2|8,3:2|0:0,0:0:0:0:
301,134,99532,1,0,3:0:0:0:
301,134,99610,1,0,3:0:0:0:
301,134,99689,2,0,L|314:220,1,85.4999973907472,2|0,3:2|3:0,0:0:0:0:
470,161,100005,2,0,P|428:152|388:165,1,85.4999973907472,8|0,0:0|0:0,0:0:0:0:
418,315,100321,6,0,P|416:265|439:231,1,85.4999973907472,0|0,3:0|0:0,0:0:0:0:
342,351,100637,2,0,L|252:343,1,85.4999973907472,8|0,0:0|0:0,0:0:0:0:
133,251,100953,1,0,3:0:0:0:
133,251,101110,1,0,3:0:0:0:
271,173,101268,1,8,0:0:0:0:
133,120,101426,1,2,0:0:0:0:
286,257,101584,6,0,L|381:255,1,85.4999973907472,6|0,3:2|0:0,0:0:0:0:
484,146,101900,1,8,0:0:0:0:
460,306,102058,1,0,3:0:0:0:
460,306,102137,1,0,3:0:0:0:
460,306,102216,2,0,L|454:211,1,85.4999973907472,2|0,3:2|0:0,0:0:0:0:
395,102,102532,1,8,0:0:0:0:
239,182,102689,6,0,P|285:192|337:171,1,85.4999973907472,2|0,0:0|3:0,0:0:0:0:
276,304,103005,2,0,P|230:294|178:315,1,85.4999973907472,2|8,0:0|0:0,0:0:0:0:
79,212,103321,2,0,L|66:308,1,85.4999973907472,2|0,0:0|3:0,0:0:0:0:
157,129,103637,2,0,L|170:225,1,85.4999973907472,2|8,3:2|0:0,0:0:0:0:
276,304,103953,1,0,0:0:0:0:
448,231,104110,6,0,B|409:197|356:219|356:219|331:185|276:193,1,170.999994781494,2|8,3:2|0:0,0:0:0:0:
146,151,104584,1,0,3:0:0:0:
146,151,104663,1,0,3:0:0:0:
146,151,104742,2,0,P|188:159|230:146,1,85.4999973907472,0|0,3:0|3:0,0:0:0:0:
195,1,105058,2,0,L|184:102,1,85.4999973907472,8|0,0:0|0:0,0:0:0:0:
360,80,105374,6,0,L|266:77,1,85.4999973907472,0|0,3:0|0:0,0:0:0:0:
426,183,105689,2,0,P|443:142|422:88,1,85.4999973907472,8|0,0:0|0:0,0:0:0:0:
317,184,106005,2,0,L|318:282,1,85.4999973907472,2|0,3:2|3:0,0:0:0:0:
466,346,106321,2,0,B|427:327|427:327|332:348,1,128.249996086121,8|0,0:0|0:0,0:0:0:0:
271,361,106637,6,0,P|192:314|109:351,1,170.999994781494,6|8,3:2|0:0,0:0:0:0:
38,247,107110,1,0,3:0:0:0:
38,247,107189,1,0,3:0:0:0:
38,247,107268,2,0,L|40:341,1,85.4999973907472,0|0,3:0|0:0,0:0:0:0:
118,190,107584,1,8,0:0:0:0:
240,329,107742,6,0,B|334:297|311:380|414:335,1,170.999994781494,2|0,0:0|0:0,0:0:0:0:
361,189,108216,2,0,L|365:284,1,85.4999973907472,8|0,0:0|0:0,0:0:0:0:
446,143,108532,2,0,P|415:112|374:103,1,85.4999973907472,2|0,3:2|0:0,0:0:0:0:
290,229,108847,2,0,P|321:198|362:189,1,85.4999973907472,8|0,0:0|0:0,0:0:0:0:
210,91,109163,6,0,L|61:91,1,128.249996086121,6|0,3:2|0:0,0:0:0:0:
58,110,109479,1,8,0:0:0:0:
148,228,109637,1,0,3:0:0:0:
163,212,109716,1,0,3:0:0:0:
183,206,109795,2,0,L|273:209,1,85.4999973907472,2|0,3:2|0:0,0:0:0:0:
480,141,110110,6,0,B|439:144|418:130|418:130|385:154|385:154|352:164|310:142,1,170.999994781494,12|0,0:0|3:0,0:0:0:0:
417,240,110584,1,0,3:0:0:0:
286,305,110742,2,0,P|243:309|202:290,1,85.4999973907472,10|0,0:0|0:0,0:0:0:0:
115,181,111058,1,0,3:0:0:0:
115,181,111216,2,0,L|105:281,1,85.4999973907472,2|8,0:0|0:0,0:0:0:0:
51,115,111532,1,0,0:0:0:0:
210,207,111689,6,0,B|272:211|272:211|321:187|321:187|391:194,1,170.999994781494,6|8,3:2|0:0,0:0:0:0:
430,325,112163,2,0,L|434:239,1,85.4999973907472,2|0,0:0|3:0,0:0:0:0:
495,104,112479,2,0,B|409:62|419:149|318:104,1,170.999994781494,2|0,3:2|0:0,0:0:0:0:
136,173,112953,6,0,P|207:152|281:230,1,170.999994781494,2|8,3:2|0:0,0:0:0:0:
186,305,113426,1,2,0:0:0:0:
141,179,113584,1,2,3:2:0:0:
141,179,113742,1,2,3:2:0:0:
100,349,113900,2,0,L|91:285,1,42.7499986953736,10|0,0:0|0:0,0:0:0:0:
196,231,114058,2,0,L|208:295,1,42.7499986953736,2|0,0:0|0:0,0:0:0:0:
56,182,114216,6,0,B|98:143|98:143|224:143,1,170.999994781494,6|8,3:2|0:0,0:0:0:0:
356,177,114689,1,2,3:2:0:0:
377,151,114768,1,0,3:0:0:0:
381,118,114846,1,0,3:0:0:0:
247,67,115005,2,0,L|334:56,1,85.4999973907472,2|8,0:0|0:0,0:0:0:0:
461,116,115321,1,0,0:0:0:0:
340,254,115479,5,6,3:2:0:0:
381,118,115637,1,2,0:0:0:0:
402,313,115795,1,8,0:0:0:0:
259,221,115953,1,0,1:2:0:0:
274,199,116032,1,0,1:2:0:0:
296,183,116110,1,0,1:2:0:0:
185,304,116268,1,0,1:2:0:0:
185,304,116347,1,0,1:2:0:0:
185,304,116426,5,0,1:2:0:0:
182,263,116505,1,0,1:2:0:0:
179,222,116584,1,0,1:2:0:0:
176,181,116663,1,0,1:2:0:0:
174,139,116742,6,0,P|205:109|255:103,1,85.4999973907472,6|0,3:2|0:0,0:0:0:0:
381,169,117058,1,8,0:0:0:0:
246,181,117216,1,2,0:0:0:0:
378,267,117374,2,0,L|469:264,1,85.4999973907472,2|0,3:2|3:0,0:0:0:0:
328,334,117689,1,8,0:0:0:0:
246,181,117847,6,0,P|231:223|242:266,1,85.4999973907472,2|0,0:0|3:0,0:0:0:0:
368,186,118163,2,0,P|383:144|372:101,1,85.4999973907472,2|8,0:0|0:0,0:0:0:0:
239,45,118479,2,0,B|332:46,1,85.4999973907472,2|0,0:0|3:0,0:0:0:0:
185,118,118795,2,0,B|81:117,1,85.4999973907472,2|8,3:2|0:0,0:0:0:0:
4,207,119110,1,0,0:0:0:0:
183,254,119268,6,0,P|122:212|22:243,1,170.999994781494,2|8,3:2|0:0,0:0:0:0:
94,362,119742,1,0,3:0:0:0:
94,362,119821,1,0,3:0:0:0:
94,362,119900,2,0,P|138:374|184:359,1,85.4999973907472,2|0,3:2|3:0,0:0:0:0:
263,268,120216,2,0,L|285:357,1,85.4999973907472,8|0,0:0|0:0,0:0:0:0:
450,308,120532,6,0,L|362:297,1,85.4999973907472,2|0,3:2|0:0,0:0:0:0:
267,187,120847,1,8,0:0:0:0:
267,187,121005,2,0,P|257:137|272:100,1,85.4999973907472,2|0,0:0|3:0,0:0:0:0:
341,222,121321,1,0,3:0:0:0:
190,208,121479,1,8,0:0:0:0:
336,148,121637,1,0,0:0:0:0:
144,67,121795,6,0,L|50:67,1,85.4999973907472,6|0,3:2|0:0,0:0:0:0:
0,203,122110,1,8,0:0:0:0:
143,148,122268,1,2,3:2:0:0:
143,148,122347,1,0,3:0:0:0:
143,148,122426,2,0,L|40:144,1,85.4999973907472,2|0,3:2|3:0,0:0:0:0:
143,273,122742,1,8,0:0:0:0:
272,164,122900,6,0,L|295:249,1,85.4999973907472,2|0,0:0|3:0,0:0:0:0:
424,319,123216,2,0,L|397:236,1,85.4999973907472,2|8,0:0|0:0,0:0:0:0:
257,312,123532,2,0,P|307:321|351:300,1,85.4999973907472,2|0,0:0|3:0,0:0:0:0:
478,241,123847,2,0,P|437:228|396:237,1,85.4999973907472,2|8,3:2|0:0,0:0:0:0:
488,133,124163,1,0,0:0:0:0:
299,90,124321,6,0,B|265:138|265:138|298:261,1,170.999994781494,2|8,3:2|0:0,0:0:0:0:
123,233,124795,1,0,3:0:0:0:
123,233,124874,1,0,3:0:0:0:
123,233,124953,2,0,L|210:211,1,85.4999973907472,2|0,3:2|3:0,0:0:0:0:
281,338,125268,2,0,L|193:317,1,85.4999973907472,8|0,0:0|0:0,0:0:0:0:
368,272,125584,6,0,P|387:317|375:366,1,85.4999973907472,0|0,3:0|0:0,0:0:0:0:
277,225,125900,2,0,P|307:187|356:174,1,85.4999973907472,8|0,0:0|1:2,0:0:0:0:
341,174,126137,1,0,1:0:0:0:
341,174,126216,1,0,1:0:0:0:
184,186,126374,1,0,1:0:0:0:
184,186,126453,1,0,1:0:0:0:
184,186,126532,5,0,1:0:0:0:
144,171,126610,1,0,1:0:0:0:
117,137,126689,1,0,1:0:0:0:
108,95,126768,1,0,1:0:0:0:
133,60,126847,6,0,B|310:56,1,170.999994781494,6|8,3:2|0:0,0:0:0:0:
393,166,127321,1,0,3:0:0:0:
393,166,127400,1,0,3:0:0:0:
393,166,127479,2,0,L|389:78,1,85.4999973907472,0|0,3:0|3:0,0:0:0:0:
452,234,127795,1,8,0:0:0:0:
299,151,127953,6,0,P|217:131|156:196,1,170.999994781494,2|0,0:0|0:0,0:0:0:0:
240,317,128426,2,0,P|254:274|236:221,1,85.4999973907472,8|0,0:0|0:0,0:0:0:0:
87,280,128742,2,0,L|174:270,1,85.4999973907472,2|0,3:2|3:0,0:0:0:0:
309,361,129058,2,0,L|401:351,1,85.4999973907472,8|0,0:0|0:0,0:0:0:0:
476,187,129374,6,0,P|419:169|352:211,1,128.249996086121,6|0,3:2|0:0,0:0:0:0:
331,195,129689,2,0,B|337:103,1,85.4999973907472,8|0,0:0|0:0,0:0:0:0:
197,158,130005,2,0,P|152:156|101:116,1,85.4999973907472,2|0,3:2|3:0,0:0:0:0:
0,230,130321,2,0,L|52:347,1,128.249996086121,8|0,0:0|0:0,0:0:0:0:
121,376,130637,6,0,L|212:358,1,85.4999973907472,6|0,3:2|0:0,0:0:0:0:
339,312,130953,2,0,L|255:295,1,85.4999973907472,10|0,0:0|0:0,0:0:0:0:
397,239,131268,1,0,3:0:0:0:
397,239,131426,2,0,L|309:224,1,85.4999973907472,2|8,0:0|0:0,0:0:0:0:
430,332,131742,1,0,0:0:0:0:
503,166,131900,6,0,P|454:102|350:130,1,170.999994781494,6|8,3:2|0:0,0:0:0:0:
239,157,132374,1,0,3:0:0:0:
202,147,132452,1,0,3:0:0:0:
173,124,132532,1,0,3:0:0:0:
332,22,132689,2,0,L|347:211,1,170.999994781494,2|0,3:2|0:0,0:0:0:0:
169,284,133163,6,0,B|206:267|206:267|284:276,1,114,4|0,0:0|0:0,0:0:0:0:
317,284,133479,2,0,L|405:278,1,85.4999973907472,8|0,0:0|0:0,0:0:0:0:
485,156,133795,2,0,P|509:199|495:258,1,85.4999973907472,2|0,3:2|3:0,0:0:0:0:
412,367,134110,2,0,B|317:371,1,85.4999973907472,8|0,0:0|0:0,0:0:0:0:
186,186,134426,6,0,B|283:150|264:238|373:183,1,170.999994781494,4|0,0:0|0:0,0:0:0:0:
223,104,134900,1,2,1:2:0:0:
223,104,134978,1,0,1:2:0:0:
223,104,135057,1,0,1:2:0:0:
103,275,135216,5,0,1:2:0:0:
146,292,135294,1,0,1:2:0:0:
185,267,135373,1,0,1:2:0:0:
230,252,135453,1,0,1:2:0:0:
274,266,135531,1,0,1:2:0:0:
310,297,135611,1,0,1:2:0:0:
318,343,135689,5,4,0:0:0:0:
362,173,135847,1,8,0:0:0:0:
133,206,136005,1,12,0:0:0:0:
133,206,136321,6,0,L|35:203,1,92.6249957599642,2|0,0:0|0:0,0:0:0:0:
15,204,136637,2,0,P|32:166|28:109,1,92.6249957599642,2|0,0:0|0:0,0:0:0:0:
80,60,136953,6,0,P|115:47|163:57,1,71.2500027179719,4|0,0:0|0:0,0:0:0:0:
212,129,137268,1,2,0:0:0:0:
313,77,137426,2,0,B|390:47|431:119|431:119|435:186|392:187|386:242|386:242,1,249.375009512902,2|0,0:0|0:0,0:0:0:0:
369,245,138058,5,12,0:0:0:0:
125,124,138374,1,8,0:0:0:0:
274,286,138532,1,8,0:0:0:0:
313,77,138689,5,0,1:2:0:0:
283,40,138767,1,0,1:2:0:0:
238,29,138846,1,0,1:2:0:0:
192,44,138926,1,0,1:2:0:0:
148,62,139004,1,0,1:2:0:0:
102,56,139083,1,0,1:2:0:0:
62,28,139163,5,0,1:2:0:0:
27,58,139241,1,0,1:2:0:0:
12,103,139320,1,0,1:2:0:0:
23,149,139399,1,0,1:2:0:0:
62,180,139479,5,6,3:2:0:0:
192,44,139637,1,2,0:0:0:0:
280,266,139795,1,8,0:0:0:0:
156,145,139953,1,0,3:0:0:0:
156,145,140032,1,0,3:0:0:0:
156,145,140110,1,2,3:2:0:0:
372,129,140268,1,0,3:2:0:0:
187,235,140426,1,8,0:0:0:0:
341,55,140584,6,0,P|391:48|441:79,1,104.500003189087,2|0,3:2|3:0,0:0:0:0:
251,126,140900,2,0,P|201:119|151:150,1,104.500003189087,2|8,0:0|0:0,0:0:0:0:
182,338,141216,1,2,3:2:0:0:
182,338,141295,1,0,3:0:0:0:
182,338,141374,1,0,3:0:0:0:
324,189,141532,2,0,P|298:145|251:126,1,104.500003189087,2|8,0:0|0:0,0:0:0:0:
321,299,141847,1,0,0:0:0:0:
453,146,142005,6,0,B|417:124|417:124|251:126,1,209.000006378174,2|8,3:2|0:0,0:0:0:0:
400,221,142479,1,0,3:0:0:0:
400,221,142558,1,0,3:0:0:0:
400,221,142637,1,0,3:0:0:0:
444,39,142795,1,0,3:0:0:0:
251,126,142953,1,8,0:0:0:0:
485,218,143110,6,0,P|447:126|342:149,1,209.000006378174,2|0,3:2|0:0,0:0:0:0:
214,210,143584,1,8,0:0:0:0:
399,220,143742,1,0,3:0:0:0:
399,220,143821,1,0,3:0:0:0:
399,220,143900,2,0,P|391:169|352:137,1,104.500003189087,2|0,3:2|3:0,0:0:0:0:
188,103,144216,2,0,P|245:99|281:50,1,104.500003189087,10|0,0:0|0:0,0:0:0:0:
75,35,144532,5,6,3:2:0:0:
114,222,144689,1,2,0:0:0:0:
210,31,144847,1,8,0:0:0:0:
34,177,145005,1,0,3:0:0:0:
34,177,145084,1,0,3:0:0:0:
34,177,145163,2,0,L|40:291,1,104.500003189087,2|0,3:2|3:0,0:0:0:0:
156,384,145479,1,8,0:0:0:0:
278,200,145637,6,0,P|226:171|176:180,1,104.500003189087,2|0,3:2|3:0,0:0:0:0:
343,265,145953,2,0,P|291:294|241:285,1,104.500003189087,2|8,0:0|0:0,0:0:0:0:
101,218,146268,1,2,3:2:0:0:
101,218,146347,1,0,3:0:0:0:
101,218,146426,1,0,3:0:0:0:
248,99,146584,2,0,L|278:200,1,104.500003189087,2|8,3:2|0:0,0:0:0:0:
147,68,146900,1,0,0:0:0:0:
352,150,147058,6,0,P|360:246|251:285,1,209.000006378174,2|8,3:2|0:0,0:0:0:0:
101,218,147532,1,0,3:0:0:0:
101,218,147610,1,0,3:0:0:0:
101,218,147689,1,0,3:0:0:0:
278,200,147847,1,0,3:0:0:0:
140,341,148005,1,8,0:0:0:0:
35,157,148163,1,2,0:0:0:0:
48,136,148242,1,2,0:0:0:0:
66,119,148321,6,0,P|115:96|170:111,1,104.500003189087,6|0,3:2|0:0,0:0:0:0:
55,234,148637,1,8,0:0:0:0:
17,31,148795,1,0,1:0:0:0:
17,31,148874,1,0,1:0:0:0:
17,31,148953,1,0,1:0:0:0:
176,196,149110,1,0,1:0:0:0:
176,196,149189,1,0,1:0:0:0:
176,196,149268,5,0,1:0:0:0:
218,168,149347,1,0,1:0:0:0:
240,127,149426,1,0,1:0:0:0:
243,80,149505,1,0,1:0:0:0:
218,34,149584,5,6,3:2:0:0:
379,154,149742,1,2,0:0:0:0:
162,106,149900,1,8,0:0:0:0:
371,49,150058,1,0,3:0:0:0:
371,49,150137,1,0,3:0:0:0:
371,49,150216,2,0,L|379:157,1,104.500003189087,2|0,3:2|3:0,0:0:0:0:
281,280,150532,1,8,0:0:0:0:
162,106,150689,6,0,B|211:85|211:85|268:98,1,104.500003189087,2|0,3:2|0:0,0:0:0:0:
281,280,151005,2,0,P|241:245|225:193,1,104.500003189087,2|8,0:0|0:0,0:0:0:0:
309,380,151321,1,2,3:2:0:0:
309,380,151400,1,0,3:0:0:0:
309,380,151479,1,0,3:0:0:0:
346,225,151637,1,2,3:2:0:0:
179,317,151795,2,0,L|67:313,1,104.500003189087,10|0,0:0|0:0,0:0:0:0:
180,115,152110,6,0,B|238:140|282:109|282:109|330:80|392:113,1,209.000006378174,6|8,3:2|0:0,0:0:0:0:
225,27,152584,1,0,3:0:0:0:
225,27,152663,1,0,3:0:0:0:
225,27,152742,1,0,3:0:0:0:
121,183,152900,1,0,3:0:0:0:
326,176,153058,1,8,0:0:0:0:
91,110,153216,6,0,B|41:124|20:177|20:177|31:246|110:261,1,209.000006378174,2|0,3:2|0:0,0:0:0:0:
243,314,153689,1,8,0:0:0:0:
128,190,153847,1,0,3:0:0:0:
128,190,153926,1,0,3:0:0:0:
128,190,154005,1,2,3:2:0:0:
154,384,154163,1,0,3:0:0:0:
323,243,154321,2,0,P|281:211|217:221,1,104.500003189087,10|0,0:0|0:0,0:0:0:0:
390,384,154637,5,6,3:2:0:0:
425,190,154795,1,2,0:0:0:0:
289,364,154953,1,8,0:0:0:0:
502,267,155110,1,0,3:0:0:0:
502,267,155189,1,0,3:0:0:0:
502,267,155268,2,0,L|503:154,1,104.500003189087,2|0,3:2|3:0,0:0:0:0:
381,71,155584,1,8,0:0:0:0:
217,217,155742,6,0,P|263:242|338:212,1,104.500003189087,2|0,3:2|3:0,0:0:0:0:
439,131,156058,2,0,P|393:156|318:126,1,104.500003189087,2|8,0:0|0:0,0:0:0:0:
455,35,156374,1,2,3:2:0:0:
455,35,156453,1,0,3:0:0:0:
455,35,156532,1,0,3:0:0:0:
417,236,156689,2,0,L|294:233,1,104.500003189087,2|8,3:2|0:0,0:0:0:0:
459,341,157005,1,0,0:0:0:0:
512,133,157163,6,0,B|472:110|439:131|439:131|400:172|344:159|314:124,1,209.000006378174,6|8,3:2|0:0,0:0:0:0:
149,197,157637,1,0,3:0:0:0:
149,197,157716,1,0,3:0:0:0:
149,197,157795,2,0,P|202:182|259:210,1,104.500003189087,0|0,3:0|3:0,0:0:0:0:
131,325,158110,1,8,0:0:0:0:
93,138,158268,6,0,P|174:102|303:146,1,209.000006378174,6|0,3:2|1:0,0:0:0:0:
310,154,158663,1,0,1:0:0:0:
342,156,158742,1,0,1:0:0:0:
252,324,158900,1,0,1:2:0:0:
252,324,158979,1,0,1:2:0:0:
252,324,159058,1,0,1:2:0:0:
454,267,159216,1,0,1:2:0:0:
460,241,159295,1,0,1:2:0:0:
440,225,159374,5,0,1:2:0:0:
410,188,159453,1,0,1:2:0:0:
413,141,159532,1,0,1:2:0:0:
448,110,159610,1,0,1:2:0:0:
498,94,159689,6,0,B|407:52|408:127|286:85,1,190,6|8,0:0|0:0,0:0:0:0:
173,190,160163,1,0,3:2:0:0:
173,190,160242,1,0,3:0:0:0:
173,190,160321,2,0,P|217:202|269:185,1,95,2|0,3:2|0:0,0:0:0:0:
413,292,160637,2,0,L|294:288,1,95,8|0,0:0|0:0,0:0:0:0:
100,225,160953,6,0,P|161:229|215:116,1,190,2|8,3:2|0:0,0:0:0:0:
103,62,161426,1,2,0:0:0:0:
24,170,161584,2,0,P|57:203|100:225,1,95,0|0,3:0|0:0,0:0:0:0:
294,183,161900,2,0,P|260:149|218:128,1,95,8|0,0:0|0:0,0:0:0:0:
133,305,162216,6,0,B|181:341|181:341|331:328,1,190,6|8,0:0|0:0,0:0:0:0:
405,190,162689,1,0,3:0:0:0:
405,190,162768,1,0,3:0:0:0:
405,190,162847,2,0,L|408:294,1,95,2|0,3:2|0:0,0:0:0:0:
213,256,163163,2,0,P|260:235|315:247,1,95,8|0,0:0|0:0,0:0:0:0:
484,136,163479,6,0,P|401:161|316:111,1,190,2|8,3:2|0:0,0:0:0:0:
415,17,163953,1,2,0:0:0:0:
502,135,164110,2,0,L|497:242,1,95,0|0,3:0|0:0,0:0:0:0:
342,312,164426,2,0,P|381:294|453:312,1,95,8|0,0:0|0:0,0:0:0:0:
279,181,164742,6,0,B|225:212|225:212|80:196,1,190,6|8,0:0|0:0,0:0:0:0:
209,33,165216,1,0,3:0:0:0:
209,33,165295,1,0,3:0:0:0:
209,33,165374,2,0,L|209:146,1,95,2|0,3:2|0:0,0:0:0:0:
356,203,165689,2,0,P|358:155|317:112,1,95,8|0,0:0|0:0,0:0:0:0:
233,288,166005,6,0,B|282:314|282:314|387:297,1,142.5,4|0,0:0|0:0,0:0:0:0:
392,285,166321,2,0,L|387:383,1,95,8|0,0:0|0:0,0:0:0:0:
506,268,166637,2,0,L|510:173,1,95,0|0,3:0|0:0,0:0:0:0:
360,113,166953,2,0,P|407:159|450:158,1,95,8|0,0:0|0:0,0:0:0:0:
262,211,167268,6,0,L|147:209,1,95,6|0,0:0|0:0,0:0:0:0:
266,89,167584,1,8,0:0:0:0:
349,223,167742,1,0,3:0:0:0:
349,223,167821,1,0,3:0:0:0:
349,223,167900,2,0,P|336:267|294:295,1,95,2|0,3:2|0:0,0:0:0:0:
121,250,168216,1,8,0:0:0:0:
148,110,168374,1,2,0:0:0:0:
158,130,168453,1,2,0:0:0:0:
170,153,168532,5,6,0:0:0:0:
166,0,168689,1,8,0:0:0:0:
51,115,168847,1,8,0:0:0:0:
249,56,169005,1,0,1:2:0:0:
295,52,169083,1,0,1:2:0:0:
336,75,169162,1,0,1:2:0:0:
349,242,169321,1,0,1:2:0:0:
322,281,169399,1,0,1:2:0:0:
281,304,169478,1,0,1:2:0:0:
234,307,169557,1,0,1:2:0:0:
191,289,169636,1,0,1:2:0:0:
159,254,169715,1,0,1:2:0:0:
136,212,169795,6,0,P|131:160|158:120,1,95,6|0,3:2|0:0,0:0:0:0:
251,222,170110,1,8,0:0:0:0:
78,279,170268,2,0,P|99:231|143:210,1,95,2|0,0:0|3:0,0:0:0:0:
123,364,170584,1,2,0:0:0:0:
0,244,170742,1,8,0:0:0:0:
234,149,170900,6,0,L|237:310,1,142.5,6|0,1:2|0:0,0:0:0:0:
266,306,171216,1,0,1:0:0:0:
330,106,171374,6,0,P|307:66|237:54,1,99.7499969558717,2|0,1:2|0:0,0:0:0:0:
220,61,171689,2,0,P|183:69|145:57,1,66.4999979705811,2|0,0:0|0:0,0:0:0:0:
116,56,171926,1,0,3:0:0:0:
116,56,172005,2,0,L|121:133,1,66.4999979705811,0|0,1:0|0:0,0:0:0:0:
257,239,172321,6,0,P|199:208|119:256,1,152,6|8,0:0|0:0,0:0:0:0:
236,317,172795,1,0,0:0:0:0:
339,244,172953,2,0,P|330:202|293:171,1,76,0|0,3:0|0:0,0:0:0:0:
154,144,173268,2,0,P|163:186|200:217,1,76,8|0,0:0|0:0,0:0:0:0:
321,50,173584,6,0,L|154:52,1,152,2|8,3:2|0:0,0:0:0:0:
78,146,174058,1,2,0:0:0:0:
78,146,174216,2,0,L|167:143,1,76,2|0,3:2|0:0,0:0:0:0:
230,279,174532,2,0,L|154:281,1,76,8|0,0:0|0:0,0:0:0:0:
304,144,174847,6,0,P|365:181|360:282,1,152,6|8,0:0|0:0,0:0:0:0:
217,125,175321,2,0,P|262:66|342:67,1,152,2|0,0:0|0:0,0:0:0:0:
241,215,175795,2,0,P|200:219|156:202,1,76,10|0,0:0|0:0,0:0:0:0:
34,115,176110,5,0,3:0:0:0:
152,98,176268,1,0,3:0:0:0:
78,264,176426,2,0,L|79:164,1,76,8|0,0:0|0:0,0:0:0:0:
103,355,176742,1,0,3:0:0:0:
0,298,176900,1,0,3:0:0:0:
165,293,177058,2,0,L|246:289,1,76,8|0,0:0|0:0,0:0:0:0:
468,132,177374,6,0,P|396:140|367:234,1,152,6|8,0:0|0:0,0:0:0:0:
451,330,177847,2,0,B|361:310|389:372|286:353,1,152,2|0,0:0|0:0,0:0:0:0:
246,211,178321,2,0,B|235:374,1,152,10|0,0:0|3:0,0:0:0:0:
175,156,178795,6,0,P|226:118|311:151,1,152,2|0,0:0|0:0,0:0:0:0:
150,254,179268,2,0,P|114:263|78:252,1,76,0|0,3:0|0:0,0:0:0:0:
0,131,179584,2,0,P|36:120|72:129,1,76,8|0,0:0|0:0,0:0:0:0:
238,230,179900,6,0,P|299:248|373:176,1,152,6|8,0:0|0:0,0:0:0:0:
341,30,180374,1,2,0:0:0:0:
341,30,180453,1,0,3:0:0:0:
341,30,180532,1,0,3:0:0:0:
293,166,180689,1,0,3:0:0:0:
437,98,180847,2,0,L|515:99,1,76,8|0,0:0|0:0,0:0:0:0:
508,318,181163,6,0,B|455:320|455:320|415:302|415:302|357:303,1,152,2|8,3:2|0:0,0:0:0:0:
235,373,181637,1,2,0:0:0:0:
216,369,181716,1,2,0:0:0:0:
198,362,181795,1,2,0:0:0:0:
183,351,181874,1,2,0:0:0:0:
170,337,181953,1,2,0:0:0:0:
161,320,182032,1,2,0:0:0:0:
159,303,182110,6,0,L|166:239,1,38,8|0,0:0|0:0,0:0:0:0:
235,150,182268,2,0,L|242:214,1,38,2|0,0:0|0:0,0:0:0:0:
139,52,182426,5,4,0:0:0:0:
351,83,182584,1,2,0:0:0:0:
122,180,182742,1,8,0:0:0:0:
350,222,182900,1,8,0:0:0:0:
139,308,183058,1,8,0:0:0:0:
381,361,183216,5,0,1:0:0:0:
421,353,183295,1,0,1:0:0:0:
456,331,183374,1,0,1:0:0:0:
481,297,183453,1,0,1:0:0:0:
491,257,183532,1,0,1:0:0:0:
485,215,183610,1,0,1:0:0:0:
451,179,183689,5,6,0:0:0:0:
257,262,183847,1,8,0:0:0:0:
456,331,184005,1,8,0:0:0:0:
267,80,184321,6,0,B|181:52|202:105|113:78,1,142.5,2|0,0:0|0:0,0:0:0:0:
33,46,184953,5,2,3:2:0:0:
284,169,192374,5,10,0:0:0:0:
120,188,192532,1,0,3:0:0:0:
273,339,192689,1,8,0:0:0:0:
451,193,192847,1,8,0:0:0:0:
162,274,193005,5,8,0:0:0:0:
387,290,193163,1,8,0:0:0:0:
422,75,193321,1,8,0:0:0:0:
283,218,193479,5,8,0:0:0:0:
489,119,193637,2,0,P|510:73|509:49,2,47.5,6|2|2,0:0|0:0|0:0,0:0:0:0:
257,231,193953,5,0,1:2:0:0:
213,213,194031,1,0,1:2:0:0:
184,176,194110,1,0,1:2:0:0:
273,313,194268,1,0,1:2:0:0:
317,295,194346,1,0,1:2:0:0:
346,258,194425,1,0,1:2:0:0:
218,86,194584,1,0,1:2:0:0:
170,85,194662,1,0,1:2:0:0:
128,105,194741,1,0,1:2:0:0:
100,143,194820,1,0,1:2:0:0:
93,190,194899,1,0,1:2:0:0:
108,234,194978,1,0,1:2:0:0:
154,263,195058,5,6,3:2:0:0:
293,121,195216,1,2,0:0:0:0:
68,32,195374,1,8,0:0:0:0:
219,191,195532,1,0,3:0:0:0:
219,191,195610,1,0,3:0:0:0:
219,191,195689,1,2,3:2:0:0:
342,0,195847,1,0,3:0:0:0:
128,105,196005,1,8,0:0:0:0:
309,268,196163,6,0,P|353:243|373:189,1,104.500003189087,2|0,3:2|3:0,0:0:0:0:
206,239,196479,2,0,P|205:289|241:334,1,104.500003189087,2|8,0:0|0:0,0:0:0:0:
415,323,196795,1,2,3:2:0:0:
415,323,196874,1,0,3:0:0:0:
415,323,196953,1,0,3:0:0:0:
289,189,197110,2,0,P|239:200|206:239,1,104.500003189087,2|8,3:2|0:0,0:0:0:0:
316,365,197426,1,0,0:0:0:0:
371,152,197584,6,0,B|317:114|317:114|156:120,1,209.000006378174,6|8,3:2|0:0,0:0:0:0:
175,346,198058,1,0,3:0:0:0:
175,346,198137,1,0,3:0:0:0:
175,346,198216,1,0,3:0:0:0:
289,189,198374,1,0,3:0:0:0:
88,262,198532,1,8,0:0:0:0:
353,265,198689,6,0,B|403:251|424:198|424:198|413:129|334:114,1,209.000006378174,2|0,3:2|0:0,0:0:0:0:
258,266,199163,1,8,0:0:0:0:
425,357,199321,1,0,3:0:0:0:
425,357,199400,1,0,3:0:0:0:
425,357,199479,1,2,3:2:0:0:
341,191,199637,1,0,3:0:0:0:
201,349,199795,2,0,L|307:350,1,104.500003189087,10|0,0:0|0:0,0:0:0:0:
155,182,200110,5,6,0:0:0:0:
87,358,200268,1,2,0:0:0:0:
20,141,200426,1,8,0:0:0:0:
137,288,200584,1,0,3:0:0:0:
137,288,200663,1,0,3:0:0:0:
137,288,200742,1,2,3:2:0:0:
141,69,200900,1,0,3:0:0:0:
40,250,201058,1,8,0:0:0:0:
291,269,201216,6,0,P|343:240|364:184,1,104.500003189087,2|0,3:2|3:0,0:0:0:0:
195,245,201532,2,0,P|246:242|291:269,1,104.500003189087,2|8,0:0|0:0,0:0:0:0:
141,380,201847,1,2,3:2:0:0:
141,380,201926,1,0,3:0:0:0:
141,380,202005,1,0,3:0:0:0:
78,200,202163,2,0,P|100:154|146:128,1,104.500003189087,2|8,3:2|0:0,0:0:0:0:
195,245,202479,1,0,0:0:0:0:
37,113,202637,6,0,L|276:113,1,209.000006378174,6|8,3:2|0:0,0:0:0:0:
344,251,203110,1,0,3:0:0:0:
344,251,203189,1,0,3:0:0:0:
344,251,203268,2,0,P|369:199|354:148,1,104.500003189087,0|0,3:0|3:0,0:0:0:0:
195,265,203584,1,8,0:0:0:0:
410,340,203742,6,0,B|448:291|448:291|450:134,1,209.000006378174,6|0,3:2|1:0,0:0:0:0:
429,117,204137,1,0,1:0:0:0:
400,114,204216,1,0,1:0:0:0:
305,313,204374,1,0,1:2:0:0:
305,313,204453,1,0,1:2:0:0:
305,313,204532,1,0,1:2:0:0:
226,108,204689,1,0,1:2:0:0:
250,96,204768,1,0,1:2:0:0:
266,117,204847,5,0,1:2:0:0:
310,131,204925,1,0,1:2:0:0:
356,131,205004,1,0,1:2:0:0:
400,114,205083,1,0,1:2:0:0:
440,79,205163,6,0,L|421:272,1,190,4|8,0:0|0:0,0:0:0:0:
264,323,205637,1,0,3:0:0:0:
264,323,205716,1,0,3:0:0:0:
264,323,205795,2,0,P|312:309|362:325,1,95,2|0,3:2|0:0,0:0:0:0:
430,178,206110,2,0,L|318:169,1,95,8|0,0:0|0:0,0:0:0:0:
98,106,206426,6,0,P|185:136|184:252,1,190,2|8,3:2|0:0,0:0:0:0:
124,336,206900,1,2,0:0:0:0:
33,231,207058,2,0,P|70:202|116:191,1,95,0|0,3:0|0:0,0:0:0:0:
287,149,207374,2,0,P|257:113|250:67,1,95,8|0,0:0|0:0,0:0:0:0:
462,96,207689,6,0,L|463:292,1,190,6|8,0:0|0:0,0:0:0:0:
269,247,208163,1,0,3:0:0:0:
269,247,208242,1,0,3:0:0:0:
269,247,208321,2,0,L|369:226,1,95,2|0,3:2|0:0,0:0:0:0:
241,366,208637,2,0,P|193:358|157:316,1,95,8|0,0:0|0:0,0:0:0:0:
73,145,208953,6,0,B|173:181|170:96|286:143,1,190,2|8,3:2|0:0,0:0:0:0:
358,233,209426,1,2,0:0:0:0:
231,295,209584,2,0,P|209:254|218:205,1,95,0|0,3:0|0:0,0:0:0:0:
319,77,209900,2,0,P|341:118|332:167,1,95,8|0,0:0|0:0,0:0:0:0:
104,185,210216,6,0,P|136:138|263:139,1,190,6|8,0:0|0:0,0:0:0:0:
155,38,210689,1,0,3:0:0:0:
155,38,210768,1,0,3:0:0:0:
155,38,210847,2,0,P|109:49|72:86,1,95,2|0,3:2|0:0,0:0:0:0:
200,206,211163,2,0,P|189:160|152:123,1,95,8|0,0:0|0:0,0:0:0:0:
15,269,211479,6,0,B|57:306|57:306|156:290,1,142.5,6|0,0:0|0:0,0:0:0:0:
170,283,211795,2,0,L|183:384,1,95,8|0,0:0|0:0,0:0:0:0:
304,290,212110,2,0,L|291:195,1,95,0|0,3:0|0:0,0:0:0:0:
157,126,212426,2,0,P|217:129|264:94,1,95,8|0,0:0|0:0,0:0:0:0:
152,286,212742,6,0,L|53:288,1,95,6|0,0:0|0:0,0:0:0:0:
217,357,213058,1,8,0:0:0:0:
197,216,213216,1,0,3:0:0:0:
197,216,213295,1,0,3:0:0:0:
197,216,213374,2,0,L|98:218,1,95,2|0,3:2|0:0,0:0:0:0:
270,297,213689,1,8,0:0:0:0:
296,155,213847,1,2,0:0:0:0:
288,177,213926,1,2,0:0:0:0:
280,200,214005,5,6,0:0:0:0:
326,42,214163,1,8,0:0:0:0:
167,120,214321,1,8,0:0:0:0:
361,205,214479,1,0,1:2:0:0:
375,159,214557,1,0,1:2:0:0:
357,117,214636,1,0,1:2:0:0:
197,216,214795,1,0,1:2:0:0:
194,262,214873,1,0,1:2:0:0:
214,305,214952,1,0,1:2:0:0:
250,335,215031,1,0,1:2:0:0:
296,346,215110,1,0,1:2:0:0:
342,335,215189,1,0,1:2:0:0:
373,299,215268,6,0,L|360:199,1,95,6|0,3:2|0:0,0:0:0:0:
284,75,215584,1,8,0:0:0:0:
176,230,215742,2,0,P|227:244|279:221,1,95,2|0,0:0|3:0,0:0:0:0:
391,91,216058,1,2,0:0:0:0:
223,169,216216,1,8,0:0:0:0:
444,335,216374,6,0,L|426:184,1,142.5,6|0,1:2|0:0,0:0:0:0:
396,172,216689,1,0,1:0:0:0:
337,374,216847,6,0,P|290:383|230:356,1,99.7499969558717,2|0,1:2|0:0,0:0:0:0:
207,346,217163,2,0,P|169:338|131:342,1,66.4999979705811,2|0,0:0|0:0,0:0:0:0:
106,353,217400,1,0,3:0:0:0:
106,353,217479,2,0,L|93:277,1,66.4999979705811,0|0,1:0|0:0,0:0:0:0:
184,114,217795,6,0,P|233:94|332:135,1,152,6|8,0:0|0:0,0:0:0:0:
408,223,218268,1,0,0:0:0:0:
281,269,218426,2,0,P|252:224|251:190,1,76,2|0,3:2|0:0,0:0:0:0:
405,147,218742,2,0,L|408:245,1,76,8|0,0:0|0:0,0:0:0:0:
206,304,219058,6,0,L|393:306,1,152,2|8,3:2|0:0,0:0:0:0:
501,384,219532,1,2,0:0:0:0:
501,384,219689,2,0,P|512:338|503:306,1,76,2|0,3:2|0:0,0:0:0:0:
357,305,220005,2,0,P|345:350|354:382,1,76,8|0,0:0|0:0,0:0:0:0:
481,194,220321,6,0,B|445:158|445:158|332:162,1,152,6|8,0:0|0:0,0:0:0:0:
256,261,220795,1,0,0:0:0:0:
165,145,220953,2,0,L|255:142,1,76,0|0,3:0|0:0,0:0:0:0:
333,60,221268,2,0,L|257:62,1,76,8|0,0:0|0:0,0:0:0:0:
92,140,221584,6,0,P|129:132|165:145,1,76,6|0,0:0|0:0,0:0:0:0:
259,238,221900,1,8,0:0:0:0:
116,290,222058,2,0,L|123:186,1,76,2|0,0:0|3:0,0:0:0:0:
181,355,222374,1,2,0:0:0:0:
30,336,222532,2,0,L|37:232,1,76,8|0,0:0|0:0,0:0:0:0:
127,132,222847,5,6,0:0:0:0:
223,184,223005,1,0,0:0:0:0:
121,214,223163,1,2,0:0:0:0:
208,104,223321,1,2,0:0:0:0:
234,263,223479,2,0,L|234:348,1,76,2|0,0:0|0:0,0:0:0:0:
359,259,223795,2,0,L|359:183,1,76,2|0,0:0|0:0,0:0:0:0:
297,43,224110,5,2,0:0:0:0:
391,96,224268,1,2,0:0:0:0:
289,126,224426,2,0,L|205:122,1,76,2|0,0:0|0:0,0:0:0:0:
124,156,224742,2,0,P|154:190|160:228,1,76,2|0,0:0|0:0,0:0:0:0:
93,299,225058,1,2,0:0:0:0:
190,293,225216,1,0,0:0:0:0:
85,222,225374,6,0,L|7:221,1,76,2|0,0:0|0:0,0:0:0:0:
93,299,225689,1,2,0:0:0:0:
160,219,225847,1,2,0:0:0:0:
85,138,226005,2,0,L|7:137,1,76,2|0,0:0|0:0,0:0:0:0:
137,52,226321,2,0,P|175:83|188:121,1,76,2|0,0:0|0:0,0:0:0:0:
192,203,226637,5,2,0:0:0:0:
276,148,226795,1,2,0:0:0:0:
185,106,226953,2,0,L|193:191,1,76,2|0,0:0|0:0,0:0:0:0:
218,290,227268,2,0,P|247:263|283:253,1,76,2|0,0:0|0:0,0:0:0:0:
339,184,227584,2,0,P|310:157|274:147,1,76,2|0,0:0|0:0,0:0:0:0:
377,270,227900,5,2,0:0:0:0:
256,192,227979,12,0,230426,0:0:0:0:
