osu file format v14

[General]
AudioFilename: audio.mp3
AudioLeadIn: 0
PreviewTime: 244130
Countdown: 0
SampleSet: Soft
StackLeniency: 0.7
Mode: 0
LetterboxInBreaks: 0
WidescreenStoryboard: 0

[Editor]
Bookmarks: 187730,213530,245530,274330,296730,315930,341530,367130,386730
DistanceSpacing: 1.3
BeatDivisor: 4
GridSize: 8
TimelineZoom: 3.199999

[Metadata]
Title:Tsukisome
TitleUnicode:ツキソメ
Artist:Rita
ArtistUnicode:Rita
Creator:AdveNt
Version:Moonlight
Source:月染の枷鎖 -the end of scarlet luna-
Tags:tellmico tellmiko japanese pop jpop eroge video game ひよこソフト Hiyoko Soft tsukisome no kasa 飛燕 hien Blasterhead OP opening
BeatmapID:3564270
BeatmapSetID:1743499

[Difficulty]
HPDrainRate:5
CircleSize:4
OverallDifficulty:9
ApproachRate:9.3
SliderMultiplier:1.6
SliderTickRate:1

[Events]
//Background and Video events
0,0,"t.png",0,0
//Break Periods
2,159330,168176
2,277530,282330
//Storyboard Layer 0 (Background)
//Storyboard Layer 1 (Fail)
//Storyboard Layer 2 (Pass)
//Storyboard Layer 3 (Foreground)
//Storyboard Layer 4 (Overlay)
//Storyboard Sound Samples

[TimingPoints]
730,400,4,2,1,60,1,0
15130,-166.666666666667,4,2,1,60,0,0
27930,-125,4,2,1,60,0,0
40730,-166.666666666667,4,2,1,60,0,0
42230,-166.666666666667,4,2,1,5,0,0
42330,-166.666666666667,4,2,1,60,0,0
44730,-125,4,2,1,60,0,0
46330,-500.000000000003,4,2,1,60,0,0
47130,-100,4,2,1,60,0,0
66330,-166.666666666667,4,2,1,60,0,0
72730,-100,4,2,1,60,0,0
85530,-83.3333333333333,4,2,1,60,0,0
98330,-133.333333333333,4,2,1,60,0,0
129130,-100,4,2,1,40,0,0
130330,-66.6666666666667,4,2,1,75,0,1
155130,-500,4,2,1,75,0,1
155830,-500,4,2,1,5,0,1
155930,-500,4,2,1,60,0,0
157530,-500,4,2,1,40,0,0
159130,-500,4,2,1,20,0,0
168730,-100,4,2,1,30,0,0
187730,-200,4,2,1,30,0,0
187930,-100,4,2,1,40,0,0
188330,-125,4,2,1,40,0,0
190730,-111.111111111111,4,2,1,40,0,0
191130,-100,4,2,1,40,0,0
192330,-250,4,2,1,40,0,0
192730,-100,4,2,1,40,0,0
193130,-76.9230769230769,4,2,1,40,0,0
193930,-100,4,2,1,40,0,0
203930,-83.3333333333333,4,2,1,40,0,0
204330,-100,4,2,1,40,0,0
205530,-100,4,2,1,40,0,0
207130,-83.3333333333333,4,2,1,40,0,0
209130,-100,4,2,1,40,0,0
213130,-200,4,2,1,40,0,0
213530,-66.6666666666667,4,2,1,60,0,0
213930,-90.9090909090909,4,2,1,60,0,0
243930,-71.4285714285714,4,2,1,60,0,0
244230,-71.4285714285714,4,2,1,5,0,0
244330,-100,4,2,1,40,0,0
245030,-100,4,2,1,5,0,0
245130,-55.5555555555556,4,2,1,20,0,0
245530,-55.5555555555556,4,2,1,75,0,1
250530,-250,4,2,1,75,0,1
250730,-125,4,2,1,75,0,1
250930,-76.9230769230769,4,2,1,75,0,1
251130,-55.5555555555556,4,2,1,75,0,1
251530,-45.4545454545455,4,2,1,75,0,1
252130,-55.5555555555556,4,2,1,75,0,1
255130,-50,4,2,1,75,0,1
256330,-45.4545454545455,4,2,1,75,0,1
257730,-250,4,2,1,75,0,1
258330,-45.4545454545455,4,2,1,75,0,1
263530,-50,4,2,1,75,0,1
264330,-55.5555555555556,4,2,1,75,0,1
270330,-43.4782608695652,4,2,1,75,0,1
270730,-55.5555555555556,4,2,1,75,0,1
271130,-55.5555555555556,4,2,1,75,0,0
274330,-55.5555555555556,4,2,1,50,0,0
283930,-200,4,2,1,40,0,0
296330,-333.333333333333,4,2,1,20,0,0
296730,-200,4,2,1,50,0,0
306230,-200,4,2,1,5,0,0
306330,-200,4,2,1,50,0,0
313130,-142.857142857143,4,2,1,50,0,0
313430,-111.111111111111,4,2,1,50,0,0
313730,-90.9090909090908,4,2,1,50,0,0
314730,-500,4,2,1,50,0,0
315430,-500,4,2,1,5,0,0
315530,-83.3333333333333,4,2,1,50,0,0
315930,-50,4,2,1,75,0,1
340730,-500,4,2,1,75,0,1
341530,-52.6315789473684,4,2,1,75,0,1
345530,-71.4285714285714,4,2,1,75,0,1
345730,-52.6315789473684,4,2,1,75,0,1
347930,-43.4782608695652,4,2,1,75,0,1
360730,-35.7142857142857,4,2,1,75,0,1
361130,-41.6666666666667,4,2,1,75,0,1
361530,-43.4782608695652,4,2,1,75,0,1
364130,-45.4545454545455,4,2,1,75,0,1
367130,-45.4545454545455,4,2,1,70,0,0
370330,-45.4545454545455,4,2,1,65,0,0
370730,-66.6666666666667,4,2,1,65,0,0
371330,-200,4,2,1,65,0,0
372330,-100,4,2,1,65,0,0
372930,-333.333333333333,4,2,1,65,0,0
373530,-100,4,2,1,60,0,0
380630,-100,4,2,1,5,0,0
380730,-100,4,2,1,60,0,0
381430,-100,4,2,1,5,0,0
381530,-100,4,2,1,60,0,0
382230,-100,4,2,1,5,0,0
382330,-100,4,2,1,60,0,0
383030,-100,4,2,1,5,0,0
383130,-100,4,2,1,60,0,0
384630,-100,4,2,1,5,0,0
384730,-100,4,2,1,60,0,0
386730,-100,4,2,1,5,0,0

[Colours]
Combo1 : 145,200,255
Combo2 : 43,143,255
Combo3 : 0,187,187
Combo4 : 62,96,255

[HitObjects]
327,95,15130,6,0,P|386:146|217:172,1,383.99998828125,4|2,3:0|0:0,0:0:0:0:
217,189,17130,2,0,P|191:178|160:177,1,47.9999985351563
93,197,17530,2,0,P|135:208|174:164,1,95.9999970703126
152,50,18130,6,0,B|120:98|120:98|136:114|136:114|163:263|163:263|180:275|180:275|150:364|150:364|93:300,1,431.999986816407,0|2,0:0|0:0,0:0:0:0:
93,300,20330,2,0,P|128:281|149:282,1,47.9999985351563
209,337,20730,2,0,P|248:339|296:302,1,95.9999970703126
342,232,21330,6,0,B|360:210|353:178|353:178|376:170|411:136|411:136|396:185|401:215,1,191.999994140625,2|0,0:0|0:0,0:0:0:0:
271,196,22330,2,0,B|258:160|258:160|215:157|215:157|228:199|228:199|268:200,1,143.999995605469,2|0,0:0|0:0,0:0:0:0:
336,234,23130,2,0,B|346:262|376:278|376:278|353:315|348:362|348:362|336:318|307:284|307:284|331:264|337:235,1,287.999991210938,2|0,0:0|0:0,0:0:0:0:
324,138,24530,5,0,0:0:0:0:
324,138,24730,2,0,B|322:73|252:26|252:26|225:96,1,191.999994140625,2|0,0:0|0:0,0:0:0:0:
172,130,25730,2,0,P|203:157|221:157,1,47.9999985351563
208,157,26130,2,0,P|169:139|116:168,1,95.9999970703126,2|0,0:0|0:0,0:0:0:0:
44,258,26730,6,0,L|49:312,1,47.9999985351563
109,197,27130,2,0,L|59:174,1,47.9999985351563
125,284,27530,2,0,L|169:252,1,47.9999985351563
306,171,27930,5,6,0:0:0:0:
230,131,28130,1,2,0:0:0:0:
230,131,28230,1,2,0:0:0:0:
230,131,28330,2,0,L|181:125,1,32,2|2,0:0|0:0,0:0:0:0:
132,54,28530,2,0,L|172:45,1,32,2|2,0:0|0:0,0:0:0:0:
249,23,28730,2,0,L|246:111,1,64,2|2,0:0|0:0,0:0:0:0:
109,262,29130,1,2,0:0:0:0:
81,246,29230,1,2,0:0:0:0:
68,217,29330,1,2,0:0:0:0:
75,187,29430,1,2,0:0:0:0:
99,166,29530,5,2,0:0:0:0:
220,240,29730,1,2,0:0:0:0:
220,240,29830,1,2,0:0:0:0:
220,240,29930,2,0,L|216:294,1,32,2|2,0:0|0:0,0:0:0:0:
137,367,30130,2,0,L|141:313,1,32,2|2,0:0|0:0,0:0:0:0:
287,358,30330,2,0,L|195:350,1,64,2|2,0:0|0:0,0:0:0:0:
422,167,30730,1,2,0:0:0:0:
452,173,30830,1,2,0:0:0:0:
474,196,30930,1,2,0:0:0:0:
479,227,31030,1,2,0:0:0:0:
465,256,31130,5,2,0:0:0:0:
315,199,31330,1,2,0:0:0:0:
315,199,31430,1,2,0:0:0:0:
315,199,31530,2,0,L|306:142,1,32,2|2,0:0|0:0,0:0:0:0:
396,95,31730,2,0,L|387:152,1,32,2|2,0:0|0:0,0:0:0:0:
256,102,31930,2,0,L|339:84,1,64,2|2,0:0|0:0,0:0:0:0:
75,28,32330,1,2,0:0:0:0:
43,32,32430,1,2,0:0:0:0:
23,56,32530,1,2,0:0:0:0:
21,87,32630,1,2,0:0:0:0:
40,112,32730,5,2,0:0:0:0:
171,154,32930,1,2,0:0:0:0:
171,154,33030,1,2,0:0:0:0:
171,154,33130,2,0,L|180:109,1,32,2|2,0:0|0:0,0:0:0:0:
111,20,33330,2,0,L|102:65,1,32,2|2,0:0|0:0,0:0:0:0:
253,61,33530,2,0,L|169:47,1,64,2|2,0:0|0:0,0:0:0:0:
349,223,33930,1,2,0:0:0:0:
380,216,34030,1,2,0:0:0:0:
411,210,34130,1,2,0:0:0:0:
443,204,34230,1,2,0:0:0:0:
474,198,34330,5,2,0:0:0:0:
346,327,34530,1,2,0:0:0:0:
346,327,34630,1,2,0:0:0:0:
346,327,34730,2,0,L|299:312,1,32,2|2,0:0|0:0,0:0:0:0:
224,351,34930,2,0,L|201:307,1,32,2|2,0:0|0:0,0:0:0:0:
125,290,35130,2,0,L|134:219,1,64,2|2,0:0|0:0,0:0:0:0:
91,41,35530,5,2,0:0:0:0:
85,72,35630,1,2,0:0:0:0:
79,103,35730,1,2,0:0:0:0:
73,135,35830,1,2,0:0:0:0:
67,166,35930,5,2,0:0:0:0:
172,252,36130,1,2,0:0:0:0:
172,252,36230,1,2,0:0:0:0:
172,252,36330,2,0,L|219:237,1,32,2|2,0:0|0:0,0:0:0:0:
294,276,36530,2,0,L|317:232,1,32,2|2,0:0|0:0,0:0:0:0:
393,215,36730,2,0,L|384:144,1,64,2|2,0:0|0:0,0:0:0:0:
259,22,37130,1,2,0:0:0:0:
256,53,37230,1,2,0:0:0:0:
254,85,37330,1,2,0:0:0:0:
251,117,37430,1,2,0:0:0:0:
249,149,37530,6,0,L|247:188,3,32,2|0|2|0,0:0|0:0|0:0|0:0,0:0:0:0:
303,273,37930,2,0,L|307:236,1,32,2|2,0:0|0:0,0:0:0:0:
160,188,38130,2,0,L|156:225,1,32,2|2,0:0|0:0,0:0:0:0:
391,188,38330,2,0,P|365:161|312:166,1,64,2|2,0:0|0:0,0:0:0:0:
95,315,38730,1,2,0:0:0:0:
122,331,38830,1,2,0:0:0:0:
153,339,38930,1,2,0:0:0:0:
185,339,39030,1,2,0:0:0:0:
215,331,39130,5,2,0:0:0:0:
423,230,39330,1,2,0:0:0:0:
423,230,39430,1,2,0:0:0:0:
423,230,39530,2,0,L|409:189,1,32,2|2,0:0|0:0,0:0:0:0:
336,281,39730,2,0,L|350:322,1,32,2|2,0:0|0:0,0:0:0:0:
321,195,39930,2,0,L|237:180,1,64,2|2,0:0|0:0,0:0:0:0:
126,98,40330,1,2,0:0:0:0:
157,94,40430,1,2,0:0:0:0:
189,91,40530,1,2,0:0:0:0:
221,87,40630,1,2,0:0:0:0:
253,84,40730,6,0,B|337:98|356:198|356:198|326:319|451:347,1,359.999989013672,4|0,3:0|0:0,0:0:0:0:
471,332,42330,6,0,L|481:305,3,23.9999992675781,2|2|2|2,0:0|0:0|0:0|0:0,0:0:0:0:
406,236,42730,6,0,L|416:263,3,23.9999992675781,2|2|2|2,0:0|0:0|0:0|0:0,0:0:0:0:
340,369,43130,6,0,L|350:342,3,23.9999992675781,2|2|2|2,0:0|0:0|0:0|0:0,0:0:0:0:
261,252,43530,6,0,L|271:279,3,23.9999992675781,2|2|2|2,0:0|0:0|0:0|0:0,0:0:0:0:
200,358,43930,5,8,0:0:0:0:
188,356,44030,1,8,0:0:0:0:
176,354,44130,1,8,0:0:0:0:
164,352,44230,1,8,0:0:0:0:
152,350,44330,1,8,0:0:0:0:
140,348,44430,1,8,0:0:0:0:
128,346,44530,1,8,0:0:0:0:
117,344,44630,1,8,0:0:0:0:
105,343,44730,5,8,0:0:0:0:
83,319,44830,1,8,0:0:0:0:
72,289,44930,1,8,0:0:0:0:
75,258,45030,1,8,0:0:0:0:
90,230,45130,1,8,0:0:0:0:
118,202,45230,1,8,0:0:0:0:
131,165,45330,1,8,0:0:0:0:
125,126,45430,1,8,0:0:0:0:
101,94,45530,5,8,0:0:0:0:
64,123,45630,1,8,0:0:0:0:
48,168,45730,1,8,0:0:0:0:
59,214,45830,1,8,0:0:0:0:
94,246,45930,1,8,0:0:0:0:
140,255,46030,1,8,0:0:0:0:
184,236,46130,1,8,0:0:0:0:
211,197,46230,1,8,0:0:0:0:
212,150,46330,6,0,L|154:140,1,56,4|0,1:0|0:0,0:0:0:0:
79,127,47130,5,4,3:0:0:0:
79,127,47230,1,2,0:0:0:0:
300,266,47530,6,0,P|328:278|379:257,1,80,2|0,0:0|0:0,0:0:0:0:
407,198,47830,2,0,P|382:216|375:270,1,80,2|0,0:0|0:0,0:0:0:0:
411,324,48130,2,0,P|407:293|363:260,2,80,2|0|2,0:0|0:0|0:0,0:0:0:0:
317,339,48730,5,2,0:0:0:0:
317,339,48830,1,2,0:0:0:0:
166,273,49130,6,0,P|154:245|175:194,1,80,2|0,0:0|0:0,0:0:0:0:
234,166,49430,2,0,P|215:190|161:197,1,80,2|0,0:0|0:0,0:0:0:0:
108,162,49730,2,0,P|138:165|171:209,2,80,2|0|2,0:0|0:0|0:0,0:0:0:0:
45,83,50330,5,2,0:0:0:0:
45,83,50430,1,2,0:0:0:0:
310,201,50730,6,0,P|338:189|359:138,1,80,2|0,0:0|0:0,0:0:0:0:
337,77,51030,2,0,P|332:107|366:150,1,80,2|0,0:0|0:0,0:0:0:0:
429,163,51330,2,0,P|405:144|350:151,2,80,2|0|2,0:0|0:0|0:0,0:0:0:0:
379,236,51930,5,2,0:0:0:0:
379,236,52030,1,2,0:0:0:0:
239,299,52330,6,0,P|211:311|160:290,1,80,2|0,0:0|0:0,0:0:0:0:
132,231,52630,2,0,P|156:249|163:303,1,80,2|0,0:0|0:0,0:0:0:0:
128,357,52930,2,0,P|131:326|175:293,2,80,2|0|2,0:0|0:0|0:0,0:0:0:0:
46,277,53530,5,2,0:0:0:0:
46,277,53630,1,2,0:0:0:0:
225,218,53930,6,0,P|245:180|234:137,1,80,2|0,0:0|0:0,0:0:0:0:
165,87,54230,1,2,0:0:0:0:
165,87,54330,2,0,P|122:83|92:50,2,80,0|2|0,0:0|0:0|0:0,0:0:0:0:
248,61,54830,1,0,0:0:0:0:
275,49,54930,1,2,0:0:0:0:
305,47,55030,1,0,0:0:0:0:
378,106,55130,5,2,0:0:0:0:
378,106,55230,1,2,0:0:0:0:
454,257,55530,6,0,P|416:277|373:266,1,80,2|0,0:0|0:0,0:0:0:0:
323,197,55830,1,2,0:0:0:0:
323,197,55930,2,0,P|319:154|286:124,2,80,0|2|0,0:0|0:0|0:0,0:0:0:0:
292,276,56430,1,0,0:0:0:0:
280,304,56530,1,2,0:0:0:0:
278,334,56630,1,0,0:0:0:0:
347,384,56730,5,2,0:0:0:0:
347,383,56830,1,2,0:0:0:0:
206,187,57130,6,0,P|168:167|125:178,1,80,2|0,0:0|0:0,0:0:0:0:
75,247,57430,1,2,0:0:0:0:
75,247,57530,2,0,P|71:289|38:319,2,80,0|2|0,0:0|0:0|0:0,0:0:0:0:
49,164,58030,1,0,0:0:0:0:
37,136,58130,1,2,0:0:0:0:
35,106,58230,1,0,0:0:0:0:
91,41,58330,5,2,0:0:0:0:
91,42,58430,1,2,0:0:0:0:
301,29,58730,6,0,P|321:67|310:110,1,80,2|0,0:0|0:0,0:0:0:0:
241,160,59030,1,2,0:0:0:0:
241,160,59130,2,0,P|198:163|168:196,2,80,0|2|0,0:0|0:0|0:0,0:0:0:0:
324,186,59630,1,0,0:0:0:0:
351,197,59730,1,2,0:0:0:0:
381,199,59830,1,0,0:0:0:0:
444,143,59930,5,6,3:0:0:0:
444,144,60030,1,2,0:0:0:0:
172,310,60330,6,0,B|113:318|113:318|142:298,1,80,2|0,0:0|0:0,0:0:0:0:
210,240,60630,2,0,B|269:232|269:232|240:252,1,80,2|0,0:0|0:0,0:0:0:0:
252,243,60930,2,0,B|223:206|223:206|222:145,2,80,2|0|2,0:0|0:0|0:0,0:0:0:0:
340,310,61530,5,2,0:0:0:0:
340,310,61630,1,2,0:0:0:0:
340,310,61930,6,0,B|399:318|399:318|370:298,1,80,2|0,0:0|0:0,0:0:0:0:
302,240,62230,2,0,B|243:232|243:232|272:252,1,80,2|0,0:0|0:0,0:0:0:0:
260,243,62530,2,0,B|289:206|289:206|290:145,2,80,2|0|2,0:0|0:0|0:0,0:0:0:0:
136,211,63130,5,2,0:0:0:0:
136,211,63230,1,2,0:0:0:0:
136,211,63530,6,0,B|77:219|77:219|106:199,1,80,2|0,0:0|0:0,0:0:0:0:
174,141,63830,2,0,B|233:133|233:133|204:153,1,80,2|0,0:0|0:0,0:0:0:0:
216,144,64130,2,0,B|187:107|187:107|186:46,2,80,2|0|2,0:0|0:0|0:0,0:0:0:0:
379,149,64730,5,2,0:0:0:0:
379,149,64830,1,2,0:0:0:0:
379,149,65130,6,0,B|438:157|438:157|409:137,1,80,2|0,0:0|0:0,0:0:0:0:
341,79,65430,2,0,B|282:71|282:71|311:91,1,80,2|0,0:0|0:0,0:0:0:0:
299,82,65730,2,0,B|328:45|328:45|329:-16,2,80,2|0|2,0:0|0:0|0:0,0:0:0:0:
82,96,66330,6,0,P|76:32|141:48,1,143.999995605469,6|0,0:0|0:0,0:0:0:0:
163,122,67130,2,0,B|214:162|157:206|221:257,1,143.999995605469
293,291,67930,2,0,B|329:280|329:280|387:284|387:284|361:253|345:244,1,143.999995605469
308,87,68730,2,0,P|272:123|295:217,1,143.999995605469
436,281,69530,6,0,P|453:251|372:229,1,143.999995605469
348,307,70330,2,0,L|192:285,1,143.999995605469
126,252,71130,6,0,L|123:224,3,23.9999992675781
71,165,71530,2,0,L|88:143,3,23.9999992675781
83,69,71930,2,0,L|104:64,6,11.9999996337891
83,69,72330,6,0,L|160:61,1,71.9999978027344
218,19,72730,6,0,P|235:44|234:72,1,40,4|0,1:0|0:0,0:0:0:0:
178,209,72930,2,0,P|161:184|162:156,1,40
264,132,73130,1,0,3:0:0:0:
291,127,73230,2,0,L|375:112,1,80,0|2,0:0|0:0,0:0:0:0:
398,108,73530,5,0,3:0:0:0:
271,47,73730,1,0,0:0:0:0:
382,198,73930,1,0,3:0:0:0:
409,202,74030,2,0,P|464:178|477:150,1,80,0|2,0:0|0:0,0:0:0:0:
314,145,74330,6,0,P|297:170|298:198,1,40,0|0,3:0|0:0,0:0:0:0:
354,335,74530,2,0,P|371:310|370:282,1,40
268,258,74730,1,0,3:0:0:0:
241,253,74830,2,0,L|157:238,1,80,0|2,0:0|0:0,0:0:0:0:
131,232,75130,1,0,3:0:0:0:
186,353,75330,1,0,0:0:0:0:
287,150,75530,1,0,3:0:0:0:
314,145,75630,2,0,L|398:130,1,80,0|2,0:0|0:0,0:0:0:0:
415,128,75930,5,0,3:0:0:0:
314,265,76130,1,0,0:0:0:0:
233,81,76330,1,0,3:0:0:0:
213,101,76430,2,0,P|192:141|203:182,1,80,0|2,0:0|0:0,0:0:0:0:
274,271,76730,2,0,L|344:260,1,40,0|0,3:0|0:0,0:0:0:0:
179,319,76930,2,0,L|109:308,1,40
276,368,77130,1,0,3:0:0:0:
303,363,77230,2,0,L|387:348,1,80,0|2,0:0|0:0,0:0:0:0:
449,308,77530,6,0,P|465:281|463:261,1,40,0|0,3:0|0:0,0:0:0:0:
369,167,77730,2,0,P|353:194|355:214,1,40
456,149,77930,1,0,3:0:0:0:
456,149,78030,2,0,P|435:100|398:87,1,80,0|2,0:0|0:0,0:0:0:0:
381,88,78330,1,0,3:0:0:0:
328,260,78530,1,0,0:0:0:0:
186,186,78730,1,0,3:0:0:0:
198,160,78830,2,0,P|263:130|280:135,1,80,0|2,0:0|0:0,0:0:0:0:
275,121,79130,6,0,L|180:102,2,80,0|0|0,3:0|0:0|3:0,0:0:0:0:
346,196,79630,2,0,P|380:166|379:119,1,80,0|2,0:0|0:0,0:0:0:0:
356,20,79930,2,0,P|325:60|324:73,1,40,0|0,3:0|0:0,0:0:0:0:
223,71,80130,2,0,P|229:121|237:131,1,40
160,196,80330,1,0,3:0:0:0:
180,214,80430,2,0,L|278:196,1,80,0|2,0:0|0:0,0:0:0:0:
100,288,80730,6,0,P|61:333|60:357,2,80,0|0|0,3:0|0:0|3:0,0:0:0:0:
180,214,81230,2,0,L|172:105,1,80,0|2,0:0|0:0,0:0:0:0:
99,78,81530,2,0,L|60:74,1,40,0|0,3:0|0:0,0:0:0:0:
196,27,81730,2,0,L|237:19,1,40
354,152,81930,1,0,3:0:0:0:
331,170,82030,2,0,P|296:142|321:109,1,80,0|2,0:0|0:0,0:0:0:0:
421,88,82330,6,0,L|416:-4,2,80,0|0|0,3:0|0:0|3:0,0:0:0:0:
425,179,82830,2,0,L|430:280,1,80,0|2,0:0|0:0,0:0:0:0:
434,350,83130,2,0,L|486:360,1,40,0|0,3:0|0:0,0:0:0:0:
428,258,83330,2,0,L|376:248,1,40
312,319,83530,1,0,3:0:0:0:
281,325,83630,2,0,L|186:336,1,80,0|2,0:0|0:0,0:0:0:0:
124,300,83930,6,0,P|69:291|44:255,2,80,0|0|0,3:0|0:0|3:0,0:0:0:0:
201,254,84430,2,0,L|210:143,1,80,0|2,0:0|0:0,0:0:0:0:
184,77,84730,2,0,L|137:64,1,40,0|0,3:0|0:0,0:0:0:0:
77,169,84930,2,0,L|121:158,1,40
281,110,85130,1,0,3:0:0:0:
319,102,85230,2,0,P|331:43|288:40,1,80,0|2,0:0|0:0,0:0:0:0:
184,77,85530,6,0,L|201:155,1,47.9999985351563,4|0,2:0|0:0,0:0:0:0:
303,256,85730,2,0,L|320:178,1,47.9999985351563
427,66,85930,1,8,0:0:0:0:
452,75,86030,2,0,P|467:132|435:131,1,95.9999970703126
349,177,86330,6,0,L|279:164,1,47.9999985351563,0|0,3:0|0:0,0:0:0:0:
251,52,86530,2,0,L|181:65,1,47.9999985351563
64,175,86730,1,8,0:0:0:0:
100,181,86830,2,0,P|133:139|104:87,1,95.9999970703126
41,49,87130,6,0,L|48:104,1,47.9999985351563,0|0,3:0|0:0,0:0:0:0:
188,204,87330,2,0,L|181:259,1,47.9999985351563
40,347,87530,1,8,0:0:0:0:
47,311,87630,2,0,P|91:279|136:301,1,95.9999970703126
206,361,87930,6,0,L|253:332,1,47.9999985351563,0|0,3:0|0:0,0:0:0:0:
349,355,88130,2,0,L|359:298,1,47.9999985351563
461,286,88330,1,8,0:0:0:0:
455,257,88430,2,0,L|437:153,1,95.9999970703126
347,58,88730,6,0,B|328:85|328:85|351:98,1,47.9999985351563,0|0,3:0|0:0,0:0:0:0:
470,80,88930,2,0,B|489:53|489:53|466:40,1,47.9999985351563
307,165,89130,1,8,0:0:0:0:
274,158,89230,2,0,L|159:134,1,95.9999970703126
72,120,89530,6,0,B|53:93|53:93|76:80,1,47.9999985351563,0|0,3:0|0:0,0:0:0:0:
177,26,89730,2,0,B|196:53|196:53|173:66,1,47.9999985351563
173,163,89930,1,8,0:0:0:0:
180,196,90030,2,0,L|204:311,1,95.9999970703126
124,348,90330,6,0,L|69:333,1,47.9999985351563,0|0,3:0|0:0,0:0:0:0:
21,260,90530,2,0,L|83:242,1,47.9999985351563
230,288,90730,1,8,0:0:0:0:
255,307,90830,2,0,P|314:305|337:248,1,95.9999970703126
406,240,91130,6,0,L|460:258,1,47.9999985351563,0|0,3:0|0:0,0:0:0:0:
461,343,91330,2,0,L|405:353,1,47.9999985351563
285,211,91530,1,8,0:0:0:0:
285,211,91630,1,0,0:0:0:0:
285,211,91730,2,0,P|277:169|292:136,1,47.9999985351563
389,71,91930,6,0,P|417:118|346:136,1,143.999995605469,4|2,0:0|0:0,0:0:0:0:
291,87,92330,1,8,0:0:0:0:
256,76,92430,1,0,0:0:0:0:
220,76,92530,1,0,0:0:0:0:
186,86,92630,1,0,0:0:0:0:
157,106,92730,2,0,P|141:141|145:173,1,47.9999985351563,0|2,3:0|0:0,0:0:0:0:
65,198,92930,2,0,P|77:233|103:253,1,47.9999985351563,2|2,0:0|0:0,0:0:0:0:
199,352,93130,1,8,0:0:0:0:
223,326,93230,1,0,0:0:0:0:
231,291,93330,1,0,0:0:0:0:
220,257,93430,1,0,0:0:0:0:
193,234,93530,6,0,P|164:244|152:267,1,47.9999985351563,0|2,3:0|0:0,0:0:0:0:
63,349,93730,2,0,P|34:339|22:316,1,47.9999985351563,2|2,0:0|0:0,0:0:0:0:
19,137,93930,5,8,0:0:0:0:
53,146,94030,1,2,0:0:0:0:
78,171,94130,1,2,0:0:0:0:
89,205,94230,1,2,0:0:0:0:
83,240,94330,2,0,P|56:255|29:253,1,47.9999985351563,0|2,3:0|0:0,0:0:0:0:
125,101,94530,2,0,P|152:86|179:88,1,47.9999985351563,2|2,0:0|0:0,0:0:0:0:
274,147,94730,1,8,0:0:0:0:
272,158,94830,1,2,0:0:0:0:
270,170,94930,1,2,0:0:0:0:
268,182,95030,1,2,0:0:0:0:
267,194,95130,5,8,0:0:0:0:
275,240,95230,1,8,0:0:0:0:
312,268,95330,1,8,0:0:0:0:
359,264,95430,1,8,0:0:0:0:
391,230,95530,1,8,0:0:0:0:
426,198,95630,1,8,0:0:0:0:
472,202,95730,1,8,0:0:0:0:
501,239,95830,1,8,0:0:0:0:
495,285,95930,5,8,0:0:0:0:
447,288,96030,1,8,0:0:0:0:
402,272,96130,1,8,0:0:0:0:
367,240,96230,1,8,0:0:0:0:
348,196,96330,1,8,0:0:0:0:
346,148,96430,1,8,0:0:0:0:
364,104,96530,1,8,0:0:0:0:
398,70,96630,1,8,0:0:0:0:
442,53,96730,5,8,0:0:0:0:
444,100,96830,1,8,0:0:0:0:
416,138,96930,1,8,0:0:0:0:
371,152,97030,1,8,0:0:0:0:
327,136,97130,1,8,0:0:0:0:
293,102,97230,1,8,0:0:0:0:
247,91,97330,1,8,0:0:0:0:
202,105,97430,1,8,0:0:0:0:
172,142,97530,5,8,0:0:0:0:
322,235,97730,1,0,3:0:0:0:
117,283,97930,1,8,0:0:0:0:
117,283,98030,1,8,0:0:0:0:
247,367,98230,1,0,0:0:0:0:
247,367,98330,6,0,B|291:370|291:370|311:360|383:346,1,120.000004577637,6|2,3:0|0:0,0:0:0:0:
455,351,98930,2,0,P|491:310|455:245,1,120.000004577637,0|2,0:0|0:0,0:0:0:0:
403,203,99530,1,2,0:0:0:0:
321,167,99730,1,0,0:0:0:0:
331,81,99930,6,0,B|343:57|365:29|365:29|351:70|354:93,1,120.000004577637,2|2,0:0|0:0,0:0:0:0:
321,167,100530,2,0,L|191:150,1,120.000004577637,0|2,0:0|0:0,0:0:0:0:
122,139,101130,1,2,0:0:0:0:
36,132,101330,1,0,0:0:0:0:
97,58,101530,6,0,B|111:93|111:93|95:135|102:182,1,120.000004577637,2|2,0:0|0:0,0:0:0:0:
76,275,102130,2,0,P|30:285|35:215,1,120.000004577637,0|2,0:0|0:0,0:0:0:0:
92,192,102730,1,2,0:0:0:0:
172,253,102930,1,0,0:0:0:0:
256,343,103130,6,0,P|281:264|373:257,1,180.000006866455,2|0,0:0|0:0,0:0:0:0:
398,270,103930,1,2,0:0:0:0:
453,329,104130,1,2,0:0:0:0:
392,379,104330,1,2,0:0:0:0:
339,324,104530,1,0,0:0:0:0:
398,270,104730,6,0,P|448:217|337:122,1,240.000009155274,2|2,0:0|0:0,0:0:0:0:
281,159,105730,1,2,0:0:0:0:
252,231,105930,1,2,0:0:0:0:
170,221,106130,1,0,0:0:0:0:
114,150,106330,6,0,P|114:80|167:56,1,120.000004577637,2|2,0:0|0:0,0:0:0:0:
247,65,106930,1,0,0:0:0:0:
277,151,107130,2,0,P|245:172|210:166,1,60.0000022888184,2|2,0:0|0:0,0:0:0:0:
247,65,107530,2,0,P|279:44|314:50,1,60.0000022888184,2|0,0:0|0:0,0:0:0:0:
435,200,107930,6,0,L|447:263,2,60.0000022888184,2|2|2,0:0|0:0|0:0,0:0:0:0:
256,192,108430,12,2,110330,0:0:0:0:
160,337,110730,5,2,0:0:0:0:
248,310,110930,1,0,0:0:0:0:
278,217,111130,6,0,P|244:178|180:210,1,120.000004577637,6|2,3:0|0:0,0:0:0:0:
248,310,111730,2,0,L|378:278,1,120.000004577637,0|2,0:0|0:0,0:0:0:0:
464,245,112330,1,2,0:0:0:0:
376,174,112530,1,0,0:0:0:0:
364,281,112730,6,0,P|366:325|441:337,1,120.000004577637,2|2,0:0|0:0,0:0:0:0:
464,245,113330,2,0,P|480:184|460:114,1,120.000004577637,0|2,0:0|0:0,0:0:0:0:
414,39,113930,1,2,0:0:0:0:
351,121,114130,1,0,0:0:0:0:
261,167,114330,6,0,P|182:153|164:101,1,120.000004577637,2|2,0:0|0:0,0:0:0:0:
234,93,114930,2,0,L|218:216,1,120.000004577637,0|2,0:0|0:0,0:0:0:0:
206,288,115530,1,2,0:0:0:0:
194,366,115730,1,0,0:0:0:0:
63,303,115930,6,0,P|36:267|90:215,1,120.000004577637,2|2,0:0|0:0,0:0:0:0:
301,245,116530,2,0,P|331:188|270:164,1,120.000004577637,0|2,0:0|0:0,0:0:0:0:
137,97,117130,1,2,0:0:0:0:
137,97,117330,1,0,0:0:0:0:
198,240,117530,6,0,P|235:267|304:239,1,120.000004577637,2|2,0:0|0:0,0:0:0:0:
372,197,118130,2,0,P|415:168|480:196,1,120.000004577637,2|2,0:0|0:0,0:0:0:0:
300,244,118730,6,0,P|247:268|310:154,1,360.000013732911,2|2,0:0|0:0,0:0:0:0:
491,30,120330,5,2,0:0:0:0:
429,106,120530,1,0,0:0:0:0:
331,54,120730,6,0,P|273:39|213:75,1,120.000004577637,2|2,0:0|0:0,0:0:0:0:
133,112,121330,2,0,P|75:127|15:91,1,120.000004577637,2|2,0:0|0:0,0:0:0:0:
221,64,121930,6,0,P|274:38|259:151,1,240.000009155274,2|2,0:0|0:0,0:0:0:0:
184,136,122930,2,0,P|138:191|154:240,1,120.000004577637,0|2,0:0|0:0,0:0:0:0:
347,382,123530,1,2,0:0:0:0:
314,126,123730,1,2,0:0:0:0:
80,301,123930,1,2,0:0:0:0:
256,192,124030,12,0,127130,0:0:0:0:
171,179,129130,6,0,P|162:271|231:148,1,440,4|0,1:0|0:0,0:0:0:0:
173,151,130330,6,0,P|133:149|106:138,1,60.0000022888184,6|0,3:0|0:0,0:0:0:0:
114,26,130530,2,0,P|154:55|157:86,1,60.0000022888184,8|0,0:0|0:0,0:0:0:0:
81,253,130730,1,2,3:0:0:0:
7,208,130830,2,0,P|40:152|94:174,1,120.000004577637,8|8,0:0|0:0,0:0:0:0:
229,275,131130,5,2,3:0:0:0:
229,275,131230,1,0,0:0:0:0:
305,210,131330,2,0,P|330:170|303:130,1,60.0000022888184,8|0,0:0|0:0,0:0:0:0:
319,310,131530,1,2,3:0:0:0:
394,267,131630,2,0,P|449:294|441:356,1,120.000004577637,8|8,0:0|0:0,0:0:0:0:
216,179,131930,5,2,3:0:0:0:
216,179,132030,1,0,0:0:0:0:
126,210,132130,2,0,P|96:196|89:152,1,60.0000022888184,8|0,0:0|0:0,0:0:0:0:
215,356,132330,1,2,3:0:0:0:
229,275,132430,2,0,P|154:299|141:346,1,120.000004577637,8|8,0:0|0:0,0:0:0:0:
320,220,132730,5,2,3:0:0:0:
320,220,132830,1,0,0:0:0:0:
406,153,132930,2,0,P|441:142|488:136,1,60.0000022888184,8|0,0:0|0:0,0:0:0:0:
326,65,133130,1,2,3:0:0:0:
229,129,133230,2,0,P|180:116|88:109,1,120.000004577637,8|8,0:0|0:0,0:0:0:0:
101,279,133530,6,0,P|126:252|129:211,1,60.0000022888184,2|0,3:0|0:0,0:0:0:0:
62,44,133730,2,0,P|37:71|34:112,1,60.0000022888184,8|0,0:0|0:0,0:0:0:0:
49,209,133930,1,2,3:0:0:0:
111,151,134030,2,0,L|255:124,1,120.000004577637,8|8,0:0|0:0,0:0:0:0:
322,26,134330,5,2,3:0:0:0:
322,26,134430,1,0,0:0:0:0:
243,72,134530,2,0,P|229:105|238:157,1,60.0000022888184,8|0,0:0|0:0,0:0:0:0:
302,251,134730,1,2,3:0:0:0:
394,219,134830,2,0,P|425:160|389:104,1,120.000004577637,8|8,0:0|0:0,0:0:0:0:
196,218,135130,5,2,3:0:0:0:
196,218,135230,1,0,0:0:0:0:
130,291,135330,2,0,P|85:298|52:274,1,60.0000022888184,8|0,0:0|0:0,0:0:0:0:
239,334,135530,1,2,3:0:0:0:
302,251,135630,2,0,P|368:228|431:272,1,120.000004577637,8|8,0:0|0:0,0:0:0:0:
497,370,135930,5,2,3:0:0:0:
497,370,136030,1,0,0:0:0:0:
425,303,136130,2,0,P|413:281|420:224,1,60.0000022888184,8|0,0:0|0:0,0:0:0:0:
487,74,136330,1,2,3:0:0:0:
472,182,136430,2,0,P|428:207|338:183,1,120.000004577637,8|8,0:0|0:0,0:0:0:0:
110,40,136730,6,0,P|166:24|217:57,1,120.000004577637,4|8,3:2|0:0,0:0:0:0:
254,146,137030,1,0,0:0:0:0:
344,110,137130,2,0,P|363:71|358:47,1,60.0000022888184,2|8,3:0|0:0,3:0:0:0:
233,150,137330,2,0,P|210:170|205:202,1,60.0000022888184,0|8,0:0|0:0,3:0:0:0:
144,332,137530,6,0,P|81:357|32:291,1,120.000004577637,2|8,3:0|0:0,0:0:0:0:
244,269,137830,1,0,0:0:0:0:
287,340,137930,2,0,P|314:322|318:274,1,60.0000022888184,0|8,3:0|0:0,0:0:0:0:
431,163,138130,2,0,P|426:203|453:244,1,60.0000022888184,0|8,0:0|0:0,0:0:0:0:
512,332,138330,6,0,P|433:300|397:322,1,120.000004577637,2|8,3:0|0:0,0:0:0:0:
334,146,138630,1,0,0:0:0:0:
310,220,138730,2,0,P|273:198|280:147,1,60.0000022888184,0|8,3:0|0:0,0:0:0:0:
294,53,138930,2,0,P|272:89|221:82,1,60.0000022888184,0|8,0:0|0:0,0:0:0:0:
54,162,139130,6,0,L|203:136,1,120.000004577637,2|8,3:0|0:0,0:0:0:0:
128,230,139430,1,0,0:0:0:0:
130,97,139530,2,0,L|185:155,1,60.0000022888184,0|8,3:0|0:0,0:0:0:0:
169,282,139730,2,0,L|118:233,1,60.0000022888184,0|8,0:0|0:0,0:0:0:0:
294,53,139930,6,0,P|322:29|383:45,1,60.0000022888184,6|0,0:0|0:0,0:0:0:0:
471,210,140130,2,0,L|395:201,1,60.0000022888184,8|0,0:0|0:0,0:0:0:0:
258,286,140330,1,2,3:0:0:0:
221,352,140430,2,0,P|249:376|312:317,1,120.000004577637,8|8,0:0|0:0,0:0:0:0:
232,188,140730,2,0,L|156:179,1,60.0000022888184,2|0,3:0|0:0,0:0:0:0:
374,120,140930,2,0,L|419:58,1,60.0000022888184,8|0,0:0|0:0,0:0:0:0:
375,286,141130,2,0,L|405:356,1,60.0000022888184,2|0,3:0|0:0,0:0:0:0:
329,203,141330,5,8,0:0:0:0:
336,210,141730,5,0,3:0:0:0:
336,210,141830,1,0,3:0:0:0:
336,210,141930,2,0,B|300:222|300:222|269:186,1,60.0000022888184,8|0,0:0|0:0,0:0:0:0:
151,26,142130,5,0,3:0:0:0:
151,26,142230,1,0,3:0:0:0:
223,71,142330,5,0,3:0:0:0:
208,80,142430,1,0,3:0:0:0:
239,162,142530,5,0,3:0:0:0:
222,157,142630,1,0,3:0:0:0:
186,235,142730,5,0,3:0:0:0:
177,219,142830,1,0,3:0:0:0:
106,277,142930,5,0,3:0:0:0:
111,260,143030,1,0,3:0:0:0:
37,232,143130,6,0,P|17:207|55:138,1,120.000004577637,6|8,0:0|0:0,0:0:0:0:
252,257,143430,1,0,0:0:0:0:
321,221,143530,2,0,P|333:189|326:148,1,60.0000022888184,2|8,3:0|0:0,0:0:0:0:
240,64,143730,2,0,P|227:97|234:138,1,60.0000022888184,0|8,0:0|0:0,0:0:0:0:
426,303,143930,1,2,3:0:0:0:
457,272,144030,1,0,0:0:0:0:
455,229,144130,1,8,0:0:0:0:
422,201,144230,1,0,0:0:0:0:
379,206,144330,2,0,L|309:224,1,60.0000022888184,2|8,3:0|0:0,0:0:0:0:
251,334,144530,2,0,L|181:316,1,60.0000022888184,0|8,0:0|0:0,0:0:0:0:
38,163,144730,5,2,3:0:0:0:
38,163,144830,1,0,0:0:0:0:
40,240,144930,2,0,P|81:224|108:185,1,60.0000022888184,8|0,0:0|0:0,0:0:0:0:
299,80,145130,1,2,3:0:0:0:
299,80,145230,1,8,0:0:0:0:
291,157,145330,2,0,P|249:141|222:102,1,60.0000022888184,0|8,0:0|0:0,0:0:0:0:
135,48,145530,6,0,L|154:204,1,120.000004577637,2|8,3:0|0:0,0:0:0:0:
174,327,145830,1,0,0:0:0:0:
237,241,145930,2,0,L|321:253,1,60.0000022888184,2|8,3:0|0:0,0:0:0:0:
164,342,146130,2,0,L|79:361,1,60.0000022888184,0|8,0:0|0:0,0:0:0:0:
323,325,146330,5,2,3:0:0:0:
363,307,146430,1,0,0:0:0:0:
387,270,146530,1,8,0:0:0:0:
386,226,146630,1,0,0:0:0:0:
360,190,146730,2,0,P|349:173|354:135,1,60.0000022888184,2|8,3:0|0:0,0:0:0:0:
468,56,146930,2,0,P|455:78|427:100,1,60.0000022888184,0|8,0:0|0:0,0:0:0:0:
76,173,147130,5,2,3:0:0:0:
67,130,147230,1,0,0:0:0:0:
86,90,147330,1,8,0:0:0:0:
125,70,147430,1,0,0:0:0:0:
169,77,147530,2,0,P|208:94|241:91,1,60.0000022888184,2|8,3:0|0:0,0:0:0:0:
226,215,147730,2,0,P|265:198|298:201,1,60.0000022888184,0|8,0:0|0:0,0:0:0:0:
473,165,147930,5,2,3:0:0:0:
473,165,148030,1,0,0:0:0:0:
429,100,148130,2,0,L|347:85,1,60.0000022888184,8|0,0:0|0:0,0:0:0:0:
297,111,148330,5,2,3:0:0:0:
297,111,148430,1,8,0:0:0:0:
238,162,148530,2,0,L|223:244,1,60.0000022888184,0|8,0:0|0:0,0:0:0:0:
172,277,148730,5,2,3:0:0:0:
172,277,148830,1,0,0:0:0:0:
98,251,148930,2,0,L|83:169,1,60.0000022888184,8|0,0:0|0:0,0:0:0:0:
48,129,149130,5,2,3:0:0:0:
48,129,149230,1,8,0:0:0:0:
93,65,149330,2,0,L|175:50,1,60.0000022888184,0|8,0:0|0:0,0:0:0:0:
312,23,149530,5,6,0:0:0:0:
284,32,149630,1,0,0:0:0:0:
262,52,149730,1,8,0:0:0:0:
248,78,149830,1,0,0:0:0:0:
247,108,149930,1,2,3:0:0:0:
256,136,150030,1,8,0:0:0:0:
276,158,150130,1,0,0:0:0:0:
303,171,150230,1,8,0:0:0:0:
333,173,150330,5,2,3:0:0:0:
373,191,150430,1,0,0:0:0:0:
395,230,150530,1,8,0:0:0:0:
390,274,150630,1,0,0:0:0:0:
360,306,150730,5,2,3:0:0:0:
316,297,150830,1,8,0:0:0:0:
272,288,150930,1,0,0:0:0:0:
228,279,151030,1,8,0:0:0:0:
184,270,151130,5,2,3:0:0:0:
200,213,151230,1,0,0:0:0:0:
250,183,151330,1,8,0:0:0:0:
307,194,151430,1,0,0:0:0:0:
342,242,151530,1,0,3:0:0:0:
374,290,151630,1,8,0:0:0:0:
431,305,151730,1,0,0:0:0:0:
483,278,151830,1,8,0:0:0:0:
503,223,151930,5,2,3:0:0:0:
485,167,152030,1,0,0:0:0:0:
438,131,152130,1,8,0:0:0:0:
379,127,152230,1,0,0:0:0:0:
328,156,152330,1,2,3:0:0:0:
269,160,152430,1,8,0:0:0:0:
223,124,152530,1,0,0:0:0:0:
212,67,152630,1,8,0:0:0:0:
242,16,152730,5,4,0:0:0:0:
291,48,152830,1,2,0:0:0:0:
318,101,152930,1,2,0:0:0:0:
312,160,153030,1,2,0:0:0:0:
278,208,153130,1,10,0:0:0:0:
228,239,153230,1,2,0:0:0:0:
214,296,153330,1,2,0:0:0:0:
245,345,153430,1,2,0:0:0:0:
302,358,153530,5,2,0:0:0:0:
331,306,153630,1,2,0:0:0:0:
326,247,153730,1,2,0:0:0:0:
289,201,153830,1,2,0:0:0:0:
232,183,153930,1,10,0:0:0:0:
205,131,154030,1,2,0:0:0:0:
217,73,154130,1,2,0:0:0:0:
263,36,154230,1,2,0:0:0:0:
321,35,154330,5,6,0:0:0:0:
323,42,154430,1,2,0:0:0:0:
325,49,154530,1,2,0:0:0:0:
327,57,154630,1,2,0:0:0:0:
328,64,154730,1,10,0:0:0:0:
330,71,154830,1,2,0:0:0:0:
332,79,154930,1,2,0:0:0:0:
334,86,155030,1,2,0:0:0:0:
335,93,155130,6,0,L|347:149,1,56,4|0,1:0|0:0,0:0:0:0:
371,249,155930,5,6,3:0:0:0:
256,192,156030,12,0,159130,0:0:0:0:
447,259,168730,6,0,P|406:227|296:256,1,160,0|2,3:0|0:0,0:0:0:0:
170,335,169463,1,0,0:0:0:0:
170,335,169530,2,0,P|108:340|79:244,1,160,2|2,0:0|0:0,0:0:0:0:
217,64,170330,6,0,L|266:384,2,320,2|2|2,0:0|0:0|0:0,0:0:0:0:
91,218,172330,5,2,0:0:0:0:
402,241,172630,1,0,0:0:0:0:
402,241,172730,2,0,P|454:198|423:104,1,160,2|2,0:0|0:0,0:0:0:0:
256,24,173530,5,2,0:0:0:0:
256,24,174330,2,0,L|251:72,5,26.6666666666667,2|0|0|0|0|0,0:0|0:0|0:0|0:0|0:0|0:0,0:0:0:0:
287,126,174730,2,0,L|292:174,5,26.6666666666667,2|0|0|0|0|0,0:0|0:0|0:0|0:0|0:0|0:0,0:0:0:0:
218,223,175130,6,0,P|153:185|64:209,1,160,0|2,3:0|0:0,0:0:0:0:
346,293,175863,1,0,0:0:0:0:
346,293,175930,2,0,P|397:334|488:297,1,160,2|2,0:0|0:0,0:0:0:0:
386,114,176730,2,0,P|293:147|251:359,2,320,2|2|2,0:0|0:0|0:0,0:0:0:0:
438,248,178730,1,2,0:0:0:0:
322,298,179130,1,2,0:0:0:0:
197,243,179530,1,2,0:0:0:0:
66,287,179930,5,2,0:0:0:0:
66,287,180730,2,0,L|102:261,5,26.6666666666667,2|0|0|0|0|0,0:0|0:0|0:0|0:0|0:0|0:0,0:0:0:0:
169,231,181130,2,0,L|176:187,5,26.6666666666667,2|0|0|0|0|0,0:0|0:0|0:0|0:0|0:0|0:0,0:0:0:0:
160,108,181530,6,0,P|135:69|26:103,1,160,0|2,3:0|0:0,0:0:0:0:
301,197,182263,1,0,0:0:0:0:
301,197,182330,2,0,P|393:171|431:234,1,160,2|2,0:0|0:0,0:0:0:0:
217,352,183130,2,0,L|184:22,2,320,2|2|2,0:0|0:0|0:0,0:0:0:0:
256,192,184830,12,0,187530,0:0:0:0:
269,174,187730,6,0,L|275:149,1,20
225,243,187930,6,0,P|282:225|342:217,1,120,2|2,3:0|0:0,0:0:0:0:
427,276,188330,2,0,P|473:243|374:51,1,320,2|2,0:0|0:0,0:0:0:0:
386,50,189530,5,2,0:0:0:0:
491,148,189730,2,0,P|499:188|498:190,1,32,2|2,0:0|0:0,0:0:0:0:
481,207,189930,2,0,P|441:196|396:191,1,64,2|2,0:0|0:0,0:0:0:0:
347,156,190230,1,2,0:0:0:0:
335,159,190330,2,0,P|282:171|265:179,1,64,2|2,0:0|0:0,0:0:0:0:
204,221,190630,1,2,0:0:0:0:
183,233,190730,2,0,P|129:220|83:206,1,71.9999978027344,2|2,0:0|0:0,0:0:0:0:
2,261,191030,1,2,0:0:0:0:
27,250,191130,6,0,P|61:283|40:386,1,160,2|2,0:0|0:0,0:0:0:0:
233,304,191730,1,2,0:0:0:0:
233,304,191830,1,2,0:0:0:0:
233,304,191930,2,0,P|315:284|343:283,1,80,2|2,0:0|0:0,0:0:0:0:
403,359,192230,1,2,0:0:0:0:
418,369,192330,2,0,P|439:350|436:330,1,48,2|2,0:0|0:0,0:0:0:0:
398,275,192730,6,0,L|380:329,1,40,2|0,0:0|0:0,0:0:0:0:
378,269,192930,2,0,L|375:313,1,40,2|2,0:0|0:0,0:0:0:0:
496,214,193130,2,0,P|436:190|323:163,1,155.999992858887,2|2,0:0|0:0,0:0:0:0:
254,175,193530,1,2,0:0:0:0:
417,10,193730,1,2,0:0:0:0:
417,10,193830,1,2,0:0:0:0:
417,10,193930,2,0,P|422:56|428:66,1,40,2|0,0:0|0:0,0:0:0:0:
336,274,194130,5,2,0:0:0:0:
336,274,194230,1,2,0:0:0:0:
336,274,194330,2,0,P|364:213|338:157,1,120,2|2,0:0|0:0,0:0:0:0:
298,99,194730,1,2,0:0:0:0:
132,209,194930,2,0,P|190:221|257:245,1,120,2|0,0:0|0:0,0:0:0:0:
103,123,195330,1,2,0:0:0:0:
103,123,195430,1,2,0:0:0:0:
103,123,195530,2,0,P|57:128|47:134,1,40,2|0,0:0|0:0,0:0:0:0:
179,34,195730,5,2,0:0:0:0:
179,34,195830,1,2,0:0:0:0:
179,34,195930,2,0,P|207:95|181:151,1,120,2|2,0:0|0:0,0:0:0:0:
132,209,196330,1,2,0:0:0:0:
279,319,196530,2,0,P|339:299|389:287,1,80,2|2,0:0|0:0,0:0:0:0:
423,346,196830,1,0,0:0:0:0:
433,354,196930,2,0,P|468:331|458:260,1,120,2|0,0:0|0:0,0:0:0:0:
378,194,197330,1,2,0:0:0:0:
213,358,197530,5,2,0:0:0:0:
147,280,197730,2,0,L|157:231,1,40,2|2,0:0|0:0,0:0:0:0:
55,338,197930,2,0,P|93:349|131:362,1,80,2|2,0:0|0:0,0:0:0:0:
213,358,198230,1,2,0:0:0:0:
226,351,198330,2,0,P|281:332|313:329,1,80,2|2,0:0|0:0,0:0:0:0:
344,256,198630,1,2,0:0:0:0:
329,252,198730,2,0,P|286:232|287:183,1,80,2|2,0:0|0:0,0:0:0:0:
329,121,199030,1,2,0:0:0:0:
345,116,199130,1,2,0:0:0:0:
131,202,199330,6,0,L|103:37,1,160,2|2,0:0|0:0,0:0:0:0:
44,0,199830,1,2,0:0:0:0:
44,0,199930,1,2,0:0:0:0:
240,213,200130,6,0,L|280:203,1,40,2|2,0:0|0:0,0:0:0:0:
345,116,200330,1,2,0:0:0:0:
332,99,200430,1,0,0:0:0:0:
316,88,200530,1,2,0:0:0:0:
296,84,200630,1,2,0:0:0:0:
277,88,200730,5,6,0:0:0:0:
442,145,200930,2,0,P|432:127|434:108,1,40,2|2,0:0|0:0,0:0:0:0:
469,77,201130,2,0,P|471:57|461:40,2,40,2|0|2,0:0|0:0|0:0,0:0:0:0:
360,230,201530,5,2,0:0:0:0:
195,173,201730,2,0,P|204:190|202:209,1,40,2|2,0:0|0:0,0:0:0:0:
166,239,201930,2,0,P|163:258|173:275,2,40,2|0|2,0:0|0:0|0:0,0:0:0:0:
11,115,202330,5,2,0:0:0:0:
169,13,202530,2,0,P|149:51|149:53,1,40,2|2,0:0|0:0,0:0:0:0:
86,82,202730,2,0,P|143:93|187:129,1,80,2|2,0:0|0:0,0:0:0:0:
234,158,203030,5,2,0:0:0:0:
248,167,203130,2,0,P|287:158|324:127,1,80,2|2,0:0|0:0,0:0:0:0:
388,76,203430,1,2,0:0:0:0:
397,63,203530,2,0,P|390:44|377:29,1,40,2|0,0:0|0:0,0:0:0:0:
434,149,203730,5,2,0:0:0:0:
445,156,203830,1,2,0:0:0:0:
454,165,203930,2,0,B|463:214|373:246|382:314,1,143.999995605469,2|2,0:0|0:0,0:0:0:0:
383,286,204330,2,0,L|392:331,1,40,2|0,0:0|0:0,0:0:0:0:
455,371,204530,6,0,L|472:325,2,40,2|2|2,0:0|0:0|0:0,0:0:0:0:
259,237,204930,5,2,0:0:0:0:
239,239,205030,1,2,0:0:0:0:
219,242,205130,1,2,0:0:0:0:
199,246,205230,1,2,0:0:0:0:
180,251,205330,1,2,0:0:0:0:
161,256,205430,1,2,0:0:0:0:
142,264,205530,6,0,P|133:296|123:352,1,80,2|2,0:0|0:0,0:0:0:0:
117,384,205830,2,0,L|94:337,1,40,2|2,0:0|0:0,0:0:0:0:
0,158,206130,5,2,0:0:0:0:
19,163,206230,1,2,0:0:0:0:
38,171,206330,2,0,P|47:203|57:259,1,80,2|2,0:0|0:0,0:0:0:0:
134,193,206630,1,2,0:0:0:0:
156,180,206730,6,0,P|184:139|184:132,1,40,2|0,0:0|0:0,0:0:0:0:
209,133,206930,2,0,P|199:84|194:79,1,40,2|2,0:0|0:0,0:0:0:0:
162,19,207130,6,0,P|108:7|16:47,1,143.999995605469,6|2,0:0|0:0,0:0:0:0:
0,70,207530,1,2,0:0:0:0:
210,232,207730,5,2,0:0:0:0:
210,232,207830,1,2,0:0:0:0:
210,232,207930,2,0,B|341:241|317:96|461:119,1,287.999991210938,2|2,0:0|0:0,0:0:0:0:
341,39,208730,5,2,0:0:0:0:
427,252,208930,1,2,0:0:0:0:
427,252,209030,1,2,0:0:0:0:
427,252,209130,2,0,P|440:205|446:198,2,40,2|0|2,0:0|0:0|0:0,0:0:0:0:
512,182,209530,1,2,0:0:0:0:
334,315,209730,5,2,0:0:0:0:
155,238,209930,1,2,0:0:0:0:
266,178,210130,1,2,0:0:0:0:
62,344,210330,6,0,P|51:268|27:172,1,160,2|2,0:0|0:0,0:0:0:0:
31,187,210930,1,2,0:0:0:0:
201,10,211130,6,0,P|238:53|216:132,1,120,2|2,0:0|0:0,0:0:0:0:
175,157,211530,2,0,P|132:150|124:149,1,40,2|0,0:0|0:0,0:0:0:0:
223,220,211730,2,0,L|266:206,1,40,2|2,0:0|0:0,0:0:0:0:
357,241,211930,5,2,0:0:0:0:
412,199,212063,1,2,0:0:0:0:
399,130,212196,1,2,0:0:0:0:
303,96,212330,5,2,0:0:0:0:
248,138,212463,1,2,0:0:0:0:
261,207,212596,1,2,0:0:0:0:
357,241,212730,5,2,0:0:0:0:
412,199,212863,1,2,0:0:0:0:
399,130,212996,1,2,0:0:0:0:
330,168,213130,6,0,L|332:177,6,10,2|0|0|0|0|0|0,0:0|0:0|0:0|0:0|0:0|0:0|0:0,0:0:0:0:
260,207,213530,6,0,B|202:208|209:235|214:264|134:263,1,120.000004577637,6|2,0:0|0:0,0:0:0:0:
81,237,213830,1,0,0:0:0:0:
54,221,213930,2,0,P|40:191|55:160,1,44.0000013427735,2|2,0:0|0:0,0:0:0:0:
132,112,214130,2,0,P|146:142|131:173,1,44.0000013427735,0|2,0:0|0:0,0:0:0:0:
42,372,214330,2,0,P|61:330|123:329,1,88.000002685547,2|2,0:0|0:0,0:0:0:0:
198,358,214630,1,0,0:0:0:0:
228,364,214730,2,0,P|260:347|270:326,1,44.0000013427735,2|2,0:0|0:0,0:0:0:0:
300,258,214930,2,0,P|332:275|342:296,1,44.0000013427735,0|2,0:0|0:0,0:0:0:0:
420,358,215130,6,0,P|463:338|468:295,1,88.000002685547,2|2,0:0|0:0,0:0:0:0:
435,217,215430,1,0,0:0:0:0:
415,203,215530,2,0,P|401:149|420:111,1,88.000002685547,2|0,0:0|0:0,0:0:0:0:
482,34,215830,1,2,0:0:0:0:
399,97,215930,2,0,P|346:121|301:108,1,88.000002685547,2|2,0:0|0:0,0:0:0:0:
233,73,216230,1,0,0:0:0:0:
240,87,216330,1,2,0:0:0:0:
210,136,216430,1,2,0:0:0:0:
231,189,216530,1,0,0:0:0:0:
215,244,216630,1,2,0:0:0:0:
228,299,216730,6,0,L|131:293,1,88.000002685547,2|2,0:0|0:0,0:0:0:0:
26,279,217030,1,0,0:0:0:0:
16,257,217130,2,0,P|36:228|60:222,1,44.0000013427735,2|2,0:0|0:0,0:0:0:0:
87,159,217330,2,0,P|121:152|142:165,1,44.0000013427735,0|2,0:0|0:0,0:0:0:0:
328,198,217530,2,0,P|371:170|364:108,1,88.000002685547,2|2,0:0|0:0,0:0:0:0:
316,58,217830,1,0,0:0:0:0:
301,75,217930,2,0,L|304:140,1,44.0000013427735,2|2,0:0|0:0,0:0:0:0:
424,236,218130,2,0,L|421:301,1,44.0000013427735,0|2,0:0|0:0,0:0:0:0:
338,351,218330,6,0,L|277:342,1,44.0000013427735,2|0,0:0|0:0,0:0:0:0:
223,334,218530,2,0,L|162:325,1,44.0000013427735,2|0,0:0|0:0,0:0:0:0:
63,235,218730,1,2,0:0:0:0:
45,246,218830,1,2,0:0:0:0:
46,267,218930,1,0,0:0:0:0:
65,277,219030,1,2,0:0:0:0:
82,266,219130,6,0,L|143:257,1,44.0000013427735,2|0,0:0|0:0,0:0:0:0:
197,249,219330,2,0,L|258:240,1,44.0000013427735,2|0,0:0|0:0,0:0:0:0:
414,144,219530,1,2,0:0:0:0:
432,155,219630,1,2,0:0:0:0:
431,176,219730,1,0,0:0:0:0:
412,186,219830,1,2,0:0:0:0:
395,175,219930,6,0,L|293:161,1,88.000002685547,2|2,0:0|0:0,0:0:0:0:
201,82,220230,1,0,0:0:0:0:
191,64,220330,2,0,P|196:35|221:19,1,44.0000013427735,2|2,0:0|0:0,0:0:0:0:
308,50,220530,2,0,P|303:79|278:95,1,44.0000013427735,0|2,0:0|0:0,0:0:0:0:
230,177,220730,6,0,P|195:214|212:272,1,88.000002685547,2|2,0:0|0:0,0:0:0:0:
244,341,221030,1,0,0:0:0:0:
262,319,221130,2,0,L|327:303,1,44.0000013427735,2|2,0:0|0:0,0:0:0:0:
444,233,221330,2,0,L|391:223,1,44.0000013427735,0|2,0:0|0:0,0:0:0:0:
230,177,221530,6,0,P|201:132|208:86,1,88.000002685547,2|2,0:0|0:0,0:0:0:0:
371,131,221830,1,0,0:0:0:0:
371,131,221930,2,0,P|346:178|303:195,1,88.000002685547,2|0,0:0|0:0,0:0:0:0:
275,34,222230,1,2,0:0:0:0:
275,34,222330,2,0,P|303:32|336:49,1,44.0000013427735,2|0,0:0|0:0,0:0:0:0:
197,177,222530,2,0,P|181:153|179:116,1,44.0000013427735,2|0,0:0|0:0,0:0:0:0:
382,159,222730,2,0,P|369:184|338:204,1,44.0000013427735,2|2,0:0|0:0,0:0:0:0:
264,262,222930,1,0,0:0:0:0:
264,262,223030,1,2,0:0:0:0:
264,262,223130,6,0,L|258:319,1,44.0000013427735,2|0,0:0|0:0,0:0:0:0:
252,377,223330,2,0,L|258:320,1,44.0000013427735,2|0,0:0|0:0,0:0:0:0:
277,173,223530,1,2,0:0:0:0:
277,173,223630,1,2,0:0:0:0:
277,173,223730,2,0,L|284:106,1,44.0000013427735,0|2,0:0|0:0,0:0:0:0:
409,26,223930,6,0,P|435:27|459:30,1,44.0000013427735,2|0,0:0|0:0,0:0:0:0:
438,130,224130,2,0,P|412:129|388:126,1,44.0000013427735,2|0,0:0|0:0,0:0:0:0:
281,49,224330,1,2,0:0:0:0:
249,42,224430,1,2,0:0:0:0:
217,50,224530,1,2,0:0:0:0:
193,73,224630,1,2,0:0:0:0:
182,103,224730,6,0,P|176:136|193:167,1,44.0000013427735,2|0,0:0|0:0,0:0:0:0:
273,215,224930,2,0,P|279:182|262:151,1,44.0000013427735,2|0,0:0|0:0,0:0:0:0:
50,127,225130,1,2,0:0:0:0:
43,159,225230,1,2,0:0:0:0:
51,191,225330,1,2,0:0:0:0:
74,215,225430,1,2,0:0:0:0:
104,226,225530,6,0,P|137:232|168:215,1,44.0000013427735,2|0,0:0|0:0,0:0:0:0:
356,99,225730,2,0,P|323:93|292:110,1,44.0000013427735,2|0,0:0|0:0,0:0:0:0:
157,351,225930,1,2,0:0:0:0:
189,358,226030,1,2,0:0:0:0:
221,350,226130,1,2,0:0:0:0:
245,327,226230,1,2,0:0:0:0:
256,297,226330,6,0,P|268:259|233:192,1,88.000002685547,6|2,0:0|0:0,0:0:0:0:
203,154,226630,1,0,0:0:0:0:
162,85,226730,2,0,P|161:49|184:30,1,44.0000013427735,2|2,0:0|0:0,0:0:0:0:
273,7,226930,2,0,P|276:47|211:83,1,88.000002685547,0|2,0:0|0:0,0:0:0:0:
118,156,227230,1,0,0:0:0:0:
56,205,227330,2,0,P|38:239|49:268,1,44.0000013427735,2|0,0:0|0:0,0:0:0:0:
113,367,227530,1,2,0:0:0:0:
156,357,227630,1,2,0:0:0:0:
198,345,227730,2,0,L|259:330,1,44.0000013427735,2|2,0:0|0:0,0:0:0:0:
375,209,227930,6,0,B|356:205|338:219|338:219|320:249|327:275,1,88.000002685547,2|2,0:0|0:0,0:0:0:0:
355,370,228230,1,0,0:0:0:0:
419,317,228330,2,0,L|482:309,1,44.0000013427735,2|2,0:0|0:0,0:0:0:0:
261,194,228530,1,2,0:0:0:0:
217,185,228630,1,2,0:0:0:0:
173,176,228730,2,0,L|104:161,1,44.0000013427735,2|0,0:0|0:0,0:0:0:0:
405,122,228930,2,0,L|474:107,1,44.0000013427735,2|0,0:0|0:0,0:0:0:0:
291,29,229130,1,2,0:0:0:0:
290,39,229230,1,2,0:0:0:0:
290,50,229330,1,2,0:0:0:0:
290,61,229430,1,2,0:0:0:0:
193,92,229530,6,0,P|138:59|163:18,1,88.000002685547,2|2,0:0|0:0,0:0:0:0:
322,165,229830,1,0,0:0:0:0:
307,246,229930,2,0,L|299:290,1,44.0000013427735,2|2,0:0|0:0,0:0:0:0:
215,357,230130,1,2,0:0:0:0:
172,346,230230,1,2,0:0:0:0:
129,334,230330,2,0,P|122:298|135:271,1,44.0000013427735,2|0,0:0|0:0,0:0:0:0:
65,202,230530,2,0,P|86:172|114:162,1,44.0000013427735,2|0,0:0|0:0,0:0:0:0:
395,145,230730,1,2,0:0:0:0:
412,106,230830,1,2,0:0:0:0:
392,69,230930,1,2,0:0:0:0:
350,63,231030,1,2,0:0:0:0:
308,140,231130,6,0,L|316:244,1,88.000002685547,2|2,0:0|0:0,0:0:0:0:
362,364,231430,1,0,0:0:0:0:
424,303,231530,2,0,L|481:298,1,44.0000013427735,2|2,0:0|0:0,0:0:0:0:
314,227,231730,2,0,L|257:232,1,44.0000013427735,0|2,0:0|0:0,0:0:0:0:
52,306,231930,1,2,0:0:0:0:
58,347,232030,1,2,0:0:0:0:
97,363,232130,2,0,L|156:347,1,44.0000013427735,2|0,0:0|0:0,0:0:0:0:
211,176,232330,1,2,0:0:0:0:
204,134,232430,1,2,0:0:0:0:
165,118,232530,2,0,L|106:134,1,44.0000013427735,2|2,0:0|0:0,0:0:0:0:
131,264,232730,6,0,P|198:279|208:309,1,88.000002685547,6|0,0:0|0:0,0:0:0:0:
264,342,233030,1,2,0:0:0:0:
274,351,233130,1,2,0:0:0:0:
315,366,233230,1,2,0:0:0:0:
354,345,233330,1,2,0:0:0:0:
397,342,233430,1,2,0:0:0:0:
439,353,233530,6,0,P|482:287|462:253,1,88.000002685547,0|2,0:0|0:0,0:0:0:0:
426,217,233830,1,2,0:0:0:0:
416,212,233930,1,2,0:0:0:0:
390,175,234030,1,2,0:0:0:0:
407,134,234130,1,2,0:0:0:0:
432,97,234230,1,2,0:0:0:0:
410,58,234330,6,0,P|356:36|310:50,1,88.000002685547,2|2,0:0|0:0,0:0:0:0:
254,99,234630,1,2,0:0:0:0:
258,109,234730,1,2,0:0:0:0:
263,152,234830,1,2,0:0:0:0:
237,187,234930,1,2,0:0:0:0:
193,186,235030,1,2,0:0:0:0:
150,197,235130,6,0,P|83:212|77:262,1,88.000002685547,2|2,0:0|0:0,0:0:0:0:
62,310,235430,1,2,0:0:0:0:
65,322,235530,1,2,0:0:0:0:
92,355,235630,1,2,0:0:0:0:
135,355,235730,1,2,0:0:0:0:
166,323,235830,1,2,0:0:0:0:
246,265,235930,6,0,L|354:259,1,88.000002685547,6|0,0:0|0:0,0:0:0:0:
427,216,236230,1,0,0:0:0:0:
439,209,236330,2,0,P|448:173|437:151,1,44.0000013427735,2|0,0:0|0:0,0:0:0:0:
318,89,236530,2,0,P|309:125|320:147,1,44.0000013427735,2|0,0:0|0:0,0:0:0:0:
487,76,236730,6,0,L|372:57,1,88.000002685547,2|2,0:0|0:0,0:0:0:0:
236,35,237030,1,0,0:0:0:0:
224,39,237130,2,0,P|202:61|199:79,1,44.0000013427735,2|0,0:0|0:0,0:0:0:0:
246,265,237330,2,0,P|268:243|271:225,1,44.0000013427735,2|0,0:0|0:0,0:0:0:0:
167,158,237530,5,2,0:0:0:0:
330,364,237730,1,2,0:0:0:0:
478,232,237930,2,0,P|431:221|404:226,1,44.0000013427735,2|2,0:0|0:0,0:0:0:0:
330,364,238130,2,0,P|283:375|256:370,1,44.0000013427735,0|2,0:0|0:0,0:0:0:0:
110,299,238330,5,2,0:0:0:0:
340,179,238530,1,2,0:0:0:0:
136,61,238730,2,0,P|136:90|150:118,1,44.0000013427735,2|0,0:0|0:0,0:0:0:0:
340,179,238930,2,0,P|340:208|326:236,1,44.0000013427735,2|0,0:0|0:0,0:0:0:0:
216,356,239130,5,6,0:0:0:0:
256,192,239230,12,0,242130,0:0:0:0:
208,348,242330,5,2,0:0:0:0:
208,348,242430,2,0,L|92:327,1,88.000002685547,2|0,0:0|0:0,0:0:0:0:
93,328,242730,2,0,B|73:273|73:273|116:223,1,88.000002685547,2|0,0:0|0:0,0:0:0:0:
161,205,243030,2,0,B|195:166|195:166|167:103,1,88.000002685547,2|0,0:0|0:0,0:0:0:0:
85,61,243330,2,0,P|54:103|87:72,1,176.000005371094,2|2,0:0|0:0,0:0:0:0:
351,63,243930,6,0,B|377:65|420:109|356:194|284:159|298:123,1,167.999994873047,2|0,0:0|0:0,0:0:0:0:
300,141,244330,6,0,P|211:105|226:237,1,280,4|0,1:0|0:0,0:0:0:0:
220,235,245130,6,0,P|158:278|201:230,1,215.999993408203
237,169,245530,6,0,P|160:183|91:202,1,143.999995605469,6|8,3:0|0:0,0:0:0:0:
48,145,245830,1,0,0:0:0:0:
0,197,245930,2,0,P|-3:236|16:265,1,71.9999978027344,2|8,3:0|0:0,0:0:0:0:
170,375,246130,1,0,0:0:0:0:
225,329,246230,1,8,0:0:0:0:
156,305,246330,6,0,P|111:296|80:289,1,71.9999978027344,2|0,3:0|0:0,0:0:0:0:
296,261,246530,2,0,P|341:252|372:245,1,71.9999978027344,8|0,0:0|0:0,0:0:0:0:
390,346,246730,1,2,3:0:0:0:
390,346,246830,2,0,P|345:355|314:362,1,71.9999978027344,8|0,0:0|0:0,0:0:0:0:
227,238,247030,1,8,0:0:0:0:
227,238,247130,5,2,3:0:0:0:
159,264,247230,2,0,P|100:212|135:117,1,143.999995605469
173,124,247530,1,2,3:0:0:0:
125,68,247630,1,8,0:0:0:0:
57,93,247730,1,8,0:0:0:0:
2,46,247830,1,8,0:0:0:0:
63,0,247930,6,0,P|131:23|197:51,1,143.999995605469,2|8,3:0|0:0,0:0:0:0:
305,121,248230,1,0,0:0:0:0:
374,84,248330,2,0,P|393:26|396:11,1,71.9999978027344,2|8,3:0|0:0,0:0:0:0:
466,164,248530,2,0,P|431:172|397:185,1,71.9999978027344,0|8,3:0|0:0,0:0:0:0:
319,257,248730,5,2,3:0:0:0:
382,291,248830,2,0,P|305:291|240:330,1,143.999995605469
167,333,249130,2,0,P|147:300|156:250,1,71.9999978027344,2|8,3:0|0:0,0:0:0:0:
19,366,249330,5,0,0:0:0:0:
37,362,249430,2,0,P|75:361|114:393,1,71.9999978027344,8|2,0:0|3:0,0:0:0:0:
147,267,249630,1,0,0:0:0:0:
129,271,249730,2,0,P|91:272|52:240,1,71.9999978027344,8|0,0:0|0:0,0:0:0:0:
122,162,249930,1,2,3:0:0:0:
139,168,250030,1,8,0:0:0:0:
184,160,250130,1,0,3:0:0:0:
218,83,250230,1,8,0:0:0:0:
158,6,250330,5,2,3:0:0:0:
148,10,250430,1,0,0:0:0:0:
142,19,250530,2,0,P|143:29|149:49,1,16,8|0,0:0|0:0,0:0:0:0:
38,68,250730,6,0,P|54:72|70:76,1,32,2|8,3:0|0:0,0:0:0:0:
132,173,250930,6,0,P|157:164|183:159,1,51.999997619629,0|8,3:0|0:0,0:0:0:0:
318,181,251130,6,0,P|371:122|421:76,1,143.999995605469,2|8,3:0|0:0,0:0:0:0:
421,41,251430,1,0,0:0:0:0:
484,164,251530,6,0,B|387:204|365:127|341:38|232:78,1,264.000008056641,2|8,3:0|0:0,0:0:0:0:
61,163,251930,5,4,0:0:0:0:
61,163,252030,1,2,0:0:0:0:
60,163,252130,2,0,P|58:198|84:224,1,71.9999978027344,8|0,0:0|0:0,0:0:0:0:
12,279,252330,2,0,P|101:259|218:249,1,143.999995605469,2|0,3:0|0:0,0:0:0:0:
226,278,252630,1,8,0:0:0:0:
293,234,252730,5,2,3:0:0:0:
293,234,252830,1,2,0:0:0:0:
293,233,252930,2,0,P|295:197|269:172,1,71.9999978027344,8|0,0:0|0:0,0:0:0:0:
342,118,253130,2,0,P|253:138|136:148,1,143.999995605469,2|0,3:0|0:0,0:0:0:0:
136,103,253430,1,8,0:0:0:0:
181,31,253530,5,2,3:0:0:0:
200,20,253630,1,2,0:0:0:0:
220,25,253730,1,8,0:0:0:0:
236,38,253830,1,0,3:0:0:0:
271,135,253930,2,0,P|251:223|241:341,1,143.999995605469,2|0,3:0|0:0,0:0:0:0:
196,339,254230,1,8,0:0:0:0:
264,383,254330,5,2,3:0:0:0:
285,384,254430,1,2,0:0:0:0:
301,371,254530,1,8,0:0:0:0:
310,353,254630,1,0,3:0:0:0:
282,271,254730,2,0,P|248:261|213:253,1,71.9999978027344,2|8,3:0|0:0,0:0:0:0:
397,327,254930,1,0,0:0:0:0:
465,297,255030,1,8,0:0:0:0:
426,232,255130,6,0,B|407:114|407:114|439:138|415:163,1,160,6|8,0:0|0:0,0:0:0:0:
340,165,255430,1,0,0:0:0:0:
263,188,255530,2,0,P|306:172|341:164,1,80,2|0,3:0|0:0,0:0:0:0:
503,211,255730,1,8,0:0:0:0:
508,216,255830,2,0,P|427:233|346:258,1,160,8|0,0:0|0:0,0:0:0:0:
141,272,256130,6,0,P|176:279|219:300,1,80,8|0,0:0|0:0,0:0:0:0:
290,323,256330,6,0,P|254:330|200:347,1,88.000002685547,2|0,3:0|0:0,0:0:0:0:
51,384,256530,5,8,0:0:0:0:
51,384,256930,5,0,3:0:0:0:
51,375,257030,1,0,3:0:0:0:
58,379,257130,1,8,0:0:0:0:
58,379,257330,5,0,3:0:0:0:
86,384,257430,1,0,3:0:0:0:
132,357,257530,1,0,3:0:0:0:
164,273,257630,1,0,3:0:0:0:
93,202,257730,6,0,L|82:227,1,16,0|0,3:0|3:0,0:0:0:0:
13,242,257930,5,0,3:0:0:0:
90,259,258030,1,0,3:0:0:0:
167,278,258130,1,0,3:0:0:0:
245,296,258230,1,0,3:0:0:0:
322,314,258330,5,6,0:0:0:0:
331,322,258430,2,0,B|351:335|425:319|443:165|295:183|314:244,1,176.000005371094
246,179,258730,2,0,B|232:199|248:273|402:291|384:143|323:162,1,176.000005371094,2|0,3:0|0:0,0:0:0:0:
425,139,259030,1,8,0:0:0:0:
488,215,259130,5,2,3:0:0:0:
488,215,259230,1,2,0:0:0:0:
488,215,259330,2,0,P|482:254|469:305,1,88.000002685547,8|0,0:0|0:0,0:0:0:0:
346,384,259530,1,2,3:0:0:0:
346,384,259630,1,8,0:0:0:0:
346,384,259730,2,0,P|340:345|327:294,1,88.000002685547,0|8,3:0|0:0,0:0:0:0:
206,151,259930,5,2,3:0:0:0:
199,141,260030,2,0,B|187:126|196:107|276:68|324:136|327:157|313:168,1,176.000005371094
221,304,260330,2,0,B|218:321|199:329|115:300|129:218|142:201|159:203,1,176.000005371094,2|0,3:0|0:0,0:0:0:0:
241,213,260630,1,8,0:0:0:0:
252,222,260730,1,2,3:0:0:0:
261,231,260930,6,0,P|210:247|160:266,1,88.000002685547,8|0,0:0|0:0,0:0:0:0:
132,350,261130,2,0,P|90:335|48:322,1,88.000002685547,2|8,3:0|0:0,0:0:0:0:
18,160,261330,1,0,0:0:0:0:
26,138,261430,1,8,0:0:0:0:
113,129,261530,5,2,3:0:0:0:
96,114,261630,2,0,B|74:92|72:47|80:16|80:16|101:54|134:65,1,176.000005371094
223,56,261930,2,0,P|210:98|198:140,1,88.000002685547,2|8,3:0|0:0,0:0:0:0:
129,219,262130,1,2,0:0:0:0:
129,219,262230,1,8,0:0:0:0:
129,219,262330,6,0,P|171:229|213:243,1,88.000002685547,2|0,3:0|0:0,0:0:0:0:
292,313,262530,2,0,P|302:271|316:228,1,88.000002685547,8|0,0:0|0:0,0:0:0:0:
223,56,262730,2,0,P|210:98|198:140,1,88.000002685547,2|8,3:0|0:0,0:0:0:0:
386,150,262930,2,0,P|344:140|301:126,1,88.000002685547,8|8,0:0|0:0,0:0:0:0:
129,219,263130,5,2,3:0:0:0:
65,252,263230,2,0,B|75:237|165:250|198:329|186:345,1,176.000005371094
159,384,263530,2,0,P|201:373|244:364,1,80,2|8,3:0|0:0,0:0:0:0:
340,316,263730,1,0,0:0:0:0:
340,316,263830,1,8,0:0:0:0:
340,316,263930,6,0,P|362:283|359:244,1,80,2|0,3:0|0:0,0:0:0:0:
281,222,264130,2,0,P|258:254|261:293,1,80,8|0,0:0|0:0,0:0:0:0:
144,334,264330,1,2,3:0:0:0:
135,310,264430,1,8,0:0:0:0:
125,288,264530,1,8,0:0:0:0:
112,266,264630,1,8,0:0:0:0:
96,248,264730,5,6,0:0:0:0:
73,214,264830,1,2,0:0:0:0:
66,173,264930,1,2,0:0:0:0:
78,134,265030,1,2,0:0:0:0:
106,105,265130,1,2,3:0:0:0:
144,90,265230,1,2,0:0:0:0:
185,93,265330,1,2,0:0:0:0:
220,113,265430,1,2,0:0:0:0:
246,146,265530,1,2,3:0:0:0:
268,184,265630,1,2,0:0:0:0:
302,211,265730,1,2,0:0:0:0:
345,224,265830,1,2,0:0:0:0:
389,219,265930,1,2,3:0:0:0:
428,199,266030,1,2,0:0:0:0:
457,165,266130,1,2,0:0:0:0:
471,123,266230,1,2,0:0:0:0:
468,78,266330,5,2,3:0:0:0:
434,31,266430,1,2,0:0:0:0:
383,5,266530,1,2,0:0:0:0:
326,6,266630,1,2,0:0:0:0:
276,34,266730,1,2,3:0:0:0:
245,81,266830,1,2,0:0:0:0:
239,138,266930,1,2,0:0:0:0:
259,191,267030,1,2,0:0:0:0:
298,233,267130,1,2,3:0:0:0:
319,286,267230,1,2,0:0:0:0:
302,341,267330,1,2,0:0:0:0:
250,366,267430,1,2,0:0:0:0:
194,351,267530,1,2,3:0:0:0:
157,306,267630,1,2,0:0:0:0:
104,281,267730,1,2,0:0:0:0:
47,290,267830,1,2,0:0:0:0:
4,328,267930,5,4,0:0:0:0:
62,355,268030,1,2,0:0:0:0:
125,343,268130,1,2,0:0:0:0:
169,296,268230,1,2,0:0:0:0:
175,231,268330,1,10,0:0:0:0:
138,177,268430,1,2,0:0:0:0:
138,112,268530,1,2,0:0:0:0:
179,62,268630,1,2,0:0:0:0:
247,41,268730,5,2,0:0:0:0:
315,62,268830,1,2,0:0:0:0:
351,124,268930,1,2,0:0:0:0:
335,194,269030,1,2,0:0:0:0:
271,228,269130,1,10,0:0:0:0:
210,189,269230,1,2,0:0:0:0:
138,177,269330,1,2,0:0:0:0:
70,201,269430,1,2,0:0:0:0:
20,257,269530,5,6,0:0:0:0:
57,326,269630,5,2,0:0:0:0:
125,365,269730,5,2,0:0:0:0:
202,382,269830,5,2,0:0:0:0:
279,367,269930,5,10,0:0:0:0:
341,318,270030,5,2,0:0:0:0:
379,249,270130,5,2,0:0:0:0:
383,169,270230,5,2,0:0:0:0:
344,91,270330,6,0,P|326:88|340:99,1,46.0000008773804,4|0,1:0|0:0,0:0:0:0:
512,221,270530,1,0,0:0:0:0:
512,221,270630,1,0,0:0:0:0:
512,221,270730,2,0,P|500:266|492:304,1,71.9999978027344,2|0,0:0|0:0,0:0:0:0:
381,384,270930,2,0,P|373:348|363:314,1,71.9999978027344,2|0,0:0|0:0,0:0:0:0:
256,192,271130,5,6,3:0:0:0:
256,192,271230,12,0,274330,0:0:0:0:
318,313,283930,6,0,P|338:303|349:280,1,40,2|0,0:0|0:0,0:0:0:0:
369,201,284330,1,0,0:0:0:0:
120,185,284530,6,0,P|118:207|133:228,1,40,2|0,0:0|0:0,0:0:0:0:
191,285,284930,1,0,0:0:0:0:
329,77,285130,6,0,P|311:65|285:67,1,40
120,185,285530,6,0,P|118:207|133:228,1,40,2|0,0:0|0:0,0:0:0:0:
191,285,285930,1,0,0:0:0:0:
329,77,286130,6,0,P|311:65|285:67,1,40,2|0,0:0|0:0,0:0:0:0:
207,89,286530,1,0,0:0:0:0:
318,313,286730,6,0,P|338:303|349:280,1,40
256,192,287130,5,2,0:0:0:0:
256,192,287730,5,2,0:0:0:0:
256,192,288730,5,2,0:0:0:0:
256,192,289330,5,2,0:0:0:0:
437,35,290330,6,0,P|416:48|393:44,1,40,2|0,0:0|0:0,0:0:0:0:
315,25,290730,1,0,0:0:0:0:
63,103,290930,2,0,P|65:141|148:158,1,120,2|0,0:0|0:0,0:0:0:0:
301,144,291730,1,0,0:0:0:0:
60,233,291930,6,0,P|81:246|104:242,1,40,2|0,0:0|0:0,0:0:0:0:
182,223,292330,1,0,0:0:0:0:
434,301,292530,2,0,P|432:339|349:356,1,120,2|0,0:0|0:0,0:0:0:0:
196,342,293330,1,0,0:0:0:0:
234,185,293530,6,0,P|282:176|248:205,2,120,2|2|0,0:0|0:0|0:0,0:0:0:0:
57,209,295130,6,0,P|69:243|119:244,1,80,2|0,0:0|0:0,0:0:0:0:
455,175,295730,2,0,P|443:141|393:140,1,80,2|0,0:0|0:0,0:0:0:0:
256,180,296330,6,0,L|258:223,1,35.9999989013672
299,274,296730,6,0,P|333:263|352:258,1,40,2|0,0:0|0:0,0:0:0:0:
184,217,297130,1,0,0:0:0:0:
353,239,297330,6,0,P|371:208|383:192,1,40,2|0,0:0|0:0,0:0:0:0:
228,269,297730,1,0,0:0:0:0:
375,171,297930,6,0,P|370:135|368:116,1,40
299,274,298330,6,0,P|303:309|305:328,1,40,2|0,0:0|0:0,0:0:0:0:
378,359,298730,1,0,0:0:0:0:
169,274,298930,6,0,P|173:238|175:219,1,40,2|0,0:0|0:0,0:0:0:0:
256,192,299330,1,0,0:0:0:0:
136,87,299530,6,0,P|140:122|142:141,1,40
256,192,299930,5,2,0:0:0:0:
256,192,300530,1,2,0:0:0:0:
256,192,301530,5,2,0:0:0:0:
161,238,301930,5,0,0:0:0:0:
351,146,302130,1,2,0:0:0:0:
256,192,302330,2,0,P|222:181|193:172,1,60
137,137,302730,2,0,P|110:150|82:173,1,60
14,186,303130,6,0,P|26:218|30:232,1,40,2|0,0:0|0:0,0:0:0:0:
50,304,303530,1,0,0:0:0:0:
200,228,303730,6,0,P|212:196|216:182,1,40,2|0,0:0|0:0,0:0:0:0:
236,110,304130,1,0,0:0:0:0:
378,267,304330,6,0,P|390:299|394:313,1,40
470,94,304730,6,0,P|437:87|419:83,1,40,2|0,0:0|0:0,0:0:0:0:
341,47,305130,1,0,0:0:0:0:
196,101,305330,6,0,P|229:108|247:112,1,40,2|0,0:0|0:0,0:0:0:0:
325,148,305730,1,0,0:0:0:0:
505,214,305930,6,0,P|474:228|444:248,1,60
416,304,306330,6,0,P|373:298|341:282,1,80,2|0,0:0|0:0,0:0:0:0:
96,80,306930,2,0,P|139:86|171:102,1,80,2|0,0:0|0:0,0:0:0:0:
256,192,307530,1,0,0:0:0:0:
96,304,307930,6,0,P|139:298|171:282,1,80,2|0,0:0|0:0,0:0:0:0:
416,80,308530,2,0,P|373:86|341:102,1,80,2|0,0:0|0:0,0:0:0:0:
293,283,309130,2,0,P|301:265|305:244,1,40
256,192,309530,5,2,0:0:0:0:
256,192,309630,12,2,312530,0:0:0:0:
160,112,312730,5,2,0:0:0:0:
172,105,312830,2,0,P|198:116|223:124,1,40,2|0,0:0|0:0,0:0:0:0:
257,192,313130,6,0,P|287:175|313:155,1,55.9999982910157,2|0,0:0|0:0,0:0:0:0:
157,203,313430,6,0,P|132:236|135:295,1,71.9999978027344,2|0,0:0|0:0,0:0:0:0:
42,331,313730,6,0,P|96:344|178:373,1,132.00000402832,2|0,0:0|0:0,0:0:0:0:
310,327,314130,5,2,0:0:0:0:
258,27,314730,6,0,P|246:45|248:24,1,56,4|0,1:0|0:0,0:0:0:0:
332,62,315530,6,0,P|267:77|158:114,1,143.999995605469
25,113,315930,5,6,3:0:0:0:
98,81,316030,1,2,0:0:0:0:
167,120,316130,1,8,0:0:0:0:
179,198,316230,1,0,3:0:0:0:
148,272,316330,2,0,B|59:285|42:250|42:250|71:266|140:243,1,160,2|0,3:0|0:0,0:0:0:0:
266,147,316630,1,8,0:0:0:0:
353,208,316730,2,0,P|376:245|353:302,1,80,2|2,3:0|0:0,0:0:0:0:
258,371,316930,2,0,P|235:334|258:277,1,80,8|0,0:0|3:0,0:0:0:0:
361,84,317130,1,2,3:0:0:0:
361,84,317230,1,8,0:0:0:0:
427,169,317330,2,0,P|459:179|512:165,1,80,0|8,0:0|0:0,0:0:0:0:
271,33,317530,5,2,3:0:0:0:
174,89,317630,2,0,P|162:126|170:165,1,80,2|8,0:0|0:0,0:0:0:0:
19,366,317830,1,0,3:0:0:0:
116,310,317930,2,0,P|127:272|119:233,1,80,2|8,3:0|0:0,0:0:0:0:
55,149,318130,1,0,0:0:0:0:
55,149,318230,1,8,0:0:0:0:
96,45,318330,6,0,P|172:0|252:32,1,160,2|8,3:0|0:0,0:0:0:0:
314,86,318630,1,0,3:0:0:0:
237,126,318730,1,2,3:0:0:0:
235,139,318830,1,8,0:0:0:0:
233,152,318930,1,0,0:0:0:0:
231,166,319030,1,8,0:0:0:0:
280,277,319130,5,2,3:0:0:0:
381,297,319230,2,0,P|444:275|460:250,1,80,2|8,0:0|0:0,0:0:0:0:
322,340,319430,1,0,3:0:0:0:
342,238,319530,2,0,P|320:174|295:158,1,80,2|8,3:0|0:0,0:0:0:0:
49,172,319730,1,0,0:0:0:0:
125,239,319830,2,0,P|189:252|216:238,1,80,8|2,0:0|3:0,0:0:0:0:
339,5,320030,1,2,0:0:0:0:
241,37,320130,2,0,P|196:87|195:116,1,80,8|0,0:0|3:0,0:0:0:0:
194,349,320330,1,2,3:0:0:0:
194,349,320430,1,8,0:0:0:0:
273,350,320530,1,0,0:0:0:0:
352,354,320630,1,8,0:0:0:0:
441,359,320730,6,0,B|458:329|458:329|441:261,1,80,2|2,3:0|0:0,0:0:0:0:
315,110,320930,1,8,0:0:0:0:
296,117,321030,1,0,3:0:0:0:
304,201,321130,1,8,0:0:0:0:
295,220,321230,1,2,3:0:0:0:
376,244,321330,1,8,0:0:0:0:
383,264,321430,1,0,3:0:0:0:
460,223,321530,6,0,P|499:162|397:119,1,160,2|8,3:0|0:0,0:0:0:0:
449,22,321830,1,0,3:0:0:0:
449,22,321930,2,0,P|381:42|365:98,1,80,2|8,3:0|0:0,0:0:0:0:
291,2,322130,2,0,P|281:72|326:109,1,80,0|8,0:0|0:0,0:0:0:0:
210,212,322330,6,0,P|105:174|61:203,1,160,2|8,3:0|0:0,0:0:0:0:
11,260,322630,1,0,3:0:0:0:
88,307,322730,2,0,P|130:279|132:237,1,80,2|8,3:0|0:0,0:0:0:0:
103,61,322930,2,0,P|61:89|59:131,1,80,2|8,0:0|0:0,0:0:0:0:
217,311,323130,6,0,P|354:291|388:330,1,160,2|8,3:0|0:0,0:0:0:0:
439,355,323430,1,0,3:0:0:0:
499,295,323530,2,0,P|449:262|406:278,1,80,2|8,3:0|0:0,0:0:0:0:
290,349,323730,2,0,P|340:382|383:366,1,80,2|8,0:0|0:0,0:0:0:0:
485,192,323930,5,2,3:0:0:0:
486,182,324030,1,2,0:0:0:0:
488,172,324130,1,8,0:0:0:0:
490,162,324230,1,0,3:0:0:0:
492,152,324330,5,2,3:0:0:0:
461,127,324430,1,8,0:0:0:0:
422,126,324530,1,2,0:0:0:0:
390,149,324630,1,8,0:0:0:0:
379,187,324730,5,2,3:0:0:0:
333,249,324830,1,2,0:0:0:0:
255,256,324930,1,8,0:0:0:0:
198,203,325030,1,0,3:0:0:0:
200,125,325130,5,2,3:0:0:0:
261,178,325230,1,8,0:0:0:0:
229,251,325330,1,2,0:0:0:0:
149,244,325430,1,8,0:0:0:0:
131,164,325530,5,2,3:0:0:0:
162,139,325630,1,2,0:0:0:0:
200,125,325730,1,8,0:0:0:0:
239,122,325830,1,0,3:0:0:0:
332,88,325930,5,2,3:0:0:0:
303,58,326030,1,8,0:0:0:0:
267,40,326130,1,0,0:0:0:0:
229,32,326230,1,8,0:0:0:0:
142,48,326330,6,0,P|124:102|141:145,1,80,2|0,3:0|0:0,0:0:0:0:
402,210,326530,2,0,P|420:156|403:113,1,80,8|0,0:0|0:0,0:0:0:0:
129,35,326730,2,0,P|111:89|128:132,1,80,2|0,3:0|0:0,0:0:0:0:
239,312,326930,1,8,0:0:0:0:
239,312,327330,5,0,3:0:0:0:
239,312,327430,1,0,3:0:0:0:
239,312,327530,2,0,B|271:291|276:272|276:272|267:260|259:221,1,80,8|0,0:0|0:0,0:0:0:0:
230,26,327730,5,0,3:0:0:0:
230,26,327830,1,0,3:0:0:0:
149,66,327930,5,0,3:0:0:0:
133,119,328030,1,0,3:0:0:0:
193,174,328130,5,0,3:0:0:0:
246,190,328230,1,0,3:0:0:0:
311,248,328330,5,0,3:0:0:0:
295,301,328430,1,0,3:0:0:0:
238,357,328530,5,0,3:0:0:0:
185,341,328630,1,0,3:0:0:0:
97,324,328730,6,0,B|65:283|65:283|87:204|153:250,1,160,6|8,0:0|0:0,0:0:0:0:
367,349,329030,1,0,3:0:0:0:
365,198,329130,2,0,P|311:246|321:287,1,80,2|8,3:0|0:0,0:0:0:0:
385,354,329330,2,0,P|439:306|429:265,1,80,0|8,0:0|0:0,0:0:0:0:
295,118,329530,1,2,3:0:0:0:
276,125,329630,1,2,0:0:0:0:
263,140,329730,1,8,0:0:0:0:
257,158,329830,1,0,3:0:0:0:
292,231,329930,5,2,3:0:0:0:
311,175,330030,1,8,0:0:0:0:
295,118,330130,1,0,0:0:0:0:
250,79,330230,1,8,0:0:0:0:
192,73,330330,6,0,P|146:117|147:152,1,80,2|2,3:0|0:0,0:0:0:0:
229,313,330530,2,0,P|195:264|159:257,1,80,8|0,0:0|3:0,0:0:0:0:
8,177,330730,1,2,3:0:0:0:
23,189,330830,1,8,0:0:0:0:
41,198,330930,1,0,0:0:0:0:
61,200,331030,1,8,0:0:0:0:
144,176,331130,5,2,3:0:0:0:
163,177,331230,1,2,0:0:0:0:
182,183,331330,1,8,0:0:0:0:
198,196,331430,1,0,3:0:0:0:
216,262,331530,5,2,3:0:0:0:
168,229,331630,1,8,0:0:0:0:
144,176,331730,1,0,0:0:0:0:
153,118,331830,1,8,0:0:0:0:
192,73,331930,6,0,B|231:45|279:51|279:51|295:97|350:100,1,160,2|8,3:0|0:0,0:0:0:0:
356,20,332230,1,0,3:0:0:0:
364,176,332330,2,0,P|403:149|389:83,1,80,2|8,3:0|0:0,0:0:0:0:
259,159,332530,2,0,P|250:205|307:242,1,80,0|8,0:0|0:0,0:0:0:0:
465,369,332730,1,2,3:0:0:0:
498,352,332830,1,2,0:0:0:0:
495,315,332930,1,8,0:0:0:0:
459,305,333030,1,0,3:0:0:0:
437,336,333130,2,0,P|477:358|530:336,1,80,2|8,3:0|0:0,0:0:0:0:
433,194,333330,2,0,P|393:172|340:194,1,80,0|8,0:0|0:0,0:0:0:0:
154,298,333530,5,2,3:0:0:0:
187,352,333630,1,2,0:0:0:0:
249,366,333730,2,0,P|298:357|328:315,1,80,8|0,0:0|3:0,0:0:0:0:
220,112,333930,5,2,3:0:0:0:
166,145,334030,1,8,0:0:0:0:
152,207,334130,2,0,P|161:256|203:286,1,80,0|8,0:0|0:0,0:0:0:0:
416,180,334330,5,2,3:0:0:0:
383,126,334430,1,2,0:0:0:0:
321,112,334530,2,0,P|272:121|242:163,1,80,8|0,0:0|3:0,0:0:0:0:
350,366,334730,5,2,3:0:0:0:
404,333,334830,1,8,0:0:0:0:
418,271,334930,2,0,P|409:222|367:192,1,80,0|8,0:0|0:0,0:0:0:0:
38,77,335130,5,6,0:0:0:0:
33,96,335230,1,2,0:0:0:0:
34,116,335330,1,2,0:0:0:0:
42,134,335430,1,2,0:0:0:0:
54,149,335530,1,2,3:0:0:0:
71,160,335630,1,2,0:0:0:0:
90,165,335730,1,2,0:0:0:0:
110,164,335830,1,2,0:0:0:0:
129,156,335930,1,2,3:0:0:0:
159,131,336030,1,2,0:0:0:0:
203,112,336130,1,2,0:0:0:0:
258,111,336230,1,2,0:0:0:0:
313,142,336330,1,2,3:0:0:0:
337,209,336430,1,2,0:0:0:0:
348,288,336530,1,2,0:0:0:0:
419,324,336630,1,2,0:0:0:0:
494,298,336730,5,2,3:0:0:0:
505,218,336830,1,2,0:0:0:0:
452,157,336930,1,2,0:0:0:0:
372,163,337030,1,2,0:0:0:0:
318,222,337130,1,2,3:0:0:0:
239,262,337230,1,2,0:0:0:0:
151,271,337330,1,2,0:0:0:0:
75,225,337430,1,2,0:0:0:0:
38,136,337530,5,2,3:0:0:0:
53,117,337630,1,2,0:0:0:0:
75,108,337730,1,2,0:0:0:0:
98,111,337830,1,2,0:0:0:0:
172,56,337930,5,2,3:0:0:0:
187,75,338030,1,2,0:0:0:0:
209,84,338130,1,2,0:0:0:0:
232,81,338230,1,2,0:0:0:0:
340,50,338330,5,4,0:0:0:0:
266,32,338430,1,2,0:0:0:0:
209,84,338530,1,2,0:0:0:0:
218,160,338630,1,2,0:0:0:0:
287,195,338730,1,10,0:0:0:0:
327,260,338830,1,2,0:0:0:0:
298,332,338930,1,2,0:0:0:0:
223,351,339030,1,2,0:0:0:0:
163,303,339130,5,2,0:0:0:0:
162,231,339230,1,2,0:0:0:0:
217,184,339330,1,2,0:0:0:0:
296,187,339430,1,2,0:0:0:0:
357,238,339530,1,10,0:0:0:0:
434,259,339630,1,2,0:0:0:0:
503,218,339730,1,2,0:0:0:0:
507,138,339830,1,2,0:0:0:0:
447,84,339930,5,6,0:0:0:0:
360,100,340030,1,2,0:0:0:0:
300,174,340130,1,2,0:0:0:0:
244,251,340230,1,2,0:0:0:0:
149,266,340330,1,10,0:0:0:0:
64,221,340430,1,2,0:0:0:0:
50,125,340530,1,2,0:0:0:0:
115,54,340630,1,2,0:0:0:0:
209,69,340730,6,0,L|199:119,1,48,4|0,1:0|3:0,0:0:0:0:
166,137,341530,6,0,P|247:154|332:175,1,151.999995941162,2|8,3:0|0:0,0:0:0:0:
392,202,341830,1,0,3:0:0:0:
392,202,341930,2,0,P|424:168|421:127,1,75.9999979705811,2|8,3:0|0:0,0:0:0:0:
286,0,342130,1,2,0:0:0:0:
286,0,342230,1,8,0:0:0:0:
286,0,342330,2,0,L|293:82,1,75.9999979705811,2|2,3:0|0:0,0:0:0:0:
150,211,342530,2,0,L|166:133,1,75.9999979705811,8|0,0:0|3:0,0:0:0:0:
47,34,342730,5,2,3:0:0:0:
1,64,342830,1,8,0:0:0:0:
0,125,342930,1,2,0:0:0:0:
59,178,343030,1,8,0:0:0:0:
85,250,343130,5,2,3:0:0:0:
63,291,343230,1,2,0:0:0:0:
35,288,343330,2,0,P|19:247|4:213,1,75.9999979705811,8|0,0:0|3:0,0:0:0:0:
128,366,343530,2,0,P|217:346|279:336,1,151.999995941162,2|2,3:0|0:0,0:0:0:0:
243,231,343830,1,8,0:0:0:0:
237,227,343930,2,0,L|156:207,1,75.9999979705811,2|2,3:0|0:0,0:0:0:0:
370,346,344130,2,0,P|420:360|456:367,1,75.9999979705811,8|0,0:0|3:0,0:0:0:0:
479,199,344330,1,2,3:0:0:0:
479,199,344430,1,8,0:0:0:0:
479,199,344530,2,0,P|429:185|393:178,1,75.9999979705811,2|8,0:0|0:0,0:0:0:0:
237,227,344730,5,2,3:0:0:0:
177,192,344830,1,2,0:0:0:0:
183,123,344930,1,8,0:0:0:0:
244,94,345030,1,0,3:0:0:0:
309,133,345130,2,0,B|322:218|255:194|265:282,1,151.999995941162,2|2,3:0|0:0,0:0:0:0:
304,350,345430,1,8,0:0:0:0:
304,350,345530,2,0,P|271:359|233:370,1,55.9999982910157,2|2,3:0|0:0,0:0:0:0:
88,316,345730,2,0,P|110:280|96:244,1,75.9999979705811,8|0,0:0|3:0,0:0:0:0:
24,87,345930,2,0,P|2:123|16:159,1,75.9999979705811,2|8,3:0|0:0,0:0:0:0:
240,126,346130,5,2,0:0:0:0:
240,126,346230,1,8,0:0:0:0:
240,126,346330,2,0,P|154:148|92:169,1,151.999995941162,2|8,3:0|0:0,0:0:0:0:
0,246,346630,1,0,3:0:0:0:
88,316,346730,5,2,3:0:0:0:
109,344,346830,1,8,0:0:0:0:
124,371,346930,2,0,P|155:186|177:94,1,227.999993911743,2|2,0:0|0:0,0:0:0:0:
207,52,347330,2,0,P|198:16|165:1,1,75.9999979705811,8|0,0:0|3:0,0:0:0:0:
71,90,347530,5,2,3:0:0:0:
109,112,347630,5,8,0:0:0:0:
163,146,347730,5,2,0:0:0:0:
232,195,347830,5,8,0:0:0:0:
306,253,347930,5,2,3:0:0:0:
313,267,348030,1,2,0:0:0:0:
490,0,348230,1,0,3:0:0:0:
480,12,348330,2,0,P|455:143|452:181,1,92.0000017547608,2|8,3:0|0:0,0:0:0:0:
307,68,348530,2,0,P|325:141|337:182,1,92.0000017547608,2|8,0:0|0:0,0:0:0:0:
457,311,348730,5,2,3:0:0:0:
464,297,348830,1,2,0:0:0:0:
208,383,349030,1,0,3:0:0:0:
192,375,349130,2,0,P|123:355|89:348,1,92.0000017547608,2|8,3:0|0:0,0:0:0:0:
0,214,349330,5,2,0:0:0:0:
0,214,349430,1,8,0:0:0:0:
0,214,349530,2,0,P|74:207|99:108,1,184.000003509522,2|8,3:0|0:0,0:0:0:0:
6,37,349830,1,0,3:0:0:0:
0,46,349930,1,2,3:0:0:0:
248,278,350130,5,2,0:0:0:0:
248,278,350230,1,8,0:0:0:0:
248,278,350330,2,0,P|311:262|347:256,1,92.0000017547608,2|2,3:0|0:0,0:0:0:0:
371,334,350530,2,0,P|333:287|347:257,1,92.0000017547608,8|0,0:0|3:0,0:0:0:0:
305,84,350730,1,2,3:0:0:0:
305,84,350830,1,8,0:0:0:0:
305,84,350930,2,0,P|265:128|293:170,1,92.0000017547608,2|8,0:0|0:0,0:0:0:0:
470,224,351130,5,2,3:0:0:0:
470,224,351230,2,0,P|510:180|482:138,1,92.0000017547608,2|8,0:0|0:0,0:0:0:0:
362,122,351430,1,0,3:0:0:0:
421,159,351530,2,0,P|326:176|233:196,1,184.000003509522,2|2,3:0|0:0,0:0:0:0:
122,161,351830,1,8,0:0:0:0:
176,119,351930,1,2,3:0:0:0:
176,119,352130,2,0,L|74:144,1,92.0000017547608,8|0,0:0|3:0,0:0:0:0:
250,243,352330,2,0,L|157:224,1,92.0000017547608,2|8,3:0|0:0,0:0:0:0:
0,202,352530,5,2,0:0:0:0:
0,202,352630,1,8,0:0:0:0:
0,202,352730,2,0,P|87:250|63:329,1,184.000003509522,2|8,3:0|0:0,0:0:0:0:
177,359,353030,1,0,3:0:0:0:
177,359,353130,2,0,P|209:288|313:295,1,184.000003509522,2|2,3:0|0:0,0:0:0:0:
311,183,353430,1,8,0:0:0:0:
311,183,353530,2,0,P|344:166|353:111,1,92.0000017547608,2|2,3:0|0:0,0:0:0:0:
205,0,353730,5,8,0:0:0:0:
205,0,353830,1,0,3:0:0:0:
205,0,353930,2,0,P|245:9|305:26,1,92.0000017547608,2|8,3:0|0:0,0:0:0:0:
443,92,354130,2,0,P|398:102|354:115,1,92.0000017547608,2|8,0:0|0:0,0:0:0:0:
171,192,354330,5,2,3:0:0:0:
156,205,354430,2,0,P|164:245|176:306,1,92.0000017547608,2|8,0:0|0:0,0:0:0:0:
48,167,354630,1,0,3:0:0:0:
33,156,354730,2,0,P|30:83|131:45,1,184.000003509522,2|2,3:0|0:0,0:0:0:0:
221,106,355030,1,8,0:0:0:0:
233,118,355130,2,0,P|287:119|318:94,1,92.0000017547608,2|2,3:0|0:0,0:0:0:0:
443,186,355330,5,8,0:0:0:0:
443,186,355430,1,0,3:0:0:0:
442,185,355530,2,0,P|388:184|357:209,1,92.0000017547608,2|8,3:0|0:0,0:0:0:0:
255,223,355730,2,0,P|254:277|279:308,1,92.0000017547608,2|8,0:0|0:0,0:0:0:0:
396,376,355930,5,2,3:0:0:0:
414,369,356030,2,0,P|420:318|506:301,1,92.0000017547608,2|8,0:0|0:0,0:0:0:0:
358,205,356230,2,0,P|325:174|323:130,2,92.0000017547608,0|2|8,3:0|3:0|0:0,0:0:0:0:
69,275,356530,6,0,B|124:218|210:300|201:307|262:362|360:282,1,276.000005264282,2|2,0:0|0:0,0:0:0:0:
256,279,356930,1,8,0:0:0:0:
241,283,357030,1,0,3:0:0:0:
228,288,357130,2,0,P|175:299|121:316,1,92.0000017547608,2|8,3:0|0:0,0:0:0:0:
206,136,357330,5,2,0:0:0:0:
221,143,357430,1,8,0:0:0:0:
234,153,357530,5,2,3:0:0:0:
293,198,357630,2,0,P|364:146|331:44,1,184.000003509522,2|0,0:0|3:0,0:0:0:0:
478,183,357930,2,0,P|416:152|353:169,1,92.0000017547608,2|8,3:0|0:0,0:0:0:0:
231,229,358130,5,2,0:0:0:0:
231,229,358230,1,8,0:0:0:0:
231,229,358330,2,0,P|160:281|193:383,1,184.000003509522,2|8,3:0|0:0,0:0:0:0:
29,353,358630,1,0,3:0:0:0:
39,341,358730,2,0,P|101:310|164:327,1,92.0000017547608,2|8,3:0|0:0,0:0:0:0:
81,174,358930,2,0,P|138:212|155:275,1,92.0000017547608,2|8,0:0|0:0,0:0:0:0:
296,364,359130,6,0,P|343:341|346:281,1,92.0000017547608,2|2,3:0|0:0,0:0:0:0:
220,313,359330,1,8,0:0:0:0:
220,313,359430,1,0,3:0:0:0:
220,313,359530,1,2,3:0:0:0:
509,143,359730,6,0,B|462:92|360:142|369:161|266:276|153:193,1,368.000007019043,2|8,0:0|0:0,0:0:0:0:
296,162,360330,2,0,P|340:173|384:186,1,92.0000017547608,2|8,3:0|0:0,0:0:0:0:
237,84,360530,5,2,0:0:0:0:
237,84,360630,1,8,0:0:0:0:
316,20,360730,6,0,B|245:113|360:216|379:207|429:309|378:356,1,335.999989746094,6|0,0:0|3:0,0:0:0:0:
353,377,361130,2,0,L|373:273,1,95.9999970703126,2|8,3:0|0:0,0:0:0:0:
488,255,361330,5,2,0:0:0:0:
488,255,361430,1,8,0:0:0:0:
488,255,361530,2,0,P|444:147|371:149,1,184.000003509522,2|8,3:0|0:0,0:0:0:0:
296,162,361830,1,0,3:0:0:0:
339,283,361930,5,2,3:0:0:0:
343,263,362030,1,8,0:0:0:0:
348,242,362130,1,2,0:0:0:0:
355,223,362230,1,8,0:0:0:0:
261,329,362330,5,2,3:0:0:0:
254,309,362430,1,2,0:0:0:0:
248,288,362530,1,8,0:0:0:0:
244,269,362630,1,0,3:0:0:0:
243,248,362730,5,2,3:0:0:0:
222,296,362830,1,8,0:0:0:0:
202,345,362930,2,0,B|207:353|207:353|245:363|301:384,1,92.0000017547608,2|8,0:0|0:0,0:0:0:0:
327,315,363130,2,0,B|336:294|336:294|249:102|230:56,1,276.000005264282,2|0,3:0|3:0,0:0:0:0:
260,0,363530,5,2,3:0:0:0:
257,12,363630,1,8,0:0:0:0:
254,23,363730,1,2,0:0:0:0:
252,33,363830,1,8,0:0:0:0:
345,109,363930,5,6,0:0:0:0:
345,109,364030,1,2,0:0:0:0:
345,109,364130,2,0,P|291:103|263:159,1,88.000002685547,8|0,0:0|3:0,0:0:0:0:
70,167,364330,5,2,3:0:0:0:
70,167,364430,1,8,0:0:0:0:
70,167,364530,2,0,P|128:179|176:195,1,88.000002685547,2|8,0:0|0:0,0:0:0:0:
245,318,364730,5,2,3:0:0:0:
245,318,364830,1,2,0:0:0:0:
245,318,364930,2,0,P|268:258|257:242,1,88.000002685547,8|0,0:0|3:0,0:0:0:0:
140,94,365130,5,2,3:0:0:0:
129,87,365230,2,0,L|118:0,2,88.000002685547,8|2|8,0:0|0:0|0:0,0:0:0:0:
28,251,365530,5,2,3:0:0:0:
42,261,365630,1,2,0:0:0:0:
56,275,365730,1,8,0:0:0:0:
66,289,365830,1,0,3:0:0:0:
161,313,365930,5,2,3:0:0:0:
158,325,366030,1,8,0:0:0:0:
151,339,366130,1,2,0:0:0:0:
143,350,366230,1,8,0:0:0:0:
128,230,366330,5,2,3:0:0:0:
155,184,366430,1,2,0:0:0:0:
206,171,366530,1,8,0:0:0:0:
254,192,366630,1,0,3:0:0:0:
429,315,366730,5,2,3:0:0:0:
363,337,366830,1,8,0:0:0:0:
296,317,366930,1,2,0:0:0:0:
253,262,367030,1,8,0:0:0:0:
254,192,367130,5,6,0:0:0:0:
366,119,367230,2,0,P|391:86|369:27,1,88.000002685547,2|0,0:0|0:0,0:0:0:0:
392,26,367530,6,0,P|390:122|285:146,1,176.000005371094,2|0,0:0|0:0,0:0:0:0:
254,192,367830,2,0,P|173:262|189:325,1,176.000005371094,2|0,0:0|0:0,0:0:0:0:
309,365,368130,2,0,B|356:324|396:370|423:410|490:368,2,176.000005371094,2|0|2,0:0|3:0|0:0,0:0:0:0:
188,323,368730,5,6,0:0:0:0:
98,248,368830,2,0,P|89:198|120:169,1,88.000002685547,2|0,0:0|0:0,0:0:0:0:
120,148,369130,6,0,P|72:247|143:292,1,176.000005371094,2|0,0:0|0:0,0:0:0:0:
188,323,369430,2,0,P|268:277|241:199,1,176.000005371094,2|0,0:0|0:0,0:0:0:0:
206,104,369730,2,0,P|189:45|241:98,2,176.000005371094,2|0|2,0:0|3:0|0:0,0:0:0:0:
285,172,370330,5,6,0:0:0:0:
285,172,370430,1,2,0:0:0:0:
285,172,370730,6,0,P|343:182|368:116,1,120.000004577637,2|0,0:0|0:0,0:0:0:0:
370,107,371030,2,0,P|332:152|376:206,1,120.000004577637,2|0,0:0|0:0,0:0:0:0:
452,222,371330,2,0,L|501:214,2,40,2|0|2,0:0|3:0|0:0,0:0:0:0:
369,285,371930,5,6,0:0:0:0:
369,285,372030,1,2,0:0:0:0:
369,285,372330,6,0,P|312:306|306:341,1,80,2|0,0:0|0:0,0:0:0:0:
308,348,372630,2,0,P|288:291|255:279,1,80,2|0,0:0|0:0,0:0:0:0:
188,254,372930,2,0,L|156:251,2,23.9999992675781,2|0|2,0:0|3:0|0:0,0:0:0:0:
271,192,373530,5,0,3:0:0:0:
271,192,373630,1,2,0:0:0:0:
271,192,373730,1,8,0:0:0:0:
302,176,373830,1,2,0:0:0:0:
341,158,373930,2,0,L|357:61,1,80,0|8,3:0|0:0,0:0:0:0:
147,61,374330,1,0,3:0:0:0:
147,61,374430,1,2,0:0:0:0:
147,61,374530,2,0,P|119:91|121:114,1,40,8|2,0:0|0:0,0:0:0:0:
191,172,374730,1,0,3:0:0:0:
191,172,374830,1,2,0:0:0:0:
191,172,374930,2,0,P|196:212|180:230,1,40,8|2,0:0|0:0,0:0:0:0:
56,354,375130,5,0,3:0:0:0:
22,335,375230,1,2,0:0:0:0:
16,297,375330,1,8,0:0:0:0:
42,269,375430,1,2,0:0:0:0:
80,273,375530,2,0,P|117:296|128:313,1,40,0|2,3:0|0:0,0:0:0:0:
170,368,375730,2,0,P|207:345|218:328,1,40,8|2,0:0|0:0,0:0:0:0:
281,246,375930,5,0,3:0:0:0:
308,229,376030,1,2,0:0:0:0:
339,232,376130,1,8,0:0:0:0:
364,251,376230,1,2,0:0:0:0:
380,278,376330,2,0,L|367:342,1,40,0|2,3:0|0:0,0:0:0:0:
303,377,376530,2,0,L|287:326,1,40,8|2,0:0|0:0,0:0:0:0:
214,182,376730,5,0,3:0:0:0:
214,182,376830,1,2,0:0:0:0:
214,182,376930,2,0,L|155:168,1,40,8|2,0:0|0:0,0:0:0:0:
99,154,377130,2,0,L|40:140,3,40,0|2|8|2,3:0|0:0|0:0|0:0,0:0:0:0:
177,76,377530,5,0,3:0:0:0:
177,76,377630,1,2,0:0:0:0:
177,76,377730,2,0,L|236:62,1,40,8|2,0:0|0:0,0:0:0:0:
292,48,377930,2,0,L|351:34,3,40,0|2|8|2,3:0|0:0|0:0|0:0,0:0:0:0:
437,127,378330,5,0,3:0:0:0:
436,135,378430,1,0,3:0:0:0:
434,143,378530,1,0,3:0:0:0:
433,151,378630,1,0,3:0:0:0:
432,155,378730,2,0,L|421:197,3,40,0|0|8|2,3:0|3:0|0:0|0:0,0:0:0:0:
358,246,379130,5,0,3:0:0:0:
349,244,379230,1,0,3:0:0:0:
341,242,379330,1,0,3:0:0:0:
333,241,379430,1,0,3:0:0:0:
330,240,379530,2,0,L|288:229,3,40,0|0|8|2,3:0|3:0|0:0|0:0,0:0:0:0:
183,206,379930,5,6,3:0:0:0:
256,192,380030,12,0,380630,0:0:0:0:
256,192,380730,12,0,381430,0:0:0:0:
256,192,381530,12,0,382230,0:0:0:0:
256,192,382330,12,0,383030,0:0:0:0:
256,192,383130,12,0,384630,0:0:0:0:
256,192,384730,12,0,386730,0:0:0:0:
