osu file format v14

[General]
AudioFilename: audio.mp3
AudioLeadIn: 0
PreviewTime: 256112
Countdown: 0
SampleSet: None
StackLeniency: 0.7
Mode: 0
LetterboxInBreaks: 0
WidescreenStoryboard: 0

[Editor]
DistanceSpacing: 0.9
BeatDivisor: 4
GridSize: 4
TimelineZoom: 1.55

[Metadata]
Title:Tou no Shita no Exercitus
TitleUnicode:Tou no Shita no Exercitus
Artist:Rita
ArtistUnicode:Rita
Creator:Maffe
Version:511
Source:塔の下のエクセルキトゥス
Tags:visual novel astronaut eroge
BeatmapID:1424925
BeatmapSetID:673272

[Difficulty]
HPDrainRate:6
CircleSize:4
OverallDifficulty:8.5
ApproachRate:9.6
SliderMultiplier:1.4
SliderTickRate:1

[Events]
//Background and Video events
0,0,"thumb-1920-805460.png",0,0
//Break Periods
2,32475,34675
2,35384,37584
2,38293,40493
2,56474,57948
2,59383,60857
2,62292,63766
//Storyboard Layer 0 (Background)
//Storyboard Layer 1 (Fail)
//Storyboard Layer 2 (Pass)
//Storyboard Layer 3 (Foreground)
//Storyboard Sound Samples

[TimingPoints]
6820,363.636363636364,4,2,1,100,1,0
6820,-133.333333333333,4,2,1,100,0,0
7547,-100,4,2,1,100,0,0
7548,363.636363636364,4,2,1,100,1,0
12911,-133.333333333333,4,2,1,100,0,0
13093,-100,4,2,1,100,0,0
13275,-133.333333333333,4,2,1,100,0,0
14638,-133.333333333333,4,2,1,100,0,0
16184,-125,4,2,1,100,0,0
18002,-111.111111111111,4,2,1,100,0,0
18366,-100,4,2,1,100,0,0
43457,-133.333333333333,4,2,1,100,0,0
43820,-100,4,2,1,100,0,0

[Colours]
Combo1 : 255,72,72
Combo2 : 255,255,0
Combo3 : 255,204,204

[HitObjects]
48,120,6820,6,0,B|84:100|124:120|124:124|124:128|168:152|216:124,1,157.500006008148
276,72,7547,2,0,L|284:0,2,70
256,232,8093,1,0,0:0:0:0:
124,124,8638,2,0,L|116:52,2,70
136,208,9184,1,0,0:0:0:0:
268,152,9366,2,0,L|192:160,1,70
292,256,9729,2,0,L|424:272,2,105
204,240,10457,1,0,0:0:0:0:
264,168,10638,1,0,0:0:0:0:
200,240,10820,1,0,0:0:0:0:
246,158,11001,1,0,0:0:0:0:
196,236,11184,1,0,0:0:0:0:
227,147,11365,1,0,0:0:0:0:
72,320,11548,1,0,0:0:0:0:
118,238,11729,1,0,0:0:0:0:
68,320,11911,1,0,0:0:0:0:
99,231,12092,1,0,0:0:0:0:
64,316,12275,2,0,L|12:256,1,70
288,220,12638,2,0,P|256:236|212:240,1,70
136,68,13002,2,0,L|164:72,1,26.2500010013581
240,160,13184,2,0,L|272:144,1,35
360,32,13366,2,0,B|344:156|344:156|368:204|368:204|352:344,1,315.000012016297
208,200,14820,2,0,B|306:217|306:217|356:185|356:185|393:232|393:232|487:249,1,315.000012016297
272,336,16093,1,0,0:0:0:0:
284,332,16184,1,0,0:0:0:0:
296,328,16275,2,0,L|308:196,1,112
308,168,16820,1,0,0:0:0:0:
224,272,17002,2,0,P|176:256|112:272,1,112
100,288,17548,1,0,0:0:0:0:
256,120,17729,2,0,L|244:192,1,56
280,368,18093,2,0,L|291:306,1,62.9999980773926
464,76,18457,2,0,L|444:168,1,70
436,360,18820,1,0,0:0:0:0:
429,325,18910,1,0,0:0:0:0:
422,291,19001,1,0,0:0:0:0:
416,256,19092,1,0,0:0:0:0:
409,222,19183,1,0,0:0:0:0:
400,240,19366,1,0,0:0:0:0:
392,256,19548,1,0,0:0:0:0:
324,164,19729,1,0,0:0:0:0:
326,183,19912,1,0,0:0:0:0:
328,201,20094,1,0,0:0:0:0:
256,244,20275,1,0,0:0:0:0:
254,263,20458,1,0,0:0:0:0:
252,281,20640,1,0,0:0:0:0:
168,288,20820,1,0,0:0:0:0:
153,300,21003,1,0,0:0:0:0:
139,311,21185,1,0,0:0:0:0:
60,268,21366,2,0,L|52:196,1,70
140,136,21729,2,0,L|148:208,1,70
224,168,22093,2,0,L|296:172,2,70
147,205,22638,2,0,L|75:209,2,70
216,252,23184,2,0,L|288:256,2,70
164,328,23729,2,0,L|92:332,2,70
288,352,24275,2,0,L|360:356,1,70
448,256,24638,1,0,0:0:0:0:
423,280,24728,1,0,0:0:0:0:
411,254,24819,1,0,0:0:0:0:
402,221,24910,1,0,0:0:0:0:
392,187,25001,1,0,0:0:0:0:
360,216,25184,1,0,0:0:0:0:
316,212,25366,1,0,0:0:0:0:
188,104,25548,1,0,0:0:0:0:
230,113,25731,1,0,0:0:0:0:
252,151,25913,1,0,0:0:0:0:
232,312,26093,1,0,0:0:0:0:
215,272,26276,1,0,0:0:0:0:
233,232,26458,1,0,0:0:0:0:
180,312,26638,1,0,0:0:0:0:
150,343,26821,1,0,0:0:0:0:
106,344,27003,1,0,0:0:0:0:
60,300,27184,2,0,L|64:220,1,70
207,276,27548,2,0,L|203:196,1,70
200,128,27820,1,0,0:0:0:0:
200,128,27911,1,0,0:0:0:0:
140,236,28093,1,0,0:0:0:0:
203,206,28275,1,0,0:0:0:0:
268,224,28457,1,0,0:0:0:0:
384,320,28638,1,0,0:0:0:0:
352,260,28820,1,0,0:0:0:0:
352,152,29002,1,0,0:0:0:0:
352,152,29184,1,0,0:0:0:0:
268,224,29366,1,0,0:0:0:0:
288,40,29548,2,0,L|280:116,1,70
192,156,29911,1,0,0:0:0:0:
368,0,30093,2,0,L|360:76,1,70
432,128,30457,2,0,P|444:168|408:240,1,105
368,172,30820,1,0,0:0:0:0:
256,192,30911,8,0,32093,0:0:0:0:
200,136,32275,5,0,0:0:0:0:
208,160,35184,5,0,0:0:0:0:
196,180,38093,5,0,0:0:0:0:
212,200,41002,5,0,0:0:0:0:
184,224,41548,1,0,0:0:0:0:
0,312,43911,1,0,0:0:0:0:
0,312,44275,2,0,B|68:292|68:292|136:316,1,140
200,376,44820,1,0,0:0:0:0:
140,216,45002,1,0,0:0:0:0:
104,304,45184,1,0,0:0:0:0:
352,172,45366,2,0,P|320:156|220:168,1,140
236,68,45911,1,0,0:0:0:0:
140,216,46093,1,0,0:0:0:0:
144,128,46275,1,0,0:0:0:0:
276,320,46457,2,0,L|284:244,1,70
432,104,46820,2,0,B|408:160|448:208|448:208|476:176,1,140
466,186,47366,1,0,0:0:0:0:
276,320,47548,1,0,0:0:0:0:
316,232,47729,1,0,0:0:0:0:
392,360,47911,2,0,L|476:372,1,70
320,384,48275,1,0,0:0:0:0:
352,300,48457,1,0,0:0:0:0:
240,248,48638,2,0,L|224:168,1,70
88,300,49002,1,0,0:0:0:0:
148,232,49184,1,0,0:0:0:0:
188,364,49366,2,0,L|256:384,1,70
0,164,49729,2,0,B|-20:224|16:268|16:268|36:236,1,140
31,242,50275,1,0,0:0:0:0:
120,380,50457,1,0,0:0:0:0:
156,300,50638,1,0,0:0:0:0:
144,164,50820,2,0,L|116:96,1,70
240,132,51184,2,0,B|308:152|308:152|380:132,1,140
374,133,51729,1,0,0:0:0:0:
216,316,51911,1,0,0:0:0:0:
252,216,52093,1,0,0:0:0:0:
344,324,52275,2,0,L|420:336,1,70
404,72,52638,2,0,P|444:112|308:132,1,280
312,163,53548,1,0,0:0:0:0:
296,272,53729,1,0,0:0:0:0:
220,204,53911,2,0,L|116:188,1,105
116,188,54275,2,0,L|124:228,1,35
48,244,54457,2,0,L|55:283,1,35
140,256,54638,2,0,L|147:295,1,35
92,348,54820,2,0,L|99:387,1,35
176,360,55002,1,0,0:0:0:0:
192,204,55184,1,0,0:0:0:0:
248,284,55366,1,0,0:0:0:0:
300,112,55548,2,0,L|384:120,1,70
92,348,56093,2,0,L|8:356,1,70
360,320,58457,6,0,L|428:332,1,70
152,84,59002,2,0,L|82:77,1,70
408,56,61366,6,0,L|392:128,1,70
72,160,61911,2,0,L|88:232,1,70
512,212,64275,6,0,P|480:188|384:208,1,140
384,216,64820,1,0,0:0:0:0:
