osu file format v14

[General]
AudioFilename: audio.mp3
AudioLeadIn: 0
PreviewTime: 84083
Countdown: 0
SampleSet: Soft
StackLeniency: 0.2
Mode: 0
LetterboxInBreaks: 0
WidescreenStoryboard: 0

[Editor]
DistanceSpacing: 0.3
BeatDivisor: 4
GridSize: 32
TimelineZoom: 2.2

[Metadata]
Title:Tou no Shita no Exercitus
TitleUnicode:塔の下のエクセルキトゥス
Artist:Rita
ArtistUnicode:Rita
Creator:Lasse
Version:Ascension
Source:塔の下のエクセルキトゥス
Tags:Taishi El Dorado Electro.muster GWAVE 2015 2nd Colors Under The Tower Exercitus
BeatmapID:1429631
BeatmapSetID:675872

[Difficulty]
HPDrainRate:6
CircleSize:4
OverallDifficulty:8.7
ApproachRate:9.2
SliderMultiplier:1.92
SliderTickRate:2

[Events]
//Background and Video events
0,0,"bg.jpg",0,0
//Break Periods
2,300010,301422
//Storyboard Layer 0 (Background)
//Storyboard Layer 1 (Fail)
//Storyboard Layer 2 (Pass)
//Storyboard Layer 3 (Foreground)
//Storyboard Sound Samples

[TimingPoints]
174,363.636363636364,4,2,63,60,1,0
7446,-125,4,2,63,60,0,0
13264,-125,4,2,63,70,0,0
13355,-125,4,2,63,40,0,0
14719,-125,4,2,63,68,0,0
14810,-125,4,2,63,40,0,0
15992,-125,4,2,63,60,0,0
16174,-111.111111111111,4,2,63,70,0,0
16264,-111.111111111111,4,2,63,40,0,0
16719,-111.111111111111,4,2,63,60,0,0
16901,-111.111111111111,4,2,63,66,0,0
16992,-111.111111111111,4,2,63,40,0,0
17628,-111.111111111111,4,2,63,62,0,0
17992,-111.111111111111,4,2,63,64,0,0
18355,-111.111111111111,4,2,63,66,0,0
18537,-111.111111111111,4,2,63,62,0,0
18628,-111.111111111111,4,2,63,63,0,0
18719,-111.111111111111,4,2,63,64,0,0
18810,-111.111111111111,4,2,63,65,0,0
18901,-111.111111111111,4,2,63,66,0,0
18992,-111.111111111111,4,2,63,67,0,0
19083,-100,4,2,63,70,0,0
19264,-100,4,2,63,60,0,0
19628,-100,4,2,63,70,0,0
19810,-100,4,2,63,60,0,0
24174,-100,4,2,63,64,0,0
24355,-100,4,2,63,60,0,0
24901,-100,4,2,63,68,0,0
25083,-100,4,2,63,60,0,0
25446,-100,4,2,63,68,0,0
25628,-100,4,2,63,60,0,0
27719,-100,4,2,63,54,0,0
27810,-100,4,2,63,68,0,0
27901,-100,4,2,63,60,0,0
28537,-100,4,2,63,66,0,0
28628,-100,4,2,63,60,0,0
29264,-100,4,2,63,64,0,0
29446,-100,4,2,63,60,0,0
29992,-100,4,2,63,64,0,0
30174,-100,4,2,63,56,0,0
30264,-100,4,2,63,54,0,0
30355,-100,4,2,63,52,0,0
30446,-100,4,2,63,50,0,0
30537,-100,4,2,63,48,0,0
30628,-100,4,2,63,46,0,0
30719,-100,4,2,63,60,0,0
32174,-100,4,2,1,50,0,0
43810,-111.111111111111,4,2,2,56,0,0
53810,-111.111111111111,4,2,2,58,0,0
54174,-111.111111111111,4,2,2,50,0,0
54901,-111.111111111111,4,2,2,54,0,0
55083,-111.111111111111,4,2,2,56,0,0
55264,-111.111111111111,4,2,2,58,0,0
55446,-83.3333333333333,4,2,63,66,0,0
55537,-83.3333333333333,4,2,63,50,0,0
55992,-83.3333333333333,4,2,63,66,0,0
56174,-100,4,2,63,60,0,0
56537,-100,4,2,63,58,0,0
56901,-100,4,2,63,54,0,0
58355,-83.3333333333333,4,2,63,66,0,0
58446,-83.3333333333333,4,2,63,50,0,0
58901,-83.3333333333333,4,2,63,66,0,0
59083,-100,4,2,63,58,0,0
59446,-100,4,2,63,56,0,0
59810,-100,4,2,63,54,0,0
60174,-100,4,2,63,56,0,0
60537,-100,4,2,63,58,0,0
60901,-100,4,2,63,60,0,0
61264,-83.3333333333333,4,2,63,66,0,0
61355,-83.3333333333333,4,2,63,50,0,0
61810,-83.3333333333333,4,2,63,66,0,0
61992,-100,4,2,63,58,0,0
62355,-100,4,2,63,56,0,0
62719,-100,4,2,63,54,0,0
64174,-71.4285714285714,4,2,63,70,0,0
64264,-71.4285714285714,4,2,63,50,0,0
64719,-71.4285714285714,4,2,63,60,0,0
64901,-100,4,2,63,70,0,0
65174,-100,4,2,63,60,0,0
65628,-100,4,2,63,64,0,0
65810,-100,4,2,63,60,0,0
65992,-100,4,2,63,66,0,0
66174,-100,4,2,63,60,0,0
66355,-100,4,2,63,68,0,0
66537,-100,4,2,63,66,0,0
66628,-100,4,2,63,50,0,0
66719,-100,4,2,63,64,0,0
66810,-100,4,2,63,50,0,0
66901,-100,4,2,63,62,0,0
66992,-100,4,2,63,50,0,0
67083,-76.9230769230769,4,2,63,70,0,0
67174,-76.9230769230769,4,2,63,50,0,0
67355,-76.9230769230769,4,2,99,5,0,0
67446,-76.9230769230769,4,2,2,64,0,0
67628,-100,4,2,63,68,0,0
67810,-100,4,2,63,66,0,0
68174,-100,4,2,2,64,0,0
68537,-100,4,2,2,60,0,0
69083,-100,4,2,63,60,0,0
69628,-100,4,2,2,60,0,0
69992,-76.9230769230769,4,2,63,70,0,0
70083,-76.9230769230769,4,2,63,50,0,0
70264,-76.9230769230769,4,2,99,5,0,0
70355,-76.9230769230769,4,2,2,64,0,0
70537,-76.9230769230769,4,2,63,68,0,0
70719,-100,4,2,63,66,0,0
71083,-100,4,2,2,64,0,0
71446,-100,4,2,2,60,0,0
71992,-100,4,2,63,60,0,0
72537,-100,4,2,2,60,0,0
72719,-100,4,2,63,60,0,0
72901,-76.9230769230769,4,2,63,70,0,0
72992,-76.9230769230769,4,2,63,50,0,0
73173,-76.9230769230769,4,2,99,5,0,0
73264,-76.9230769230769,4,2,2,64,0,0
73446,-76.9230769230769,4,2,63,68,0,0
73628,-100,4,2,63,66,0,0
73992,-100,4,2,2,64,0,0
74264,-100,4,2,63,60,0,0
74355,-76.9230769230769,4,2,63,70,0,0
74446,-76.9230769230769,4,2,63,50,0,0
74628,-76.9230769230769,4,2,99,5,0,0
74719,-100,4,2,2,64,0,0
75810,-76.9230769230769,4,2,63,70,0,0
75901,-76.9230769230769,4,2,63,50,0,0
76083,-76.9230769230769,4,2,99,5,0,0
76174,-76.9230769230769,4,2,2,64,0,0
76537,-100,4,2,63,64,0,0
76901,-100,4,2,2,64,0,0
77174,-100,4,2,63,60,0,0
77264,-76.9230769230769,4,2,63,70,0,0
77355,-76.9230769230769,4,2,63,50,0,0
77537,-76.9230769230769,4,2,99,5,0,0
77628,-100,4,2,2,64,0,0
78719,-76.9230769230769,4,2,63,72,0,0
78901,-76.9230769230769,4,2,63,64,0,0
79083,-76.9230769230769,4,2,2,64,0,0
79264,-76.9230769230769,4,2,63,64,0,0
79810,-76.9230769230769,4,2,2,64,0,0
79992,-76.9230769230769,4,2,63,60,0,0
80174,-76.9230769230769,4,2,63,70,0,0
80264,-76.9230769230769,4,2,63,50,0,0
80446,-76.9230769230769,4,2,99,5,0,0
80537,-76.9230769230769,4,2,2,64,0,0
80719,-76.9230769230769,4,2,63,64,0,0
80901,-76.9230769230769,4,2,63,60,0,0
81083,-76.9230769230769,4,2,63,68,0,0
81264,-76.9230769230769,4,2,2,64,0,0
81537,-76.9230769230769,4,2,63,60,0,0
81628,-71.4285714285714,4,2,63,72,0,0
81719,-76.9230769230769,4,2,63,50,0,0
81901,-76.9230769230769,4,2,99,5,0,0
81992,-71.4285714285714,4,2,2,64,0,0
82174,-71.4285714285714,4,2,63,64,0,0
82355,-90.9090909090909,4,2,63,66,0,0
82446,-90.9090909090909,4,2,63,60,0,0
82537,-90.9090909090909,4,2,2,64,0,0
82628,-90.9090909090909,4,2,63,60,0,0
82719,-90.9090909090909,4,2,2,64,0,0
82810,-90.9090909090909,4,2,63,60,0,0
82901,-218.818380743982,4,2,63,70,0,0
82924,-218.818380743982,4,2,98,20,0,0
84174,-218.818380743982,4,2,63,40,0,0
84537,-62.5,4,2,1,74,0,1
87719,-62.5,4,2,99,5,0,1
87810,-62.5,4,2,1,74,0,1
93264,-55.5555555555556,4,2,1,74,0,1
94537,-59.5238095238095,4,2,1,74,0,1
95810,-55.5555555555556,4,2,1,60,0,0
96174,-62.5,4,2,1,74,0,1
104901,-55.5555555555556,4,2,1,74,0,1
106174,-62.5,4,2,1,74,0,1
107446,-62.5,4,2,1,72,0,1
107628,-62.5,4,2,1,70,0,1
107810,-83.3333333333333,4,2,1,62,0,0
115810,-76.9230769230769,4,2,1,64,0,0
116537,-71.4285714285714,4,2,1,66,0,0
119083,-83.3333333333333,4,2,1,64,0,0
119264,-83.3333333333333,4,2,1,60,0,0
119446,-90.9090909090909,4,2,1,58,0,0
125264,-83.3333333333333,4,2,1,60,0,0
126719,-76.9230769230769,4,2,1,62,0,0
128174,-71.4285714285714,4,2,2,64,0,0
129446,-66.6666666666667,4,2,2,66,0,0
130355,-62.5,4,2,2,68,0,0
130719,-62.5,4,2,2,62,0,0
130901,-62.5,4,2,2,58,0,0
131083,-111.111111111111,4,2,2,52,0,0
141264,-142.857142857143,4,2,2,48,0,0
141355,-142.857142857143,4,2,2,34,0,0
141810,-142.857142857143,4,2,2,40,0,0
141992,-142.857142857143,4,2,24,48,0,0
142355,-142.857142857143,4,2,24,49,0,0
142446,-142.857142857143,4,2,24,50,0,0
142537,-142.857142857143,4,2,24,51,0,0
142628,-142.857142857143,4,2,24,52,0,0
142719,-111.111111111111,4,2,2,56,0,0
152719,-111.111111111111,4,2,2,58,0,0
153083,-111.111111111111,4,2,2,50,0,0
153628,-111.111111111111,4,2,24,54,0,0
153810,-111.111111111111,4,2,24,53,0,0
153992,-111.111111111111,4,2,24,52,0,0
154174,-111.111111111111,4,2,24,51,0,0
154355,-99.9999999999999,4,2,71,54,0,0
154719,-99.9999999999999,4,2,1,40,0,0
154901,-99.9999999999999,4,2,1,50,0,0
154946,-99.9999999999999,4,2,1,44,0,0
155083,-99.9999999999999,4,2,71,48,0,0
155355,-99.9999999999999,4,2,99,5,0,0
155446,-71.4285714285714,4,2,71,50,0,0
155537,-71.4285714285714,4,2,71,36,0,0
155628,-71.4285714285714,4,2,71,48,0,0
155719,-71.4285714285714,4,2,71,36,0,0
155810,-125,4,2,71,54,0,0
156174,-125,4,2,63,30,0,0
156355,-125,4,2,1,46,0,0
156537,-83.3333333333333,4,2,72,46,0,0
156810,-83.3333333333333,4,2,99,5,0,0
156901,-71.4285714285714,4,2,72,46,0,0
157174,-71.4285714285714,4,2,99,5,0,0
157264,-58.8235294117647,4,2,72,50,0,0
157628,-58.8235294117647,4,2,1,40,0,0
157810,-100,4,2,1,50,0,0
157855,-100,4,2,1,44,0,0
157992,-83.3333333333333,4,2,63,50,0,0
158355,-71.4285714285714,4,2,71,50,0,0
158446,-71.4285714285714,4,2,71,36,0,0
158537,-71.4285714285714,4,2,71,48,0,0
158628,-71.4285714285714,4,2,71,36,0,0
158719,-125,4,2,71,54,0,0
159083,-125,4,2,63,30,0,0
159264,-125,4,2,1,46,0,0
159446,-90.9090909090909,4,2,72,46,0,0
159719,-90.9090909090909,4,2,99,5,0,0
159810,-66.6666666666667,4,2,73,46,0,0
160083,-66.6666666666667,4,2,99,5,0,0
160174,-90.9090909090909,4,2,71,54,0,0
160537,-90.9090909090909,4,2,1,40,0,0
160719,-100,4,2,1,50,0,0
160764,-100,4,2,1,44,0,0
160901,-76.9230769230769,4,2,71,48,0,0
161173,-76.9230769230769,4,2,99,5,0,0
161264,-66.6666666666667,4,2,71,50,0,0
161355,-66.6666666666667,4,2,71,36,0,0
161446,-66.6666666666667,4,2,71,48,0,0
161537,-66.6666666666667,4,2,71,36,0,0
161628,-100,4,2,73,70,0,0
161992,-100,4,2,63,30,0,0
162174,-100,4,2,63,50,0,0
162355,-100,4,2,74,50,0,0
162537,-100,4,2,74,52,0,0
162628,-100,4,2,73,30,0,0
162719,-71.4285714285714,4,2,73,54,0,0
162810,-71.4285714285714,4,2,73,30,0,0
162901,-71.4285714285714,4,2,73,56,0,0
162992,-71.4285714285714,4,2,73,30,0,0
163083,-200,4,2,63,68,0,0
163264,-200,4,2,63,40,0,0
163628,-200,4,2,1,60,0,0
163810,-200,4,2,63,66,0,0
163901,-200,4,2,63,60,0,0
164537,-200,4,2,63,66,0,0
164719,-200,4,2,63,62,0,0
165264,-100,4,2,63,66,0,0
165446,-100,4,2,63,64,0,0
165537,-100,4,2,63,50,0,0
165628,-100,4,2,63,62,0,0
165719,-100,4,2,63,50,0,0
165810,-100,4,2,63,60,0,0
165901,-100,4,2,63,50,0,0
165992,-76.9230769230769,4,2,63,70,0,0
166083,-76.9230769230769,4,2,63,50,0,0
166264,-76.9230769230769,4,2,99,5,0,0
166355,-76.9230769230769,4,2,2,64,0,0
166537,-76.9230769230769,4,2,63,68,0,0
166719,-100,4,2,63,66,0,0
167083,-100,4,2,2,64,0,0
167446,-100,4,2,2,60,0,0
167992,-100,4,2,63,60,0,0
168537,-100,4,2,2,60,0,0
168901,-76.9230769230769,4,2,63,70,0,0
168992,-76.9230769230769,4,2,63,50,0,0
169174,-76.9230769230769,4,2,99,5,0,0
169264,-76.9230769230769,4,2,2,64,0,0
169446,-76.9230769230769,4,2,63,68,0,0
169628,-100,4,2,63,66,0,0
169992,-100,4,2,2,64,0,0
170355,-100,4,2,2,60,0,0
170901,-100,4,2,63,60,0,0
171446,-100,4,2,2,60,0,0
171628,-100,4,2,63,60,0,0
171810,-76.9230769230769,4,2,63,70,0,0
171901,-76.9230769230769,4,2,63,50,0,0
172083,-76.9230769230769,4,2,99,5,0,0
172174,-76.9230769230769,4,2,2,64,0,0
172355,-76.9230769230769,4,2,63,68,0,0
172537,-100,4,2,63,66,0,0
172901,-100,4,2,2,64,0,0
173173,-100,4,2,63,60,0,0
173264,-76.9230769230769,4,2,63,70,0,0
173355,-76.9230769230769,4,2,63,50,0,0
173537,-76.9230769230769,4,2,99,5,0,0
173628,-100,4,2,2,64,0,0
174719,-76.9230769230769,4,2,63,70,0,0
174810,-76.9230769230769,4,2,63,50,0,0
174992,-76.9230769230769,4,2,99,5,0,0
175083,-100,4,2,2,64,0,0
175446,-100,4,2,63,64,0,0
175810,-100,4,2,2,64,0,0
176083,-100,4,2,63,60,0,0
176174,-76.9230769230769,4,2,63,70,0,0
176264,-76.9230769230769,4,2,63,50,0,0
176446,-76.9230769230769,4,2,99,5,0,0
176537,-100,4,2,2,64,0,0
177628,-76.9230769230769,4,2,63,72,0,0
177810,-76.9230769230769,4,2,63,64,0,0
177992,-76.9230769230769,4,2,2,64,0,0
178174,-76.9230769230769,4,2,63,64,0,0
178719,-76.9230769230769,4,2,2,64,0,0
178901,-76.9230769230769,4,2,63,60,0,0
179083,-76.9230769230769,4,2,63,70,0,0
179174,-76.9230769230769,4,2,63,50,0,0
179355,-76.9230769230769,4,2,99,5,0,0
179446,-76.9230769230769,4,2,2,64,0,0
179628,-76.9230769230769,4,2,63,64,0,0
179810,-76.9230769230769,4,2,63,60,0,0
179992,-76.9230769230769,4,2,63,68,0,0
180174,-76.9230769230769,4,2,2,64,0,0
180446,-76.9230769230769,4,2,63,60,0,0
180537,-71.4285714285714,4,2,63,72,0,0
180628,-76.9230769230769,4,2,63,50,0,0
180810,-71.4285714285714,4,2,99,5,0,0
180901,-71.4285714285714,4,2,2,64,0,0
181083,-71.4285714285714,4,2,63,64,0,0
181264,-90.9090909090909,4,2,63,66,0,0
181355,-90.9090909090909,4,2,63,60,0,0
181446,-90.9090909090909,4,2,2,64,0,0
181537,-90.9090909090909,4,2,63,60,0,0
181628,-90.9090909090909,4,2,2,64,0,0
181719,-90.9090909090909,4,2,63,60,0,0
181810,-206.185567010309,4,2,63,70,0,0
181833,-206.185567010309,4,2,98,20,0,0
183083,-206.185567010309,4,2,71,40,0,0
183446,-58.8235294117647,4,2,1,74,0,1
186628,-58.8235294117647,4,2,99,5,0,1
186719,-58.8235294117647,4,2,1,74,0,1
192174,-52.6315789473684,4,2,1,74,0,1
193446,-56.4971751412429,4,2,1,74,0,1
194719,-55.5555555555556,4,2,1,60,0,0
195083,-58.8235294117647,4,2,1,74,0,1
203810,-52.6315789473684,4,2,1,74,0,1
206355,-52.6315789473684,4,2,1,72,0,1
206446,-52.6315789473684,4,2,1,73,0,1
206537,-52.6315789473684,4,2,1,72,0,1
206628,-52.6315789473684,4,2,1,71,0,1
206719,-100,4,2,63,70,0,0
206901,-100,4,2,63,54,0,0
207264,-100,4,2,63,68,0,0
207446,-100,4,2,63,54,0,0
209264,-83.3333333333333,4,2,63,54,0,0
209628,-100,4,2,63,54,0,0
212174,-100,4,2,63,55,0,0
212264,-100,4,2,63,56,0,0
212355,-100,4,2,63,57,0,0
212446,-100,4,2,63,58,0,0
212537,-100,4,2,63,70,0,0
212719,-100,4,2,63,54,0,0
213083,-100,4,2,63,68,0,0
213264,-100,4,2,63,54,0,0
215083,-76.9230769230769,4,2,63,54,0,0
215446,-100,4,2,63,54,0,0
215628,-100,4,2,63,48,0,0
216810,-100,4,2,63,52,0,0
216901,-100,4,2,63,66,0,0
217083,-100,4,2,63,52,0,0
217628,-100,4,2,63,60,0,0
217810,-100,4,2,63,40,0,0
217901,-100,4,2,63,62,0,0
217992,-100,4,2,63,58,0,0
218355,-90.9090909090909,4,2,63,70,0,0
218537,-90.9090909090909,4,2,63,56,0,0
218900,-90.9090909090909,4,2,63,68,0,0
219082,-90.9090909090909,4,2,63,56,0,0
223810,-90.9090909090909,4,2,63,52,0,0
223901,-90.9090909090909,4,2,63,53,0,0
223992,-90.9090909090909,4,2,63,54,0,0
224083,-90.9090909090909,4,2,63,55,0,0
224174,-90.9090909090909,4,2,63,70,0,0
224355,-90.9090909090909,4,2,63,56,0,0
224719,-90.9090909090909,4,2,63,68,0,0
224901,-90.9090909090909,4,2,63,56,0,0
225628,-90.9090909090909,4,2,63,54,0,0
227083,-90.9090909090909,4,2,63,52,0,0
228355,-90.9090909090909,4,2,63,50,0,0
228901,-90.9090909090909,4,2,63,54,0,0
229628,-90.9090909090909,4,2,63,54,0,0
229810,-90.9090909090909,4,2,63,54,0,0
229901,-90.9090909090909,4,2,63,30,0,0
229992,-83.3333333333333,4,2,63,66,0,0
230083,-83.3333333333333,4,2,63,20,0,0
230355,-83.3333333333333,4,2,63,40,0,0
230537,-83.3333333333333,4,2,63,66,0,0
230628,-83.3333333333333,4,2,63,64,0,0
230719,-83.3333333333333,4,2,63,62,0,0
230810,-83.3333333333333,4,2,63,20,0,0
231083,-83.3333333333333,4,2,63,40,0,0
231174,-83.3333333333333,4,2,63,20,0,0
231446,-83.3333333333333,4,2,63,40,0,0
231628,-83.3333333333333,4,2,63,60,0,0
231810,-76.9230769230769,4,2,63,60,0,0
231901,-83.3333333333333,4,2,63,20,0,0
232174,-76.9230769230769,4,2,63,40,0,0
232264,-76.9230769230769,4,2,63,20,0,0
232537,-76.9230769230769,4,2,63,40,0,0
232719,-76.9230769230769,4,2,63,60,0,0
232992,-76.9230769230769,4,2,63,20,0,0
233264,-76.9230769230769,4,2,63,40,0,0
233446,-62.5,4,2,63,66,0,0
233537,-62.5,4,2,63,20,0,0
233810,-62.5,4,2,63,40,0,0
233901,-62.5,4,2,63,60,0,0
233992,-83.3333333333333,4,2,63,66,0,0
234083,-83.3333333333333,4,2,63,20,0,0
234355,-83.3333333333333,4,2,63,40,0,0
234537,-71.4285714285714,4,2,63,62,0,0
234628,-71.4285714285714,4,2,63,20,0,0
234810,-71.4285714285714,4,2,99,5,0,0
234901,-83.3333333333333,4,2,63,56,0,0
235083,-83.3333333333333,4,2,63,60,0,0
235174,-83.3333333333333,4,2,63,36,0,0
235355,-83.3333333333333,4,2,63,60,0,0
235446,-83.3333333333333,4,2,63,36,0,0
235628,-83.3333333333333,4,2,63,60,0,0
235810,-71.4285714285714,4,2,63,66,0,0
235901,-71.4285714285714,4,2,63,20,0,0
236083,-71.4285714285714,4,2,99,5,0,0
236174,-71.4285714285714,4,2,63,58,0,0
236355,-71.4285714285714,4,2,63,62,0,0
236537,-71.4285714285714,4,2,63,52,0,0
236719,-90.9090909090909,4,2,63,56,0,0
236901,-90.9090909090909,4,2,63,40,0,0
236992,-90.9090909090909,4,2,63,56,0,0
237174,-90.9090909090909,4,2,63,40,0,0
237628,-90.9090909090909,4,2,63,44,0,0
237992,-90.9090909090909,4,2,63,40,0,0
238174,-90.9090909090909,4,2,63,48,0,0
238355,-90.9090909090909,4,2,63,52,0,0
238537,-90.9090909090909,4,2,63,54,0,0
238628,-90.9090909090909,4,2,63,56,0,0
238719,-90.9090909090909,4,2,63,60,0,0
238901,-90.9090909090909,4,2,63,44,0,0
239083,-90.9090909090909,4,2,63,58,0,0
239537,-90.9090909090909,4,2,63,40,0,0
239628,-90.9090909090909,4,2,63,58,0,0
239719,-90.9090909090909,4,2,63,40,0,0
239810,-90.9090909090909,4,2,63,58,0,0
240083,-90.9090909090909,4,2,63,40,0,0
240174,-71.4285714285714,4,2,63,60,0,0
240264,-71.4285714285714,4,2,63,40,0,0
240355,-71.4285714285714,4,2,63,60,0,0
240537,-83.3333333333333,4,2,63,54,0,0
240628,-83.3333333333333,4,2,63,40,0,0
240719,-83.3333333333333,4,2,63,54,0,0
240810,-83.3333333333333,4,2,63,40,0,0
240901,-71.4285714285714,4,2,63,64,0,0
241083,-71.4285714285714,4,2,63,52,0,0
241174,-71.4285714285714,4,2,63,58,0,0
241264,-71.4285714285714,4,2,63,42,0,0
241446,-71.4285714285714,4,2,63,58,0,0
241537,-71.4285714285714,4,2,63,42,0,0
241628,-66.6666666666667,4,2,63,64,0,0
241719,-66.6666666666667,4,2,63,20,0,0
241992,-66.6666666666667,4,2,63,40,0,0
242174,-66.6666666666667,4,2,63,62,0,0
242264,-66.6666666666667,4,2,63,20,0,0
242537,-66.6666666666667,4,2,63,40,0,0
242719,-100,4,2,63,52,0,0
242810,-100,4,2,63,20,0,0
242992,-100,4,2,99,5,0,0
243083,-83.3333333333333,4,2,63,56,0,0
243355,-83.3333333333333,4,2,63,40,0,0
243446,-71.4285714285714,4,2,63,60,0,0
243537,-71.4285714285714,4,2,63,20,0,0
243810,-71.4285714285714,4,2,63,50,0,0
243901,-71.4285714285714,4,2,63,20,0,0
244174,-71.4285714285714,4,2,63,50,0,0
244355,-83.3333333333333,4,2,63,56,0,0
244446,-83.3333333333333,4,2,63,30,0,0
244537,-66.6666666666667,4,2,63,64,0,0
244628,-66.6666666666667,4,2,63,20,0,0
244810,-66.6666666666667,4,2,99,5,0,0
244901,-83.3333333333333,4,2,63,60,0,0
244992,-83.3333333333333,4,2,63,30,0,0
245083,-62.5,4,2,63,64,0,0
245174,-62.5,4,2,63,20,0,0
245446,-62.5,4,2,63,40,0,0
245628,-62.5,4,2,63,60,0,0
245719,-62.5,4,2,63,20,0,0
245992,-62.5,4,2,63,40,0,0
246174,-83.3333333333333,4,2,63,58,0,0
246264,-83.3333333333333,4,2,63,20,0,0
246446,-83.3333333333333,4,2,99,5,0,0
246537,-83.3333333333333,4,2,63,56,0,0
246628,-83.3333333333333,4,2,63,30,0,0
246719,-83.3333333333333,4,2,63,54,0,0
246810,-83.3333333333333,4,2,63,30,0,0
246901,-83.3333333333333,4,2,63,52,0,0
246992,-83.3333333333333,4,2,63,30,0,0
247083,-83.3333333333333,4,2,63,50,0,0
247174,-83.3333333333333,4,2,63,52,0,0
247264,-83.3333333333333,4,2,63,54,0,0
247355,-83.3333333333333,4,2,63,56,0,0
247446,-62.5,4,2,63,66,0,0
247537,-62.5,4,2,63,30,0,0
247628,-83.3333333333333,4,2,63,58,0,0
247810,-83.3333333333333,4,2,63,60,0,0
247901,-83.3333333333333,4,2,63,30,0,0
247992,-83.3333333333333,4,2,63,56,0,0
248174,-83.3333333333333,4,2,63,40,0,0
248355,-66.6666666666667,4,2,63,64,0,0
248537,-66.6666666666667,4,2,63,52,0,0
248719,-66.6666666666667,4,2,63,40,0,0
248810,-66.6666666666667,4,2,63,54,0,0
248901,-83.3333333333333,4,2,63,58,0,0
248992,-83.3333333333333,4,2,63,20,0,0
249264,-83.3333333333333,4,2,63,40,0,0
249355,-83.3333333333333,4,2,63,54,0,0
249446,-83.3333333333333,4,2,63,58,0,0
249537,-83.3333333333333,4,2,63,20,0,0
249719,-83.3333333333333,4,2,99,5,0,0
249810,-83.3333333333333,4,2,63,58,0,0
249901,-83.3333333333333,4,2,63,30,0,0
249992,-83.3333333333333,4,2,63,58,0,0
250174,-83.3333333333333,4,2,63,40,0,0
250264,-83.3333333333333,4,2,63,50,0,0
250355,-66.6666666666667,4,2,63,64,0,0
250446,-66.6666666666667,4,2,63,30,0,0
250537,-66.6666666666667,4,2,63,58,0,0
250810,-66.6666666666667,4,2,63,52,0,0
250901,-66.6666666666667,4,2,63,48,0,0
251083,-66.6666666666667,4,2,63,58,0,0
251355,-66.6666666666667,4,2,63,30,0,0
251446,-66.6666666666667,4,2,63,60,0,0
251537,-66.6666666666667,4,2,63,30,0,0
251628,-58.8235294117647,4,2,63,62,0,0
251719,-58.8235294117647,4,2,63,32,0,0
251810,-66.6666666666667,4,2,63,64,0,0
251901,-66.6666666666667,4,2,63,40,0,0
252083,-66.6666666666667,4,2,99,5,0,0
252174,-62.5,4,2,63,66,0,0
252264,-62.5,4,2,63,40,0,0
252446,-62.5,4,2,99,5,0,0
252537,-76.9230769230769,4,2,63,64,0,0
252583,-76.9230769230769,4,2,99,5,0,0
252810,-76.9230769230769,4,2,63,62,0,0
252855,-76.9230769230769,4,2,99,5,0,0
253083,-76.9230769230769,4,2,63,60,0,0
253128,-76.9230769230769,4,2,99,5,0,0
253264,-125,4,2,63,56,0,0
253355,-125,4,2,63,40,0,0
255810,-125,4,2,63,30,0,0
256174,-50,4,2,81,76,0,1
256446,-50,4,2,99,5,0,1
256537,-62.5,4,2,81,76,0,1
256810,-62.5,4,2,99,5,0,1
256901,-62.5,4,2,81,76,0,1
257264,-71.4285714285714,4,2,81,76,0,0
257355,-71.4285714285714,4,2,81,54,0,0
257446,-71.4285714285714,4,2,81,76,0,0
257537,-71.4285714285714,4,2,81,54,0,0
257628,-50,4,2,81,76,0,1
257901,-50,4,2,99,5,0,1
257992,-62.5,4,2,81,76,0,1
258264,-62.5,4,2,99,5,0,1
258355,-62.5,4,2,81,76,0,1
258719,-90.9090909090909,4,2,82,76,0,0
258992,-90.9090909090909,4,2,99,5,0,0
259083,-1000,4,2,81,46,0,0
259719,-1000,4,2,99,5,0,0
259810,-125,4,2,82,48,0,0
260174,-125,4,2,82,24,0,0
260355,-100,4,2,73,52,0,0
260446,-100,4,2,99,5,0,0
260537,-250,4,2,73,56,0,0
261537,-250,4,2,99,5,0,0
261628,-71.4285714285714,4,2,71,62,0,0
261901,-71.4285714285714,4,2,99,5,0,0
261992,-50,4,2,81,76,0,1
262264,-50,4,2,99,5,0,1
262355,-62.5,4,2,81,76,0,1
262628,-62.5,4,2,99,5,0,1
262719,-62.5,4,2,81,76,0,1
263083,-83.3333333333333,4,2,83,76,0,0
263355,-83.3333333333333,4,2,99,5,0,0
263446,-50,4,2,81,76,0,1
263719,-50,4,2,99,5,0,1
263810,-62.5,4,2,81,76,0,1
264083,-62.5,4,2,99,5,0,1
264174,-62.5,4,2,81,76,0,1
264537,-90.9090909090909,4,2,82,76,0,0
264810,-90.9090909090909,4,2,99,5,0,0
264901,-76.9230769230769,4,2,81,70,0,0
265264,-76.9230769230769,4,2,81,40,0,0
265446,-100,4,2,72,66,0,0
265537,-100,4,2,99,5,0,0
265628,-125,4,2,81,64,0,0
265992,-76.9230769230769,4,2,81,36,0,0
266174,-111.111111111111,4,2,72,62,0,0
266264,-111.111111111111,4,2,99,5,0,0
266355,-166.666666666667,4,2,82,60,0,0
266719,-166.666666666667,4,2,82,32,0,0
266901,-200,4,2,83,58,0,0
267083,-200,4,2,83,30,0,0
267264,-200,4,2,83,18,0,0
267446,-71.4285714285714,4,2,71,62,0,0
267719,-71.4285714285714,4,2,99,5,0,0
267810,-50,4,2,81,76,0,1
268083,-50,4,2,99,5,0,1
268174,-62.5,4,2,81,76,0,1
268446,-62.5,4,2,99,5,0,1
268537,-62.5,4,2,81,76,0,1
268901,-71.4285714285714,4,2,81,76,0,0
268992,-71.4285714285714,4,2,81,54,0,0
269083,-71.4285714285714,4,2,81,76,0,0
269174,-71.4285714285714,4,2,81,54,0,0
269264,-50,4,2,81,76,0,1
269537,-50,4,2,99,5,0,1
269628,-62.5,4,2,81,76,0,1
269901,-62.5,4,2,99,5,0,1
269992,-62.5,4,2,81,76,0,1
270355,-90.9090909090909,4,2,82,76,0,0
270628,-90.9090909090909,4,2,99,5,0,0
270719,-714.285714285714,4,2,81,54,0,0
271264,-714.285714285714,4,2,81,20,0,0
271355,-120.481927710843,4,2,71,50,0,0
272083,-120.481927710843,4,2,99,5,0,0
272174,-111.111111111111,4,2,73,54,0,0
273174,-111.111111111111,4,2,99,5,0,0
273264,-71.4285714285714,4,2,71,62,0,0
273537,-71.4285714285714,4,2,99,5,0,0
273628,-50,4,2,81,76,0,1
273901,-50,4,2,99,5,0,1
273992,-62.5,4,2,81,76,0,1
274264,-62.5,4,2,99,5,0,1
274355,-62.5,4,2,81,76,0,1
274719,-71.4285714285714,4,2,81,76,0,0
274810,-71.4285714285714,4,2,81,54,0,0
274901,-55.5555555555556,4,2,81,76,0,1
275264,-55.5555555555556,4,2,81,68,0,1
275446,-83.3333333333333,4,2,81,70,0,1
275628,-83.3333333333333,4,2,81,60,0,1
275810,-100,4,2,63,62,0,0
276537,-76.9230769230769,4,2,2,70,0,1
276901,-76.9230769230769,4,2,2,66,0,0
278537,-76.9230769230769,4,2,2,60,0,0
278719,-76.9230769230769,4,2,2,66,0,0
281446,-76.9230769230769,4,2,2,60,0,0
281628,-76.9230769230769,4,2,2,66,0,0
285083,-76.9230769230769,4,2,2,60,0,0
285265,-76.9230769230769,4,2,2,66,0,0
287264,-76.9230769230769,4,2,2,60,0,0
287446,-76.9230769230769,4,2,2,66,0,0
287901,-76.9230769230769,4,2,24,66,0,0
288174,-76.9230769230769,4,2,2,66,0,0
293992,-71.4285714285714,4,2,2,66,0,0
295264,-71.4285714285714,4,2,2,60,0,0
295446,-71.4285714285714,4,2,2,66,0,0
295992,-71.4285714285714,4,2,2,60,0,0
296174,-76.9230769230769,4,2,2,66,0,0
299083,-76.9230769230769,4,2,2,64,0,0
299446,-76.9230769230769,4,2,2,60,0,0
299810,-76.9230769230769,4,2,2,56,0,0
301992,-76.9230769230769,4,2,2,30,0,0
302719,-333.333333333333,4,2,2,66,0,0
302742,-333.333333333333,4,2,98,20,0,0
304901,-200,4,2,63,40,0,0
305628,-55.5555555555556,4,2,1,74,0,1
308810,-55.5555555555556,4,2,99,5,0,1
308901,-55.5555555555556,4,2,1,74,0,1
314355,-50,4,2,1,74,0,1
315628,-52.6315789473684,4,2,1,74,0,1
316901,-52.6315789473684,4,2,1,60,0,0
317264,-55.5555555555556,4,2,1,60,0,1
317265,-55.5555555555556,4,2,1,74,0,1
325992,-50,4,2,1,60,0,1
328174,-71.4285714285714,4,2,1,54,0,1
328355,-71.4285714285714,4,2,1,40,0,1
328537,-100,4,2,1,50,0,1
328719,-100,4,2,1,40,0,1
328901,-166.666666666667,4,2,1,46,0,0
328924,-166.666666666667,4,2,98,14,0,0
329264,-166.666666666667,4,2,99,5,0,0
329446,-500,4,2,1,44,0,0
329469,-500,4,2,98,14,0,0
330174,-500,4,2,99,5,0,0
330355,-250,4,2,1,42,0,0
330378,-250,4,2,98,14,0,0
330719,-250,4,2,99,5,0,0
330901,-1000,4,2,1,40,0,0
330924,-1000,4,2,98,14,0,0
332355,-1000,4,2,99,5,0,0
332537,-333.333333333333,4,2,1,70,0,0
332560,-333.333333333333,4,2,98,14,0,0
333083,-333.333333333333,4,2,99,5,0,0
333264,-71.4285714285714,4,2,1,70,0,1
333355,-71.4285714285714,4,2,1,40,0,0
337628,-71.4285714285714,4,2,1,30,0,0
338901,-71.4285714285714,4,2,1,54,0,0
339083,-90.9090909090909,4,2,2,60,0,0
344901,-111.111111111111,4,2,2,56,0,0
350719,-111.111111111111,4,2,2,60,0,0
351992,-111.111111111111,4,2,2,56,0,0
352174,-99.9999999999999,4,2,2,54,0,0
353628,-99.9999999999999,4,2,2,50,0,0
356174,-200,4,2,2,60,0,0
356264,-200,4,2,2,20,0,0
356446,-200,4,2,99,5,0,0
356537,-83.3333333333333,4,2,1,62,0,0
364537,-83.3333333333333,4,2,1,64,0,0
365264,-71.4285714285714,4,2,1,66,0,0
367446,-83.3333333333333,4,2,1,66,0,0
367810,-83.3333333333333,4,2,1,64,0,0
367992,-83.3333333333333,4,2,1,60,0,0
368174,-90.9090909090909,4,2,1,58,0,0
373992,-83.3333333333333,4,2,1,60,0,0
375446,-76.9230769230769,4,2,1,62,0,0
376901,-71.4285714285714,4,2,2,64,0,0
378174,-66.6666666666667,4,2,1,66,0,0
379810,-62.5,4,2,1,68,0,0
381083,-55.5555555555556,4,2,1,70,0,0
381992,-55.5555555555556,4,2,24,68,0,0
382083,-55.5555555555556,4,2,24,66,0,0
382174,-55.5555555555556,4,2,24,64,0,0
382264,-55.5555555555556,4,2,24,62,0,0
382355,-55.5555555555556,4,2,24,60,0,0
382446,-55.5555555555556,4,2,24,58,0,0
382537,-55.5555555555556,4,2,24,56,0,0
382628,-55.5555555555556,4,2,24,54,0,0
382719,-55.5555555555556,4,2,1,70,0,0

[Colours]
Combo1 : 255,140,150
Combo2 : 150,180,240
Combo3 : 255,230,140
Combo4 : 160,240,140

[HitObjects]
42,153,12901,5,2,0:0:0:0:
46,145,12992,1,2,0:0:0:0:
50,137,13083,1,2,0:0:0:0:
54,129,13174,1,2,0:0:0:0:
58,121,13264,6,0,P|333:85|345:307,1,537.6,14|0,0:0|0:0,0:0:0:0:
311,336,14719,2,0,P|97:329|57:120,1,460.8,10|0,0:0|0:0,0:0:0:0:
112,61,15992,1,10,0:3:0:0:
120,56,16083,1,10,0:3:0:0:
126,52,16174,6,0,P|200:32|298:58,1,172.799994726563,14|0,0:2|0:0,0:0:0:0:
399,209,16719,5,8,0:3:0:0:
419,38,16901,2,0,L|398:225,1,172.799994726563,8|2,0:0|0:0,0:0:0:0:
419,38,17628,5,8,0:0:0:0:
400,209,17810,1,8,0:3:0:0:
286,43,17992,5,0,0:0:0:0:
312,228,18174,1,8,0:3:0:0:
153,71,18355,5,8,0:0:0:0:
227,265,18537,1,8,0:3:0:0:
227,265,18628,1,8,0:3:0:0:
227,265,18719,5,10,0:2:0:0:
228,221,18810,1,10,0:3:0:0:
206,183,18901,1,10,0:2:0:0:
163,177,18992,1,10,0:3:0:0:
128,202,19083,6,0,L|0:190,1,96,14|0,0:0|0:0,0:0:0:0:
32,193,19446,1,2,0:0:0:0:
206,183,19628,2,0,L|280:78,1,96,10|0,0:2|0:0,0:0:0:0:
261,104,19992,1,2,0:0:0:0:
369,228,20174,6,0,L|360:132,1,96,10|0,0:3|0:0,0:0:0:0:
360,132,20537,1,2,0:0:0:0:
400,301,20719,2,0,L|516:356,1,96,10|0,0:3|0:0,0:0:0:0:
486,342,21083,1,2,0:0:0:0:
447,103,21264,6,0,P|401:105|356:135,1,96,10|0,0:3|0:0,0:0:0:0:
273,160,21628,2,0,P|319:158|363:127,1,96,10|0,0:3|0:0,0:0:0:0:
199,193,21992,6,0,L|126:299,1,96,10|0,0:3|0:0,0:0:0:0:
145,272,22355,1,2,0:0:0:0:
208,112,22537,2,0,L|154:-5,1,96,10|0,0:3|0:0,0:0:0:0:
168,25,22901,1,2,0:0:0:0:
273,160,23083,6,0,L|345:53,1,96,10|0,0:3|0:0,0:0:0:0:
326,80,23446,1,2,0:0:0:0:
264,241,23628,2,0,L|317:358,1,96,10|0,0:3|0:0,0:0:0:0:
304,328,23992,1,2,0:0:0:0:
59,302,24174,6,0,P|98:276|146:273,1,96,10|2,0:0|0:0,0:0:0:0:
304,328,24537,1,2,0:0:0:0:
280,322,24628,1,2,0:0:0:0:
258,312,24719,1,2,0:0:0:0:
240,296,24810,1,2,0:0:0:0:
227,276,24901,6,0,L|228:169,1,96,14|0,0:2|0:0,0:0:0:0:
228,180,25264,1,2,0:0:0:0:
59,302,25446,2,0,L|51:205,1,96,10|0,0:0|0:0,0:0:0:0:
51,206,25810,1,2,0:0:0:0:
219,371,25992,6,0,L|227:274,1,96,10|0,0:3|0:0,0:0:0:0:
380,255,26355,1,6,0:0:0:0:
388,351,26537,2,0,L|380:254,1,96,10|0,0:3|0:0,0:0:0:0:
380,255,26901,1,2,0:0:0:0:
507,159,27083,6,0,P|461:157|416:127,1,96,10|0,0:3|0:0,0:0:0:0:
332,103,27446,2,0,P|379:105|419:130,1,96,10|0,0:3|0:0,0:0:0:0:
359,187,27719,1,8,0:0:0:0:
359,187,27810,6,0,B|302:195|268:159|268:159|210:139|177:177,1,192,14|0,0:2|0:0,0:0:0:0:
118,283,28355,1,10,0:3:0:0:
214,344,28537,2,0,P|228:298|228:251,1,96,8|0,0:0|0:0,0:0:0:0:
81,140,28901,5,10,0:3:0:0:
118,283,29083,1,4,0:0:0:0:
182,172,29264,1,8,0:0:0:0:
214,344,29446,2,0,P|228:298|228:251,1,96,10|0,0:3|0:0,0:0:0:0:
37,234,29810,5,10,0:3:0:0:
182,172,29992,1,8,0:0:0:0:
214,344,30174,5,8,0:3:0:0:
211,328,30264,1,8,0:3:0:0:
211,312,30355,1,8,0:3:0:0:
213,296,30446,1,8,0:3:0:0:
216,280,30537,1,8,0:3:0:0:
220,265,30628,1,8,0:3:0:0:
228,250,30719,1,10,0:0:0:0:
471,362,32174,5,12,0:3:0:0:
220,55,35083,5,8,0:3:0:0:
167,335,37992,5,8,0:3:0:0:
452,126,40901,5,8,0:3:0:0:
458,146,41446,1,8,0:3:0:0:
101,38,43810,6,0,P|178:72|255:40,2,172.799994726563,12|8|8,0:3|0:0|0:3,0:0:0:0:
101,38,44719,1,2,0:0:0:0:
12,120,44901,2,0,P|26:162|28:226,1,86.3999973632813,8|0,0:0|0:0,0:0:0:0:
107,328,45264,6,0,P|120:231|143:160,2,172.799994726563,8|8|8,0:3|0:0|0:3,0:0:0:0:
107,328,46174,1,2,0:0:0:0:
219,367,46355,2,0,P|260:351|303:349,1,86.3999973632813,8|0,0:0|0:0,0:0:0:0:
415,302,46719,6,0,P|402:216|406:130,1,172.799994726563,8|8,0:3|0:0,0:0:0:0:
406,130,47264,1,2,0:0:0:0:
512,70,47446,2,0,B|459:95|459:95|399:93|348:17,4,172.799994726563,8|8|8|8|8,0:3|0:0|0:3|0:0|0:3,0:0:0:0:
415,302,49264,5,10,0:0:0:0:
415,302,49446,1,2,0:0:0:0:
352,198,49628,6,0,B|300:173|300:173|240:175|205:230,1,172.799994726563,10|8,0:3|0:0,0:0:0:0:
205,230,50174,1,2,0:0:0:0:
59,263,50355,2,0,B|110:287|110:287|170:285|205:230,1,172.799994726563,8|8,0:3|0:0,0:0:0:0:
184,37,51083,6,0,B|132:12|132:12|72:14|37:69,1,172.799994726563,10|8,0:3|0:0,0:0:0:0:
37,69,51628,1,2,0:0:0:0:
73,160,51810,2,0,B|129:149|129:149|186:167|206:229,1,172.799994726563,8|8,0:3|0:0,0:0:0:0:
448,260,52537,6,0,B|391:249|391:249|334:267|314:329,3,172.799994726563,10|8|8|8,0:3|0:0|0:3|0:0,0:0:0:0:
448,260,53810,1,8,0:3:0:0:
448,260,54174,5,2,0:0:0:0:
456,174,54355,1,8,0:2:0:0:
464,88,54537,1,2,0:0:0:0:
472,2,54719,1,2,0:0:0:0:
385,124,54901,5,2,0:0:0:0:
472,2,55083,1,10,0:0:0:0:
456,174,55264,1,2,0:0:0:0:
314,74,55446,6,0,B|196:25|208:117|89:69,1,230.39999296875,14|0,0:0|0:0,0:0:0:0:
252,174,55992,1,10,0:2:0:0:
248,270,56174,2,0,L|252:175,1,96,2|0,0:0|0:0,0:0:0:0:
152,305,56537,2,0,L|148:210,1,96,2|0,0:0|0:0,0:0:0:0:
68,355,56901,5,2,0:0:0:0:
68,358,57083,1,0,0:0:0:0:
68,361,57264,1,0,0:0:0:0:
26,254,57446,5,8,0:1:0:0:
26,257,57537,1,8,0:1:0:0:
26,260,57628,5,10,0:1:0:0:
95,177,57810,1,8,0:1:0:0:
26,263,57992,5,8,0:1:0:0:
9,111,58174,1,8,0:2:0:0:
169,216,58355,6,0,B|225:192|282:232|282:232|342:251|398:204,1,230.39999296875,10|0,0:0|0:0,0:0:0:0:
281,41,58901,1,10,0:0:0:0:
285,137,59083,2,0,L|281:42,1,96,2|0,0:0|0:0,0:0:0:0:
423,134,59446,2,0,L|427:39,1,96,2|0,0:0|0:0,0:0:0:0:
449,255,59810,5,2,0:1:0:0:
449,258,59992,1,0,0:1:0:0:
498,181,60174,5,2,0:1:0:0:
449,261,60355,1,8,0:1:0:0:
423,134,60537,5,10,0:1:0:0:
450,264,60719,1,8,0:1:0:0:
335,157,60901,5,10,0:1:0:0:
451,266,61083,1,8,0:1:0:0:
279,326,61264,6,0,B|163:288|171:371|56:327,1,230.39999296875,14|0,0:0|0:0,0:0:0:0:
115,146,61810,1,10,0:0:0:0:
119,242,61992,2,0,L|115:147,1,96,2|0,0:0|0:0,0:0:0:0:
211,317,62355,2,0,L|215:222,1,96,2|0,0:0|0:0,0:0:0:0:
296,360,62719,5,2,0:1:0:0:
296,363,62901,1,0,0:1:0:0:
296,366,63083,1,0,0:1:0:0:
378,302,63264,5,10,0:1:0:0:
378,305,63355,1,8,0:1:0:0:
378,308,63446,5,10,0:1:0:0:
412,220,63628,1,10,0:1:0:0:
378,311,63810,5,10,0:1:0:0:
312,202,63992,2,0,L|308:147,1,48,10|8,0:3|0:0,0:0:0:0:
475,98,64174,6,0,B|407:60|350:111|350:111|262:127|224:53,1,268.799991796875,14|0,0:0|0:0,0:0:0:0:
144,191,64719,1,10,0:0:0:0:
53,68,64901,5,10,0:0:0:0:
144,344,65174,1,2,0:0:0:0:
232,67,65446,1,2,0:0:0:0:
144,191,65628,5,10,0:0:0:0:
53,68,65810,1,8,0:3:0:0:
145,211,65992,5,8,0:0:0:0:
141,38,66174,1,8,0:3:0:0:
43,218,66355,1,8,0:0:0:0:
243,95,66537,6,0,P|220:93|196:96,1,48,8|8,0:0|0:3,0:0:0:0:
320,160,66719,2,0,P|343:162|367:159,1,48,8|8,0:0|0:3,0:0:0:0:
230,116,66901,2,0,P|206:113|182:116,1,48,8|8,0:2|0:3,0:0:0:0:
177,212,67083,6,0,B|278:187|256:260|358:236,1,187.199991430664,14|0,0:0|0:0,0:0:0:0:
356,237,67446,1,8,0:0:0:0:
314,64,67628,1,10,0:0:0:0:
320,160,67810,2,0,L|314:63,1,96,2|0,0:3|0:0,0:0:0:0:
431,205,68174,2,0,L|437:108,1,96,10|0,0:0|0:0,0:0:0:0:
359,241,68537,5,2,0:0:0:0:
355,237,68719,1,0,0:0:0:0:
334,336,68901,1,8,0:0:0:0:
264,268,69083,5,8,0:1:0:0:
268,272,69174,1,8,0:1:0:0:
272,276,69264,5,10,0:1:0:0:
351,233,69446,1,8,0:1:0:0:
276,280,69628,5,8,0:0:0:0:
347,229,69810,1,0,0:0:0:0:
203,328,69992,6,0,B|154:305|109:332|109:332|51:339|23:290,1,187.199991430664,10|0,0:0|0:0,0:0:0:0:
30,301,70355,1,8,0:0:0:0:
96,153,70537,1,10,0:0:0:0:
91,249,70719,2,0,L|97:132,1,96,2|0,0:3|0:0,0:0:0:0:
203,328,71083,2,0,L|197:211,1,96,10|0,0:0|0:0,0:0:0:0:
273,76,71446,5,2,0:0:0:0:
277,72,71628,1,0,0:0:0:0:
334,166,71810,5,8,0:0:0:0:
281,68,71992,1,8,0:1:0:0:
338,170,72174,5,2,0:0:0:0:
227,165,72355,1,8,0:1:0:0:
285,64,72537,5,8,0:0:0:0:
342,174,72719,1,8,0:1:0:0:
464,40,72901,6,0,B|364:15|384:88|284:64,1,187.199991430664,14|0,0:0|0:0,0:0:0:0:
284,64,73264,1,8,0:0:0:0:
193,28,73446,1,10,0:0:0:0:
101,29,73628,2,0,P|152:17|203:33,1,96,2|0,0:3|0:0,0:0:0:0:
153,156,73992,2,0,P|102:168|51:152,1,96,10|0,0:0|0:0,0:0:0:0:
0,213,74264,1,8,0:2:0:0:
15,221,74355,6,0,B|65:264|54:334|54:334|61:304|87:282,1,187.199991430664,10|0,0:0|0:0,0:0:0:0:
136,350,74719,2,0,P|181:334|228:342,1,96,10|0,0:0|0:0,0:0:0:0:
401,347,75083,2,0,P|355:362|308:354,1,96,2|0,0:0|0:0,0:0:0:0:
211,254,75446,1,10,0:0:0:0:
211,254,75628,1,0,0:0:0:0:
348,271,75810,6,0,B|380:223|345:154|345:154|308:150|285:188,1,187.199991430664,14|0,0:0|0:0,0:0:0:0:
290,180,76174,1,10,0:0:0:0:
211,254,76355,1,2,0:0:0:0:
160,175,76537,2,0,P|193:209|210:253,1,96,10|0,0:3|0:0,0:0:0:0:
117,258,76901,2,0,P|130:212|160:174,1,96,8|0,0:0|0:0,0:0:0:0:
228,139,77174,1,8,0:0:0:0:
243,131,77264,6,0,B|280:76|251:11|251:11|265:38|296:53,1,187.199991430664,10|0,0:0|0:0,0:0:0:0:
361,99,77628,2,0,P|406:83|453:91,1,96,10|0,0:0|0:0,0:0:0:0:
417,197,77992,2,0,P|371:212|324:204,1,96,10|0,0:3|0:0,0:0:0:0:
243,131,78355,1,10,0:0:0:0:
243,131,78537,1,2,0:0:0:0:
122,209,78719,6,0,L|113:74,1,124.79999428711,14|0,0:0|0:0,0:0:0:0:
113,84,79083,1,8,0:0:0:0:
113,84,79264,1,8,0:3:0:0:
122,209,79446,1,8,0:0:0:0:
122,209,79628,1,8,0:3:0:0:
9,154,79810,1,8,0:0:0:0:
10,298,79992,5,8,0:3:0:0:
10,298,80083,1,8,0:3:0:0:
10,298,80174,2,0,B|63:271|108:317|108:317|151:332|183:308,1,187.199991430664,10|0,0:0|0:0,0:0:0:0:
195,293,80537,1,8,0:0:0:0:
249,206,80719,1,8,0:3:0:0:
398,300,80901,1,8,0:0:0:0:
350,210,81083,5,10,0:0:0:0:
195,293,81264,2,0,L|51:270,1,124.79999428711,8|0,0:0|0:0,0:0:0:0:
18,209,81537,1,8,0:3:0:0:
34,196,81628,6,0,B|99:180|99:180|153:209|153:209|228:207,1,201.599993847656,10|0,0:0|0:0,0:0:0:0:
249,206,81992,1,10,0:0:0:0:
267,16,82174,1,8,0:3:0:0:
387,189,82355,6,0,L|344:219,1,52.8000016113282,10|8,0:0|0:3,0:0:0:0:
404,57,82537,2,0,L|361:28,1,52.8000016113282,8|8,0:3|0:3,0:0:0:0:
320,119,82719,2,0,L|267:115,1,52.8000016113282,8|8,0:0|0:3,0:0:0:0:
320,119,82901,6,0,B|240:151|177:93|177:93|115:35|36:67,1,307.2,14|10,0:0|0:3,0:0:0:0:
36,67,84537,6,0,B|115:35|177:93|177:93|240:151|320:119,1,307.2,12|8,0:3|0:0,0:0:0:0:
49,229,85083,2,0,P|43:158|111:139,2,153.6,2|8|0,0:0|0:3|0:0,0:0:0:0:
262,260,85628,2,0,P|289:220|205:165,1,153.6,8|0,0:0|0:0,0:0:0:0:
171,298,85901,1,2,0:0:0:0:
158,285,85992,6,0,B|129:268|97:272|73:284|52:323|52:323|76:273|48:228|48:228|20:194|45:155,1,307.2,10|8,0:3|0:0,0:0:0:0:
282,248,86537,2,0,B|317:243|361:268|361:268|397:274|427:251,1,153.6,2|8,0:0|0:3,0:0:0:0:
207,33,86901,2,0,B|171:28|127:53|127:53|91:59|61:36,1,153.6,2|8,0:0|0:0,0:0:0:0:
126,194,87264,1,2,0:0:0:0:
336,169,87446,6,0,B|373:147|385:98|383:60|360:31|360:31|317:32|301:70,1,230.4,10|0,0:3|0:0,0:0:0:0:
209,123,87810,2,0,P|262:175|337:169,1,153.6,10|0,0:0|0:0,0:0:0:0:
471,324,88174,2,0,P|417:271|343:277,1,153.6,10|0,0:3|0:0,0:0:0:0:
208,362,88537,1,10,0:0:0:0:
81,281,88719,5,2,0:0:0:0:
81,281,88810,1,2,0:0:0:0:
81,281,88901,2,0,B|119:253|119:253|150:211|109:142,1,153.6,8|0,0:3|0:0,0:0:0:0:
208,362,89264,2,0,B|188:318|188:318|183:266|241:233,1,153.6,8|0,0:0|0:0,0:0:0:0:
457,81,89628,6,0,B|419:61|374:75|374:75|337:67|335:26,1,153.6,10|0,0:3|0:0,0:0:0:0:
472,279,89992,2,0,B|428:277|396:242|396:242|360:231|338:265,1,153.6,10|0,0:0|0:0,0:0:0:0:
88,363,90355,6,0,B|74:18,1,307.2,10|8,0:3|0:0,0:0:0:0:
339,264,90901,2,0,L|346:103,2,153.6,2|8|0,0:0|0:3|0:0,0:0:0:0:
253,337,91355,1,2,0:0:0:0:
241,327,91446,2,0,L|234:166,1,153.6,10|0,0:0|0:0,0:0:0:0:
0,92,91810,6,0,P|132:138|176:6,1,307.2,10|8,0:3|0:0,0:0:0:0:
85,288,92355,2,0,P|58:218|86:148,1,153.6,2|8,0:0|0:3,0:0:0:0:
191,338,92719,2,0,P|234:276|225:202,1,153.6,2|8,0:0|0:0,0:0:0:0:
89,42,93083,1,2,0:0:0:0:
85,287,93264,6,0,B|74:347|21:370|21:370|-49:266|-7:41|252:63|317:192|317:192|451:256|541:122|475:-31|332:11,1,1036.79996835938,14|8,0:3|0:0,0:0:0:0:
244,343,94537,6,0,B|220:288|245:226|245:226|236:204|218:195,2,161.279995078125,2|8|0,0:0|0:3|0:0,0:0:0:0:
388,376,95083,2,0,B|412:320|387:258|387:258|396:236|413:228,1,161.279995078125,10|0,0:0|0:0,0:0:0:0:
485,192,95355,1,2,0:0:0:0:
499,199,95446,2,0,B|474:143|499:81|499:81|490:59|473:51,1,161.279995078125,10|0,0:3|0:0,0:0:0:0:
314,118,95810,6,0,P|322:149|331:118,3,86.3999973632813,10|2|2|2,0:0|0:0|0:0|0:0,0:0:0:0:
379,221,96174,6,0,B|319:256|246:206|246:206|208:174|167:173|120:193|106:248,1,307.2,14|8,0:3|0:0,0:0:0:0:
166,384,96719,2,0,P|215:331|186:265,2,153.6,2|8|0,0:0|0:3|0:0,0:0:0:0:
35,286,97264,2,0,P|6:219|54:166,1,153.6,8|0,0:0|0:0,0:0:0:0:
176,131,97537,1,2,0:0:0:0:
192,124,97628,6,0,B|244:100|311:123|271:145|356:168|411:135|411:135|385:105|338:117,1,307.2,10|8,0:3|0:0,0:0:0:0:
246,351,98174,2,0,B|214:324|217:284|217:284|235:249|234:209,1,153.6,2|8,0:0|0:3,0:0:0:0:
400,365,98537,2,0,B|437:345|443:306|443:306|433:268|442:229,1,153.6,2|8,0:0|0:0,0:0:0:0:
275,85,98901,1,2,0:0:0:0:
126,284,99083,6,0,B|78:277|51:232|51:232|77:184|138:162|192:172|236:210,1,307.2,10|8,0:3|0:0,0:0:0:0:
403,288,99628,2,0,L|411:124,2,153.6,2|8|0,0:0|0:3|0:0,0:0:0:0:
210,356,100174,1,8,0:0:0:0:
157,132,100355,5,2,0:0:0:0:
157,132,100446,1,2,0:0:0:0:
157,132,100537,2,0,B|174:168|217:173|217:173|251:147|248:107,1,153.6,8|0,0:3|0:0,0:0:0:0:
118,380,100901,2,0,B|115:339|149:314|149:314|191:319|209:355,1,153.6,8|0,0:0|0:0,0:0:0:0:
55,103,101264,6,0,B|21:168|58:210|58:210|80:206|92:192,1,153.6,10|0,0:3|0:0,0:0:0:0:
296,367,101628,2,0,B|329:301|292:259|292:259|270:263|258:277,1,153.6,10|0,0:0|0:0,0:0:0:0:
2,345,101992,6,0,B|108:335|108:335|176:377|176:377|296:367,1,307.2,14|8,0:3|0:0,0:0:0:0:
153,77,102537,2,0,L|0:66,2,153.6,2|8|0,0:0|0:3|0:0,0:0:0:0:
259,139,102992,1,2,0:0:0:0:
281,148,103083,2,0,L|434:159,1,153.6,10|0,0:0|0:0,0:0:0:0:
501,371,103446,6,0,P|436:245|303:292,1,307.2,14|8,0:3|0:0,0:0:0:0:
125,342,103992,2,0,L|-28:332,2,153.6,2|8|0,0:0|0:3|0:0,0:0:0:0:
277,103,104537,2,0,L|430:113,1,153.6,10|0,0:0|0:0,0:0:0:0:
512,329,104901,6,0,B|478:279|414:295|414:295|346:311|307:246|307:246|269:380|87:423|-100:326|-88:20|190:-38|277:103|277:103|251:203|151:198,2,1209.59996308594,14|4|8,0:3|0:0|0:0,0:0:0:0:
444,374,107628,1,2,0:0:0:0:
449,265,107810,6,0,L|466:9,1,230.39999296875,14|8,0:3|0:0,0:0:0:0:
337,178,108355,1,2,0:0:0:0:
239,116,108537,2,0,B|68:104|68:104|-5:152,3,230.39999296875,8|8|8|8,0:3|0:0|0:3|0:0,0:0:0:0:
182,245,109810,5,2,0:0:0:0:
205,241,109901,1,2,0:0:0:0:
228,237,109992,2,0,B|257:262|257:262|251:338,1,115.199996484375,10|0,0:3|0:0,0:0:0:0:
63,370,110355,2,0,B|33:344|33:344|39:268,1,115.199996484375,10|2,0:0|0:0,0:0:0:0:
228,237,110719,6,0,B|398:248|398:248|350:214,1,230.39999296875,10|8,0:3|0:0,0:0:0:0:
136,180,111264,1,2,0:0:0:0:
172,347,111446,2,0,B|219:312|219:312|392:324,1,230.39999296875,8|8,0:3|0:0,0:0:0:0:
500,189,111992,1,2,0:0:0:0:
349,213,112174,6,0,B|179:200|179:200|232:172,1,230.39999296875,8|8,0:3|0:0,0:0:0:0:
367,128,112719,1,2,0:0:0:0:
438,255,112901,1,8,0:3:0:0:
455,111,113083,1,2,0:0:0:0:
455,111,113174,1,2,0:0:0:0:
455,111,113264,1,8,0:0:0:0:
349,213,113446,1,2,0:0:0:0:
278,58,113628,6,0,B|206:52|206:52|131:87|131:87|55:82,1,230.39999296875,10|8,0:3|0:0,0:0:0:0:
74,273,114174,1,2,0:0:0:0:
241,354,114355,2,0,B|252:186|252:186|212:116,3,230.39999296875,8|8|8|8,0:3|0:0|0:3|0:0,0:0:0:0:
3,208,115628,5,2,0:0:0:0:
26,204,115719,1,2,0:0:0:0:
49,200,115810,2,0,B|175:208,1,124.79999428711,10|0,0:3|0:0,0:0:0:0:
236,333,116174,2,0,B|360:341,1,124.79999428711,10|0,0:0|0:0,0:0:0:0:
467,11,116537,6,0,B|461:95|461:95|408:176|408:176|402:264,6,268.799991796875,14|8|8|8|8|8|10,0:3|0:0|0:3|0:0|0:3|0:0|0:3,0:0:0:0:
467,11,118901,1,2,0:0:0:0:
412,169,119083,2,0,B|287:160,1,115.199996484375,10|0,0:0|0:0,0:0:0:0:
155,271,119446,6,0,L|141:60,1,211.200006445313,14|8,0:3|0:0,0:0:0:0:
297,160,119992,1,2,0:0:0:0:
256,299,120174,2,0,B|189:294|189:294|125:252|125:252|57:247,3,211.200006445313,8|8|8|8,0:3|0:0|0:3|0:0,0:0:0:0:
3,133,121446,5,2,0:0:0:0:
26,137,121537,1,2,0:0:0:0:
49,141,121628,2,0,B|81:120|81:120|88:41,1,105.600003222656,10|0,0:3|0:0,0:0:0:0:
224,22,121992,2,0,B|191:42|191:42|184:121,1,105.600003222656,10|2,0:0|0:0,0:0:0:0:
383,128,122355,6,0,B|429:102|429:102|270:92,1,211.200006445313,10|8,0:3|0:0,0:0:0:0:
191,189,122901,1,2,0:0:0:0:
303,281,123083,2,0,B|310:175,1,105.600003222656,8|0,0:3|0:0,0:0:0:0:
196,301,123446,1,10,0:0:0:0:
191,189,123628,1,2,0:0:0:0:
303,281,123810,6,0,B|458:290|458:290|507:255,2,211.200006445313,8|8|8,0:3|0:0|0:3,0:0:0:0:
203,308,124719,1,2,0:0:0:0:
203,308,124810,1,2,0:0:0:0:
203,308,124901,1,8,0:0:0:0:
309,175,125083,1,2,0:0:0:0:
503,257,125264,6,0,B|509:185|509:185|474:110|474:110|479:34,1,230.39999296875,14|8,0:3|0:0,0:0:0:0:
309,175,125810,1,2,0:0:0:0:
223,63,125992,2,0,B|55:52|55:52|2:82,1,230.39999296875,8|8,0:3|0:0,0:0:0:0:
1,82,126537,1,2,0:0:0:0:
309,175,126719,6,0,B|126:163|126:163|68:195,1,249.599988574219,14|8,0:3|0:0,0:0:0:0:
12,344,127264,1,2,0:0:0:0:
168,360,127446,2,0,B|174:264|174:264|139:234,1,124.79999428711,8|0,0:3|0:0,0:0:0:0:
9,136,127810,5,10,0:0:0:0:
7,106,127901,1,2,0:0:0:0:
5,77,127992,1,2,0:0:0:0:
2,47,128083,1,2,0:0:0:0:
0,18,128174,2,0,B|77:23|77:23|167:65|167:65|258:73,1,268.799991796875,14|8,0:3|0:0,0:0:0:0:
478,138,128719,1,2,0:0:0:0:
470,130,128810,1,2,0:0:0:0:
462,122,128901,2,0,B|385:127|385:127|295:169|295:169|204:177,1,268.799991796875,8|8,0:3|0:0,0:0:0:0:
36,370,129446,6,0,B|15:74,1,288.000010986329,6|0,0:0|0:0,0:0:0:0:
314,363,129992,1,10,0:0:0:0:
299,322,130083,1,2,0:0:0:0:
264,300,130174,1,2,0:0:0:0:
223,303,130264,1,2,0:0:0:0:
192,332,130355,2,0,B|217:-36,1,307.2,8|8,0:3|0:0,0:0:0:0:
213,25,131083,6,0,P|145:86|74:44,2,172.799994726563,12|8|8,0:3|0:3|0:3,0:0:0:0:
213,25,131992,1,2,0:0:0:0:
320,80,132174,2,0,P|367:64|419:64,1,86.3999973632813,8|0,0:3|0:0,0:0:0:0:
491,161,132537,6,0,P|474:246|471:345,2,172.799994726563,8|8|8,0:3|0:3|0:3,0:0:0:0:
491,161,133446,1,2,0:0:0:0:
379,206,133628,2,0,P|332:190|280:190,1,86.3999973632813,8|0,0:3|0:0,0:0:0:0:
214,311,133992,6,0,P|299:294|398:291,1,172.799994726563,8|8,0:3|0:3,0:0:0:0:
385,291,134537,1,2,0:0:0:0:
489,160,134719,2,0,B|431:153|431:153|382:113|398:50,3,172.799994726563,8|8|8|8,0:3|0:3|0:3|0:3,0:0:0:0:
295,75,135992,5,2,0:0:0:0:
295,75,136083,1,2,0:0:0:0:
295,75,136174,2,0,L|198:65,1,86.3999973632813,10|0,0:3|0:0,0:0:0:0:
134,103,136537,2,0,L|37:93,1,86.3999973632813,10|0,0:3|0:0,0:0:0:0:
0,239,136901,6,0,B|58:231|58:231|115:257|116:321,1,172.799994726563,8|8,0:3|0:3,0:0:0:0:
116,321,137446,1,2,0:0:0:0:
232,372,137628,2,0,P|233:324|245:285,1,86.3999973632813,8|0,0:3|0:0,0:0:0:0:
356,285,137992,2,0,P|371:325|375:368,1,86.3999973632813,8|0,0:3|0:0,0:0:0:0:
473,204,138355,6,0,B|414:196|414:196|357:222|356:286,1,172.799994726563,8|8,0:3|0:3,0:0:0:0:
356,285,138901,1,2,0:0:0:0:
223,236,139083,2,0,B|277:213|277:213|339:223|356:285,1,172.799994726563,8|8,0:3|0:3,0:0:0:0:
356,285,139628,1,2,0:0:0:0:
457,373,139810,6,0,P|459:283|475:186,1,172.799994726563,8|8,0:3|0:3,0:0:0:0:
471,201,140355,1,2,0:0:0:0:
393,108,140537,2,0,P|354:106|299:87,1,86.3999973632813,8|0,0:3|0:0,0:0:0:0:
215,15,140901,1,8,0:3:0:0:
215,15,141083,1,8,0:3:0:0:
136,111,141264,6,0,B|98:83|34:120|8:94|8:94|45:87|64:126,1,201.599993847656,2|2,0:0|0:0,0:0:0:0:
95,231,141992,5,8,0:3:0:0:
95,231,142083,1,8,0:3:0:0:
285,67,142355,5,8,0:3:0:0:
285,67,142446,1,8,0:3:0:0:
285,67,142537,1,8,0:3:0:0:
285,67,142628,1,8,0:3:0:0:
285,67,142719,6,0,P|371:77|429:9,2,172.799994726563,12|8|8,0:3|0:0|0:3,0:0:0:0:
285,67,143628,1,2,0:0:0:0:
189,141,143810,2,0,P|213:177|223:240,1,86.3999973632813,8|0,0:2|0:0,0:0:0:0:
168,357,144174,6,0,P|85:337|-9:328,2,172.799994726563,8|8|8,0:3|0:0|0:3,0:0:0:0:
168,357,145083,1,2,0:0:0:0:
288,347,145264,2,0,P|312:310|322:248,1,86.3999973632813,8|0,0:2|0:0,0:0:0:0:
451,311,145628,6,0,P|418:231|421:145,1,172.799994726563,8|8,0:3|0:0,0:0:0:0:
421,146,146174,1,2,0:0:0:0:
297,193,146355,2,0,P|329:113|326:27,4,172.799994726563,8|8|8|8|8,0:3|0:2|0:3|0:0|0:3,0:0:0:0:
99,330,148174,5,10,0:2:0:0:
99,330,148355,1,2,0:0:0:0:
180,240,148537,6,0,B|205:188|205:188|203:128|148:93,1,172.799994726563,14|8,0:3|0:0,0:0:0:0:
148,93,149083,1,2,0:0:0:0:
29,112,149264,2,0,B|4:164|4:164|6:224|61:259,1,172.799994726563,8|8,0:3|0:2,0:0:0:0:
327,208,149992,6,0,B|275:183|275:183|215:185|180:240,1,172.799994726563,10|8,0:3|0:0,0:0:0:0:
180,240,150537,1,2,0:0:0:0:
33,271,150719,2,0,B|85:296|85:296|145:294|180:239,1,172.799994726563,8|8,0:3|0:2,0:0:0:0:
412,51,151446,6,0,B|360:26|360:26|300:28|265:83,3,172.799994726563,14|8|8|8,0:3|0:0|0:3|0:2,0:0:0:0:
412,51,152719,1,12,0:3:0:0:
412,51,153083,5,2,0:0:0:0:
420,137,153264,1,8,0:0:0:0:
428,223,153446,1,2,0:0:0:0:
436,309,153628,2,0,L|424:368,1,43.1999986816407,8|8,0:3|0:3,0:0:0:0:
350,187,153810,6,0,L|291:175,1,43.1999986816407,10|8,0:3|0:3,0:0:0:0:
237,228,153992,2,0,L|178:216,1,43.1999986816407,14|8,0:3|0:3,0:0:0:0:
124,269,154174,2,0,L|65:257,1,43.1999986816407,10|8,0:3|0:3,0:0:0:0:
0,94,154355,6,0,B|35:91|35:91|40:95|40:95|43:90|43:90|199:80,1,192,12|2,0:3|0:0,0:0:0:0:
334,43,154901,6,0,P|324:32|303:25,1,24,10|2,0:3|0:3,0:3:0:0:
329,48,154992,2,0,P|315:40|293:42,1,24,2|2,0:3|0:3,0:3:0:0:
326,55,155083,2,0,B|315:205,1,144,2|0,0:0|0:0,0:0:0:0:
258,255,155446,6,0,P|245:224|226:197,1,67.1999979492188,10|0,0:3|0:0,0:0:0:0:
364,264,155628,2,0,P|380:232|404:209,1,67.1999979492188,2|0,0:3|0:0,0:0:0:0:
305,352,155810,6,0,B|315:195,1,153.6,2|8,0:1|0:1,0:0:0:0:
315,198,156355,1,2,0:0:0:0:
179,262,156537,6,0,B|175:261|175:261|170:265|170:265|167:261|167:261|163:256|163:256|159:260|159:260|154:264|154:264|151:260|151:260|147:255|147:255|143:259|143:259|138:263|138:263|135:258|135:258|131:254|131:254|127:258|127:258|122:262|122:262|119:257|119:257|115:253|115:253|111:257|111:257|106:260|106:260|103:256|103:256|99:252|99:252|95:256|95:256|90:259|90:259|87:255|87:255|83:251|83:251|79:255|79:255|74:258|74:258|71:254|71:254|67:250|67:250|63:253|63:253|51:253,1,172.799994726563,2|0,0:0|0:0,0:0:0:0:
54,253,156901,2,0,B|73:254|73:254|77:251|77:251|81:254|81:254|113:257|113:257|179:297|179:297|247:302,1,201.599993847656,2|0,0:1|0:0,0:0:0:0:
305,351,157264,6,0,P|170:343|242:219,1,326.400006225586,2|2,0:3|0:0,0:0:0:0:
393,265,157810,6,0,P|383:276|362:283,1,24,2|2,0:3|0:3,0:3:0:0:
388,260,157901,2,0,P|374:268|352:266,1,24,2|2,0:3|0:3,0:3:0:0:
385,253,157992,2,0,B|389:190,1,57.5999982421876,10|0,0:1|0:1,0:0:0:0:
306,170,158174,2,0,B|302:106,1,57.5999982421876,8|0,0:1|0:1,0:0:0:0:
369,61,158355,6,0,P|402:57|430:39,1,67.1999979492188,10|0,0:3|0:0,0:0:0:0:
227,71,158537,2,0,P|193:72|162:58,1,67.1999979492188,2|0,0:3|0:0,0:0:0:0:
306,170,158719,6,0,L|294:6,1,153.6,2|8,0:1|0:1,0:0:0:0:
295,16,159264,1,2,0:0:0:0:
483,139,159446,6,0,B|487:127|487:127|479:126|479:126|492:115|492:115|476:114|476:114|482:102|482:102|490:103|490:103|486:91|486:91|491:79|491:79|483:78|483:78|487:71|487:71|491:12,1,158.400004833985,2|0,0:1|0:0,0:0:0:0:
490,30,159810,2,0,B|458:27|458:27|439:7|418:24|418:24|396:43|378:22|378:22|367:6|354:20|354:20|345:31|338:19|338:19|282:15,1,216.000008239746,10|0,0:3|0:0,0:0:0:0:
176,24,160174,6,0,B|178:59|178:59|174:64|174:64|179:67|179:67|187:187|187:187|191:191|191:191|187:195|187:195|189:229,1,211.200006445313,12|2,0:3|0:3,0:0:0:0:
99,287,160719,6,0,P|89:298|68:305,1,24,10|2,0:3|0:3,0:3:0:0:
94,281,160810,2,0,P|80:289|58:287,1,24,2|2,0:3|0:3,0:3:0:0:
91,275,160901,2,0,B|78:89,1,187.199991430664,2|0,0:0|0:0,0:0:0:0:
157,102,161264,6,0,P|154:67|139:34,1,72.0000027465821,2|0,0:3|0:0,0:0:0:0:
0,112,161446,2,0,P|-1:77|7:42,1,72.0000027465821,2|0,0:3|0:0,0:0:0:0:
86,193,161628,6,0,B|101:179|117:190|117:190|130:201|141:189|141:189|153:180|165:187|165:187|174:194|181:186|181:186|185:182|189:185|189:185|226:195|279:175,1,192,2|8,0:1|0:1,0:0:0:0:
266,180,162174,1,2,0:0:0:0:
375,197,162355,5,2,0:1:0:0:
375,197,162537,2,0,L|371:149,1,48,2|0,0:1|0:0,0:0:0:0:
279,304,162719,6,0,P|290:273|311:247,1,67.1999979492188,2|0,0:2|0:0,0:0:0:0:
483,291,162901,2,0,P|467:261|443:238,1,67.1999979492188,2|0,0:2|0:0,0:0:0:0:
382,325,163083,6,0,L|385:372,2,48,14|0|0,0:0|0:0|0:0,0:0:0:0:
371,149,163628,5,8,0:3:0:0:
443,238,163810,1,10,0:0:0:0:
451,234,163901,1,8,0:3:0:0:
311,247,164083,1,10,0:3:0:0:
303,244,164174,1,8,0:3:0:0:
382,325,164355,1,2,0:3:0:0:
371,149,164537,5,8,0:0:0:0:
303,244,164719,1,8,0:3:0:0:
208,176,164901,1,8,0:3:0:0:
276,81,165083,1,8,0:3:0:0:
303,244,165264,5,8,0:0:0:0:
208,176,165446,2,0,L|155:158,1,48,10|8,0:3|0:0,0:0:0:0:
371,149,165628,2,0,L|412:112,1,48,10|0,0:0|0:3,0:0:0:0:
276,81,165810,2,0,L|264:26,1,48,10|0,0:0|0:3,0:0:0:0:
88,157,165992,6,0,B|187:128|169:203|268:174,1,187.199991430664,14|0,0:0|0:0,0:0:0:0:
267,174,166355,1,8,0:0:0:0:
128,238,166537,1,10,0:0:0:0:
134,334,166719,2,0,L|128:237,1,96,2|0,0:3|0:0,0:0:0:0:
233,362,167083,2,0,L|239:265,1,96,10|0,0:0|0:0,0:0:0:0:
357,219,167446,5,2,0:0:0:0:
361,215,167628,1,0,0:0:0:0:
382,314,167810,1,8,0:0:0:0:
452,246,167992,5,8,0:1:0:0:
448,250,168083,1,8,0:1:0:0:
444,254,168174,5,10,0:1:0:0:
365,211,168355,1,8,0:1:0:0:
440,258,168537,5,8,0:0:0:0:
369,207,168719,1,0,0:0:0:0:
238,266,168901,6,0,B|189:239|144:270|144:270|87:279|49:242,1,187.199991430664,10|0,0:0|0:0,0:0:0:0:
60,252,169264,1,8,0:0:0:0:
122,87,169446,1,10,0:0:0:0:
117,183,169628,2,0,L|123:66,1,96,2|0,0:3|0:0,0:0:0:0:
18,136,169992,2,0,L|12:19,1,96,10|0,0:0|0:0,0:0:0:0:
209,138,170355,5,2,0:0:0:0:
214,138,170537,1,0,0:0:0:0:
209,26,170719,5,8,0:0:0:0:
219,139,170901,1,8,0:1:0:0:
211,22,171083,5,2,0:0:0:0:
122,87,171264,1,8,0:1:0:0:
224,141,171446,5,8,0:0:0:0:
213,18,171628,1,8,0:1:0:0:
392,42,171810,6,0,B|292:67|312:-6|212:18,1,187.199991430664,14|0,0:0|0:0,0:0:0:0:
212,17,172174,1,8,0:0:0:0:
122,87,172355,1,10,0:0:0:0:
224,140,172537,2,0,P|268:125|316:130,1,96,2|0,0:3|0:0,0:0:0:0:
374,228,172901,2,0,P|329:244|282:239,1,96,10|0,0:0|0:0,0:0:0:0:
192,230,173174,1,8,0:2:0:0:
177,238,173264,6,0,B|127:281|138:351|138:351|109:335|105:299,1,187.199991430664,10|0,0:0|0:0,0:0:0:0:
74,222,173628,2,0,P|85:175|74:129,1,96,10|0,0:0|0:0,0:0:0:0:
177,238,173992,2,0,P|181:190|206:149,1,96,2|0,0:0|0:0,0:0:0:0:
348,90,174355,1,10,0:0:0:0:
348,90,174537,1,0,0:0:0:0:
395,243,174719,6,0,B|347:199|273:220|273:220|296:234|307:264,1,187.199991430664,14|0,0:0|0:0,0:0:0:0:
307,263,175083,1,10,0:0:0:0:
206,308,175264,1,2,0:0:0:0:
118,279,175446,2,0,P|165:283|206:308,1,96,10|0,0:3|0:0,0:0:0:0:
136,369,175810,2,0,P|116:325|117:278,1,96,8|0,0:0|0:0,0:0:0:0:
158,203,176083,1,8,0:0:0:0:
172,192,176174,6,0,B|209:137|180:72|180:72|216:81|223:110,1,187.199991430664,10|0,0:0|0:0,0:0:0:0:
299,155,176537,2,0,P|339:130|387:125,1,96,10|0,0:0|0:0,0:0:0:0:
386,241,176901,2,0,P|345:265|297:270,1,96,10|0,0:3|0:0,0:0:0:0:
172,192,177264,1,10,0:0:0:0:
172,192,177446,1,2,0:0:0:0:
59,247,177628,6,0,L|68:112,1,124.79999428711,14|0,0:0|0:0,0:0:0:0:
67,122,177992,1,8,0:0:0:0:
67,122,178174,1,8,0:3:0:0:
59,247,178355,1,8,0:0:0:0:
59,247,178537,1,8,0:3:0:0:
172,192,178719,1,8,0:0:0:0:
248,315,178901,5,8,0:3:0:0:
248,315,178992,1,8,0:3:0:0:
248,315,179083,2,0,B|301:288|346:334|346:334|389:349|421:325,1,187.199991430664,10|0,0:0|0:0,0:0:0:0:
435,312,179446,1,8,0:0:0:0:
462,215,179628,1,8,0:3:0:0:
302,222,179810,1,8,0:0:0:0:
379,160,179992,5,10,0:0:0:0:
338,315,180174,2,0,B|291:307|291:307|259:312|259:312|191:301,1,124.79999428711,8|0,0:0|0:0,0:0:0:0:
155,357,180446,1,8,0:3:0:0:
142,342,180537,6,0,B|140:312|131:291|131:291|144:271|147:246|147:246|127:200|149:144,1,201.599993847656,10|0,0:0|0:0,0:0:0:0:
168,142,180901,1,10,0:0:0:0:
365,47,181083,1,8,0:3:0:0:
291,166,181264,6,0,L|261:123,1,52.8000016113282,10|8,0:0|0:3,0:0:0:0:
423,183,181446,2,0,L|452:140,1,52.8000016113282,8|8,0:3|0:3,0:0:0:0:
361,99,181628,2,0,L|365:46,1,52.8000016113282,8|8,0:0|0:3,0:0:0:0:
361,99,181810,6,0,B|268:97|223:29|223:29|188:102|92:117,1,326.400006225586,14|4,0:0|0:3,0:0:0:0:
92,117,183446,6,0,B|188:102|223:29|223:29|268:97|361:99,1,326.400006225586,12|8,0:3|0:0,0:0:0:0:
252,282,183992,2,0,P|202:212|250:150,2,163.200003112793,2|8|0,0:0|0:3|0:0,0:0:0:0:
469,282,184537,2,0,P|519:223|483:155,1,163.200003112793,8|0,0:0|0:0,0:0:0:0:
361,99,184810,1,2,0:0:0:0:
341,104,184901,6,0,B|274:88|239:155|239:155|201:195|124:180|119:89|184:65,1,326.400006225586,10|8,0:3|0:0,0:0:0:0:
395,189,185446,2,0,B|437:158|437:158|461:101|427:53,1,163.200003112793,2|8,0:0|0:3,0:0:0:0:
291,261,185810,2,0,B|248:230|248:230|224:173|258:125,1,163.200003112793,2|8,0:0|0:0,0:0:0:0:
460,249,186174,1,2,0:0:0:0:
313,62,186355,6,0,B|290:35|245:31|199:41|185:96|185:96|218:136|257:125,1,244.80000466919,10|0,0:3|0:0,0:0:0:0:
287,232,186719,2,0,P|245:168|169:182,1,163.200003112793,10|0,0:0|0:0,0:0:0:0:
274,375,187083,2,0,P|315:310|391:324,1,163.200003112793,10|0,0:3|0:0,0:0:0:0:
506,195,187446,1,10,0:0:0:0:
398,77,187628,5,2,0:0:0:0:
398,77,187719,1,2,0:0:0:0:
398,77,187810,2,0,B|360:58|320:77|332:94|271:96|247:57,1,163.200003112793,8|0,0:3|0:0,0:0:0:0:
13,110,188174,2,0,B|47:84|89:97|80:116|140:106|157:64,1,163.200003112793,8|0,0:0|0:0,0:0:0:0:
306,264,188537,6,0,B|306:236|320:216|320:216|309:195|309:195|328:147|307:108,1,163.200003112793,10|0,0:3|0:0,0:0:0:0:
140,282,188901,2,0,B|135:254|117:237|117:237|125:214|125:214|98:170|111:129,1,163.200003112793,10|0,0:0|0:0,0:0:0:0:
350,359,189264,6,0,B|233:332|233:332|142:368|142:368|33:343,1,326.400006225586,10|8,0:3|0:0,0:0:0:0:
306,264,189810,2,0,L|316:88,2,163.200003112793,2|8|0,0:0|0:3|0:0,0:0:0:0:
234,332,190264,1,2,0:0:0:0:
218,319,190355,2,0,L|208:143,1,163.200003112793,10|0,0:0|0:0,0:0:0:0:
441,117,190719,6,0,B|445:16|359:-48|223:-19|256:115|334:100,1,326.400006225586,10|8,0:3|0:0,0:0:0:0:
356,340,191264,2,0,P|388:266|367:189,1,163.200003112793,2|8,0:0|0:3,0:0:0:0:
111,241,191628,2,0,P|94:164|132:87,1,163.200003112793,2|8,0:0|0:0,0:0:0:0:
322,9,191992,1,2,0:0:0:0:
356,340,192174,6,0,B|405:384|529:392|589:222|470:131|364:154|327:238|327:238|285:332|125:376|-21:216|64:39|217:-4|315:101,1,1094.39997077637,14|8,0:3|0:0,0:0:0:0:
414,270,193446,6,0,B|423:242|418:217|418:217|429:202|429:202|413:157|437:106,2,169.920005509644,2|8|0,0:0|0:3|0:0,0:0:0:0:
235,301,193992,2,0,B|226:273|231:248|231:248|220:233|220:233|236:188|211:137,1,169.920005509644,10|0,0:0|0:0,0:0:0:0:
129,192,194264,1,2,0:0:0:0:
117,187,194355,2,0,B|126:159|121:134|121:134|132:119|132:119|116:74|139:24,1,169.920005509644,10|0,0:3|0:0,0:0:0:0:
407,0,194719,6,0,P|404:30|395:1,3,86.3999973632813,10|0|0|0,0:0|0:0|0:0|0:0,0:0:0:0:
436,107,195083,6,0,B|360:126|318:62|318:62|265:35|215:54|215:54|166:56|134:19,1,326.400006225586,14|8,0:3|0:0,0:0:0:0:
255,268,195628,2,0,B|290:236|290:236|302:173|256:118,2,163.200003112793,2|8|0,0:0|0:3|0:0,0:0:0:0:
59,340,196174,2,0,B|24:308|24:308|12:245|50:198,1,163.200003112793,8|0,0:0|0:0,0:0:0:0:
163,298,196446,1,2,0:0:0:0:
175,282,196537,6,0,B|202:258|253:268|253:268|328:308|402:261|402:261|378:212|333:206,1,326.400006225586,10|8,0:3|0:0,0:0:0:0:
150,152,197083,2,0,B|108:154|80:117|80:117|85:70|124:52,1,163.200003112793,2|8,0:0|0:3,0:0:0:0:
264,175,197446,2,0,B|299:199|342:180|342:180|360:137|337:103,1,163.200003112793,2|8,0:0|0:0,0:0:0:0:
150,152,197810,1,2,0:0:0:0:
239,299,197992,6,0,B|288:297|314:249|305:207|263:175|263:175|234:145|223:110|230:68|263:31,1,326.400006225586,10|8,0:3|0:0,0:0:0:0:
463,177,198537,2,0,P|415:113|336:102,2,163.200003112793,2|8|0,0:0|0:3|0:0,0:0:0:0:
424,358,199083,1,8,0:0:0:0:
323,214,199264,5,2,0:0:0:0:
323,214,199355,1,2,0:0:0:0:
323,214,199446,2,0,B|339:194|362:189|362:189|415:240|379:291,1,163.200003112793,8|0,0:3|0:0,0:0:0:0:
177,313,199810,2,0,B|151:309|135:291|135:291|153:219|216:224,1,163.200003112793,8|0,0:0|0:0,0:0:0:0:
459,347,200174,6,0,B|416:315|367:339|367:339|335:344|306:318,1,163.200003112793,10|0,0:3|0:0,0:0:0:0:
169,146,200537,2,0,B|211:114|260:138|260:138|292:143|321:117,1,163.200003112793,10|0,0:0|0:0,0:0:0:0:
459,347,200901,6,0,B|468:316|450:284|450:284|468:265|468:265|407:244|372:183|413:96|473:94,1,326.400006225586,14|8,0:3|0:0,0:0:0:0:
216,224,201446,2,0,L|45:211,2,163.200003112793,2|8|0,0:0|0:3|0:0,0:0:0:0:
286,321,201901,1,2,0:0:0:0:
296,334,201992,2,0,L|458:346,1,163.200003112793,10|0,0:0|0:0,0:0:0:0:
471,94,202355,6,0,B|395:46|317:96|317:96|240:145|163:97,1,326.400006225586,14|8,0:3|0:0,0:0:0:0:
388,337,202901,2,0,L|398:157,2,163.200003112793,2|8|0,0:0|0:3|0:0,0:0:0:0:
76,223,203446,2,0,L|66:43,1,163.200003112793,10|0,0:0|0:0,0:0:0:0:
397,174,203810,6,0,B|401:230|434:252|494:272|624:219|552:-15|364:-21|261:83|283:206|283:206|288:224|280:217|285:235|285:235|303:337|176:468|-71:448|-143:171|33:80|98:126|153:161|146:233,2,1276.79996590576,14|4|8,0:3|0:0|0:0,0:0:0:0:
373,104,206446,1,2,0:0:0:0:
316,56,206537,1,2,0:0:0:0:
243,43,206628,1,2,0:0:0:0:
172,66,206719,6,0,B|53:56,2,96,10|0|0,0:0|0:0|0:0,0:0:0:0:
373,104,207264,2,0,B|492:114,2,96,10|0|0,0:0|0:0|0:0,0:0:0:0:
155,154,207810,2,0,B|36:144,2,96,2|0|0,0:0|0:0|0:0,0:0:0:0:
356,192,208355,2,0,B|475:202,2,96,2|0|0,0:0|0:0|0:0,0:0:0:0:
182,336,208901,6,0,P|176:288|195:245,1,96,2|0,0:0|0:0,0:0:0:0:
382,334,209264,2,2,B|345:328|345:328|315:309|315:309|273:302,1,115.199996484375,2|0,0:0|0:0,0:2:0:0:
81,226,209628,6,0,B|71:107,2,96,2|0|0,0:0|0:0|0:0,0:0:0:0:
195,245,210174,2,0,B|205:126,2,96,2|0|0,0:0|0:0|0:0,0:0:0:0:
89,321,210719,2,0,B|79:202,2,96,2|0|0,0:0|0:0|0:0,0:0:0:0:
186,340,211264,2,0,B|196:221,2,96,2|0|0,0:0|0:0|0:0,0:0:0:0:
33,374,211810,5,2,0:0:0:0:
80,225,211992,1,2,0:0:0:0:
186,340,212174,1,2,0:0:0:0:
222,337,212264,1,2,0:0:0:0:
258,333,212355,1,2,0:0:0:0:
294,330,212446,1,2,0:0:0:0:
330,326,212537,6,0,L|439:336,2,96,10|0|0,0:0|0:0|0:0,0:0:0:0:
175,233,213083,2,0,L|66:223,2,96,10|0|0,0:0|0:0|0:0,0:0:0:0:
349,200,213628,2,0,L|458:210,2,96,2|0|0,0:0|0:0|0:0,0:0:0:0:
194,107,214174,2,0,L|85:97,2,96,2|0|0,0:0|0:0|0:0,0:0:0:0:
360,105,214719,6,0,P|379:61|373:14,1,96,2|0,0:0|0:0,0:0:0:0:
182,20,215083,2,2,B|197:22|206:28|206:28|218:25|218:25|248:44|248:44|311:52,1,124.79999428711,2|0,0:0|0:0,1:2:0:0:
196,203,215446,6,0,L|194:105,2,96,10|0|0,0:3|0:0|0:0,0:0:0:0:
319,225,215992,1,8,0:3:0:0:
319,225,216174,2,0,L|346:130,2,96,8|0|0,0:3|0:0|0:0,0:0:0:0:
186,295,216719,5,12,0:0:0:0:
186,295,216810,1,8,0:3:0:0:
186,295,216901,2,0,P|134:278|78:280,2,96,10|8|8,0:0|0:3|0:3,0:0:0:0:
320,351,217446,1,8,0:3:0:0:
320,351,217537,1,8,0:3:0:0:
320,351,217628,2,0,P|372:334|428:336,1,96,8|0,0:0|0:0,0:0:0:0:
487,370,217901,1,8,0:0:0:0:
487,370,217992,1,8,0:3:0:0:
512,238,218174,1,8,0:0:0:0:
344,136,218355,6,0,L|332:8,2,105.600003222656,14|0|0,0:0|0:0|0:0,0:0:0:0:
462,133,218901,2,0,L|473:5,2,105.600003222656,8|0|0,0:0|0:0|0:0,0:0:0:0:
353,241,219446,2,0,L|341:113,2,105.600003222656,2|0|0,0:0|0:0|0:0,0:0:0:0:
452,238,219992,2,0,L|463:110,2,105.600003222656,2|0|0,0:0|0:0|0:0,0:0:0:0:
314,329,220537,6,0,P|260:300|201:298,1,105.600003222656,2|0,0:0|0:0,0:0:0:0:
120,330,220901,2,0,P|172:323|217:296,1,105.600003222656,2|0,0:0|0:0,0:0:0:0:
130,201,221264,6,0,L|16:196,2,105.600003222656,0|0|0,0:0|0:0|0:0,0:0:0:0:
267,159,221810,2,0,L|381:154,2,105.600003222656,2|0|0,0:0|0:0|0:0,0:0:0:0:
129,110,222355,2,0,L|15:105,2,105.600003222656,2|0|0,0:0|0:0|0:0,0:0:0:0:
266,68,222901,2,0,L|380:63,2,105.600003222656,2|0|0,0:0|0:0|0:0,0:0:0:0:
215,235,223446,6,0,L|210:129,1,105.600003222656,2|0,0:0|0:0,0:0:0:0:
340,276,223810,1,2,0:0:0:0:
341,244,223901,1,2,0:0:0:0:
343,213,223992,1,2,0:0:0:0:
344,181,224083,1,2,0:0:0:0:
345,149,224174,6,0,L|459:144,2,105.600003222656,10|0|0,0:0|0:0|0:0,0:0:0:0:
215,235,224719,2,0,L|101:240,2,105.600003222656,8|0|0,0:0|0:0|0:0,0:0:0:0:
340,276,225264,2,0,L|454:271,1,105.600003222656,2|0,0:0|0:0,0:0:0:0:
495,64,225628,5,6,0:0:0:0:
499,169,225810,2,0,L|495:64,1,105.600003222656,2|0,0:0|0:0,0:0:0:0:
389,153,226174,1,2,0:0:0:0:
389,153,226355,2,0,L|384:47,1,105.600003222656,2|0,0:0|0:0,0:0:0:0:
278,136,226719,2,0,L|273:30,1,105.600003222656,2|0,0:0|0:0,0:0:0:0:
199,52,226992,1,2,0:0:0:0:
199,52,227083,6,0,P|141:40|83:44,2,105.600003222656,6|0|0,0:0|0:0|0:0,0:0:0:0:
278,136,227628,2,0,P|337:139|392:158,2,105.600003222656,2|0|0,0:0|0:0|0:0,0:0:0:0:
165,162,228174,1,2,0:0:0:0:
231,315,228355,6,0,L|236:210,2,105.600003222656,6|0|0,0:0|0:0|0:0,0:0:0:0:
350,354,228901,6,2,B|357:348|367:352|367:352|374:343|374:343|411:353|411:353|448:351,1,105.600003222656,2|0,0:0|0:0,0:1:0:0:
508,304,229174,1,2,0:0:0:0:
496,294,229264,2,2,B|481:264|481:264|488:192,1,105.600003222656,2|0,0:0|0:0,0:1:0:0:
462,121,229537,2,0,L|457:64,1,52.8000016113282,2|0,0:0|0:0,0:1:0:0:
240,155,229810,2,2,L|235:212,1,52.8000016113282,2|0,0:0|0:0,0:1:0:0:
29,166,229992,6,2,B|66:174|99:157|99:157|139:202|139:202|191:188|242:210,1,230.39999296875,14|0,0:0|0:1,0:1:0:0:
403,296,230537,1,10,0:0:0:0:
398,282,230628,1,2,0:0:0:0:
393,268,230719,2,2,B|355:276|322:259|322:259|282:304|282:304|230:290|179:312,2,230.39999296875,2|0|0,0:0|0:0|0:0,0:1:0:0:
495,242,231628,1,2,0:0:0:0:
357,62,231810,6,2,B|334:61|318:55|318:55|290:33|290:33|264:37|248:49|248:49|188:6|96:32,2,249.599988574219,2|0|0,0:0|0:0|0:0,0:1:0:0:
393,268,232719,1,2,0:0:0:0:
402,256,232810,1,2,0:0:0:0:
411,244,232901,2,2,B|409:227|418:205|418:205|440:177|440:177|436:151|424:135|424:135|468:78|443:10,1,249.599988574219,2|0,0:0|0:1,0:1:0:0:
154,61,233446,6,2,B|180:63|181:72|202:72|202:72|231:57|260:66|260:66|303:86|357:63|357:63|303:86|292:143,1,307.2,2|0,0:1|0:0,0:1:0:0:
284,208,233901,1,2,0:0:0:0:
271,220,233992,6,2,B|239:217|222:199|222:199|196:219|162:223|162:223|137:194|99:180|59:199,1,230.39999296875,0|0,0:0|0:1,0:1:0:0:
234,341,234537,2,2,B|261:338|276:322|276:322|298:340|327:343|327:343|352:321|385:313|417:330,1,201.599993847656,2|0,0:0|0:0,0:1:0:0:
482,373,234901,1,2,0:0:0:0:
509,203,235083,6,2,L|513:133,2,57.5999982421876,2|0|0,0:0|0:0|0:0,0:1:0:0:
412,150,235355,2,2,L|411:79,2,57.5999982421876,2|0|0,0:0|0:0|0:0,0:1:0:0:
315,203,235628,1,2,0:0:0:0:
287,193,235719,1,2,0:0:0:0:
260,184,235810,6,2,B|225:173|201:191|201:191|176:162|176:162|127:190|78:161,1,201.599993847656,14|0,0:0|0:0,0:1:0:0:
28,93,236174,1,2,0:0:0:0:
60,284,236355,2,2,B|65:264|63:252|63:252|78:247|78:247|70:210|80:161,1,134.399995898438,10|8,0:0|0:0,0:1:0:0:
127,90,236719,6,2,B|145:93|153:89|153:89|166:94|166:94|195:78|230:86,1,105.600003222656,2|0,0:0|0:0,0:1:0:0:
304,108,236992,1,2,0:0:0:0:
327,119,237083,2,2,B|345:116|353:120|353:120|366:115|366:115|395:131|430:123,2,105.600003222656,2|0|0,0:0|0:0|0:0,0:1:0:0:
214,183,237628,5,2,0:0:0:0:
208,285,237810,2,2,B|213:258|211:243|211:243|217:235|217:235|208:207|214:182,1,105.600003222656,2|8,0:0|0:0,0:1:0:0:
327,119,238174,1,2,0:0:0:0:
296,256,238355,1,2,0:0:0:0:
410,193,238537,5,10,0:3:0:0:
435,185,238628,1,8,0:3:0:0:
461,183,238719,2,2,B|467:141|467:141|464:119|464:119|468:78,1,105.600003222656,10|0,0:0|0:0,0:1:0:0:
277,29,239083,5,2,0:0:0:0:
213,182,239264,1,10,0:3:0:0:
201,171,239355,1,10,0:3:0:0:
185,165,239446,2,2,L|173:100,1,52.8000016113282,10|0,0:2|0:0,0:1:0:0:
312,169,239628,2,2,L|329:105,1,52.8000016113282,2|0,0:0|0:0,0:1:0:0:
408,242,239810,1,2,0:0:0:0:
421,232,239901,1,2,0:0:0:0:
438,230,239992,2,2,L|466:170,1,52.8000016113282,6|0,0:0|0:0,0:1:0:0:
307,293,240174,6,2,P|277:278|244:272,1,67.1999979492188,10|0,0:0|0:0,0:1:0:0:
139,330,240355,1,10,0:3:0:0:
119,321,240446,1,10,0:3:0:0:
100,318,240537,2,2,L|78:228,1,57.5999982421876,10|0,0:3|0:0,0:1:0:0:
4,198,240719,2,2,L|14:120,1,57.5999982421876,8|0,0:0|0:0,0:1:0:0:
144,64,240901,6,2,B|173:67|190:57|190:57|214:66|214:66|241:52|274:55,1,134.399995898438,10|8,0:0|0:3,0:1:0:0:
349,81,241174,2,2,B|359:49|359:49|345:18,1,67.1999979492188,10|8,0:3|0:3,0:1:0:0:
244,272,241446,2,2,B|233:240|233:240|247:209,1,67.1999979492188,10|8,0:3|0:3,0:1:0:0:
362,360,241628,6,2,B|322:357|300:331|300:331|269:361|224:362|224:362|193:329|140:316|92:343,1,288.000010986329,14|0,0:0|0:0,0:1:0:0:
30,158,242174,2,2,B|70:155|91:129|91:129|123:159|167:160|167:160|199:127|252:114|299:141,1,288.000010986329,10|0,0:0|0:0,0:1:0:0:
290,137,242719,2,2,B|343:89|298:32|298:32|280:50,1,144,2|0,0:0|0:0,0:1:0:0:
204,97,243083,5,2,0:3:0:0:
193,104,243174,2,2,B|157:106|157:106|128:120|128:120|72:119,1,115.199996484375,2|2,0:3|0:0,0:1:0:0:
0,228,243446,6,2,B|23:235|49:223|49:223|62:236|62:236|113:217|153:249|153:249|194:280|253:258,2,268.799991796875,2|2|2,0:0|0:0|0:0,0:1:0:0:
89,368,244355,2,2,P|97:340|98:312,1,57.5999982421876,2|0,0:0|0:0,0:1:0:0:
0,228,244537,6,2,B|0:222|3:211|3:211|0:202|0:202|12:169|-19:172|-17:132|9:76|9:76|2:109|21:130,1,216.000008239746,10|0,0:2|0:0,0:1:0:0:
93,91,244901,2,2,L|150:83,1,57.5999982421876,2|0,0:0|0:0,0:1:0:0:
227,215,245083,6,2,B|275:243|325:206|325:206|334:243|370:261|370:261|399:229|443:219|487:249,1,307.2,10|0,0:0|0:0,0:1:0:0:
133,283,245628,2,2,B|161:234|124:184|124:184|161:175|179:139|179:139|147:110|139:64|170:24,1,307.2,2|0,0:0|0:0,0:1:0:0:
397,76,246174,6,2,B|369:69|344:77|344:77|333:67|333:67|277:93|232:75,1,172.799994726563,2|0,0:0|0:0,0:1:0:0:
156,109,246537,2,2,P|150:73|160:43,1,57.5999982421876,2|0,0:0|0:0,0:1:0:0:
223,157,246719,2,2,P|257:169|278:193,1,57.5999982421876,2|0,0:0|0:0,0:1:0:0:
147,191,246901,2,2,P|118:214|87:220,1,57.5999982421876,2|0,0:0|0:0,0:1:0:0:
269,319,247083,5,2,0:0:0:0:
244,309,247174,1,2,0:0:0:0:
223,288,247264,1,2,0:0:0:0:
213,262,247355,1,2,0:0:0:0:
215,233,247446,6,2,L|224:151,1,76.8,10|0,0:0|0:0,0:1:0:0:
368,241,247628,1,2,0:0:0:0:
377,217,247719,1,2,0:0:0:0:
375,191,247810,2,2,L|367:115,1,57.5999982421876,2|0,0:0|0:0,0:1:0:0:
263,84,247992,2,2,B|215:76|215:76|190:83|190:83|149:76,1,115.199996484375,10|8,0:0|0:0,0:1:0:0:
369,134,248355,6,2,B|378:107|370:84|370:84|381:61|381:61|375:29|394:-15,2,144.000005493164,2|2|0,0:0|0:0|0:0,0:1:0:0:
296,171,248810,1,2,0:0:0:0:
281,185,248901,6,2,B|244:192|220:171|220:171|199:177|199:177|171:177|148:156|148:156|94:139|59:168,1,230.39999296875,2|2,0:0|0:0,0:1:0:0:
76,246,249355,1,2,0:0:0:0:
85,266,249446,2,2,B|119:256|143:272|143:272|175:260|175:260|209:278|254:263,1,172.799994726563,2|0,0:0|0:0,0:1:0:0:
325,309,249810,6,2,P|328:277|336:243,1,57.5999982421876,2|0,0:0|0:0,0:1:0:0:
281,185,249992,2,2,B|279:159|269:149|269:149|279:132|279:132|266:104|279:47,1,115.199996484375,2|0,0:0|0:0,0:1:0:0:
338,30,250264,1,10,0:0:0:0:
357,37,250355,6,2,P|394:33|435:18,1,72.0000027465821,10|0,0:0|0:0,0:1:0:0:
252,72,250537,1,2,0:0:0:0:
231,68,250628,1,2,0:0:0:0:
209,66,250719,2,2,P|172:70|131:85,2,72.0000027465821,2|2|10,0:0|0:0|0:0,0:1:0:0:
26,159,251083,5,10,0:0:0:0:
54,166,251174,1,2,0:0:0:0:
76,184,251264,2,2,L|94:266,1,72.0000027465821,2|0,0:0|0:0,0:1:0:0:
16,369,251446,2,2,L|0:298,1,72.0000027465821,2|0,0:0|0:0,0:1:0:0:
176,376,251628,6,2,L|190:292,1,81.6000015563965,6|0,0:0|0:0,0:1:0:0:
297,227,251810,6,2,B|338:219|338:219|370:195|370:195|428:201|451:254|432:305,1,216.000008239746,8|0,0:0|0:0,0:1:0:0:
251,108,252174,6,2,B|210:115|210:115|178:139|178:139|120:133|91:83|117:26,1,230.4,10|0,0:0|0:0,0:1:0:0:
354,60,252537,6,2,L|399:57,1,31.1999985717774,10|0,0:0|0:0,0:1:0:0:
88,232,252810,2,2,L|43:229,1,31.1999985717774,10|0,0:0|0:0,0:1:0:0:
436,291,253083,2,2,L|481:294,1,31.1999985717774,10|0,0:0|0:0,0:1:0:0:
256,192,253264,5,14,0:0:0:0:
256,192,253355,12,2,255810,0:0:0:0:
459,343,256174,6,0,B|466:239|466:239|484:208|484:208|470:183|470:183|479:47,1,288,12|0,0:3|0:0,0:0:0:0:
364,94,256537,2,0,B|288:74|216:115|216:115|209:74|174:51,1,230.4,8|0,0:2|0:0,0:0:0:0:
68,91,256901,5,10,0:3:0:0:
134,125,256992,1,2,0:3:0:0:
175,190,257083,1,2,0:3:0:0:
177,266,257174,1,2,0:3:0:0:
140,332,257264,6,0,B|105:324|105:324|47:339,1,67.1999979492188,10|0,0:2|0:2,0:0:0:0:
248,221,257446,2,0,B|281:210|281:210|341:219,1,67.1999979492188,2|0,0:2|0:2,0:0:0:0:
67,49,257628,6,0,B|69:123|69:123|62:147|62:147|71:171|71:171|73:227|73:227|81:251|81:251|74:275|74:275|75:330,1,288,12|0,0:3|0:0,0:0:0:0:
212,362,257992,2,0,B|240:314|304:330|304:330|377:364|415:311,1,230.4,8|0,0:0|0:0,0:0:0:0:
507,198,258355,5,10,0:3:0:0:
446,241,258446,1,2,0:3:0:0:
370,248,258537,1,2,0:3:0:0:
301,215,258628,1,2,0:3:0:0:
259,152,258719,6,0,B|198:125|114:140|149:193|190:194|197:166,1,158.400004833985,10|0,0:2|0:0,0:0:0:0:
259,152,259083,6,2,L|261:118,1,33.6,8|0,0:3|0:0,1:2:0:0:
317,74,259810,2,0,P|271:85|318:65,1,153.6,2|0,0:3|0:0,0:0:0:0:
421,98,260355,6,0,P|437:97|468:89,1,48,2|0,0:2|0:0,0:0:0:0:
468,89,260537,2,0,P|432:145|418:290,1,211.2,2|0,0:1|0:0,0:0:0:0:
502,318,261628,6,0,B|441:312|441:312|412:334|412:334|292:323,1,201.599993847656,4|0,0:3|0:0,0:0:0:0:
199,373,261992,6,0,B|203:314|203:314|222:283|222:283|193:243|193:243|210:209|210:209|217:102,1,288,12|0,0:3|0:0,0:0:0:0:
353,134,262355,2,0,B|507:148|507:148|446:95,1,230.4,8|0,0:0|0:0,0:0:0:0:
364,35,262719,5,10,0:3:0:0:
291,60,262810,1,2,0:3:0:0:
222,26,262901,1,2,0:3:0:0:
149,51,262992,1,2,0:3:0:0:
79,17,263083,6,0,B|108:58|108:58|97:204,1,172.799994726563,10|0,0:0|0:0,0:0:0:0:
0,267,263446,6,0,B|64:260|64:260|147:303|147:303|276:290,1,288,12|0,0:3|0:0,0:0:0:0:
352,364,263810,2,0,B|355:324|355:324|373:301|373:301|360:268|360:268|372:134,1,230.4,8|0,0:0|0:0,0:0:0:0:
512,63,264174,5,10,0:3:0:0:
439,37,264264,1,2,0:3:0:0:
368,68,264355,1,2,0:3:0:0:
297,40,264446,1,2,0:3:0:0:
226,71,264537,6,0,B|199:132|214:216|267:181|268:140|240:133,1,158.400004833985,10|0,0:0|0:0,0:0:0:0:
226,71,264901,6,0,B|200:133|230:172|230:172|246:262|167:289,1,249.599988574219,12|0,0:3|0:0,0:0:0:0:
18,358,265446,6,0,P|42:355|80:361,1,48,2|0,0:3|0:0,0:0:0:0:
65,357,265628,2,0,B|32:333|32:333|14:269|72:214,1,153.6,2|0,0:0|0:0,0:0:0:0:
65,357,266174,6,0,P|88:359|123:375,1,43.1999986816407,2|0,0:3|0:0,0:0:0:0:
107,366,266355,2,0,B|86:340|86:340|88:299|140:259,1,115.199996484375,2|0,0:0|0:0,0:0:0:0:
225,332,266901,6,0,L|233:263,2,48,2|2|2,0:0|0:0|0:0,0:0:0:0:
225,332,267446,6,0,B|298:327|298:327|348:356|348:356|421:364,1,201.599993847656,4|0,0:3|0:0,0:0:0:0:
484,276,267810,6,0,B|495:84|495:84|423:146,1,288,12|0,0:3|0:0,0:0:0:0:
364,231,268174,2,0,B|333:234|297:211|297:211|243:238|243:238|202:210|146:221,1,230.4,8|0,0:0|0:0,0:0:0:0:
72,355,268537,5,10,0:3:0:0:
110,288,268628,1,2,0:3:0:0:
71,221,268719,1,2,0:3:0:0:
109,155,268810,1,2,0:3:0:0:
68,89,268901,6,0,L|-15:75,1,67.1999979492188,10|0,0:0|0:0,0:0:0:0:
148,220,269083,2,0,L|231:234,1,67.1999979492188,2|0,0:0|0:0,0:0:0:0:
424,81,269264,6,0,B|365:71|365:71|336:50|336:50|293:75|293:75|261:55|261:55|157:39,1,288,12|0,0:3|0:0,0:0:0:0:
20,6,269628,2,0,B|72:23|72:23|103:140|103:140|72:185,1,230.4,8|0,0:0|0:0,0:0:0:0:
0,307,269992,5,10,0:3:0:0:
62,262,270083,1,2,0:3:0:0:
133,293,270174,1,2,0:3:0:0:
195,249,270264,1,2,0:3:0:0:
264,283,270355,6,0,B|322:313|411:300|375:249|335:245|326:272,1,158.400004833985,10|0,0:0|0:0,0:0:0:0:
332,262,270719,6,2,L|328:219,1,40.3200004921875,12|0,0:3|0:0,1:2:0:0:
276,166,271355,6,0,P|366:100|263:138,1,318.720004620117,2|0,0:2|0:0,0:0:0:0:
328,221,272174,6,0,P|363:45|235:170,1,475.199985498047,2|0,0:1|0:0,0:0:0:0:
318,128,273264,6,0,B|376:112|376:112|440:131|440:131|522:126,1,201.599993847656,4|0,0:3|0:0,0:0:0:0:
508,281,273628,6,0,B|443:275|443:275|418:281|418:281|394:270|394:270|337:265|337:265|311:256|311:256|287:262|287:262|226:256,1,288,12|0,0:3|0:0,0:0:0:0:
89,310,273992,2,0,B|120:370|120:370|131:208,1,230.4,8|0,0:0|0:0,0:0:0:0:
126,99,274355,5,10,0:3:0:0:
183,151,274446,1,2,0:3:0:0:
235,94,274537,1,2,0:3:0:0:
292,146,274628,1,2,0:3:0:0:
344,89,274719,6,0,P|381:78|424:79,1,67.1999979492188,10|0,0:0|0:0,0:0:0:0:
444,294,274901,6,0,B|351:321|286:249|286:249|221:178|130:207,1,345.599989453125,12|0,0:3|0:0,0:0:0:0:
10,345,275446,2,0,L|-3:209,1,115.199996484375,2|0,0:0|0:0,0:0:0:0:
84,44,275810,5,8,0:3:0:0:
84,44,276537,6,0,B|163:48|163:48|234:83|234:83|324:88,5,249.599988574219,14|8|8|8|8|8,0:3|0:0|0:3|0:0|0:3|0:0,0:0:0:0:
436,33,278537,1,2,0:0:0:0:
425,281,278719,6,0,L|432:157,1,124.79999428711,10|0,0:3|0:0,0:0:0:0:
436,33,279083,1,10,0:0:0:0:
432,156,279264,1,2,0:0:0:0:
325,88,279446,6,0,B|245:92|245:92|174:127|174:127|84:132,1,249.599988574219,10|8,0:3|0:0,0:0:0:0:
2,229,279992,1,2,0:0:0:0:
99,306,280174,2,0,B|178:310|178:310|249:345|249:345|339:350,3,249.599988574219,8|8|8|8,0:3|0:0|0:3|0:0,0:0:0:0:
457,308,281446,1,2,0:0:0:0:
355,101,281628,6,0,L|362:226,1,124.79999428711,10|0,0:3|0:0,0:0:0:0:
340,350,281992,1,10,0:2:0:0:
457,308,282174,1,2,0:0:0:0:
362,226,282355,6,0,B|183:203|183:203|137:258,1,249.599988574219,10|8,0:3|0:0,0:0:0:0:
259,302,282901,1,2,0:0:0:0:
362,226,283083,2,0,B|385:47|385:47|331:3,5,249.599988574219,8|8|8|8|8|8,0:3|0:0|0:3|0:0|0:3|0:0,0:0:0:0:
256,102,285083,1,2,0:0:0:0:
23,31,285264,6,0,B|59:28|59:28|108:45|108:45|145:43,1,124.79999428711,10|0,0:3|0:0,0:0:0:0:
256,102,285628,1,10,0:0:0:0:
149,168,285810,2,0,B|112:170|112:170|63:153|63:153|27:156,1,124.79999428711,2|8,0:0|0:3,0:0:0:0:
77,270,286174,5,2,0:0:0:0:
149,168,286355,1,10,0:0:0:0:
202,281,286537,1,2,0:0:0:0:
374,249,286719,6,0,B|293:237|293:237|236:181|236:181|149:168,1,249.599988574219,10|8,0:3|0:0,0:0:0:0:
77,270,287264,1,2,0:0:0:0:
0,41,287446,6,0,B|23:63|23:63|28:161,1,124.79999428711,10|0,0:3|0:0,0:0:0:0:
23,341,287810,1,8,0:0:0:0:
39,297,287901,1,8,0:3:0:0:
77,270,287992,1,8,0:3:0:0:
122,267,288083,1,8,0:3:0:0:
163,289,288174,6,0,L|427:283,1,249.599988574219,14|8,0:3|0:0,0:0:0:0:
512,207,288719,1,2,0:0:0:0:
424,381,288901,6,0,P|386:335|413:283,1,124.79999428711,10|0,0:3|0:0,0:0:0:0:
512,207,289264,1,10,0:0:0:0:
512,207,289446,1,0,0:0:0:0:
406,118,289628,6,0,L|142:112,1,249.599988574219,10|8,0:3|0:0,0:0:0:0:
37,153,290174,1,2,0:0:0:0:
145,237,290355,6,0,L|156:112,1,124.79999428711,10|0,0:3|0:0,0:0:0:0:
250,29,290719,1,10,0:0:0:0:
297,144,290901,1,2,0:0:0:0:
487,90,291083,6,0,B|397:78|397:78|329:38|329:38|249:29,1,249.599988574219,10|8,0:3|0:0,0:0:0:0:
114,52,291628,1,2,0:0:0:0:
297,144,291810,6,0,B|275:117|275:117|167:101,1,124.79999428711,10|0,0:3|0:0,0:0:0:0:
79,190,292174,1,10,0:0:0:0:
79,190,292355,1,0,0:0:0:0:
125,341,292537,6,0,B|136:251|136:251|176:183|176:183|185:103,1,249.599988574219,10|8,0:3|0:0,0:0:0:0:
286,28,293083,1,2,0:0:0:0:
385,137,293264,6,0,L|529:132,1,124.79999428711,10|0,0:3|0:0,0:0:0:0:
450,242,293628,1,10,0:0:0:0:
385,137,293810,1,2,0:0:0:0:
197,246,293992,6,0,B|260:204|323:243|323:243|385:282|449:242,3,268.799991796875,14|8|8|8,0:3|0:0|0:3|0:0,0:0:0:0:
509,132,295264,1,2,0:0:0:0:
442,362,295446,6,0,B|490:309|450:244|450:244|435:157|510:132,1,268.799991796875,12|8,0:3|0:0,0:0:0:0:
509,132,295992,1,2,0:0:0:0:
377,32,296174,6,0,L|230:20,1,124.79999428711,10|0,0:3|0:0,0:0:0:0:
128,38,296537,1,10,0:0:0:0:
204,136,296719,1,2,0:0:0:0:
128,38,296901,6,0,L|3:27,2,124.79999428711,14|0|8,0:3|0:0|0:0,0:0:0:0:
252,21,297446,2,0,L|376:31,2,124.79999428711,2|0|0,0:0|0:0|0:0,0:0:0:0:
128,38,297992,1,8,0:0:0:0:
194,252,298174,6,0,P|217:195|203:135,1,124.79999428711,12|0,0:3|0:0,0:0:0:0:
65,253,298537,2,0,P|41:196|55:136,2,124.79999428711,2|8|0,0:0|0:0|0:0,0:0:0:0:
207,340,299083,6,0,P|237:333|284:331,2,62.3999971435548,2|0|0,0:0|0:0|0:0,0:0:0:0:
83,357,299446,2,0,P|51:354|21:347,2,62.3999971435548,2|0|0,0:0|0:0|0:0,0:0:0:0:
194,252,299810,5,14,0:3:0:0:
194,252,301992,5,2,0:0:0:0:
197,232,302355,1,2,0:0:0:0:
345,69,302719,6,0,B|229:62|229:62|197:45|197:45|164:76|164:76|133:58|133:58|20:52,1,345.599989453125,10|8,0:3|0:3,0:0:0:0:
21,52,305628,6,0,B|133:58|133:58|164:76|164:76|197:45|197:45|229:62|229:62|345:69,1,345.599989453125,12|8,0:3|0:0,0:0:0:0:
215,281,306174,2,0,B|178:257|178:257|157:184|214:144,2,172.799994726563,2|8|0,0:0|0:3|0:0,0:0:0:0:
417,347,306719,2,0,B|454:322|454:322|475:249|417:210,1,172.799994726563,8|0,0:0|0:0,0:0:0:0:
298,203,306992,1,2,0:0:0:0:
278,212,307083,6,0,B|246:211|246:211|212:205|212:205|178:216|178:216|117:204|87:122|136:50|209:54,1,345.599989453125,10|8,0:3|0:0,0:0:0:0:
252,322,307628,2,0,P|252:234|177:217,1,172.799994726563,2|8,0:0|0:3,0:0:0:0:
31,356,307992,2,0,P|7:271|75:235,1,172.799994726563,2|8,0:0|0:0,0:0:0:0:
252,322,308355,1,2,0:0:0:0:
438,181,308537,6,0,B|468:142|461:83|442:43|405:21|405:21|343:83,1,259.199992089844,10|0,0:3|0:0,0:0:0:0:
256,140,308901,2,0,B|197:118|152:132|152:132|115:124|113:83,1,172.799994726563,10|0,0:0|0:0,0:0:0:0:
360,295,309264,2,0,B|419:273|464:287|464:287|501:279|503:238,1,172.799994726563,10|0,0:3|0:0,0:0:0:0:
350,75,309628,1,10,0:0:0:0:
216,284,309810,5,2,0:0:0:0:
216,284,309901,1,2,0:0:0:0:
216,284,309992,2,0,B|221:239|188:205|175:223|152:162|183:124,1,172.799994726563,8|0,0:3|0:0,0:0:0:0:
360,295,310355,2,0,B|359:249|396:220|407:239|437:181|411:140,1,172.799994726563,8|0,0:0|0:0,0:0:0:0:
228,49,310719,6,0,B|199:49|179:35|179:35|158:46|158:46|112:18|64:28,1,172.799994726563,10|0,0:3|0:0,0:0:0:0:
317,127,311083,2,0,B|345:127|365:113|365:113|386:124|386:124|433:96|495:109,1,172.799994726563,10|0,0:0|0:0,0:0:0:0:
197,364,311446,6,0,B|180:301|221:246|221:246|224:203|186:172|186:172|238:121|228:48,1,345.599989453125,10|8,0:3|0:0,0:0:0:0:
11,303,311992,2,0,L|-1:116,2,172.799994726563,2|8|0,0:0|0:3|0:0,0:0:0:0:
80,364,312446,1,2,0:0:0:0:
92,352,312537,2,0,L|104:165,1,172.799994726563,10|0,0:0|0:0,0:0:0:0:
443,89,312901,6,0,B|404:143|329:175|256:135|248:80|248:80|279:24|330:33,1,345.599989453125,10|8,0:3|0:0,0:0:0:0:
365,285,313446,2,0,P|410:215|376:140,1,172.799994726563,2|8,0:0|0:3,0:0:0:0:
208,291,313810,2,0,P|154:228|179:149,1,172.799994726563,2|8,0:0|0:0,0:0:0:0:
328,32,314174,1,2,0:0:0:0:
458,335,314355,6,0,B|399:305|328:314|355:338|280:357|207:297|207:297|119:242|123:140|207:82|290:140|294:242|207:297|207:297|161:368|84:332|84:332|29:282|11:180|56:73|154:48,1,1152,14|8,0:3|0:0,0:0:0:0:
396,227,315628,6,0,B|421:172|411:113|411:113|432:81|475:88,2,182.399995129395,2|8|0,0:0|0:3|0:0,0:0:0:0:
269,305,316174,2,0,B|243:250|253:191|253:191|232:159|189:166,1,182.399995129395,10|0,0:0|0:0,0:0:0:0:
98,167,316446,1,2,0:0:0:0:
83,178,316537,2,0,B|108:123|98:64|98:64|119:32|162:39,1,182.399995129395,10|0,0:3|0:0,0:0:0:0:
347,169,316901,6,0,P|354:135|361:170,3,91.1999975646973,10|2|2|2,0:0|0:0|0:0|0:0,0:0:0:0:
442,108,317264,6,0,B|414:60|368:42|316:51|285:77|285:77|247:108|202:102|165:85|154:39,1,345.599989453125,14|8,0:3|0:0,0:0:0:0:
332,285,317810,2,0,P|386:223|358:146,2,172.799994726563,2|8|0,0:0|0:3|0:0,0:0:0:0:
156,301,318355,2,0,P|87:255|95:173,1,172.799994726563,8|0,0:0|0:0,0:0:0:0:
226,146,318628,1,2,0:0:0:0:
253,154,318719,6,0,B|303:120|354:143|354:143|404:166|462:193|507:155|510:86|447:62|411:92,1,345.599989453125,10|8,0:3|0:0,0:0:0:0:
269,305,319264,2,0,B|229:288|230:238|230:238|261:197|252:153,1,172.799994726563,2|8,0:0|0:3,0:0:0:0:
449,305,319628,2,0,B|489:288|488:238|488:238|457:197|465:153,1,172.799994726563,2|8,0:0|0:0,0:0:0:0:
317,42,319992,1,2,0:0:0:0:
149,200,320174,6,0,B|58:152|45:44|140:-59|240:37|188:97,1,345.599989453125,10|8,0:3|0:0,0:0:0:0:
35,320,320719,2,0,L|14:149,2,172.799994726563,2|8|0,0:0|0:3|0:0,0:0:0:0:
200,374,321264,1,8,0:0:0:0:
343,217,321446,5,2,0:0:0:0:
343,217,321537,1,2,0:0:0:0:
343,217,321628,2,0,B|301:195|257:220|257:220|244:269|275:304,1,172.799994726563,8|0,0:3|0:0,0:0:0:0:
87,144,321992,2,0,B|128:122|172:147|172:147|185:196|154:231,1,172.799994726563,8|0,0:0|0:0,0:0:0:0:
354,350,322355,6,0,B|384:365|445:357|473:321|473:321|466:300|441:292,1,172.799994726563,10|0,0:3|0:0,0:0:0:0:
158,227,322719,2,0,B|133:202|122:141|148:104|148:104|170:104|186:126,1,172.799994726563,10|0,0:0|0:0,0:0:0:0:
473,321,323083,6,0,B|456:264|492:213|492:213|471:192|471:192|516:164|532:100|508:41|460:25,1,345.599989453125,14|8,0:3|0:0,0:0:0:0:
183,123,323628,2,0,L|6:110,2,172.799994726563,2|8|0,0:0|0:3|0:0,0:0:0:0:
281,192,324083,1,2,0:0:0:0:
299,181,324174,2,0,L|476:194,1,172.799994726563,10|0,0:0|0:0,0:0:0:0:
116,358,324537,6,0,B|61:321|41:251|68:176|125:134|125:134|181:224,1,345.599989453125,14|8,0:3|0:0,0:0:0:0:
458,366,325083,2,0,L|473:181,2,172.799994726563,2|8|0,0:0|0:3|0:0,0:0:0:0:
176,301,325628,2,0,L|161:116,1,172.799994726563,10|0,0:0|0:0,0:0:0:0:
458,366,325992,6,0,B|488:323|462:280|462:280|479:269|479:269|460:228|495:180|495:180|561:105|499:9|499:9|430:-18|355:5|334:50|334:50|244:100|243:202|327:273|420:210|424:106|334:50|334:50|264:-13|188:1|214:26|143:32|88:7|88:7|98:28|87:44|87:44|9:67|-48:119|-46:230|-38:307|41:371|92:391|232:354|291:274|311:197|264:21|74:17|35:85|14:205|70:249|116:243|133:233,1,2112,14|2,0:3|0:0,0:0:0:0:
74,350,328174,6,0,P|106:292|92:229,1,134.399995898438,2|0,0:0|0:0,0:0:0:0:
84,142,328537,2,0,P|71:187|92:229,1,96,2|0,0:0|0:0,0:0:0:0:
166,310,328901,6,0,P|140:260|92:229,1,115.199996484375,2|0,0:0|0:0,0:0:0:0:
23,201,329446,2,0,P|54:223|91:229,1,76.8,2|0,0:0|0:0,0:0:0:0:
161,201,330355,6,0,P|122:209|89:232,1,76.8,2|0,0:0|0:0,0:0:0:0:
46,289,330901,2,0,P|75:263|92:227,1,76.8,2|0,0:0|0:0,0:0:0:0:
98,146,332537,6,0,P|85:184|95:236,1,86.3999973632813,2|0,0:0|0:0,0:0:0:0:
256,352,333264,5,14,0:3:0:0:
256,192,333355,12,8,338719,0:2:0:0:
405,303,338901,5,2,0:0:0:0:
405,303,338992,1,2,0:0:0:0:
405,303,339083,2,0,L|421:162,2,105.600003222656,10|0|8,0:3|0:0|0:0,0:0:0:0:
283,336,339628,2,0,L|267:195,2,105.600003222656,2|8|0,0:0|0:3|0:0,0:0:0:0:
169,212,340174,5,10,0:0:0:0:
169,212,340355,2,0,P|221:213|271:231,1,105.600003222656,2|8,0:0|0:3,0:0:0:0:
373,250,340719,1,2,0:0:0:0:
373,250,340810,1,2,0:0:0:0:
373,250,340901,2,0,P|320:249|271:231,1,105.600003222656,10|0,0:2|0:0,0:0:0:0:
326,52,341264,5,10,0:3:0:0:
345,148,341446,1,2,0:0:0:0:
345,148,341537,1,2,0:0:0:0:
345,148,341628,2,0,B|321:125|321:125|328:33,1,105.600003222656,8|0,0:0|0:0,0:0:0:0:
220,41,341992,5,10,0:3:0:0:
182,131,342174,1,2,0:0:0:0:
182,131,342264,1,2,0:0:0:0:
182,131,342355,2,0,B|210:113|210:113|222:22,1,105.600003222656,10|0,0:0|0:0,0:0:0:0:
42,40,342719,5,10,0:3:0:0:
79,137,342901,1,2,0:0:0:0:
79,137,342992,1,2,0:0:0:0:
79,137,343083,1,10,0:0:0:0:
182,131,343264,2,0,B|210:113|210:113|222:22,1,105.600003222656,2|8,0:0|0:3,0:0:0:0:
296,200,343628,5,2,0:0:0:0:
359,122,343810,1,10,0:2:0:0:
394,216,343992,1,2,0:0:0:0:
283,125,344174,5,10,0:3:0:0:
344,271,344355,1,2,0:0:0:0:
344,271,344446,1,2,0:0:0:0:
344,271,344537,1,10,0:0:0:0:
431,149,344719,1,2,0:0:0:0:
266,211,344901,6,0,L|164:201,1,86.3999973632813,14|0,0:3|0:0,0:0:0:0:
180,202,345264,1,10,0:0:0:0:
344,271,345446,2,0,L|446:281,1,86.3999973632813,2|8,0:0|0:3,0:0:0:0:
430,279,345810,1,2,0:0:0:0:
344,271,345992,1,10,0:2:0:0:
180,202,346174,6,0,L|78:192,1,86.3999973632813,2|8,0:0|0:3,0:0:0:0:
94,193,346537,1,2,0:0:0:0:
258,262,346719,2,0,L|360:272,1,86.3999973632813,10|0,0:0|0:0,0:0:0:0:
135,332,347083,5,10,0:3:0:0:
135,332,347264,1,2,0:0:0:0:
94,193,347446,1,10,0:0:0:0:
74,274,347628,1,2,0:0:0:0:
174,170,347810,6,0,P|184:129|176:86,1,86.3999973632813,10|0,0:3|0:0,0:0:0:0:
176,87,348174,1,10,0:0:0:0:
102,200,348355,1,2,0:0:0:0:
102,200,348446,1,2,0:0:0:0:
102,200,348537,1,10,0:3:0:0:
237,208,348719,1,2,0:0:0:0:
176,87,348901,1,10,0:0:0:0:
102,200,349083,1,2,0:0:0:0:
176,87,349264,6,0,P|169:41|136:-3,1,86.3999973632813,10|0,0:3|0:0,0:0:0:0:
280,121,349628,2,0,P|309:84|360:63,1,86.3999973632813,10|0,0:0|0:0,0:0:0:0:
348,221,349992,1,10,0:3:0:0:
348,221,350083,1,2,0:0:0:0:
348,221,350174,1,2,0:0:0:0:
408,121,350355,2,0,P|381:87|343:66,1,86.3999973632813,10|0,0:0|0:0,0:0:0:0:
268,44,350628,1,2,0:0:0:0:
252,43,350719,5,14,0:3:0:0:
173,136,350901,1,2,0:0:0:0:
173,136,350992,1,2,0:0:0:0:
173,136,351083,1,10,0:0:0:0:
131,21,351264,1,2,0:0:0:0:
190,136,351446,5,10,0:3:0:0:
244,26,351628,1,2,0:0:0:0:
120,36,351810,1,10,0:0:0:0:
280,116,351992,5,2,0:0:0:0:
280,116,352083,1,2,0:0:0:0:
280,116,352174,2,0,L|378:114,1,96,12|0,0:3|0:0,0:0:0:0:
376,114,352537,1,10,0:0:0:0:
439,247,352719,5,2,0:0:0:0:
439,247,352810,1,2,0:0:0:0:
439,247,352901,1,10,0:3:0:0:
376,114,353083,1,2,0:0:0:0:
348,259,353264,5,10,0:0:0:0:
376,114,353446,1,2,0:0:0:0:
264,237,353628,5,14,0:3:0:0:
223,111,353810,1,2,0:0:0:0:
223,111,353901,1,2,0:0:0:0:
223,111,353992,1,10,0:0:0:0:
182,237,354174,5,2,0:0:0:0:
223,111,354355,1,10,0:3:0:0:
117,190,354537,5,2,0:0:0:0:
117,190,354628,1,2,0:0:0:0:
117,190,354719,1,10,0:0:0:0:
116,24,354901,1,14,0:3:0:0:
116,24,355264,5,2,0:0:0:0:
223,111,355446,1,10,0:0:0:0:
78,109,355628,5,2,0:0:0:0:
78,109,355719,1,2,0:0:0:0:
78,109,355810,1,10,0:3:0:0:
211,26,355992,1,2,0:0:0:0:
302,175,356174,6,0,L|383:179,1,72,10|0,0:0|0:0,0:0:0:0:
441,255,356537,6,0,B|396:216|396:216|225:204,1,230.39999296875,14|8,0:3|0:0,0:0:0:0:
310,333,357083,1,2,0:0:0:0:
441,255,357264,2,0,L|458:-1,3,230.39999296875,8|8|8|8,0:3|0:0|0:3|0:0,0:0:0:0:
283,40,358537,5,2,0:0:0:0:
305,33,358628,1,2,0:0:0:0:
327,26,358719,2,0,B|359:46|359:46|363:122,1,115.199996484375,10|0,0:3|0:0,0:0:0:0:
252,199,359083,2,0,B|219:178|219:178|215:102,1,115.199996484375,10|2,0:0|0:0,0:0:0:0:
7,137,359446,6,0,B|177:148|177:148|221:95,1,230.39999296875,10|8,0:3|0:0,0:0:0:0:
96,30,359992,1,2,0:0:0:0:
7,137,360174,2,0,B|0:240|0:240|-28:294|-28:294|-11:358,1,230.39999296875,8|8,0:3|0:0,0:0:0:0:
105,295,360719,1,2,0:0:0:0:
228,319,360901,6,0,B|52:306|52:306|109:294,1,230.39999296875,8|8,0:3|0:0,0:0:0:0:
228,319,361446,1,2,0:0:0:0:
289,210,361628,1,8,0:3:0:0:
207,118,361810,1,2,0:0:0:0:
207,118,361901,1,2,0:0:0:0:
207,118,361992,1,8,0:0:0:0:
90,170,362174,1,2,0:0:0:0:
289,210,362355,6,0,B|464:197|464:197|407:185,1,230.39999296875,10|8,0:3|0:0,0:0:0:0:
289,210,362901,1,2,0:0:0:0:
397,342,363083,2,0,B|410:185|410:185|372:101,3,230.39999296875,8|8|8|8,0:3|0:0|0:3|0:0,0:0:0:0:
219,118,364355,5,2,0:0:0:0:
242,122,364446,1,2,0:0:0:0:
265,126,364537,2,0,B|393:117,1,115.199996484375,10|0,0:3|0:0,0:0:0:0:
201,32,364901,2,0,B|72:40,1,115.199996484375,10|0,0:0|0:0,0:0:0:0:
254,281,365264,6,0,B|260:197|260:197|313:116|313:116|319:28,6,268.799991796875,14|8|8|8|8|8|10,0:3|0:0|0:3|0:0|0:3|0:0|0:3,0:0:0:0:
254,281,367628,1,2,0:0:0:0:
308,123,367810,2,0,B|423:132,1,115.199996484375,10|0,0:0|0:0,0:0:0:0:
409,342,368174,6,0,L|423:131,1,211.200006445313,14|8,0:3|0:0,0:0:0:0:
318,28,368719,1,2,0:0:0:0:
187,95,368901,2,0,B|120:90|120:90|56:48|56:48|-12:43,3,211.200006445313,8|8|8|8,0:3|0:0|0:3|0:0,0:0:0:0:
103,175,370174,5,2,0:0:0:0:
126,179,370264,1,2,0:0:0:0:
149,183,370355,2,0,B|181:162|181:162|188:83,1,105.600003222656,10|0,0:3|0:0,0:0:0:0:
316,20,370719,2,0,B|284:41|284:41|277:120,1,105.600003222656,10|2,0:0|0:0,0:0:0:0:
472,156,371083,6,0,B|438:118|438:118|278:108,1,211.200006445313,10|8,0:3|0:0,0:0:0:0:
356,214,371628,1,2,0:0:0:0:
472,156,371810,2,0,B|479:50,1,105.600003222656,8|0,0:3|0:0,0:0:0:0:
356,214,372174,1,10,0:0:0:0:
278,108,372355,1,2,0:0:0:0:
356,214,372537,6,0,B|365:72|365:72|309:14,2,211.200006445313,8|8|8,0:3|0:0|0:3,0:0:0:0:
298,330,373446,1,2,0:0:0:0:
298,330,373537,1,2,0:0:0:0:
298,330,373628,1,8,0:0:0:0:
231,223,373810,1,2,0:0:0:0:
120,361,373992,6,0,B|126:289|126:289|91:214|91:214|96:138,1,230.39999296875,14|8,0:3|0:0,0:0:0:0:
187,34,374537,1,2,0:0:0:0:
277,138,374719,2,0,B|445:149|445:149|498:118,1,230.39999296875,8|8,0:3|0:0,0:0:0:0:
498,118,375264,1,2,0:0:0:0:
508,360,375446,6,0,B|524:165|524:165|489:102,1,249.599988574219,14|8,0:3|0:0,0:0:0:0:
396,228,375992,1,2,0:0:0:0:
277,138,376174,2,0,B|360:132|360:132|398:92,1,124.79999428711,8|0,0:3|0:0,0:0:0:0:
129,183,376537,5,10,0:0:0:0:
127,153,376628,1,2,0:0:0:0:
125,124,376719,1,2,0:0:0:0:
122,94,376810,1,2,0:0:0:0:
121,65,376901,2,0,B|180:22|180:22|131:213,1,268.799991796875,14|8,0:3|0:0,0:0:0:0:
262,238,377446,1,2,0:0:0:0:
270,230,377537,1,2,0:0:0:0:
278,222,377628,2,0,B|321:163|321:163|130:212,1,268.799991796875,8|8,0:3|0:0,0:0:0:0:
409,364,378174,6,0,B|430:68,1,288.000010986329,6|0,0:0|0:0,0:0:0:0:
131,211,378719,1,10,0:0:0:0:
146,170,378810,1,2,0:0:0:0:
181,148,378901,1,2,0:0:0:0:
222,151,378992,1,2,0:0:0:0:
253,180,379083,2,0,B|265:7,1,144.000005493164,10|0,0:3|0:0,0:0:0:0:
131,211,379446,2,0,B|118:38,1,144.000005493164,10|0,0:0|0:0,0:0:0:0:
0,315,379810,6,0,B|103:306|103:306|131:291|131:291|161:318|161:318|189:301|189:301|290:294,1,307.2,14|8,0:3|0:0,0:0:0:0:
459,360,380355,1,2,0:0:0:0:
459,360,380446,1,2,0:0:0:0:
459,360,380537,1,10,0:3:0:0:
429,177,380719,1,2,0:0:0:0:
287,294,380901,1,10,0:0:0:0:
290,27,381083,6,0,B|318:70|318:70|326:192,1,172.799994726563,14|0,0:3|0:0,0:0:0:0:
148,218,381446,1,2,0:0:0:0:
171,192,381537,1,2,0:0:0:0:
203,181,381628,1,10,0:0:0:0:
287,294,381810,1,2,0:0:0:0:
437,78,381992,5,10,0:3:0:0:
435,97,382083,1,10,0:3:0:0:
433,117,382174,1,10,0:3:0:0:
432,137,382264,1,10,0:3:0:0:
430,157,382355,1,10,0:3:0:0:
429,177,382446,1,10,0:3:0:0:
428,197,382537,1,10,0:3:0:0:
427,217,382628,1,10,0:3:0:0:
444,253,382719,5,6,0:3:0:0:
