osu file format v14

[General]
AudioFilename: audio.mp3
AudioLeadIn: 0
PreviewTime: 121693
Countdown: 0
SampleSet: Soft
StackLeniency: 0.5
Mode: 0
LetterboxInBreaks: 0
WidescreenStoryboard: 1

[Editor]
Bookmarks: 29163
DistanceSpacing: 1
BeatDivisor: 4
GridSize: 32
TimelineZoom: 3.139997

[Metadata]
Title:Tonitrus
TitleUnicode:Tonitrus
Artist:Rita
ArtistUnicode:Rita
Creator:Frakturehawkens
Version:Cappu's Extra
Source:黄雷のガクトゥーン〜What a shining braves〜
Tags:Oofujitsubo video game pop BRYG-0014 Ourai no Gahkthun of the Golden Lightning N'gah-Kthun j-pop japanese blueberry Blueberry&Yogurt yogurt yoghurt -What ~what braves~ braves- piroshki cappu instrumental
BeatmapID:2183891
BeatmapSetID:926756

[Difficulty]
HPDrainRate:4.5
CircleSize:4
OverallDifficulty:8.5
ApproachRate:9
SliderMultiplier:2
SliderTickRate:1

[Events]
//Background and Video events
0,0,"5.jpg",0,0
//Break Periods
2,94306,106306
//Storyboard Layer 0 (Background)
//Storyboard Layer 1 (Fail)
//Storyboard Layer 2 (Pass)
//Storyboard Layer 3 (Foreground)
//Storyboard Layer 4 (Overlay)
//Storyboard Sound Samples

[TimingPoints]
21,428.571428571429,4,2,1,35,1,0
1735,-125,4,2,1,35,0,0
8592,-125,4,2,1,45,0,0
13735,-125,4,2,1,50,0,0
14163,-125,4,2,1,55,0,0
14592,-125,4,2,1,60,0,0
15449,-100,4,2,1,70,0,0
29163,-125,4,2,1,40,0,0
58306,-58.8235294117647,4,2,1,80,0,1
58735,-100,4,2,1,80,0,1
58949,-55.5555555555556,4,2,1,80,0,1
59378,-83.3333333333333,4,2,1,80,0,1
59806,-50,4,2,1,80,0,1
60449,-71.4285714285714,4,2,1,80,0,1
61521,-55.5555555555556,4,2,1,80,0,1
62163,-71.4285714285714,4,2,1,80,0,1
62378,-58.8235294117647,4,2,1,80,0,1
63235,-62.5,4,2,1,80,0,1
63663,-71.4285714285714,4,2,1,80,0,1
65163,-76.9230769230769,4,2,1,70,0,0
72021,-58.8235294117647,4,2,1,80,0,1
72610,-58.8235294117647,4,2,1,5,0,1
72663,-55.5555555555556,4,2,1,80,0,1
73092,-71.4285714285714,4,2,1,80,0,1
73521,-50,4,2,1,80,0,1
74592,-71.4285714285714,4,2,1,80,0,1
75235,-55.5555555555556,4,2,1,80,0,1
76092,-58.8235294117647,4,2,1,80,0,1
76949,-62.5,4,2,1,80,0,1
77378,-71.4285714285714,4,2,1,80,0,1
78878,-76.9230769230769,4,2,1,70,0,0
85735,-58.8235294117647,4,2,1,70,0,0
86378,-55.5555555555556,4,2,1,70,0,0
87449,-58.8235294117647,4,2,1,70,0,0
89806,-66.6666666666667,4,2,1,70,0,0
90663,-125,4,2,1,70,0,0
90878,-125,4,2,1,30,0,0
108021,-71.4285714285714,4,2,1,55,0,0
121735,-166.666666666667,4,2,1,55,0,0
123449,-66.6666666666667,4,2,1,70,0,0
137163,-125,4,2,1,40,0,0
166306,-58.8235294117647,4,2,1,80,0,1
166735,-100,4,2,1,80,0,1
166949,-55.5555555555556,4,2,1,80,0,1
167378,-83.3333333333333,4,2,1,80,0,1
167806,-50,4,2,1,80,0,1
168449,-71.4285714285714,4,2,1,80,0,1
169521,-55.5555555555556,4,2,1,80,0,1
170163,-71.4285714285714,4,2,1,80,0,1
170378,-58.8235294117647,4,2,1,80,0,1
171235,-62.5,4,2,1,80,0,1
171663,-71.4285714285714,4,2,1,80,0,1
173163,-76.9230769230769,4,2,1,70,0,0
180021,-58.8235294117647,4,2,1,80,0,1
180663,-55.5555555555556,4,2,1,80,0,1
181038,-55.5555555555556,4,2,1,5,0,1
181092,-71.4285714285714,4,2,1,80,0,1
181521,-50,4,2,1,80,0,1
182592,-71.4285714285714,4,2,1,80,0,1
183235,-55.5555555555556,4,2,1,80,0,1
184092,-58.8235294117647,4,2,1,80,0,1
184949,-62.5,4,2,1,80,0,1
185378,-71.4285714285714,4,2,1,80,0,1
186878,-76.9230769230769,4,2,1,70,0,0
197163,-90.9090909090909,4,2,1,70,0,0
200592,-125,4,2,1,70,0,0
202306,-76.9230769230769,4,2,1,70,0,0
216021,-66.6666666666667,4,2,1,70,0,0
219449,-58.8235294117647,4,2,1,70,0,0
220735,-50,4,2,1,70,0,0
221163,-66.6666666666667,4,2,1,70,0,0
228021,-58.8235294117647,4,2,1,70,0,0
230163,-76.9230769230769,4,2,1,70,0,0
231449,-52.6315789473684,4,2,1,80,0,1
231878,-83.3333333333333,4,2,1,80,0,1
232092,-50,4,2,1,80,0,1
232521,-71.4285714285714,4,2,1,80,0,1
232949,-47.6190476190476,4,2,1,80,0,1
233592,-62.5,4,2,1,80,0,1
234663,-47.6190476190476,4,2,1,80,0,1
235306,-62.5,4,2,1,80,0,1
235521,-50,4,2,1,80,0,1
236378,-52.6315789473684,4,2,1,80,0,1
236806,-62.5,4,2,1,80,0,1
238306,-66.6666666666667,4,2,1,70,0,0
245163,-52.6315789473684,4,2,1,80,0,1
245806,-50,4,2,1,80,0,1
246235,-62.5,4,2,1,80,0,1
246663,-47.6190476190476,4,2,1,80,0,1
247306,-62.5,4,2,1,80,0,1
248378,-47.6190476190476,4,2,1,80,0,1
249235,-50,4,2,1,80,0,1
250092,-52.6315789473684,4,2,1,80,0,1
250521,-62.5,4,2,1,80,0,1
252021,-66.6666666666667,4,2,1,70,0,0
258878,-50,4,2,1,70,0,0
262306,-58.8235294117647,4,2,1,70,0,0
263806,-200,4,2,1,70,0,0
263913,-200,4,2,1,30,0,0

[Colours]
Combo1 : 46,156,70
Combo2 : 234,102,15
Combo3 : 86,124,239
Combo4 : 0,128,128

[HitObjects]
177,252,1735,6,0,P|117:262|57:278,1,120,6|2,3:0|3:0,0:0:0:0:
190,266,2378,1,2,3:0:0:0:
190,266,2485,1,0,3:0:0:0:
308,209,2699,5,0,3:0:0:0:
308,209,2806,1,0,3:0:0:0:
369,253,2913,1,0,0:0:0:0:
369,253,3021,2,0,L|449:234,1,80,8|0,3:1|3:0,0:0:0:0:
455,222,3342,1,0,3:0:0:0:
490,144,3449,5,2,3:0:0:0:
380,72,3663,1,0,0:0:0:0:
380,72,3771,1,2,3:0:0:0:
380,72,3878,1,8,3:1:0:0:
271,142,4092,5,2,3:0:0:0:
259,128,4199,1,0,3:0:0:0:
237,136,4306,1,0,3:0:0:0:
214,113,4413,1,2,3:0:0:0:
197,134,4521,1,0,3:0:0:0:
36,46,4735,2,0,L|42:87,1,40,10|0,3:1|0:0,0:0:0:0:
109,33,4949,2,0,L|115:74,1,40,2|0,3:0|3:0,0:0:0:0:
24,177,5163,6,0,P|76:182|106:199,1,80,2|0,3:0|3:0,0:0:0:0:
106,209,5485,1,2,3:0:0:0:
91,206,5592,1,8,3:1:0:0:
173,308,5806,1,0,3:0:0:0:
173,308,5913,1,0,3:0:0:0:
279,223,6128,1,0,3:0:0:0:
279,223,6235,1,0,3:0:0:0:
402,326,6449,2,0,L|414:234,1,80,8|0,3:1|3:0,0:0:0:0:
401,253,6771,1,0,3:0:0:0:
474,144,6878,6,0,P|506:183|496:222,1,80,0|0,3:0|3:0,0:0:0:0:
485,28,7306,1,8,3:1:0:0:
382,110,7521,1,0,3:0:0:0:
379,101,7628,1,0,3:0:0:0:
255,60,7842,1,0,3:0:0:0:
252,51,7949,1,0,3:0:0:0:
149,93,8163,2,0,L|140:42,1,40,8|0,3:1|0:0,0:0:0:0:
158,101,8378,2,0,L|149:152,1,40,0|0,3:0|3:0,0:0:0:0:
171,280,8592,6,0,P|124:247|52:262,1,120,6|2,3:0|3:0,0:0:0:0:
183,270,9235,1,2,3:0:0:0:
183,270,9342,1,0,3:0:0:0:
88,357,9556,5,0,3:0:0:0:
88,357,9663,1,0,3:0:0:0:
165,363,9771,1,0,0:0:0:0:
165,363,9878,2,0,L|260:354,1,80,8|0,3:1|3:0,0:0:0:0:
251,346,10199,1,0,3:0:0:0:
332,378,10306,5,2,3:0:0:0:
426,145,10628,5,2,3:0:0:0:
426,145,10735,1,8,3:1:0:0:
424,291,10949,5,2,3:0:0:0:
424,291,11056,2,0,L|434:246,1,40,0|0,3:0|3:0,0:0:0:0:
316,114,11271,5,2,3:0:0:0:
316,114,11378,1,0,3:0:0:0:
474,53,11592,6,0,L|525:41,1,40,10|0,3:1|3:0,0:0:0:0:
404,23,11806,6,0,L|353:11,1,40,2|0,3:0|3:0,0:0:0:0:
235,108,12021,6,0,L|244:197,1,80,6|0,3:0|3:0,0:0:0:0:
253,181,12342,1,2,3:0:0:0:
196,249,12449,1,8,3:1:0:0:
167,245,12556,1,0,0:0:0:0:
138,239,12663,1,0,3:0:0:0:
24,300,12878,1,0,3:0:0:0:
257,310,13199,1,0,3:0:0:0:
284,299,13306,1,8,3:1:0:0:
458,343,13521,1,0,0:0:0:0:
461,355,13628,1,0,0:0:0:0:
387,315,13735,6,0,L|382:268,1,40,2|2,3:0|3:0,0:0:0:0:
481,246,13949,2,0,L|486:199,1,40,0|2,3:0|3:0,0:0:0:0:
370,199,14163,6,0,L|364:142,1,40,2|0,3:0|0:0,0:0:0:0:
482,116,14377,2,0,L|488:59,1,40,0|0,3:0|3:0,0:0:0:0:
346,41,14592,5,0,3:0:0:0:
329,33,14699,1,10,3:0:0:0:
259,57,14806,1,8,3:0:0:0:
72,131,15021,5,10,3:0:0:0:
123,40,15128,1,8,3:0:0:0:
189,120,15235,1,8,3:0:0:0:
149,292,15449,6,0,P|104:259|50:276,1,100,6|0,3:0|0:0,0:0:0:0:
143,305,15771,2,0,L|250:295,1,100,2|0,0:0|0:0,0:0:0:0:
359,244,16092,2,0,P|354:293|349:345,2,100,2|0|0,0:0|3:0|0:0,0:0:0:0:
459,45,16735,2,0,P|497:99|455:177,1,150,8|0,3:0|0:0,0:0:0:0:
382,166,17163,6,0,L|284:135,1,100,2|0,3:0|0:0,0:0:0:0:
383,144,17485,2,0,L|285:175,1,100,2|0,3:0|0:0,0:0:0:0:
208,127,17806,2,0,P|149:164|69:122,1,150,2|2,0:0|0:0,0:0:0:0:
90,142,18235,2,0,L|86:93,1,50
199,319,18449,2,0,P|206:294|204:248,1,50,10|0,3:0|0:0,0:0:0:0:
116,310,18663,2,0,P|117:285|124:261,1,50,2|0,0:0|0:0,0:0:0:0:
302,238,18878,6,0,L|414:228,1,100,2|0,3:0|0:0,0:0:0:0:
433,302,19199,2,0,P|397:308|382:292,1,50,2|8,0:0|3:0,0:0:0:0:
457,302,19413,1,0,0:0:0:0:
479,305,19521,1,0,0:0:0:0:
512,173,19735,1,0,3:0:0:0:
489,173,19842,1,0,0:0:0:0:
466,176,19950,1,0,0:0:0:0:
198,59,20163,2,0,P|242:29|301:48,1,100,8|0,3:0|0:0,0:0:0:0:
170,205,20592,5,2,3:0:0:0:
156,195,20699,1,2,0:0:0:0:
137,203,20806,1,2,0:0:0:0:
117,194,20913,1,2,3:0:0:0:
82,216,21021,5,10,3:0:0:0:
122,172,21128,1,2,0:0:0:0:
171,216,21235,1,2,3:0:0:0:
218,162,21342,1,2,0:0:0:0:
240,265,21449,5,2,3:0:0:0:
267,293,21556,1,2,0:0:0:0:
245,326,21663,1,2,0:0:0:0:
276,350,21770,1,2,0:0:0:0:
377,298,21878,5,10,3:0:0:0:
370,355,21985,5,2,0:0:0:0:
395,322,22092,5,2,0:0:0:0:
392,351,22199,5,0,0:0:0:0:
417,344,22306,6,0,L|429:191,2,150,6|2|2,3:0|0:0|0:0,0:0:0:0:
490,373,23163,1,0,3:0:0:0:
512,299,23378,1,0,0:0:0:0:
353,112,23592,1,8,3:0:0:0:
353,112,23806,2,0,P|333:133|331:159,1,50,2|0,0:0|0:0,0:0:0:0:
274,52,24021,6,0,L|151:33,1,100,2|0,3:0|0:0,0:0:0:0:
117,82,24342,2,0,L|134:192,1,100,2|0,3:0|0:0,0:0:0:0:
191,236,24663,2,0,L|289:220,1,100,2|0,0:0|3:0,0:0:0:0:
348,266,24984,2,0,L|331:376,1,100,2|0,0:0|0:0,0:0:0:0:
332,364,25306,2,0,L|276:355,1,50,10|0,3:0|0:0,0:0:0:0:
418,325,25521,2,0,L|474:315,1,50,2|0,0:0|0:0,0:0:0:0:
211,314,25735,6,0,L|106:339,1,100,2|0,3:0|0:0,0:0:0:0:
58,281,26056,2,0,P|84:264|124:263,1,50,2|8,0:0|3:0,0:0:0:0:
39,291,26271,1,0,0:0:0:0:
19,285,26378,1,0,0:0:0:0:
114,145,26592,1,0,3:0:0:0:
134,139,26699,1,0,0:0:0:0:
153,149,26806,1,0,0:0:0:0:
432,246,27021,2,0,L|438:135,1,100,8|0,3:0|0:0,0:0:0:0:
317,17,27449,6,0,P|266:62|307:163,1,150,2|2,3:0|3:0,0:0:0:0:
287,148,27878,1,10,3:0:0:0:
306,162,27985,1,2,0:0:0:0:
323,214,28092,1,2,0:0:0:0:
298,282,28199,1,2,0:0:0:0:
222,304,28306,5,2,3:0:0:0:
207,297,28413,1,0,0:0:0:0:
193,289,28521,1,0,0:0:0:0:
103,264,28628,5,2,0:0:0:0:
90,271,28735,2,0,P|151:276|213:191,1,150,10|0,3:0|0:0,0:0:0:0:
194,144,29163,5,6,3:0:0:0:
74,176,29485,1,0,0:0:0:0:
81,183,29592,1,8,3:0:0:0:
120,92,29806,2,0,L|63:82,1,40
126,101,30021,1,0,3:0:0:0:
103,10,30235,1,0,0:0:0:0:
227,62,30449,2,0,P|263:46|335:49,1,80,8|0,3:0|0:0,0:0:0:0:
304,49,30771,1,0,0:0:0:0:
306,56,30878,6,0,L|324:171,1,80,0|0,3:0|0:0,0:0:0:0:
312,153,31199,1,0,3:0:0:0:
321,170,31306,1,8,3:0:0:0:
429,109,31521,1,0,0:0:0:0:
434,117,31628,1,0,0:0:0:0:
425,146,31735,1,0,3:0:0:0:
430,154,31842,1,0,0:0:0:0:
425,184,31949,1,0,0:0:0:0:
473,265,32163,1,8,3:0:0:0:
355,321,32378,1,0,0:0:0:0:
359,329,32485,1,0,0:0:0:0:
362,337,32592,6,0,P|321:323|258:329,1,80,0|0,3:0|0:0,0:0:0:0:
278,333,32913,2,0,L|281:382,1,40,0|8,3:0|3:0,0:0:0:0:
165,250,33235,2,0,L|168:155,2,80,0|0|0,0:0|3:0|0:0,0:0:0:0:
19,369,33878,1,8,3:0:0:0:
19,369,34092,1,0,0:0:0:0:
22,356,34199,1,0,0:0:0:0:
27,344,34306,5,0,3:0:0:0:
89,204,34628,1,0,0:0:0:0:
89,204,34735,1,8,3:0:0:0:
177,243,34949,1,0,0:0:0:0:
337,205,35163,1,0,3:0:0:0:
361,116,35378,1,0,0:0:0:0:
282,130,35592,1,8,3:0:0:0:
278,149,35806,2,0,L|237:138,1,40
429,181,36021,6,0,L|521:165,1,80,2|0,3:1|0:0,0:0:0:0:
512,181,36342,2,0,L|433:167,1,80,0|0,3:0|0:0,0:0:0:0:
350,276,36663,2,0,P|424:309|462:239,1,160
344,286,37306,1,8,3:0:0:0:
197,226,37521,1,0,0:0:0:0:
186,237,37628,1,0,0:0:0:0:
184,251,37735,5,0,3:0:0:0:
224,343,37949,1,0,0:0:0:0:
261,274,38163,1,8,3:0:0:0:
146,319,38377,1,0,0:0:0:0:
146,319,38485,1,0,0:0:0:0:
34,273,38699,1,0,0:0:0:0:
34,273,38806,1,0,0:0:0:0:
56,383,39021,2,0,L|68:345,1,40,8|0,3:0|0:0,0:0:0:0:
107,241,39235,2,0,L|119:203,1,40
72,53,39449,6,0,P|33:71|27:121,1,80,0|0,3:0|0:0,0:0:0:0:
22,104,39771,1,0,3:0:0:0:
22,104,39878,1,8,3:0:0:0:
219,103,40092,2,0,L|283:96,1,40,0|0,3:0|0:0,0:0:0:0:
207,95,40306,1,0,3:0:0:0:
307,31,40521,2,0,P|353:27|374:71,2,80,0|8|0,0:0|3:0|0:0,0:0:0:0:
333,148,41163,6,0,L|339:252,1,80,0|0,3:0|0:0,0:0:0:0:
343,236,41485,1,0,3:0:0:0:
349,244,41592,1,8,3:0:0:0:
407,338,41806,1,0,0:0:0:0:
401,346,41913,1,0,0:0:0:0:
430,188,42235,5,0,0:0:0:0:
319,158,42449,1,8,3:0:0:0:
148,226,42663,2,0,L|138:293,1,40
206,358,42878,6,0,P|224:293|189:270,1,80,4|0,3:0|0:0,0:0:0:0:
214,290,43199,1,0,3:0:0:0:
217,297,43306,1,8,3:0:0:0:
78,326,43521,1,0,0:0:0:0:
68,321,43628,1,0,3:0:0:0:
58,324,43735,1,0,3:0:0:0:
133,384,43949,1,0,0:0:0:0:
137,276,44163,1,8,3:0:0:0:
60,130,44378,1,0,0:0:0:0:
27,220,44592,6,0,P|64:207|135:194,1,80,0|0,3:0|0:0,0:0:0:0:
111,202,44913,1,0,3:0:0:0:
116,208,45021,1,8,3:0:0:0:
216,136,45235,1,0,0:0:0:0:
223,139,45342,1,0,0:0:0:0:
230,139,45449,1,0,3:0:0:0:
237,137,45556,1,0,0:0:0:0:
244,134,45663,1,0,0:0:0:0:
334,215,45878,2,0,P|361:218|398:239,1,40,8|0,3:0|0:0,0:0:0:0:
474,107,46092,2,0,P|501:104|538:83,1,40
352,60,46306,6,0,L|340:-3,1,40,0|0,3:0|0:0,0:0:0:0:
376,82,46521,1,0,0:0:0:0:
375,83,46628,1,0,3:0:0:0:
376,82,46735,1,8,3:0:0:0:
258,35,46949,1,0,0:0:0:0:
258,35,47056,1,0,3:0:0:0:
157,127,47271,1,0,0:0:0:0:
157,127,47378,2,0,P|114:112|59:96,2,80,0|8|0,0:0|3:0|0:0,0:0:0:0:
259,244,48021,6,0,L|253:345,1,80,0|0,3:0|0:0,0:0:0:0:
258,330,48342,1,0,0:0:0:0:
261,337,48449,1,8,3:0:0:0:
164,271,48663,1,0,0:0:0:0:
157,274,48770,1,0,0:0:0:0:
151,270,48878,1,0,3:0:0:0:
52,360,49092,2,0,P|25:363|6:368,1,40,0|0,0:0|3:0,0:0:0:0:
58,368,49306,1,8,3:0:0:0:
63,260,49521,2,0,L|53:212,1,40
111,148,49735,6,0,B|108:101|123:126|121:70,1,80,2|0,3:1|0:0,0:0:0:0:
68,12,50056,2,0,P|35:45|45:78,1,80,0|0,3:0|0:0,0:0:0:0:
131,61,50378,2,0,B|166:43|166:43|213:62,2,80,0|0|0,0:0|3:0|0:0,0:0:0:0:
278,120,51021,2,0,L|300:17,1,80,8|0,3:0|0:0,0:0:0:0:
362,16,51342,1,0,0:0:0:0:
362,16,51449,6,0,P|398:33|443:40,1,80,0|0,3:0|0:0,0:0:0:0:
464,109,51771,2,0,P|424:115|388:132,1,80,0|0,3:0|0:0,0:0:0:0:
440,216,52092,2,0,L|446:303,2,80,0|0|0,0:0|3:0|0:0,0:0:0:0:
436,306,52735,1,8,3:0:0:0:
494,361,52949,1,0,0:0:0:0:
295,326,53163,6,0,L|199:309,1,80,2|0,3:0|0:0,0:0:0:0:
212,318,53485,1,0,3:0:0:0:
207,323,53592,1,8,3:0:0:0:
53,212,53806,2,0,L|44:151,2,40,2|0|0,3:0|3:0|3:0,0:0:0:0:
42,313,54235,5,0,0:0:0:0:
150,228,54449,1,8,3:0:0:0:
338,204,54663,1,0,0:0:0:0:
494,359,54878,5,2,3:0:0:0:
426,318,55092,1,0,0:0:0:0:
423,297,55199,1,0,3:0:0:0:
421,276,55306,1,8,3:0:0:0:
489,174,55521,1,0,0:0:0:0:
489,174,55735,2,0,L|496:88,1,80,0|0,3:0|0:0,0:0:0:0:
378,48,56163,2,0,L|385:134,1,80,8|0,3:0|0:0,0:0:0:0:
388,38,56592,1,0,3:0:0:0:
96,273,58092,1,2,0:0:0:0:
96,273,58199,1,2,0:0:0:0:
29,333,58306,6,0,B|77:279|207:298|149:405|292:381,1,255.000004863739,6|0,3:0|0:0,0:0:0:0:
149,363,58735,2,0,L|73:388,1,50,8|0,3:0|0:0,0:0:0:0:
263,263,58949,6,0,P|348:228|414:368,1,269.999991760254,6|0,3:0|0:0,0:0:0:0:
397,372,59378,2,0,P|401:339|423:301,1,59.9999981689454,2|0,3:0|3:0,0:0:0:0:
473,169,59592,1,10,3:0:0:0:
464,97,59699,1,0,3:0:0:0:
455,25,59806,6,0,P|416:156|281:132,1,300,6|0,3:0|0:0,0:0:0:0:
296,132,60235,1,0,3:0:0:0:
106,108,60449,6,0,L|94:34,1,69.9999978637696,8|0,3:0|0:0,0:0:0:0:
116,118,60663,1,0,3:0:0:0:
192,171,60878,6,0,L|206:97,1,69.9999978637696,8|0,3:0|0:0,0:0:0:0:
197,183,61092,1,2,3:0:0:0:
135,308,61306,1,10,3:0:0:0:
73,270,61413,1,8,3:0:0:0:
22,328,61521,6,0,P|121:266|268:282,1,269.999991760254,14|0,3:0|0:0,0:0:0:0:
253,285,61949,1,0,3:0:0:0:
99,173,62163,2,0,P|86:134|102:100,1,69.9999978637696,8|0,3:0|0:0,0:0:0:0:
55,6,62378,6,0,B|64:154|158:64|149:230,1,255.000004863739,6|0,3:0|0:0,0:0:0:0:
136,220,62806,1,2,3:0:0:0:
280,80,63021,1,10,3:0:0:0:
415,145,63235,6,0,L|400:386,1,240,6|0,3:0|0:0,0:0:0:0:
410,376,63663,2,0,L|495:363,1,69.9999978637696
296,232,63878,1,8,3:0:0:0:
74,352,64199,1,0,3:0:0:0:
74,352,64306,1,0,3:0:0:0:
48,281,64413,1,8,3:0:0:0:
24,209,64521,1,2,3:0:0:0:
182,100,64735,5,10,3:0:0:0:
188,118,64842,1,0,0:0:0:0:
186,137,64949,1,0,0:0:0:0:
340,44,65163,6,0,L|453:21,1,64.9999970245363,6|0,3:0|0:0,0:0:0:0:
464,161,65378,1,0,0:0:0:0:
464,161,65485,1,0,3:0:0:0:
388,137,65592,1,8,3:0:0:0:
405,325,65806,5,0,0:0:0:0:
489,261,66021,1,0,3:0:0:0:
489,261,66128,1,0,0:0:0:0:
489,261,66235,1,0,0:0:0:0:
305,194,66449,5,8,3:0:0:0:
327,287,66663,1,2,0:1:0:0:
314,280,66771,1,2,0:0:0:0:
255,334,66878,6,0,B|186:294|195:359|84:318,1,129.999994049073,2|0,3:0|0:0,0:0:0:0:
23,155,67306,2,0,P|97:150|108:218,1,129.999994049073,8|0,3:0|0:0,0:0:0:0:
27,278,67735,1,0,3:0:0:0:
27,270,67842,1,0,0:0:0:0:
33,273,67949,1,0,0:0:0:0:
115,323,68163,1,8,3:0:0:0:
247,172,68378,2,0,L|265:84,1,64.9999970245363
234,181,68592,6,0,L|271:365,1,129.999994049073,2|0,3:0|0:0,0:0:0:0:
332,239,68913,2,0,P|384:201|467:236,1,129.999994049073
471,328,69235,2,0,P|419:366|336:331,1,129.999994049073,0|0,0:0|3:0,0:0:0:0:
477,336,69663,1,0,0:0:0:0:
497,118,69878,1,8,3:0:0:0:
476,100,69985,1,0,0:0:0:0:
453,114,70092,1,0,0:0:0:0:
415,92,70199,1,2,0:0:0:0:
368,112,70306,6,0,L|229:94,1,129.999994049073,2|0,3:0|0:0,0:0:0:0:
342,199,70628,1,0,3:0:0:0:
342,199,70735,2,0,L|263:215,1,64.9999970245363,8|0,3:0|0:0,0:0:0:0:
430,253,70949,5,2,0:0:0:0:
379,313,71056,1,2,0:0:0:0:
283,339,71163,6,0,P|259:321|213:301,1,64.9999970245363,2|8,3:0|3:0,0:0:0:0:
10,309,71378,2,0,P|37:298|86:291,1,64.9999970245363,2|0,0:0|0:0,0:0:0:0:
145,377,71592,5,10,3:0:0:0:
152,285,71699,1,10,3:0:0:0:
110,221,71806,1,10,3:0:0:0:
87,179,71913,1,2,3:0:0:0:
137,83,72021,6,0,B|211:10|364:3|438:40|426:184|294:182,1,425.000008106232,6|0,3:0|0:0,0:0:0:0:
212,187,72663,6,0,B|366:166|325:343|494:301,1,269.999991760254,14|0,3:0|0:0,0:0:0:0:
428,296,73092,2,0,L|437:201,1,69.9999978637696,2|0,3:0|0:0,0:0:0:0:
248,284,73306,1,10,3:0:0:0:
172,292,73413,1,8,3:0:0:0:
96,300,73521,6,0,B|18:137|49:6|49:6,1,300,14|0,3:0|0:0,0:0:0:0:
59,20,73949,5,0,3:0:0:0:
58,46,74056,1,0,3:0:0:0:
65,22,74163,1,0,3:0:0:0:
64,48,74270,1,0,3:0:0:0:
141,27,74378,5,0,3:0:0:0:
201,77,74485,1,8,3:0:0:0:
268,35,74592,2,0,P|298:23|356:9,1,69.9999978637696,8|0,3:0|3:0,0:0:0:0:
447,120,74806,5,2,3:0:0:0:
465,111,74913,1,0,0:0:0:0:
499,161,75021,5,10,3:0:0:0:
412,117,75128,1,8,3:0:0:0:
333,189,75235,6,0,B|263:223|221:236|256:127|88:152|104:250|159:295|30:294,1,359.999989013672,14|0,3:0|3:0,0:0:0:0:
341,200,75878,1,8,3:0:0:0:
141,16,76092,6,0,P|174:142|191:239,1,170.000003242493,6|0,3:0|3:0,0:0:0:0:
171,180,76413,1,0,3:0:0:0:
170,190,76521,1,2,3:0:0:0:
210,96,76628,1,8,3:0:0:0:
293,126,76735,1,10,3:0:0:0:
309,112,76842,1,8,3:0:0:0:
397,145,76949,6,0,P|451:103|441:227,1,240,6|0,3:0|0:0,0:0:0:0:
413,229,77378,2,0,L|428:315,1,69.9999978637696,0|0,3:0|0:0,0:0:0:0:
254,203,77592,1,8,3:0:0:0:
254,203,77699,2,0,P|222:185|168:205,1,69.9999978637696,0|0,3:0|0:0,0:0:0:0:
386,157,77913,1,8,3:0:0:0:
386,157,78021,1,0,3:0:0:0:
327,321,78235,5,0,0:0:0:0:
299,307,78342,1,8,3:0:0:0:
235,345,78449,1,0,0:0:0:0:
166,377,78556,1,8,3:0:0:0:
134,362,78663,1,10,3:0:0:0:
132,355,78771,1,0,3:0:0:0:
152,262,78878,6,0,L|132:124,1,129.999994049073,6|0,3:0|0:0,0:0:0:0:
48,86,79199,1,0,0:0:0:0:
48,86,79306,2,0,P|37:141|55:162,1,64.9999970245363,8|0,3:0|0:0,0:0:0:0:
150,41,79521,2,0,L|221:25,1,64.9999970245363
225,37,79735,1,0,3:0:0:0:
279,149,79949,2,0,L|350:165,1,64.9999970245363
270,158,80163,1,8,3:0:0:0:
431,62,80378,1,2,0:1:0:0:
454,98,80485,1,2,0:0:0:0:
451,150,80592,6,0,P|445:230|452:305,1,129.999994049073,2|0,3:0|0:0,0:0:0:0:
280,160,81021,2,0,P|286:80|279:5,1,129.999994049073,8|0,3:0|0:0,0:0:0:0:
114,176,81449,1,0,3:0:0:0:
107,192,81556,1,0,0:0:0:0:
125,197,81663,1,0,0:0:0:0:
131,180,81770,1,0,0:0:0:0:
119,189,81878,1,8,3:0:0:0:
147,232,81985,1,0,0:0:0:0:
112,275,82092,1,0,0:0:0:0:
159,326,82199,1,0,0:0:0:0:
159,326,82306,6,0,L|315:287,1,129.999994049073,2|0,3:0|0:0,0:0:0:0:
483,346,82735,2,0,P|433:382|342:353,1,129.999994049073,8|0,3:0|0:0,0:0:0:0:
389,175,83163,2,0,L|399:29,1,129.999994049073,0|0,3:0|0:0,0:0:0:0:
423,68,83485,1,0,0:0:0:0:
441,60,83592,1,8,3:0:0:0:
308,207,83806,1,2,0:0:0:0:
273,184,83913,1,2,0:0:0:0:
205,196,84021,6,0,B|134:222|159:170|72:195,1,129.999994049073,2|0,3:0|0:0,0:0:0:0:
107,59,84342,1,0,0:0:0:0:
99,47,84449,2,0,P|167:64|172:133,1,129.999994049073,8|0,3:0|0:0,0:0:0:0:
368,317,84878,5,2,3:0:0:0:
346,295,84985,1,0,3:0:0:0:
321,239,85092,1,2,0:0:0:0:
345,165,85199,1,8,3:0:0:0:
417,106,85306,5,10,3:0:0:0:
449,149,85413,1,10,3:0:0:0:
467,119,85521,1,10,3:0:0:0:
483,138,85628,1,2,3:0:0:0:
494,124,85735,6,0,P|441:131|336:83,2,170.000003242493,6|0|0,3:0|0:0|0:0,0:0:0:0:
235,23,86378,6,0,B|182:248|311:132|278:374,1,359.999989013672,6|0,3:0|0:0,0:0:0:0:
171,311,87021,1,8,3:0:0:0:
163,321,87128,1,8,3:0:0:0:
156,331,87235,1,8,3:0:0:0:
345,224,87449,6,0,P|246:168|100:121,1,255.000004863739,6|2,3:0|0:0,0:0:0:0:
116,134,87878,1,0,0:0:0:0:
333,231,88092,6,0,L|508:196,1,170.000003242493,6|0,3:0|0:0,0:0:0:0:
491,206,88413,1,0,0:0:0:0:
501,211,88521,1,8,3:0:0:0:
346,40,88735,1,8,3:0:0:0:
346,40,88842,1,8,3:0:0:0:
336,114,88949,1,10,3:0:0:0:
344,127,89056,1,2,0:0:0:0:
340,133,89163,6,0,B|265:91|265:91|157:103,1,170.000003242493,6|0,3:0|0:0,0:0:0:0:
173,178,89485,2,0,B|248:220|248:220|356:208,1,170.000003242493,2|0,0:0|0:0,0:0:0:0:
297,335,89806,6,0,B|231:299|231:299|143:309,1,150.000005722046,6|0,3:0|0:0,0:0:0:0:
169,322,90128,1,0,3:0:0:0:
158,328,90235,1,0,3:0:0:0:
110,318,90342,1,8,3:0:0:0:
58,268,90449,1,8,3:0:0:0:
72,195,90556,1,8,3:0:0:0:
71,112,90663,6,0,B|25:127|-10:98|-10:98|45:113|81:88|81:88|171:160|245:144|286:147|321:103|320:38|270:6|209:18|188:76|215:130|215:130|252:183|268:236|268:236|326:200|398:194|421:206|421:206|383:239|338:226,1,960,14|0,3:0|0:0,0:0:0:0:
336,320,108021,6,0,P|374:185|438:61,1,279.999991455078,6|8,0:0|3:0,0:0:0:0:
316,149,108663,2,0,P|375:186|427:232,2,139.999995727539,2|0|0,3:0|0:0|0:0,0:0:0:0:
87,54,109306,2,0,B|123:63|123:63|145:118,1,69.9999978637696,10|0,3:0|0:0,0:0:0:0:
0,80,109521,6,0,L|321:72,1,279.999991455078,2|0,0:0|0:0,0:0:0:0:
267,80,110056,1,0,3:0:0:0:
279,88,110163,1,8,3:0:0:0:
180,165,110378,1,0,3:0:0:0:
183,180,110485,1,0,3:0:0:0:
187,194,110592,1,0,3:0:0:0:
281,300,110806,1,0,3:0:0:0:
272,308,111021,2,0,L|177:293,1,69.9999978637696,10|0,3:0|0:0,0:0:0:0:
147,349,111235,2,0,L|65:357,1,69.9999978637696,2|0,3:0|3:0,0:0:0:0:
306,219,111449,6,0,P|362:182|441:219,1,139.999995727539,2|0,3:0|0:0,0:0:0:0:
420,215,111771,1,0,3:0:0:0:
413,202,111878,1,8,3:0:0:0:
258,100,112092,2,0,B|211:-8|38:34|-4:192,1,349.999989318848,2|0,0:0|0:0,0:0:0:0:
12,175,112735,2,0,L|141:157,1,69.9999978637696,10|0,3:0|0:0,0:0:0:0:
20,255,112949,2,0,L|149:237,1,69.9999978637696,2|0,0:0|0:0,0:0:0:0:
193,348,113163,6,0,L|216:179,1,139.999995727539,0|0,3:0|0:0,0:0:0:0:
220,222,113485,1,0,3:0:0:0:
227,235,113592,1,8,3:0:0:0:
375,290,113806,2,0,L|367:192,1,69.9999978637696,0|0,3:0|0:0,0:0:0:0:
366,298,114021,1,0,3:0:0:0:
479,29,114235,6,0,P|453:14|369:16,1,69.9999978637696,2|0,0:0|3:0,0:0:0:0:
440,162,114449,2,0,P|465:146|506:73,1,69.9999978637696,10|0,3:0|0:0,0:0:0:0:
346,53,114663,2,0,P|346:83|389:154,1,69.9999978637696,2|0,0:0|0:0,0:0:0:0:
464,312,114878,6,0,P|362:257|180:246,1,279.999991455078,2|8,3:0|3:0,0:0:0:0:
211,253,115413,1,0,0:0:0:0:
211,253,115521,2,0,B|225:284|225:284|225:337,1,69.9999978637696,2|0,0:0|0:0,0:0:0:0:
152,350,115735,1,0,3:0:0:0:
80,318,115949,1,0,0:0:0:0:
281,113,116163,2,0,L|515:91,1,209.999993591309,10|0,3:0|0:0,0:0:0:0:
501,102,116592,6,0,P|465:130|436:124,1,69.9999978637696,2|0,3:0|0:0,0:0:0:0:
312,31,116806,1,0,0:0:0:0:
320,19,116913,1,0,3:0:0:0:
321,35,117021,1,8,3:0:0:0:
401,239,117235,2,0,P|296:202|180:216,1,209.999993591309,2|0,0:0|0:0,0:0:0:0:
205,220,117663,1,0,0:0:0:0:
0,157,117878,1,8,3:0:0:0:
47,214,118092,2,0,L|58:293,1,69.9999978637696,2|0,0:0|0:0,0:0:0:0:
281,374,118306,6,0,L|297:206,1,139.999995727539,2|0,3:0|0:0,0:0:0:0:
303,247,118628,1,0,3:0:0:0:
304,261,118735,1,8,3:0:0:0:
201,321,118949,2,0,P|162:306|133:308,1,69.9999978637696,2|0,0:0|0:0,0:0:0:0:
206,332,119163,1,0,3:0:0:0:
160,122,119378,1,0,0:0:0:0:
155,137,119485,1,0,3:0:0:0:
135,158,119592,2,0,P|220:127|366:112,1,209.999993591309,10|0,3:0|0:0,0:0:0:0:
326,116,120021,6,0,B|316:149|316:149|335:214,1,69.9999978637696,2|0,3:0|0:0,0:0:0:0:
403,178,120235,1,0,0:0:0:0:
417,173,120342,1,0,3:0:0:0:
432,169,120449,1,8,3:0:0:0:
494,66,120663,2,0,L|506:-5,1,69.9999978637696,2|0,3:0|3:0,0:0:0:0:
482,76,120878,1,0,3:0:0:0:
501,212,121092,5,2,0:0:0:0:
353,106,121306,1,10,3:0:0:0:
170,233,121521,2,0,P|180:263|179:233,1,69.9999978637696,2|0,0:0|0:0,0:0:0:0:
81,230,121735,6,0,B|162:168|309:190|220:296|474:327,1,419.999987182618,2|0,0:0|0:0,0:0:0:0:
396,211,123449,6,0,P|295:229|193:313,2,225.000008583069,6|2|2,3:0|0:0|0:0,0:0:0:0:
195,191,124306,1,0,3:0:0:0:
126,231,124521,1,0,0:0:0:0:
290,54,124735,2,0,B|345:14|345:14|512:47,1,225.000008583069,8|0,3:0|0:0,0:0:0:0:
367,122,125163,6,0,P|291:97|206:96,1,150.000005722046,2|0,3:0|0:0,0:0:0:0:
354,133,125485,2,0,L|387:289,1,150.000005722046,2|0,3:0|0:0,0:0:0:0:
229,349,125806,2,0,B|76:310|76:310|-28:338,1,225.000008583069,2|2,0:0|0:0,0:0:0:0:
9,339,126235,6,0,P|29:355|90:364,1,75.0000028610231
57,196,126449,2,0,P|32:205|-5:253,1,75.0000028610231,10|0,3:0|0:0,0:0:0:0:
156,309,126663,2,0,P|159:271|146:236,1,75.0000028610231,2|0,0:0|0:0,0:0:0:0:
263,29,126878,6,0,P|252:119|270:273,2,225.000008583069,2|2|0,3:0|0:0|0:0,0:0:0:0:
165,109,127735,2,0,L|76:79,1,75.0000028610231,0|0,3:0|0:0,0:0:0:0:
84,96,127949,1,0,0:0:0:0:
367,44,128163,2,0,L|481:24,1,75.0000028610231,8|0,3:0|0:0,0:0:0:0:
504,137,128378,1,0,0:0:0:0:
427,126,128485,1,0,0:0:0:0:
508,149,128592,6,0,P|495:225|489:319,1,150.000005722046,2|2,3:0|0:0,0:0:0:0:
498,293,128913,1,2,3:0:0:0:
417,244,129021,1,10,3:0:0:0:
347,281,129128,1,2,0:0:0:0:
409,322,129235,1,2,0:0:0:0:
412,336,129342,1,2,0:0:0:0:
346,370,129449,5,2,3:0:0:0:
297,376,129556,1,2,0:0:0:0:
246,336,129663,1,2,0:0:0:0:
169,317,129771,1,2,0:0:0:0:
102,363,129878,5,10,3:0:0:0:
87,270,129985,5,2,0:0:0:0:
64,348,130092,5,2,0:0:0:0:
46,307,130199,5,2,0:0:0:0:
25,341,130306,6,0,P|41:242|38:111,2,225.000008583069,6|2|2,3:0|0:0|0:0,0:0:0:0:
132,178,131163,1,0,3:0:0:0:
201,212,131378,1,0,0:0:0:0:
380,35,131592,1,8,3:0:0:0:
305,54,131806,2,0,P|263:62|221:62,1,75.0000028610231,2|0,0:0|0:0,0:0:0:0:
367,161,132021,6,0,P|442:135|534:136,1,150.000005722046,2|0,3:0|0:0,0:0:0:0:
381,169,132342,2,0,L|385:319,1,150.000005722046,2|0,0:0|0:0,0:0:0:0:
309,301,132663,2,0,B|243:270|243:270|79:316,1,225.000008583069,2|2,0:0|0:0,0:0:0:0:
107,317,133092,6,0,P|138:321|203:361,1,75.0000028610231
227,239,133306,2,0,P|215:209|217:133,1,75.0000028610231,10|0,3:0|0:0,0:0:0:0:
99,173,133521,2,0,P|79:198|12:234,1,75.0000028610231,2|0,0:0|0:0,0:0:0:0:
145,242,133735,6,0,P|259:200|404:180,2,225.000008583069,2|2|0,3:0|0:0|0:0,0:0:0:0:
197,122,134592,2,0,L|209:42,1,75.0000028610231,0|0,3:0|0:0,0:0:0:0:
197,38,134806,1,0,0:0:0:0:
117,322,135021,2,0,L|84:163,1,150.000005722046,8|0,3:0|0:0,0:0:0:0:
248,305,135449,5,2,3:0:0:0:
264,297,135556,1,2,0:0:0:0:
283,304,135663,1,2,0:0:0:0:
345,350,135771,1,2,3:0:0:0:
390,363,135878,1,10,3:0:0:0:
412,350,135985,1,2,0:0:0:0:
417,339,136092,1,2,0:0:0:0:
431,327,136199,1,2,0:0:0:0:
458,328,136306,2,0,L|476:237,1,75.0000028610231,2|0,3:0|0:0,0:0:0:0:
447,60,136521,5,0,0:0:0:0:
447,60,136628,1,2,3:0:0:0:
370,44,136735,1,10,3:0:0:0:
327,110,136842,1,2,0:0:0:0:
405,133,136949,1,2,0:0:0:0:
405,133,137056,1,0,0:0:0:0:
368,204,137163,6,0,L|211:197,1,120,4|0,3:0|0:0,0:0:0:0:
257,208,137592,1,8,3:0:0:0:
167,152,137806,1,0,0:0:0:0:
161,144,137913,1,0,0:0:0:0:
154,151,138020,1,0,3:0:0:0:
109,215,138235,2,0,L|98:282,1,40
101,204,138449,1,8,3:0:0:0:
5,148,138663,1,0,0:0:0:0:
141,48,138878,6,0,P|208:28|249:35,1,80,0|0,3:0|0:0,0:0:0:0:
217,28,139199,1,0,3:0:0:0:
217,28,139306,1,8,3:0:0:0:
337,115,139521,1,0,0:0:0:0:
344,119,139628,1,0,0:0:0:0:
372,112,139735,1,0,3:0:0:0:
379,116,139842,1,0,0:0:0:0:
407,108,139949,1,0,0:0:0:0:
470,158,140163,1,8,3:0:0:0:
489,57,140378,1,0,0:0:0:0:
372,211,140592,5,0,3:0:0:0:
491,307,140913,1,0,3:0:0:0:
488,324,141020,1,8,3:0:0:0:
389,361,141235,2,0,L|336:341,1,40
403,359,141449,1,0,3:0:0:0:
285,381,141663,1,0,0:0:0:0:
398,282,141878,2,0,L|404:175,1,80,8|0,3:0|0:0,0:0:0:0:
383,193,142199,1,0,0:0:0:0:
383,193,142306,6,0,P|338:171|289:187,1,80,0|0,3:0|0:0,0:0:0:0:
304,180,142628,1,0,0:0:0:0:
311,183,142735,1,8,3:0:0:0:
234,236,142949,1,0,0:0:0:0:
80,217,143163,1,0,3:0:0:0:
29,125,143378,1,0,0:0:0:0:
68,57,143592,1,8,3:0:0:0:
81,68,143806,2,0,L|137:76,1,40
225,142,144021,6,0,L|250:33,1,80,2|0,3:1|0:0,0:0:0:0:
219,77,144342,2,0,L|244:186,1,80,0|0,3:0|0:0,0:0:0:0:
326,69,144663,2,0,P|362:26|458:76,1,160
316,65,145306,1,8,3:0:0:0:
421,134,145521,1,0,0:0:0:0:
418,153,145628,1,0,0:0:0:0:
415,172,145735,5,0,3:0:0:0:
294,228,145949,2,0,L|310:284,1,40
297,214,146163,1,8,3:0:0:0:
407,295,146378,1,0,3:0:0:0:
407,295,146485,1,0,0:0:0:0:
291,368,146699,1,0,0:0:0:0:
291,368,146806,1,0,0:0:0:0:
408,384,147021,2,0,L|353:356,1,40,8|0,3:0|0:0,0:0:0:0:
232,300,147235,2,0,L|177:328,1,40
17,375,147449,6,0,L|7:231,1,120,0|0,3:0|3:0,0:0:0:0:
18,261,147878,1,8,3:0:0:0:
126,150,148092,1,0,3:0:0:0:
126,150,148199,1,0,0:0:0:0:
23,87,148413,1,0,0:0:0:0:
23,87,148521,1,0,0:0:0:0:
24,182,148735,1,8,3:0:0:0:
90,225,148949,1,0,0:0:0:0:
168,72,149163,5,0,3:0:0:0:
281,133,149378,1,0,0:0:0:0:
291,131,149485,1,0,3:0:0:0:
301,128,149592,1,8,3:0:0:0:
375,61,149806,1,0,0:0:0:0:
383,65,149913,1,0,3:0:0:0:
393,69,150020,1,0,3:0:0:0:
403,71,150127,1,0,0:0:0:0:
412,71,150234,1,0,0:0:0:0:
467,120,150449,1,8,3:0:0:0:
506,39,150663,2,0,L|499:-9,1,40
375,163,150878,6,0,P|387:199|394:271,1,80,4|0,3:0|0:0,0:0:0:0:
385,152,151199,2,0,P|373:188|366:260,1,80,0|0,3:0|0:0,0:0:0:0:
427,331,151521,2,0,L|291:311,1,120
321,322,151949,2,0,P|321:348|328:364,1,40,0|0,0:0|3:0,0:0:0:0:
213,313,152163,2,0,P|204:338|205:354,1,40,8|0,3:0|0:0,0:0:0:0:
99,237,152378,2,0,P|82:257|77:273,1,40
195,135,152592,6,0,L|305:125,1,80,0|0,3:0|0:0,0:0:0:0:
274,136,152913,1,0,0:0:0:0:
274,144,153020,1,8,3:0:0:0:
354,45,153235,1,0,0:0:0:0:
363,52,153342,1,0,0:0:0:0:
370,77,153449,1,0,3:0:0:0:
379,83,153556,1,0,0:0:0:0:
387,107,153663,1,0,0:0:0:0:
512,57,153878,2,0,P|492:52|474:44,1,40,8|0,3:0|0:0,0:0:0:0:
492,138,154092,2,0,P|472:142|454:150,1,40
347,178,154306,6,0,L|377:311,1,120,0|0,3:0|3:0,0:0:0:0:
379,288,154735,2,0,B|397:281|397:281|424:278,1,40,8|0,3:0|0:0,0:0:0:0:
279,240,154949,2,0,P|246:226|182:234,1,80,0|0,0:0|3:0,0:0:0:0:
175,312,155378,1,0,0:0:0:0:
5,236,155592,1,8,3:0:0:0:
48,329,155806,1,0,0:0:0:0:
108,237,156021,6,0,L|117:145,1,80,0|0,3:0|0:0,0:0:0:0:
106,151,156342,1,0,0:0:0:0:
106,162,156449,1,8,3:0:0:0:
15,88,156663,1,0,0:0:0:0:
13,80,156771,1,0,3:0:0:0:
11,72,156878,1,0,3:0:0:0:
137,25,157092,2,0,L|189:16,1,40,0|0,0:0|3:0,0:0:0:0:
133,35,157306,1,8,3:0:0:0:
250,97,157521,2,0,L|311:109,1,40
388,25,157735,6,0,P|416:56|432:108,1,80,2|0,3:1|0:0,0:0:0:0:
502,91,158056,2,0,P|474:122|458:174,1,80
386,202,158378,2,0,P|336:183|304:189,2,80,0|0|0,0:0|3:0|0:0,0:0:0:0:
467,309,159021,1,8,3:0:0:0:
472,303,159235,2,0,L|420:297,1,40
368,346,159449,6,0,L|272:353,1,80,0|0,3:0|0:0,0:0:0:0:
221,315,159771,1,0,0:0:0:0:
221,315,159878,2,0,L|211:226,1,80,8|0,3:0|0:0,0:0:0:0:
203,236,160199,1,0,0:0:0:0:
194,239,160306,1,0,3:0:0:0:
184,243,160413,1,0,0:0:0:0:
175,244,160521,1,0,0:0:0:0:
74,177,160735,1,8,3:0:0:0:
0,153,160949,1,0,0:0:0:0:
156,45,161163,6,0,L|172:141,1,80,2|0,3:0|0:0,0:0:0:0:
176,129,161485,1,0,3:0:0:0:
182,135,161592,1,8,3:0:0:0:
359,28,161806,2,0,L|410:14,2,40,2|0|0,3:0|3:0|3:0,0:0:0:0:
251,3,162235,5,0,0:0:0:0:
146,56,162449,1,8,3:0:0:0:
296,169,162663,1,0,0:0:0:0:
490,72,162878,5,2,3:0:0:0:
423,114,163092,1,0,0:0:0:0:
425,126,163199,1,0,3:0:0:0:
427,138,163306,1,8,3:0:0:0:
510,234,163521,1,0,0:0:0:0:
510,234,163735,2,0,L|500:328,1,80,0|0,3:0|0:0,0:0:0:0:
399,248,164163,2,0,L|316:236,1,80,8|0,3:0|0:0,0:0:0:0:
404,259,164592,1,0,3:0:0:0:
91,68,166092,1,2,0:0:0:0:
91,68,166199,1,2,0:0:0:0:
176,52,166306,6,0,B|118:54|46:138|111:165|80:220|28:244,1,255.000004863739,6|0,3:0|0:0,0:0:0:0:
118,168,166735,2,0,P|142:172|159:190,1,50,8|0,3:0|0:0,0:0:0:0:
283,34,166949,6,0,P|319:121|496:67,1,269.999991760254,6|0,3:0|0:0,0:0:0:0:
462,107,167378,2,0,L|477:42,1,59.9999981689454,2|0,3:0|0:0,0:0:0:0:
348,161,167592,1,10,3:0:0:0:
361,230,167699,1,0,3:0:0:0:
376,300,167806,6,0,P|239:266|164:384,1,300,6|0,3:0|0:0,0:0:0:0:
174,378,168235,1,0,3:0:0:0:
135,217,168449,6,0,L|18:225,1,69.9999978637696,8|0,3:0|0:0,0:0:0:0:
142,228,168663,1,0,3:0:0:0:
146,232,168771,1,8,3:0:0:0:
199,173,168878,1,8,3:0:0:0:
191,165,169092,6,0,P|176:124|157:90,1,69.9999978637696,2|0,3:0|0:0,0:0:0:0:
96,58,169306,2,0,P|80:89|68:122,1,69.9999978637696,10|0,3:0|0:0,0:0:0:0:
230,248,169521,6,0,L|502:204,1,269.999991760254,6|0,3:0|0:0,0:0:0:0:
491,217,169949,1,0,3:0:0:0:
312,133,170163,2,0,P|288:94|287:49,1,69.9999978637696,8|0,3:0|0:0,0:0:0:0:
331,6,170378,6,0,L|327:268,1,255.000004863739,6|0,3:0|0:0,0:0:0:0:
316,251,170806,1,2,3:0:0:0:
153,145,171021,1,10,3:0:0:0:
46,227,171235,6,0,P|131:231|262:354,1,240,6|0,3:0|0:0,0:0:0:0:
234,322,171663,2,0,L|162:328,1,69.9999978637696,0|0,3:0|0:0,0:0:0:0:
404,221,171878,1,8,3:0:0:0:
230,26,172199,1,0,3:0:0:0:
234,30,172306,1,0,3:0:0:0:
226,104,172413,1,8,3:0:0:0:
218,178,172520,1,8,3:0:0:0:
392,53,172735,5,8,3:0:0:0:
403,45,172842,1,0,0:0:0:0:
406,58,172949,1,0,0:0:0:0:
491,241,173163,6,0,L|416:225,1,64.9999970245363,6|0,3:0|0:0,0:0:0:0:
327,311,173378,1,0,0:0:0:0:
331,315,173485,1,0,3:0:0:0:
392,355,173592,1,8,3:0:0:0:
299,216,173806,5,0,0:0:0:0:
186,265,174020,1,0,3:0:0:0:
186,265,174128,1,0,0:0:0:0:
186,265,174235,1,0,0:0:0:0:
140,377,174449,5,8,3:0:0:0:
47,300,174663,1,2,0:1:0:0:
41,291,174771,1,2,0:0:0:0:
105,244,174878,6,0,B|58:186|130:191|73:106,1,129.999994049073,2|0,3:0|0:0,0:0:0:0:
116,248,175306,1,8,3:0:0:0:
195,137,175521,1,0,0:0:0:0:
208,143,175628,1,0,0:0:0:0:
264,91,175735,1,0,3:0:0:0:
286,88,175842,1,0,0:0:0:0:
308,84,175949,6,0,P|323:114|328:151,1,64.9999970245363
394,189,176163,2,0,P|378:219|374:256,1,64.9999970245363,8|0,3:0|0:0,0:0:0:0:
453,120,176378,2,0,L|523:150,1,64.9999970245363
277,247,176592,6,0,P|239:198|99:267,1,194.999991073609,2|0,3:0|0:0,0:0:0:0:
134,218,177021,2,0,L|149:294,1,64.9999970245363,8|0,3:0|0:0,0:0:0:0:
56,358,177235,1,0,0:0:0:0:
52,350,177342,1,0,0:0:0:0:
61,353,177449,1,0,3:0:0:0:
172,373,177663,5,0,0:0:0:0:
55,258,177878,1,8,3:0:0:0:
183,98,178092,1,0,0:0:0:0:
187,107,178199,1,0,0:0:0:0:
185,116,178306,5,2,3:0:0:0:
178,135,178413,1,2,0:0:0:0:
189,176,178521,1,2,0:0:0:0:
231,202,178628,1,2,3:0:0:0:
290,197,178735,5,10,3:0:0:0:
344,146,178842,1,2,0:0:0:0:
426,167,178949,1,2,0:0:0:0:
472,244,179056,1,2,0:0:0:0:
451,342,179163,2,0,P|412:318|355:315,1,97.4999955368044,2|0,3:0|0:0,0:0:0:0:
354,320,179378,2,0,L|371:392,1,64.9999970245363,2|0,0:0|0:0,0:0:0:0:
495,112,179592,5,10,3:0:0:0:
506,32,179699,1,10,3:0:0:0:
502,124,179806,1,10,3:0:0:0:
270,4,180021,6,0,B|214:180|335:134|279:298|279:298|149:275,1,425.000008106232,6|0,3:0|0:0,0:0:0:0:
4,208,180663,6,0,B|178:163|178:163|67:233,1,269.999991760254,14|0,3:0|0:0,0:0:0:0:
91,210,181092,2,0,L|92:127,1,69.9999978637696,10|0,3:0|3:0,0:0:0:0:
287,88,181306,1,10,3:0:0:0:
359,108,181413,1,8,3:0:0:0:
428,132,181521,6,0,P|319:149|366:302,1,300,14|0,3:0|0:0,0:0:0:0:
362,296,181949,1,0,3:0:0:0:
371,293,182056,1,0,0:0:0:0:
380,291,182163,1,8,3:0:0:0:
208,355,182378,1,2,3:0:0:0:
137,342,182485,1,10,3:0:0:0:
64,328,182592,6,0,L|52:222,1,69.9999978637696,10|2,3:0|3:0,0:0:0:0:
191,195,182806,1,2,3:0:0:0:
162,153,182913,1,0,3:0:0:0:
184,133,183021,1,10,3:0:0:0:
170,114,183128,1,8,3:0:0:0:
245,70,183235,6,0,L|528:111,1,269.999991760254,14|0,3:0|0:0,0:0:0:0:
500,115,183663,1,0,3:0:0:0:
335,44,183878,1,8,3:0:0:0:
106,247,184092,2,0,B|87:182|87:182|101:147|101:147|78:68,1,170.000003242493,6|0,3:0|3:0,0:0:0:0:
73,100,184413,1,0,3:0:0:0:
64,88,184521,1,2,3:0:0:0:
139,152,184628,1,8,3:0:0:0:
213,121,184735,1,10,3:0:0:0:
259,187,184842,1,8,3:0:0:0:
344,133,184949,6,0,P|451:103|441:236,1,240,6|0,3:0|0:0,0:0:0:0:
468,194,185378,2,0,L|371:203,1,69.9999978637696,0|0,3:0|0:0,0:0:0:0:
228,343,185592,6,0,P|221:308|203:263,1,69.9999978637696,8|0,3:0|3:0,0:0:0:0:
298,373,185806,1,0,0:0:0:0:
89,288,186021,1,8,3:0:0:0:
167,190,186235,5,0,0:0:0:0:
170,171,186342,1,10,3:0:0:0:
173,152,186449,1,10,3:0:0:0:
150,114,186556,5,2,0:0:0:0:
149,106,186637,5,0,0:0:0:0:
148,98,186717,5,0,0:0:0:0:
147,90,186797,5,0,0:0:0:0:
157,75,186878,6,0,L|330:55,1,129.999994049073,6|0,3:0|0:0,0:0:0:0:
416,10,187199,1,0,0:0:0:0:
416,10,187306,2,0,L|411:100,1,64.9999970245363,8|0,3:0|0:0,0:0:0:0:
487,155,187521,2,0,P|505:122|498:98,1,64.9999970245363
475,165,187735,1,0,3:0:0:0:
477,178,187842,1,0,0:0:0:0:
479,190,187949,1,0,0:0:0:0:
351,349,188163,1,8,3:0:0:0:
467,294,188378,1,2,0:1:0:0:
398,255,188485,1,2,0:0:0:0:
308,279,188592,6,0,P|229:269|155:268,1,129.999994049073,2|0,3:0|0:0,0:0:0:0:
13,356,189021,1,8,3:0:0:0:
60,250,189235,2,0,L|79:163,1,64.9999970245363
68,261,189449,1,0,3:0:0:0:
4,139,189663,1,0,0:0:0:0:
3,129,189770,1,0,0:0:0:0:
11,134,189878,1,8,3:0:0:0:
77,173,190092,1,0,0:0:0:0:
241,59,190306,5,2,3:0:0:0:
276,131,190521,1,0,0:0:0:0:
461,39,190735,5,8,3:0:0:0:
406,91,190949,1,2,0:0:0:0:
404,107,191056,1,2,0:0:0:0:
402,123,191163,1,2,3:0:0:0:
446,222,191378,2,0,P|481:208|526:207,1,64.9999970245363
436,217,191592,1,8,3:0:0:0:
362,321,191806,1,0,0:0:0:0:
341,313,191913,1,2,0:0:0:0:
274,350,192021,6,0,P|229:329|196:323,1,64.9999970245363,2|2,3:0|0:0,0:0:0:0:
89,374,192235,1,2,0:0:0:0:
59,358,192342,1,2,0:0:0:0:
34,306,192449,1,10,3:0:0:0:
26,243,192556,1,0,0:0:0:0:
59,195,192663,1,0,0:0:0:0:
112,142,192771,1,0,0:0:0:0:
131,64,192878,5,2,3:0:0:0:
121,51,192985,1,2,0:0:0:0:
48,90,193092,5,10,3:0:0:0:
41,105,193199,1,10,3:0:0:0:
122,152,193306,5,2,3:0:0:0:
190,114,193413,5,10,3:0:0:0:
255,177,193521,5,10,3:0:0:0:
337,122,193628,5,2,3:0:0:0:
420,204,193735,5,6,3:0:0:0:
420,204,193949,1,2,0:0:0:0:
420,204,194163,1,2,0:0:0:0:
286,51,194378,6,0,L|307:272,1,194.999991073609,6|0,3:0|0:0,0:0:0:0:
311,232,194806,1,8,3:0:0:0:
66,300,195128,1,8,3:0:0:0:
59,288,195235,1,8,3:0:0:0:
249,315,195449,6,0,P|404:328|424:395,1,194.999991073609,2|2,3:0|0:0,0:0:0:0:
399,341,195878,1,0,0:0:0:0:
503,86,196092,2,0,P|387:135|327:279,1,259.999988098145,4|0,3:0|0:0,0:0:0:0:
256,73,196735,1,8,3:0:0:0:
207,51,196842,1,8,3:0:0:0:
131,64,196949,1,10,3:0:0:0:
109,107,197056,1,2,3:0:0:0:
113,132,197163,6,0,P|163:200|172:303,2,165.000005035401,2|2|6,3:0|0:0|3:0,0:0:0:0:
422,266,198235,1,2,3:0:0:0:
363,295,198342,1,8,3:0:0:0:
335,284,198449,1,10,3:0:0:0:
307,285,198556,1,8,3:0:0:0:
302,294,198663,5,14,3:0:0:0:
312,319,199306,5,4,3:0:0:0:
391,344,199735,5,4,3:0:0:0:
482,271,200163,5,4,3:0:0:0:
386,133,200592,5,4,3:0:0:0:
311,155,200806,1,0,3:0:0:0:
311,162,200913,1,0,3:0:0:0:
311,169,201021,2,0,L|262:190,1,40,0|0,3:0|3:0,0:0:0:0:
204,78,201235,1,0,3:0:0:0:
157,61,201342,1,8,3:0:0:0:
88,63,201449,1,8,3:0:0:0:
85,74,201556,1,10,3:0:0:0:
28,122,201663,5,10,3:0:0:0:
59,164,201771,1,10,3:0:0:0:
72,238,201878,1,10,3:0:0:0:
44,309,201985,1,10,3:0:0:0:
97,370,202092,1,10,3:0:0:0:
182,340,202199,1,2,0:0:0:0:
239,248,202306,6,0,B|244:172|244:172|274:139|274:139|283:35,1,194.999991073609,6|0,3:0|0:0,0:0:0:0:
241,135,202735,1,8,3:0:0:0:
472,325,202949,2,0,B|418:246|418:246|291:289,1,194.999991073609,6|0,3:0|0:0,0:0:0:0:
334,284,203378,1,2,3:0:0:0:
501,211,203592,1,10,3:0:0:0:
499,199,203699,1,8,3:0:0:0:
489,207,203806,1,10,3:0:0:0:
300,81,204021,6,0,L|364:67,1,64.9999970245363,4|0,3:0|0:0,0:0:0:0:
369,75,204235,2,0,L|306:61,1,64.9999970245363,2|0,0:0|0:0,0:0:0:0:
104,131,204449,1,10,3:0:0:0:
179,40,204663,2,0,P|193:134|203:249,1,194.999991073609,6|0,3:0|0:0,0:0:0:0:
192,229,205092,2,0,L|156:242,2,32.4999985122681,2|0|0,0:0|0:0|0:0,0:0:0:0:
341,336,205306,1,10,3:0:0:0:
403,291,205413,1,10,3:0:0:0:
451,352,205521,1,10,3:0:0:0:
361,140,205735,5,6,3:0:0:0:
430,178,205949,1,2,0:0:0:0:
511,88,206163,2,0,L|502:13,1,64.9999970245363,10|0,3:0|0:0,0:0:0:0:
293,193,206378,6,0,P|215:127|112:196,1,194.999991073609,6|0,3:0|0:0,0:0:0:0:
145,164,206806,2,0,P|189:165|194:124,1,64.9999970245363,2|0,3:0|0:0,0:0:0:0:
55,38,207021,1,10,3:0:0:0:
37,110,207128,1,2,3:0:0:0:
42,31,207235,6,0,L|63:234,1,194.999991073609,6|0,3:0|0:0,0:0:0:0:
55,220,207663,2,0,B|27:201|27:201|-6:218,1,64.9999970245363
179,301,207878,1,8,3:0:0:0:
379,211,208199,1,0,0:0:0:0:
383,215,208306,1,0,3:0:0:0:
388,238,208413,1,0,3:0:0:0:
394,261,208521,2,0,P|361:272|331:309,1,64.9999970245363,2|0,3:0|0:0,0:0:0:0:
253,151,208735,2,0,P|276:172|307:183,1,64.9999970245363,10|0,3:0|0:0,0:0:0:0:
462,70,208949,2,0,L|355:35,1,64.9999970245363,2|0,0:0|0:0,0:0:0:0:
193,9,209163,6,0,P|151:75|93:78,1,129.999994049073,6|2,3:0|0:0,0:0:0:0:
107,73,209485,1,2,0:0:0:0:
40,31,209592,1,10,3:0:0:0:
0,202,209806,6,0,P|91:225|132:310,1,194.999991073609,6|0,3:0|0:0,0:0:0:0:
124,304,210235,2,0,B|96:301|96:301|59:323,1,64.9999970245363,2|0,3:0|3:0,0:0:0:0:
226,216,210449,1,10,3:0:0:0:
298,186,210556,1,2,3:0:0:0:
360,217,210663,1,2,3:0:0:0:
367,244,210771,1,2,3:0:0:0:
451,265,210878,6,0,L|473:199,1,64.9999970245363,6|0,3:0|0:0,0:0:0:0:
390,321,211092,1,2,3:0:0:0:
436,384,211199,1,2,3:0:0:0:
288,294,211413,1,2,3:0:0:0:
288,294,211520,1,6,3:0:0:0:
131,343,211842,5,8,3:0:0:0:
126,333,211949,1,2,3:0:0:0:
148,285,212056,1,0,3:0:0:0:
143,275,212163,2,0,L|155:212,1,64.9999970245363,10|0,3:0|0:0,0:0:0:0:
27,164,212378,2,0,L|15:101,1,64.9999970245363,10|0,3:0|0:0,0:0:0:0:
210,18,212592,5,6,3:0:0:0:
186,87,212806,1,2,0:0:0:0:
294,235,213021,1,10,3:0:0:0:
361,159,213235,2,0,P|407:104|523:165,1,194.999991073609,6|0,3:0|0:0,0:0:0:0:
465,190,213663,2,0,L|477:303,1,64.9999970245363,10|0,3:0|0:0,0:0:0:0:
276,150,213878,1,10,3:0:0:0:
191,178,213985,1,8,3:0:0:0:
108,210,214092,6,0,P|121:113|125:12,1,194.999991073609,14|0,3:0|0:0,0:0:0:0:
78,76,214521,1,8,3:0:0:0:
269,52,214735,1,2,0:0:0:0:
284,39,214842,1,0,0:0:0:0:
324,31,214949,1,8,3:0:0:0:
360,51,215056,1,8,3:0:0:0:
368,127,215163,6,0,P|377:158|383:205,3,64.9999970245363,8|4|0|0,3:0|3:0|3:0|3:0,0:0:0:0:
488,125,215592,5,10,3:0:0:0:
441,112,215700,1,10,3:0:0:0:
394,148,215807,1,10,3:0:0:0:
334,122,215914,1,0,0:0:0:0:
280,177,216021,6,0,P|146:116|83:192,1,225.000008583069,6|0,3:0|0:0,0:0:0:0:
111,158,216449,1,10,3:0:0:0:
284,307,216663,2,0,L|519:279,1,225.000008583069,2|0,0:0|0:0,0:0:0:0:
492,294,217092,2,0,L|399:284,1,75.0000028610231,2|0,0:0|0:0,0:0:0:0:
324,75,217306,1,10,3:0:0:0:
330,60,217413,1,2,0:0:0:0:
341,72,217521,1,2,0:0:0:0:
274,0,217735,6,0,L|312:246,1,225.000008583069,2|0,3:0|0:0,0:0:0:0:
317,209,218163,1,10,3:0:0:0:
60,174,218378,2,0,B|152:95|152:95|260:129,1,225.000008583069,2|0,0:0|0:0,0:0:0:0:
240,113,218806,2,0,L|221:225,1,75.0000028610231,2|0,0:0|0:0,0:0:0:0:
62,375,219021,1,10,3:0:0:0:
21,298,219128,1,2,0:0:0:0:
53,383,219235,1,2,0:0:0:0:
232,289,219449,6,0,P|295:258|341:269,1,85.0000016212464,2|0,3:0|0:0,0:0:0:0:
407,373,219663,1,2,0:0:0:0:
415,355,219771,1,2,0:0:0:0:
421,327,219878,1,10,3:0:0:0:
419,285,219985,1,2,0:0:0:0:
394,236,220092,1,2,0:0:0:0:
365,188,220199,1,2,0:0:0:0:
350,138,220306,1,2,3:0:0:0:
365,73,220413,1,2,0:0:0:0:
436,49,220521,5,2,0:0:0:0:
459,137,220628,5,2,0:0:0:0:
483,229,220735,6,0,B|356:150|345:276|199:177,1,300,10|0,3:0|0:0,0:0:0:0:
214,173,221163,6,0,L|218:82,1,75.0000028610231,2|0,3:0|0:0,0:0:0:0:
116,11,221378,1,0,0:0:0:0:
120,15,221485,1,0,0:0:0:0:
67,73,221592,1,8,3:0:0:0:
125,216,221806,1,0,0:0:0:0:
80,278,222021,5,2,3:0:0:0:
61,273,222128,1,0,3:0:0:0:
42,269,222235,1,0,3:0:0:0:
184,353,222449,1,10,3:0:0:0:
261,281,222556,1,10,3:0:0:0:
326,366,222663,1,10,3:0:0:0:
507,121,222878,6,0,P|456:202|350:161,1,225.000008583069,6|0,3:0|0:0,0:0:0:0:
364,163,223306,1,8,3:0:0:0:
420,286,223521,1,0,0:0:0:0:
234,211,223735,1,2,3:0:0:0:
217,216,223842,1,0,0:0:0:0:
200,221,223949,1,2,0:0:0:0:
129,162,224056,1,2,0:0:0:0:
92,206,224164,1,10,3:0:0:0:
37,173,224271,1,2,0:0:0:0:
1,221,224378,2,0,P|17:268|23:338,1,75.0000028610231,2|0,0:0|0:0,0:0:0:0:
167,347,224592,5,2,3:0:0:0:
231,308,224699,1,2,0:0:0:0:
286,365,224806,1,0,0:0:0:0:
347,318,224913,1,2,0:0:0:0:
367,326,225021,1,10,3:0:0:0:
386,334,225128,1,2,0:0:0:0:
406,341,225235,1,2,0:0:0:0:
471,170,225449,5,2,3:0:0:0:
433,148,225556,2,0,L|343:177,1,75.0000028610231,2|0,0:0|0:0,0:0:0:0:
244,78,225771,2,0,P|293:75|330:108,1,75.0000028610231,2|8,0:0|3:0,0:0:0:0:
226,207,225985,1,2,0:0:0:0:
148,220,226092,2,0,L|36:197,1,75.0000028610231,2|0,0:0|0:0,0:0:0:0:
7,43,226306,5,6,3:0:0:0:
30,30,226413,1,2,0:0:0:0:
78,66,226521,1,2,0:0:0:0:
95,57,226628,1,2,0:0:0:0:
165,21,226735,5,10,3:0:0:0:
219,90,226842,1,2,0:0:0:0:
304,29,226949,1,2,0:0:0:0:
480,213,227163,5,2,3:0:0:0:
431,179,227271,1,2,0:0:0:0:
369,229,227378,1,2,0:0:0:0:
283,177,227485,1,2,0:0:0:0:
193,244,227592,2,0,P|126:212|29:228,1,150.000005722046,10|0,3:0|0:0,0:0:0:0:
431,105,228021,6,0,L|439:274,1,170.000003242493,2|0,3:0|0:0,0:0:0:0:
436,287,228342,1,0,0:0:0:0:
434,300,228449,1,8,3:0:0:0:
481,363,228663,1,2,0:0:0:0:
304,301,228878,1,0,3:0:0:0:
291,311,228985,1,0,3:0:0:0:
109,366,229199,1,0,3:0:0:0:
94,288,229307,1,10,3:0:0:0:
80,211,229414,1,8,3:0:0:0:
66,132,229521,1,8,3:0:0:0:
258,25,229735,1,4,3:0:0:0:
258,25,230163,6,0,B|181:212|352:150|262:362,1,324.999985122681,6|0,3:0|0:0,0:0:0:0:
265,318,230806,1,8,3:0:0:0:
192,286,231021,1,10,3:0:0:0:
366,106,231235,5,8,3:0:0:0:
442,85,231342,1,8,3:0:0:0:
354,98,231449,6,0,P|290:19|111:101,1,284.999992389679,6|0,3:0|0:0,0:0:0:0:
142,60,231878,2,0,L|158:163,1,59.9999981689454,8|0,3:0|0:0,0:0:0:0:
392,306,232092,6,0,P|376:184|403:9,1,300,6|0,3:0|0:0,0:0:0:0:
410,23,232521,2,0,L|496:35,1,69.9999978637696,2|0,3:0|0:0,0:0:0:0:
276,241,232735,1,10,3:0:0:0:
254,314,232842,1,8,3:0:0:0:
259,223,232949,6,0,B|223:166|114:158|36:209|36:209|73:306,1,314.999990386963,14|0,3:0|0:0,0:0:0:0:
71,266,233378,1,0,0:0:0:0:
204,86,233592,6,0,L|224:4,1,80,8|0,3:0|0:0,0:0:0:0:
181,94,233806,1,0,3:0:0:0:
165,89,233913,1,8,3:0:0:0:
157,104,234021,1,8,3:0:0:0:
410,63,234235,1,10,3:0:0:0:
418,135,234342,1,8,3:0:0:0:
426,206,234449,1,10,3:0:0:0:
434,278,234556,1,8,3:0:0:0:
396,345,234663,6,0,B|282:252|282:252|95:335,1,314.999990386963,14|0,3:0|0:0,0:0:0:0:
139,330,235092,1,0,3:0:0:0:
1,238,235306,2,0,L|120:240,1,80,8|0,3:0|0:0,0:0:0:0:
237,20,235521,6,0,L|275:341,1,300,6|0,3:0|0:0,0:0:0:0:
261,309,235949,1,2,3:0:0:0:
145,185,236163,1,10,3:0:0:0:
380,129,236378,6,0,B|275:103|275:103|210:114|210:114|101:90,1,284.999992389679,14|0,3:0|0:0,0:0:0:0:
113,80,236806,2,0,B|149:63|149:63|192:91,1,80,0|0,3:0|0:0,0:0:0:0:
46,21,237021,1,8,3:0:0:0:
6,217,237342,1,0,3:0:0:0:
43,246,237449,1,0,3:0:0:0:
83,232,237556,1,8,3:0:0:0:
115,259,237663,1,8,3:0:0:0:
241,215,237878,1,8,3:0:0:0:
236,229,237985,1,0,0:0:0:0:
232,244,238092,1,0,0:0:0:0:
411,214,238306,6,0,L|511:188,1,75.0000028610231,6|0,3:0|0:0,0:0:0:0:
346,166,238521,1,0,0:0:0:0:
346,166,238628,1,0,3:0:0:0:
326,239,238735,1,8,3:0:0:0:
455,300,238949,5,0,0:0:0:0:
494,374,239163,1,0,3:0:0:0:
494,374,239271,1,0,0:0:0:0:
494,374,239378,1,0,0:0:0:0:
371,327,239592,5,8,3:0:0:0:
302,367,239806,1,2,0:1:0:0:
288,371,239913,1,2,0:0:0:0:
226,320,240021,6,0,B|134:281|163:353|59:297,1,150.000005722046,2|0,3:0|0:0,0:0:0:0:
11,132,240449,1,8,3:0:0:0:
83,103,240663,2,0,L|101:27,1,75.0000028610231
92,113,240878,1,0,3:0:0:0:
207,27,241092,2,0,P|239:6|288:26,1,75.0000028610231
194,22,241306,1,8,3:0:0:0:
265,106,241521,1,0,0:0:0:0:
451,21,241735,6,0,L|493:255,2,225.000008583069,2|0|0,3:0|0:0|0:0,0:0:0:0:
383,62,242592,1,2,3:0:0:0:
371,55,242806,1,0,0:0:0:0:
324,137,243021,1,8,3:0:0:0:
392,248,243235,1,0,0:0:0:0:
274,357,243449,5,2,3:0:0:0:
248,343,243556,1,0,0:0:0:0:
229,342,243663,1,2,0:0:0:0:
218,349,243771,1,2,3:0:0:0:
148,378,243878,5,10,3:0:0:0:
113,315,243985,1,2,0:0:0:0:
145,250,244092,1,2,0:0:0:0:
158,259,244199,1,0,0:0:0:0:
227,217,244306,5,2,3:0:0:0:
300,203,244413,1,10,3:0:0:0:
373,187,244521,2,0,P|408:172|470:175,1,75.0000028610231,2|0,0:0|0:0,0:0:0:0:
277,17,244735,5,10,3:0:0:0:
252,43,244842,1,2,0:0:0:0:
268,58,244949,1,10,3:0:0:0:
259,69,245056,1,0,0:0:0:0:
192,118,245163,6,0,B|97:120|144:56|40:56|40:56|-15:98|21:231|88:172|131:264|66:365,1,474.999987316132,6|0,3:0|0:0,0:0:0:0:
70,316,245806,6,0,B|35:298|-2:320|-2:320|37:247|173:239|257:298,1,300,14|0,3:0|0:0,0:0:0:0:
192,277,246235,2,0,P|192:324|209:363,1,80,2|0,3:0|0:0,0:0:0:0:
359,69,246449,1,10,3:0:0:0:
430,45,246556,1,8,3:0:0:0:
467,121,246663,6,0,B|416:157|272:103|397:45|249:-16|158:47,1,314.999990386963,14|0,3:0|0:0,0:0:0:0:
205,38,247092,1,0,3:0:0:0:
56,173,247306,2,0,P|138:157|176:175,1,80,0|0,3:0|0:0,0:0:0:0:
372,140,247521,5,2,3:0:0:0:
422,197,247628,1,2,0:0:0:0:
424,229,247735,1,2,3:0:0:0:
413,244,247842,1,2,3:0:0:0:
405,241,247949,1,2,0:0:0:0:
348,290,248056,5,8,3:0:0:0:
291,240,248163,1,10,3:0:0:0:
248,303,248271,1,8,3:0:0:0:
189,251,248378,6,0,P|169:173|0:251,1,314.999990386963,14|0,3:0|0:0,0:0:0:0:
11,225,248806,1,0,3:0:0:0:
161,126,249021,1,8,3:0:0:0:
391,362,249235,6,0,P|400:208|424:41,1,300,6|0,3:0|0:0,0:0:0:0:
483,114,249663,1,10,3:0:0:0:
442,178,249771,1,8,3:0:0:0:
369,163,249878,1,10,3:0:0:0:
319,104,249985,1,8,3:0:0:0:
236,90,250092,6,0,P|180:178|27:113,1,284.999992389679,6|0,3:0|0:0,0:0:0:0:
48,122,250521,2,0,L|69:12,1,80,0|0,3:0|0:0,0:0:0:0:
132,214,250735,1,8,3:0:0:0:
74,267,250949,1,8,3:0:0:0:
244,333,251163,5,0,3:0:0:0:
327,294,251271,1,0,3:0:0:0:
408,319,251378,1,10,3:0:0:0:
481,291,251485,1,10,3:0:0:0:
510,216,251592,5,2,3:0:0:0:
485,184,251699,1,2,3:0:0:0:
448,170,251806,1,10,3:0:0:0:
409,175,251913,1,0,3:0:0:0:
378,199,252021,6,0,P|341:192|267:193,1,75.0000028610231,6|0,3:0|0:0,0:0:0:0:
91,173,252235,1,0,0:0:0:0:
91,173,252342,1,0,0:0:0:0:
105,97,252449,1,8,3:0:0:0:
224,209,252663,5,0,0:0:0:0:
150,233,252878,1,0,3:0:0:0:
150,233,252985,1,0,0:0:0:0:
150,233,253092,1,0,0:0:0:0:
182,75,253306,5,8,3:0:0:0:
239,126,253521,1,2,0:1:0:0:
251,131,253628,1,2,0:0:0:0:
319,77,253735,6,0,B|422:45|370:111|513:65,1,150.000005722046,2|0,3:0|0:0,0:0:0:0:
475,71,254056,1,0,0:0:0:0:
403,38,254163,1,8,3:0:0:0:
353,159,254378,1,0,0:0:0:0:
416,207,254592,1,0,3:0:0:0:
421,222,254699,1,0,0:0:0:0:
426,237,254806,1,0,0:0:0:0:
283,362,255021,1,8,3:0:0:0:
214,330,255235,1,0,0:0:0:0:
46,366,255449,6,0,L|21:205,1,150.000005722046,2|0,3:0|0:0,0:0:0:0:
33,375,255878,1,8,3:0:0:0:
134,235,256092,2,0,P|158:219|216:225,1,75.0000028610231
120,233,256306,1,2,3:0:0:0:
290,330,256521,1,0,0:0:0:0:
291,318,256628,1,0,0:0:0:0:
292,306,256735,1,8,3:0:0:0:
452,193,256949,1,0,0:0:0:0:
399,199,257056,1,0,0:0:0:0:
350,204,257163,6,0,L|258:180,1,75.0000028610231,6|0,3:0|0:0,0:0:0:0:
157,107,257378,1,0,0:0:0:0:
16,295,257592,2,0,B|71:280|71:280|109:289|109:289|212:264,1,150.000005722046,14|0,3:0|0:0,0:0:0:0:
175,286,257913,1,0,3:0:0:0:
179,297,258021,1,14,3:0:0:0:
179,308,258128,1,0,0:0:0:0:
179,320,258235,1,0,0:0:0:0:
178,332,258342,1,0,0:0:0:0:
266,343,258449,5,10,3:0:0:0:
341,284,258556,1,8,3:0:0:0:
422,350,258663,1,10,3:0:0:0:
415,363,258771,1,8,3:0:0:0:
483,271,258878,6,0,P|492:211|506:145,1,100,6|0,3:0|0:0,0:0:0:0:
371,189,259092,2,0,P|359:130|349:62,1,100,2|0,0:0|0:0,0:0:0:0:
492,10,259306,1,2,0:0:0:0:
292,216,259521,6,0,B|244:90|83:79|-11:156|-11:156|69:148|157:197,1,500,6|0,3:0|0:0,0:0:0:0:
220,92,260163,1,0,0:0:0:0:
293,81,260271,1,8,3:0:0:0:
365,70,260378,1,8,3:0:0:0:
354,340,260592,6,0,L|141:300,1,200,6|0,3:0|0:0,0:0:0:0:
152,332,260913,2,0,L|348:295,1,200,2|0,0:0|0:0,0:0:0:0:
482,194,261235,6,0,P|434:285|442:382,1,200,6|0,3:0|0:0,0:0:0:0:
454,372,261556,1,0,0:0:0:0:
466,380,261663,1,8,3:0:0:0:
376,202,261878,1,2,3:0:0:0:
301,196,261985,1,10,3:0:0:0:
226,192,262092,1,10,3:0:0:0:
218,202,262199,1,0,0:0:0:0:
158,263,262306,6,0,P|97:210|-7:264,1,170.000003242493,6|0,3:0|0:0,0:0:0:0:
95,313,262628,2,0,L|288:292,1,170.000003242493,2|0,0:0|0:0,0:0:0:0:
373,368,262949,6,0,L|397:182,1,170.000003242493,6|0,3:0|0:0,0:0:0:0:
386,189,263271,1,0,3:0:0:0:
376,180,263378,1,2,3:0:0:0:
432,127,263485,5,8,3:0:0:0:
361,73,263592,1,10,3:0:0:0:
437,22,263699,1,8,3:0:0:0:
512,78,263806,6,0,B|439:62|309:137|415:158|300:245|205:216|205:216|208:129,1,437.5,14|2,3:0|0:0,0:0:0:0:
280,110,265788,6,2,L|288:128,2,12.5
256,192,265949,12,0,267449,0:0:0:0:
