osu file format v14

[General]
AudioFilename: 7days.mp3
AudioLeadIn: 0
PreviewTime: 2070
Countdown: 0
SampleSet: Soft
StackLeniency: 0.3
Mode: 0
LetterboxInBreaks: 0
WidescreenStoryboard: 1

[Editor]
Bookmarks: 115378
DistanceSpacing: 1.1
BeatDivisor: 4
GridSize: 4
TimelineZoom: 1.2

[Metadata]
Title:Suisouka
TitleUnicode:水想花
Artist:Rita
ArtistUnicode:Rita
Creator:Fushimi Rio
Version:Bud
Source:セヴンデイズ あなたとすごす七日間
Tags:seven days visual novel eroge opening hotaru sounds LIFE0 楪
BeatmapID:1457053
BeatmapSetID:656542

[Difficulty]
HPDrainRate:6
CircleSize:3.5
OverallDifficulty:5
ApproachRate:7
SliderMultiplier:2.39999990463257
SliderTickRate:1

[Events]
//Background and Video events
Video,0,"OP.flv"
0,0,"bg2.jpg",0,0
//Break Periods
2,154118,162564
//Storyboard Layer 0 (Background)
//Storyboard Layer 1 (Fail)
//Storyboard Layer 2 (Pass)
//Storyboard Layer 3 (Foreground)
//Storyboard Sound Samples

[TimingPoints]
92,659.340659340659,4,2,1,20,1,0
2234,-100,4,2,1,25,0,0
2399,-100,4,2,1,30,0,0
2564,-100,4,2,1,35,0,0
2729,-100,4,2,1,40,0,0
3059,-100,4,2,1,30,0,0
3718,-100,4,2,1,40,0,0
4542,-100,4,2,1,30,0,0
5366,-100,4,2,1,40,0,0
6685,-100,4,2,1,30,0,0
7674,-100,4,2,1,25,0,0
8004,674.157303370787,4,2,1,30,1,0
8678,-100,4,2,1,40,0,0
9337,-100,4,2,1,30,0,0
10026,-100,4,2,1,25,0,0
11711,-100,4,2,1,20,0,0
12692,674.157303370787,4,2,1,20,1,0
12861,-100,4,2,1,25,0,0
13029,-100,4,2,1,30,0,0
13198,-100,4,2,1,35,0,0
13366,659.340659340659,4,2,1,40,1,0
13695,-100,4,2,1,30,0,0
14355,-100,4,2,1,40,0,0
15344,-100,4,2,1,30,0,0
16003,666.666666666667,4,2,1,40,1,0
17003,-100,4,2,1,30,0,0
18336,-100,4,2,1,25,0,0
18669,-100,4,2,1,30,0,0
19336,-100,4,2,1,40,0,0
19836,-100,4,2,1,30,0,0
20669,-100,4,2,1,25,0,0
21169,-100,4,2,1,20,0,0
21330,697.674418604651,4,2,1,25,1,0
22027,-100,4,2,1,30,0,0
22376,-100,4,2,1,25,0,0
22725,-100,4,2,1,20,0,0
24045,666.666666666667,4,2,1,25,1,0
24045,-133.333333333333,4,2,1,25,0,0
28545,-133.333333333333,4,2,1,20,0,0
39461,666.666666666667,4,2,1,20,1,0
40045,666.666666666667,4,2,1,20,1,0
40045,-133.333333333333,4,2,1,20,0,0
42322,666.666666666667,4,2,1,20,1,0
42322,-141.843971631206,4,2,1,20,0,0
42730,659.340659340659,4,2,1,20,1,0
42730,-133.333333333333,4,2,1,20,0,0
45375,666.666666666667,4,2,1,20,1,0
45375,-133.333333333333,4,2,1,20,0,0
49378,-133.333333333333,4,2,1,25,0,0
50878,-133.333333333333,4,2,1,20,0,0
52986,674.157303370787,4,2,1,20,1,0
52986,-133.333333333333,4,2,1,20,0,0
56019,674.157303370787,4,2,1,20,1,0
56019,-133.333333333333,4,2,1,20,0,0
60720,659.340659340659,4,2,1,20,1,0
60720,-133.333333333333,4,2,1,20,0,0
61379,666.666666666667,4,2,1,20,1,0
61379,-133.333333333333,4,2,1,20,0,0
82670,666.666666666667,4,2,1,20,1,0
82670,-133.333333333333,4,2,1,20,0,0
85378,666.666666666667,4,2,1,15,1,0
86045,-100,4,2,1,20,0,0
86378,-100,4,2,1,25,0,0
86711,-100,4,2,1,30,0,0
87378,-133.333333333333,4,2,1,20,0,0
87878,-133.333333333333,4,2,1,25,0,0
88044,-100,4,2,1,25,0,0
88045,-100,4,2,1,30,0,0
88378,-100,4,2,1,20,0,0
88711,-100,4,2,1,25,0,0
89045,-100,4,2,1,30,0,0
90711,659.340659340659,4,2,1,40,1,0
91040,-100,4,2,1,15,0,0
91205,-100,4,2,1,30,0,0
91535,-100,4,2,1,15,0,0
91700,-100,4,2,1,25,0,0
92029,-100,4,2,1,20,0,0
92689,-100,4,2,1,25,0,0
93348,-100,4,2,1,30,0,0
93842,-100,4,2,1,20,0,0
94337,-100,4,2,1,30,0,0
94996,-100,4,2,1,25,0,0
95326,-100,4,2,1,30,0,0
95985,674.157303370787,4,2,1,40,1,0
96490,-100,4,2,1,15,0,0
96659,-100,4,2,1,20,0,0
96996,-100,4,2,1,25,0,0
97333,-100,4,2,1,30,0,0
97838,-100,4,2,1,35,0,0
98681,-100,4,2,1,30,0,0
99018,-100,4,2,1,20,0,0
99355,-100,4,2,1,25,0,0
99692,-100,4,2,1,30,0,0
101378,666.666666666667,4,2,1,40,1,0
102378,-100,4,2,1,30,0,0
103378,-100,4,2,1,20,0,0
104044,-100,4,2,1,30,0,0
104544,-100,4,2,1,20,0,0
105044,-100,4,2,1,30,0,0
105628,-100,4,2,1,25,0,0
106020,666.666666666667,4,2,1,30,1,0
106186,-100,4,2,1,15,0,0
106353,-100,4,2,1,20,0,0
106520,-100,4,2,1,25,0,0
106686,666.666666666667,4,2,1,30,1,0
107186,-100,4,2,1,15,0,0
107352,-100,4,2,1,25,0,0
108019,-100,4,2,1,30,0,0
108519,-100,4,2,1,20,0,0
108686,-100,4,2,1,35,0,0
109353,-100,4,2,1,40,0,0
109853,-100,4,2,1,25,0,0
110353,-100,4,2,1,30,0,0
111519,-100,4,2,1,15,0,0
111686,-100,4,2,1,25,0,0
112020,-100,4,2,1,30,0,0
112520,-100,4,2,1,20,0,0
113020,-100,4,2,1,30,0,0
114019,-100,4,2,1,20,0,0
114353,-100,4,2,1,25,0,0
114686,731.707317073171,4,2,1,30,1,0
115234,-99.009900990099,4,2,1,30,0,0
115686,666.666666666667,4,2,1,40,1,0
116353,-100,4,2,1,25,0,0
117019,-100,4,2,1,30,0,0
117352,666.666666666667,4,2,1,35,1,0
118018,-100,4,2,1,20,0,0
118352,-100,4,2,1,25,0,0
118686,-100,4,2,1,30,0,0
119020,-100,4,2,1,35,0,0
119353,-100,4,2,1,40,0,0
120685,-100,4,2,1,20,0,0
121019,-100,4,2,1,25,0,0
121352,-100,4,2,1,30,0,0
122018,-100,4,2,1,35,0,0
122686,-100,4,2,1,40,0,0
123186,-100,4,2,1,25,0,0
123685,-100,4,2,1,30,0,0
124518,-100,4,2,1,35,0,0
125018,-100,4,2,1,40,0,0
125352,731.707317073171,4,2,1,40,1,0
125534,-100,4,2,1,30,0,0
125900,-99.009900990099,4,2,1,35,0,0
126352,666.666666666667,4,2,1,40,1,0
126352,-100,4,2,1,40,0,0
127018,-100,4,2,1,20,0,0
127352,-100,4,2,1,30,0,0
127853,-100,4,2,1,20,0,0
128018,666.666666666667,4,2,1,20,1,0
128686,-100,4,2,1,25,0,0
129353,-100,4,2,1,30,0,0
130019,-100,4,2,1,35,0,0
130686,-100,4,2,1,40,0,0
132684,-100,4,2,1,20,0,0
132851,-100,4,2,1,25,0,0
133018,-100,4,2,1,30,0,0
133184,-100,4,2,1,35,0,0
133351,-100,4,2,1,40,0,0
133684,-100,4,2,1,30,0,0
134351,-100,4,2,1,40,0,0
134711,666.666666666667,4,2,1,40,1,0
135211,-100,4,2,1,30,0,0
136044,-100,4,2,1,40,0,0
137377,-100,4,2,1,30,0,0
138377,-100,4,2,1,25,0,0
138711,674.157303370787,4,2,1,30,1,0
139385,-100,4,2,1,40,0,0
140059,-100,4,2,1,30,0,0
141407,652.173913043478,4,2,1,25,1,0
142711,-100,4,2,1,20,0,0
143526,-100,4,2,1,25,0,0
143689,-100,4,2,1,30,0,0
143852,-100,4,2,1,35,0,0
144015,670.391061452514,4,2,1,40,1,0
144350,-100,4,2,1,30,0,0
145020,-100,4,2,1,40,0,0
145858,-100,4,2,1,30,0,0
146696,-100,4,2,1,40,0,0
148037,-100,4,2,1,30,0,0
149042,-100,4,2,1,25,0,0
149377,674.157303370787,4,2,1,30,1,0
150051,-100,4,2,1,40,0,0
150725,-100,4,2,1,30,0,0
151399,-100,4,2,1,25,0,0
151905,-100,4,2,1,20,0,0
152073,681.818181818182,4,2,1,20,1,0
152754,-100,4,2,1,30,0,0
153095,-100,4,2,1,25,0,0
153436,-100,4,2,1,20,0,0
154800,705.882352941176,4,2,1,30,1,0
155505,722.89156626506,4,2,1,30,1,0
156227,800,4,2,1,30,1,0
157027,759.493670886076,4,2,1,30,1,0
157786,869.565217391304,4,2,1,30,1,0
158730,882.352941176471,4,2,1,30,1,0
159171,1000,4,2,1,30,1,0
159964,1034.48275862069,4,2,1,30,1,0
162733,731.707317073171,4,2,1,30,1,0
163464,731.707317073171,4,2,1,20,1,0
164561,-100,4,2,1,25,0,0
165476,-100,4,2,1,15,0,0
166390,-100,4,2,1,30,0,0

[Colours]
Combo1 : 204,128,255
Combo2 : 128,128,255
Combo3 : 255,128,255
Combo4 : 255,128,128
Combo5 : 128,255,128
Combo6 : 255,226,128

[HitObjects]
12,184,2070,5,0,0:0:0:0:
64,192,2234,1,0,0:0:0:0:
112,168,2399,2,0,P|136:144|164:132,1,59.9999976158143,0|0,0:0|0:0,0:0:0:0:
212,128,2729,1,0,0:0:0:0:
412,44,3059,5,0,0:0:0:0:
440,96,3223,1,0,0:0:0:0:
444,156,3388,2,0,P|432:200|416:220,2,59.9999976158143,0|0|0,0:0|0:0|0:0,0:0:0:0:
284,176,4048,5,0,0:0:0:0:
256,228,4212,1,0,0:0:0:0:
252,288,4377,2,0,P|264:332|280:352,2,59.9999976158143,0|0|0,0:0|0:0|0:0,0:0:0:0:
168,104,5037,5,0,0:0:0:0:
116,76,5201,1,0,0:0:0:0:
56,72,5366,2,0,P|12:84|-8:100,2,59.9999976158143,0|0|0,0:0|0:0|0:0,0:0:0:0:
160,224,6026,5,0,0:0:0:0:
220,216,6190,1,0,0:0:0:0:
268,180,6355,1,0,0:0:0:0:
292,124,6520,1,0,0:0:0:0:
284,64,6685,1,0,0:0:0:0:
284,64,7344,5,0,0:0:0:0:
272,172,7674,1,0,0:0:0:0:
316,268,8004,2,0,P|301:210|316:152,1,119.999995231629
408,95,8509,5,0,0:0:0:0:
408,95,8678,2,0,P|420:127|408:211,1,119.999995231629
316,152,9183,5,0,0:0:0:0:
316,152,9352,2,0,P|304:184|316:268,1,119.999995231629
192,224,9857,5,0,0:0:0:0:
192,224,10026,2,0,P|204:256|192:340,1,119.999995231629
72,336,10532,5,0,0:0:0:0:
72,336,10700,2,0,P|60:304|72:220,1,119.999995231629
104,148,11206,1,0,0:0:0:0:
104,148,11374,2,0,L|228:172,1,119.999995231629
308,84,12048,2,0,L|190:61,1,119.999995231629,0|0,0:0|0:0,0:0:0:0:
320,204,12692,5,0,0:0:0:0:
372,188,12861,1,0,0:0:0:0:
412,148,13029,2,0,P|428:124|456:108,1,59.9999976158143,0|0,0:0|0:0,0:0:0:0:
512,100,13366,1,0,0:0:0:0:
504,268,13695,5,0,0:0:0:0:
452,296,13860,1,0,0:0:0:0:
392,300,14025,2,0,P|348:288|328:272,2,59.9999976158143,0|0|0,0:0|0:0|0:0,0:0:0:0:
248,168,14684,5,0,0:0:0:0:
220,220,14849,1,0,0:0:0:0:
216,280,15014,2,0,P|228:324|244:344,2,59.9999976158143,0|0|0,0:0|0:0|0:0,0:0:0:0:
64,200,15673,5,0,0:0:0:0:
36,148,15838,1,0,0:0:0:0:
32,88,16003,2,0,P|44:44|60:24,2,59.9999976158143,0|0|0,0:0|0:0|0:0,0:0:0:0:
176,248,16669,5,0,0:0:0:0:
235,246,16836,1,0,0:0:0:0:
288,219,17003,1,0,0:0:0:0:
325,173,17169,1,0,0:0:0:0:
332,116,17336,1,0,0:0:0:0:
332,116,18003,5,0,0:0:0:0:
224,128,18336,1,0,0:0:0:0:
128,84,18669,2,0,P|186:99|244:84,1,119.999995231629,0|0,0:0|0:0,0:0:0:0:
352,64,19169,5,0,0:0:0:0:
352,64,19336,2,0,P|409:49|467:64,1,119.999995231629,0|0,0:0|0:0,0:0:0:0:
468,188,19836,5,0,0:0:0:0:
468,188,20003,2,0,P|410:202|352:187,1,119.999995231629,0|0,0:0|0:0,0:0:0:0:
248,160,20503,5,0,0:0:0:0:
248,161,20669,2,0,P|190:146|132:160,1,119.999995231629,0|0,0:0|0:0,0:0:0:0:
246,318,21330,5,0,0:0:0:0:
317,221,21678,1,0,0:0:0:0:
246,124,22027,1,0,0:0:0:0:
132,160,22376,1,0,0:0:0:0:
133,281,22725,1,0,0:0:0:0:
133,281,24045,6,0,P|221:293|325:161,1,269.999999570847,0|0,0:0|1:0,0:0:0:0:
256,52,25378,2,0,P|195:165|261:276,1,269.999999570847,0|0,0:0|1:0,0:0:0:0:
360,336,26711,6,0,B|256:278|202:377|99:319,1,269.999999570847,0|0,0:0|1:0,0:0:0:0:
168,228,28045,1,8,0:0:0:0:
0,288,28545,1,0,0:0:0:0:
32,112,29045,1,0,0:0:0:0:
68,208,29378,6,0,B|171:266|225:167|329:225,1,269.999999570847,0|0,0:0|0:0,0:0:0:0:
368,312,30711,2,0,P|409:205|491:284,1,269.999999570847,0|0,0:0|1:0,0:0:0:0:
448,384,32045,1,0,0:0:0:0:
424,68,34711,6,0,P|336:56|232:188,1,269.999999570847,0|0,0:0|1:0,0:0:0:0:
300,297,36045,2,0,P|361:183|295:72,1,269.999999570847,0|0,0:0|1:0,0:0:0:0:
233,187,37378,2,0,B|164:144|165:81|165:81|220:40|295:73,1,269.999999570847,0|0,0:0|1:0,0:0:0:0:
360,184,38711,1,0,0:0:0:0:
48,260,39461,6,0,P|96:240|164:256,1,89.9999998569489,0|0,0:0|1:0,0:0:0:0:
216,288,40045,2,0,P|304:348|384:72,1,539.999999141693,0|0,0:0|1:0,0:0:0:0:
224,188,42322,5,0,0:0:0:0:
224,188,42730,2,0,P|164:120|288:72,1,269.999999570847
356,148,44048,2,0,P|404:159|457:141,1,89.9999998569489,8|0,0:0|0:0,0:0:0:0:
324,232,44708,2,0,P|300:276|304:332,1,89.9999998569489,0|0,0:0|0:0,0:0:0:0:
240,184,45375,6,0,P|156:160|64:292,1,269.999999570847,8|0,0:0|0:0,0:0:0:0:
148,355,46708,2,0,P|166:314|168:269,1,89.9999998569489,0|0,0:0|0:0,0:0:0:0:
196,32,47375,2,0,P|178:73|175:117,1,89.9999998569489,2|0,0:0|0:0,0:0:0:0:
244,216,48041,6,0,B|374:268|374:155|504:211,1,269.999999570847,0|0,0:0|0:0,0:0:0:0:
424,152,49375,2,0,P|412:96|448:24,2,134.999999785423,2|0|0,0:0|0:0|0:0,0:0:0:0:
503,211,50708,6,0,P|479:340|325:158,1,539.999999141693,8|0,0:0|1:0,0:0:0:0:
392,260,52986,1,0,0:0:0:0:
392,260,53323,6,0,B|261:312|261:199|131:255,1,269.999999570847,0|0,0:0|0:0,0:0:0:0:
66,326,54671,2,0,P|36:244|84:171,1,179.999999713898,2|0,0:0|0:0,0:0:0:0:
364,48,56019,6,0,P|479:128|285:215,1,449.999999284744,8|0,0:0|0:0,0:0:0:0:
132,112,58041,2,0,P|174:97|219:99,1,89.9999998569489,0|0,0:0|0:0,0:0:0:0:
259,334,58715,6,0,P|144:305|190:195,1,269.999999570847,0|0,0:0|0:0,0:0:0:0:
288,218,60063,1,0,0:0:0:0:
4,176,60720,2,0,P|60:168|108:112,1,89.9999998569489,0|0,0:0|0:0,0:0:0:0:
248,40,61379,6,0,P|180:116|320:136,1,269.999999570847,8|0,0:0|0:0,0:0:0:0:
368,88,62712,2,0,P|420:68|496:88,2,134.999999785423,0|0|0,0:0|0:0|0:0,0:0:0:0:
296,168,64045,5,0,0:0:0:0:
296,168,65379,2,0,P|244:188|167:168,2,134.999999785423,2|0|0,0:0|0:0|0:0,0:0:0:0:
368,88,66712,6,0,P|253:69|393:215,1,539.999999141693,8|0,0:0|0:0,0:0:0:0:
296,168,69045,1,2,0:0:0:0:
296,168,69379,6,0,B|165:116|165:229|35:173,1,269.999999570847,0|0,0:0|0:0,0:0:0:0:
100,84,70712,1,0,0:0:0:0:
0,280,71212,1,0,0:0:0:0:
220,269,71712,1,0,0:0:0:0:
112,208,72045,5,2,0:0:0:0:
112,208,72712,2,0,P|188:216|256:152,1,134.999999785423,0|0,0:0|1:0,0:0:0:0:
303,122,73379,2,0,P|370:119|424:157,1,134.999999785423,0|0,0:0|0:0,0:0:0:0:
324,319,74045,2,0,P|250:272|235:186,1,179.999999713898,0|8,0:0|0:0,0:0:0:0:
235,186,75379,6,0,P|177:218|112:208,1,134.999999785423,0|0,0:0|0:0,0:0:0:0:
92,84,76045,2,0,P|150:51|215:62,1,134.999999785423,2|0,0:0|0:0,0:0:0:0:
292,112,76712,2,0,P|357:122|415:90,1,134.999999785423,2|0,0:0|0:0,0:0:0:0:
464,0,77379,6,0,B|412:131|525:131|469:261,1,269.999999570847,8|0,0:0|0:0,0:0:0:0:
376,312,78545,1,0,0:0:0:0:
376,312,78712,2,0,P|323:275|380:200,1,179.999999713898,2|0,0:0|0:0,0:0:0:0:
144,360,80045,6,0,B|92:229|205:229|149:99,1,269.999999570847,8|0,0:0|0:0,0:0:0:0:
56,48,81212,1,0,0:0:0:0:
56,48,81379,2,0,P|3:85|60:160,1,179.999999713898,0|2,0:0|0:0,0:0:0:0:
276,64,82670,6,0,P|320:108|288:224,1,179.999999713898,8|0,0:0|0:0,0:0:0:0:
184,224,83670,1,0,0:0:0:0:
149,137,84003,2,0,P|193:132|236:147,1,89.9999998569489,0|0,0:0|0:0,0:0:0:0:
220,312,84670,2,0,P|175:317|133:302,1,89.9999998569489,2|0,0:0|0:0,0:0:0:0:
184,224,85378,5,8,0:0:0:0:
284,236,85711,1,0,0:0:0:0:
372,192,86044,1,0,0:0:0:0:
412,100,86378,1,0,0:0:0:0:
404,0,86711,1,0,0:0:0:0:
404,0,87378,6,0,P|402:65|448:112,1,134.999999785423,0|0,0:0|0:0,0:0:0:0:
456,120,87961,1,0,0:0:0:0:
456,120,88044,6,0,P|360:116|304:232,1,239.999990463257,8|0,0:0|0:0,0:0:0:0:
187,103,89044,2,0,P|255:32|280:128,1,239.999990463257,0|0,0:0|0:0,0:0:0:0:
96,104,90044,2,0,P|44:113|0:162,1,119.999995231629,2|0,0:0|0:0,0:0:0:0:
120,376,90711,6,0,P|149:332|146:266,1,119.999995231629,8|0,0:0|0:0,0:0:0:0:
84,200,91205,2,0,P|124:228|248:216,1,179.999992847443,2|2,0:0|0:0,0:0:0:0:
416,52,92029,1,0,0:0:0:0:
476,168,92359,1,0,0:0:0:0:
392,272,92689,2,0,P|332:256|236:312,1,179.999992847443,2|0,0:0|0:0,0:0:0:0:
243,320,93265,1,0,0:0:0:0:
243,320,93348,6,0,P|260:264|236:204,1,119.999995231629,8|0,0:0|0:0,0:0:0:0:
176,144,93842,2,0,P|232:160|332:100,1,179.999992847443,0|2,0:0|0:0,0:0:0:0:
28,320,94996,1,0,0:0:0:0:
120,212,95326,2,0,P|176:195|276:256,1,179.999992847443,2|0,0:0|0:0,0:0:0:0:
282,261,95903,1,2,0:0:0:0:
282,261,95985,6,0,P|288:192|320:156,1,119.999995231629,8|0,0:0|0:0,0:0:0:0:
224,332,96659,1,2,0:0:0:0:
368,232,96996,1,0,0:0:0:0:
288,56,97333,5,2,0:0:0:0:
324,320,97838,1,0,0:0:0:0:
288,56,98344,1,2,0:0:0:0:
248,212,98681,6,0,P|188:272|48:236,1,239.999990463257,8|0,0:0|0:0,0:0:0:0:
233,99,99692,2,0,P|324:145|248:212,1,239.999990463257,0|0,0:0|0:0,0:0:0:0:
336,76,100704,2,0,P|384:60|452:76,1,119.999995231629,2|0,0:0|0:0,0:0:0:0:
356,336,101378,6,0,P|326:292|329:226,1,119.999995231629,8|0,0:0|0:0,0:0:0:0:
392,160,101878,2,0,P|352:188|228:176,1,179.999992847443,0|2,0:0|0:0,0:0:0:0:
512,328,103044,1,0,0:0:0:0:
412,232,103378,2,0,P|356:224|296:248,1,119.999995231629,0|0,0:0|0:0,0:0:0:0:
136,368,104044,6,0,P|170:323|180:259,1,119.999995231629,2|0,0:0|0:0,0:0:0:0:
147,177,104544,2,0,P|209:239|297:245,1,179.999992847443,0|8,0:0|0:0,0:0:0:0:
0,176,105711,1,0,0:0:0:0:
96,88,106020,2,0,P|164:76|220:104,1,119.999995231629,0|2,0:0|0:0,0:0:0:0:
256,196,106520,1,0,0:0:0:0:
256,196,106686,6,0,B|296:132|244:92|252:48|280:20,1,179.999992847443,8|0,0:0|0:0,0:0:0:0:
348,76,107352,2,0,P|405:62|461:83,1,119.999995231629
500,240,108019,2,0,P|456:280|338:272,1,179.999992847443,2|0,0:0|0:0,0:0:0:0:
304,172,108686,2,0,P|317:229|244:316,1,159.999993642171
215,328,109241,5,2,0:0:0:0:
164,324,109352,6,0,P|112:300|84:240,1,119.999995231629,8|0,0:0|0:0,0:0:0:0:
0,216,109852,2,0,P|60:196|92:92,1,179.999992847443,0|8,0:0|0:0,0:0:0:0:
248,196,110686,2,0,B|340:224|328:140|415:163,1,179.999992847443,0|2,0:0|0:0,0:0:0:0:
389,240,111352,2,0,P|383:296|343:344,1,119.999995231629,0|0,0:0|0:0,0:0:0:0:
324,164,112019,6,0,P|375:141|437:151,1,119.999995231629,8|0,0:0|0:0,0:0:0:0:
512,204,112519,2,0,P|472:152|504:48,1,179.999992847443,0|8,0:0|0:0,0:0:0:0:
224,336,113686,1,0,0:0:0:0:
344,288,114019,2,0,P|376:240|380:180,1,119.999995231629,2|0,0:0|0:0,0:0:0:0:
136,0,114686,6,0,P|106:33|99:60,1,59.9999976158143,8|0,0:0|0:0,0:0:0:0:
87,135,115051,1,0,0:0:0:0:
183,71,115234,2,0,P|200:156|273:197,1,149.999994039536,0|8,0:0|0:0,0:0:0:0:
0,32,116352,1,0,0:0:0:0:
112,244,116686,1,0,0:0:0:0:
112,244,116852,1,0,0:0:0:0:
56,304,117019,2,0,P|32:316|-4:320,1,59.9999976158143,2|0,0:0|0:0,0:0:0:0:
200,228,117352,6,0,P|272:216|352:280,1,179.999992847443,0|0,0:0|0:0,0:0:0:0:
380,368,118018,2,0,P|384:328|432:268,1,119.999995231629,2|0,0:0|0:0,0:0:0:0:
512,48,118685,2,0,P|508:88|460:148,1,119.999995231629,0|0,0:0|0:0,0:0:0:0:
252,48,119352,2,0,P|152:48|116:128,1,179.999992847443,2|0,0:0|1:0,0:0:0:0:
152,192,120018,6,0,P|252:192|288:112,1,179.999992847443,8|0,0:0|1:0,0:0:0:0:
287,130,120685,2,0,P|296:184|348:224,1,119.999995231629,0|0,0:0|0:0,0:0:0:0:
480,148,121352,1,0,0:0:0:0:
368,324,121685,1,0,0:0:0:0:
480,148,122018,2,0,P|471:94|419:54,1,119.999995231629,2|0,0:0|0:0,0:0:0:0:
312,252,122685,6,0,P|272:292|160:272,1,179.999992847443,8|0,0:0|0:0,0:0:0:0:
96,208,123352,2,0,P|108:256|80:324,1,119.999995231629,0|0,0:0|0:0,0:0:0:0:
24,88,124018,5,8,0:0:0:0:
328,240,124518,1,2,0:0:0:0:
24,88,125018,1,2,0:0:0:0:
136,260,125352,6,0,P|144:216|136:188,1,59.9999976158143,8|0,0:0|0:0,0:0:0:0:
100,128,125717,1,2,0:0:0:0:
75,327,125900,2,0,P|160:346|224:292,1,149.999994039536,0|8,0:0|0:0,0:0:0:0:
512,324,127018,1,0,0:0:0:0:
416,244,127352,2,0,P|400:212|448:84,1,179.999992847443,0|0,0:0|0:0,0:0:0:0:
453,93,127935,1,0,0:0:0:0:
453,93,128018,6,0,L|340:56,1,119.999995231629,10|0,0:0|0:0,0:0:0:0:
304,160,128684,2,0,L|190:122,1,119.999995231629,0|0,0:0|0:0,0:0:0:0:
40,188,129351,6,0,L|154:226,1,119.999995231629,2|0,0:0|0:0,0:0:0:0:
304,160,130018,2,0,L|190:122,1,119.999995231629,0|0,0:0|0:0,0:0:0:0:
256,384,130684,1,8,0:0:0:0:
500,200,132684,5,0,0:0:0:0:
448,192,132851,1,0,0:0:0:0:
400,216,133018,2,0,P|376:240|348:252,1,59.9999976158143,0|0,0:0|0:0,0:0:0:0:
300,256,133351,1,0,0:0:0:0:
100,340,133684,5,0,0:0:0:0:
72,288,133851,1,0,0:0:0:0:
68,228,134018,2,0,P|80:184|96:164,2,59.9999976158143,0|0|0,0:0|0:0|0:0,0:0:0:0:
228,208,134711,5,0,0:0:0:0:
256,156,134877,1,0,0:0:0:0:
260,96,135044,2,0,P|248:52|232:32,2,59.9999976158143,0|0|0,0:0|0:0|0:0,0:0:0:0:
344,280,135711,5,0,0:0:0:0:
396,308,135877,1,0,0:0:0:0:
456,312,136044,2,0,P|500:300|520:284,2,59.9999976158143,0|0|0,0:0|0:0|0:0,0:0:0:0:
272,160,136711,5,0,0:0:0:0:
280,100,136877,1,0,0:0:0:0:
316,52,137044,1,0,0:0:0:0:
372,28,137211,1,0,0:0:0:0:
432,36,137377,1,0,0:0:0:0:
87,176,138044,5,0,0:0:0:0:
88,60,138377,1,0,0:0:0:0:
196,116,138711,2,0,P|211:174|196:232,1,119.999995231629,0|0,0:0|0:0,0:0:0:0:
102,289,139216,5,0,0:0:0:0:
102,289,139385,2,0,P|90:257|102:172,1,119.999995231629,0|0,0:0|0:0,0:0:0:0:
196,232,139890,5,0,0:0:0:0:
196,232,140059,2,0,P|208:200|196:116,1,119.999995231629,0|0,0:0|0:0,0:0:0:0:
320,164,140564,5,0,0:0:0:0:
320,164,140733,2,0,P|308:132|320:48,1,119.999995231629,0|0,0:0|0:0,0:0:0:0:
440,48,141239,5,0,0:0:0:0:
440,48,141407,2,0,P|452:80|440:164,1,119.999995231629,0|0,0:0|0:0,0:0:0:0:
408,236,141896,1,0,0:0:0:0:
408,236,142059,2,0,L|284:212,1,119.999995231629,0|0,0:0|0:0,0:0:0:0:
204,300,142711,2,0,L|322:323,1,119.999995231629,0|0,0:0|0:0,0:0:0:0:
112,348,143363,5,0,0:0:0:0:
99,294,143526,1,0,0:0:0:0:
114,240,143689,2,0,P|126:214|126:181,1,59.9999976158143,0|0,0:0|0:0,0:0:0:0:
106,129,144015,1,0,0:0:0:0:
370,140,144350,5,0,0:0:0:0:
317,112,144517,1,0,0:0:0:0:
258,108,144685,2,0,P|214:120|194:136,2,59.9999976158143,0|0|0,0:0|0:0|0:0,0:0:0:0:
114,240,145355,5,0,0:0:0:0:
86,188,145523,1,0,0:0:0:0:
82,128,145690,2,0,P|94:83|110:63,2,59.9999976158143,0|0|0,0:0|0:0|0:0,0:0:0:0:
268,328,146361,5,0,0:0:0:0:
296,276,146528,1,0,0:0:0:0:
300,216,146696,2,0,P|288:172|272:152,2,59.9999976158143,0|0|0,0:0|0:0|0:0,0:0:0:0:
0,280,147366,5,0,0:0:0:0:
31,229,147534,1,0,0:0:0:0:
81,197,147702,1,0,0:0:0:0:
139,188,147869,1,0,0:0:0:0:
192,210,148037,1,0,0:0:0:0:
192,210,148707,5,0,0:0:0:0:
207,94,149042,1,0,0:0:0:0:
304,40,149378,2,0,P|318:98|264:188,1,159.999993642171
207,94,150051,6,0,P|163:159|175:236,1,159.999993642171
315,321,150725,6,0,P|320:243|272:182,1,159.999993642171
377,161,151399,6,0,P|362:102|376:44,1,119.999995231629
261,200,152073,5,0,0:0:0:0:
191,104,152413,1,0,0:0:0:0:
261,6,152754,1,0,0:0:0:0:
375,45,153095,1,0,0:0:0:0:
373,164,153436,1,0,0:0:0:0:
168,260,163464,5,0,0:0:0:0:
65,226,163829,1,0,0:0:0:0:
65,118,164195,1,0,0:0:0:0:
168,85,164561,1,0,0:0:0:0:
231,172,164927,2,0,P|342:186|393:147,1,179.999992847443,0|2,0:0|0:0,0:0:0:0:
420,48,166390,5,8,0:0:0:0:
