osu file format v14

[General]
AudioFilename: 7days.mp3
AudioLeadIn: 0
PreviewTime: 2070
Countdown: 0
SampleSet: Soft
StackLeniency: 0.3
Mode: 0
LetterboxInBreaks: 0
WidescreenStoryboard: 1

[Editor]
Bookmarks: 115378
DistanceSpacing: 1.1
BeatDivisor: 4
GridSize: 4
TimelineZoom: 1.1

[Metadata]
Title:Suisouka
TitleUnicode:水想花
Artist:Rita
ArtistUnicode:Rita
Creator:Fushimi Rio
Version:Sprout
Source:セヴンデイズ あなたとすごす七日間
Tags:seven days visual novel eroge opening hotaru sounds LIFE0 楪
BeatmapID:1414618
BeatmapSetID:656542

[Difficulty]
HPDrainRate:4
CircleSize:3.5
OverallDifficulty:4
ApproachRate:5
SliderMultiplier:1.59999990463257
SliderTickRate:1

[Events]
//Background and Video events
Video,0,"OP.flv"
0,0,"bg1.jpg",0,0
//Break Periods
2,154118,162264
//Storyboard Layer 0 (Background)
//Storyboard Layer 1 (Fail)
//Storyboard Layer 2 (Pass)
//Storyboard Layer 3 (Foreground)
//Storyboard Sound Samples

[TimingPoints]
92,659.340659340659,4,2,1,20,1,0
2234,-100,4,2,1,25,0,0
2399,-100,4,2,1,30,0,0
2564,-100,4,2,1,35,0,0
2729,-100,4,2,1,40,0,0
3059,-100,4,2,1,30,0,0
3718,-100,4,2,1,40,0,0
4542,-100,4,2,1,30,0,0
5366,-100,4,2,1,40,0,0
6685,-100,4,2,1,30,0,0
7674,-100,4,2,1,25,0,0
8004,674.157303370787,4,2,1,30,1,0
8678,-100,4,2,1,40,0,0
9352,-100,4,2,1,30,0,0
10026,-100,4,2,1,25,0,0
11711,-100,4,2,1,20,0,0
12692,674.157303370787,4,2,1,20,1,0
12861,-100,4,2,1,25,0,0
13029,-100,4,2,1,30,0,0
13198,-100,4,2,1,35,0,0
13366,659.340659340659,4,2,1,40,1,0
13695,-100,4,2,1,30,0,0
14355,-100,4,2,1,40,0,0
15344,-100,4,2,1,30,0,0
16003,666.666666666667,4,2,1,40,1,0
17003,-100,4,2,1,30,0,0
18336,-100,4,2,1,25,0,0
18669,-100,4,2,1,30,0,0
19336,-100,4,2,1,40,0,0
19836,-100,4,2,1,30,0,0
20669,-100,4,2,1,25,0,0
21169,-100,4,2,1,20,0,0
21330,697.674418604651,4,2,1,25,1,0
22027,-100,4,2,1,30,0,0
22376,-100,4,2,1,25,0,0
22725,-100,4,2,1,20,0,0
24045,666.666666666667,4,2,1,25,1,0
28545,-100,4,2,1,20,0,0
39461,666.666666666667,4,2,1,20,1,0
40045,666.666666666667,4,2,1,20,1,0
42322,666.666666666667,4,2,1,20,1,0
42322,-104.493207941484,4,2,1,20,0,0
42730,659.340659340659,4,2,1,20,1,0
45375,666.666666666667,4,2,1,20,1,0
49378,-100,4,2,1,25,0,0
50878,-100,4,2,1,20,0,0
52986,674.157303370787,4,2,1,20,1,0
56019,674.157303370787,4,2,1,20,1,0
60720,659.340659340659,4,2,1,20,1,0
61379,666.666666666667,4,2,1,20,1,0
82670,666.666666666667,4,2,1,20,1,0
85378,666.666666666667,4,2,1,15,1,0
86045,-100,4,2,1,20,0,0
86378,-100,4,2,1,25,0,0
86711,-100,4,2,1,30,0,0
87378,-100,4,2,1,20,0,0
87878,-100,4,2,1,25,0,0
88045,-100,4,2,1,30,0,0
88378,-100,4,2,1,20,0,0
88711,-100,4,2,1,25,0,0
89045,-100,4,2,1,30,0,0
90711,659.340659340659,4,2,1,40,1,0
91040,-100,4,2,1,15,0,0
91205,-100,4,2,1,30,0,0
91535,-100,4,2,1,15,0,0
91700,-100,4,2,1,25,0,0
92029,-100,4,2,1,20,0,0
92689,-100,4,2,1,25,0,0
93348,-100,4,2,1,30,0,0
93842,-100,4,2,1,20,0,0
94337,-100,4,2,1,30,0,0
94996,-100,4,2,1,25,0,0
95326,-100,4,2,1,30,0,0
95985,674.157303370787,4,2,1,40,1,0
96490,-100,4,2,1,15,0,0
96659,-100,4,2,1,20,0,0
96996,-100,4,2,1,25,0,0
97333,-100,4,2,1,30,0,0
97838,-100,4,2,1,35,0,0
98681,-100,4,2,1,30,0,0
99018,-100,4,2,1,20,0,0
99355,-100,4,2,1,25,0,0
99692,-100,4,2,1,30,0,0
101378,666.666666666667,4,2,1,40,1,0
102378,-100,4,2,1,30,0,0
103378,-100,4,2,1,20,0,0
104044,-100,4,2,1,30,0,0
104544,-100,4,2,1,20,0,0
105044,-100,4,2,1,30,0,0
105628,-100,4,2,1,25,0,0
106020,666.666666666667,4,2,1,30,1,0
106186,-100,4,2,1,15,0,0
106353,-100,4,2,1,20,0,0
106520,-100,4,2,1,25,0,0
106686,666.666666666667,4,2,1,30,1,0
107186,-100,4,2,1,15,0,0
107352,-100,4,2,1,25,0,0
108019,-100,4,2,1,30,0,0
108686,-100,4,2,1,35,0,0
109353,-100,4,2,1,40,0,0
109853,-100,4,2,1,25,0,0
110353,-100,4,2,1,30,0,0
111519,-100,4,2,1,15,0,0
111686,-100,4,2,1,25,0,0
112020,-100,4,2,1,30,0,0
112520,-100,4,2,1,20,0,0
113020,-100,4,2,1,30,0,0
114019,-100,4,2,1,20,0,0
114353,-100,4,2,1,25,0,0
114686,731.707317073171,4,2,1,30,1,0
115686,666.666666666667,4,2,1,40,1,0
116353,-100,4,2,1,25,0,0
117019,-100,4,2,1,30,0,0
117352,666.666666666667,4,2,1,35,1,0
118018,-100,4,2,1,20,0,0
118352,-100,4,2,1,25,0,0
118686,-100,4,2,1,30,0,0
119020,-100,4,2,1,35,0,0
119353,-100,4,2,1,40,0,0
120685,-100,4,2,1,20,0,0
121019,-100,4,2,1,25,0,0
121352,-100,4,2,1,30,0,0
122018,-100,4,2,1,35,0,0
122686,-100,4,2,1,40,0,0
123186,-100,4,2,1,25,0,0
123685,-100,4,2,1,30,0,0
124518,-100,4,2,1,35,0,0
125018,-100,4,2,1,40,0,0
125352,731.707317073171,4,2,1,40,1,0
125534,-100,4,2,1,30,0,0
125900,-100,4,2,1,35,0,0
126352,666.666666666667,4,2,1,40,1,0
127018,-100,4,2,1,20,0,0
127352,-100,4,2,1,30,0,0
127853,-100,4,2,1,20,0,0
128018,666.666666666667,4,2,1,20,1,0
128686,-100,4,2,1,25,0,0
129353,-100,4,2,1,30,0,0
130019,-100,4,2,1,35,0,0
130686,-100,4,2,1,40,0,0
132684,-100,4,2,1,20,0,0
132851,-100,4,2,1,25,0,0
133018,-100,4,2,1,30,0,0
133184,-100,4,2,1,35,0,0
133351,-100,4,2,1,40,0,0
133684,-100,4,2,1,30,0,0
134351,-100,4,2,1,40,0,0
134711,666.666666666667,4,2,1,40,1,0
135211,-100,4,2,1,30,0,0
136044,-100,4,2,1,40,0,0
137377,-100,4,2,1,30,0,0
138377,-100,4,2,1,25,0,0
138711,674.157303370787,4,2,1,30,1,0
139385,-100,4,2,1,40,0,0
140059,-100,4,2,1,30,0,0
141407,652.173913043478,4,2,1,25,1,0
142711,-100,4,2,1,20,0,0
143526,-100,4,2,1,25,0,0
143689,-100,4,2,1,30,0,0
143852,-100,4,2,1,35,0,0
144015,670.391061452514,4,2,1,40,1,0
144350,-100,4,2,1,30,0,0
145020,-100,4,2,1,40,0,0
145858,-100,4,2,1,30,0,0
146696,-100,4,2,1,40,0,0
148037,-100,4,2,1,30,0,0
149042,-100,4,2,1,25,0,0
149377,674.157303370787,4,2,1,30,1,0
150051,-100,4,2,1,40,0,0
150725,-100,4,2,1,30,0,0
151399,-100,4,2,1,25,0,0
151905,-100,4,2,1,20,0,0
152073,681.818181818182,4,2,1,20,1,0
152754,-100,4,2,1,30,0,0
153095,-100,4,2,1,25,0,0
153436,-100,4,2,1,20,0,0
154800,705.882352941176,4,2,1,30,1,0
155505,722.89156626506,4,2,1,30,1,0
156227,800,4,2,1,30,1,0
157027,759.493670886076,4,2,1,30,1,0
157786,869.565217391304,4,2,1,30,1,0
158730,882.352941176471,4,2,1,30,1,0
159171,1000,4,2,1,30,1,0
159964,1034.48275862069,4,2,1,30,1,0
162733,731.707317073171,4,2,1,30,1,0
163464,731.707317073171,4,2,1,20,1,0
164561,-100,4,2,1,25,0,0
165476,-100,4,2,1,15,0,0
166390,-100,4,2,1,30,0,0

[Colours]
Combo1 : 204,128,255
Combo2 : 128,128,255
Combo3 : 255,128,255
Combo4 : 255,128,128
Combo5 : 128,255,128
Combo6 : 255,226,128

[HitObjects]
196,228,2070,6,0,L|121:198,1,79.9999952316285,0|0,0:0|0:0,0:0:0:0:
40,164,2729,6,0,P|114:142|151:73,1,159.999990463257,0|0,0:0|0:0,0:0:0:0:
223,233,4048,2,0,P|287:189|375:193,1,159.999990463257,0|0,0:0|0:0,0:0:0:0:
436,244,5037,1,0,0:0:0:0:
408,328,5366,6,0,P|344:372|256:368,1,159.999990463257,0|0,0:0|0:0,0:0:0:0:
152,236,6685,1,0,0:0:0:0:
68,80,7344,2,0,P|136:84|156:96,1,79.9999952316285,0|0,0:0|0:0,0:0:0:0:
224,132,8004,6,0,P|336:136|380:92,1,159.999990463257
296,268,9352,2,0,P|184:272|140:228,1,159.999990463257
176,72,10700,2,0,P|288:68|332:112,1,159.999990463257
356,176,11711,1,0,0:0:0:0:
392,256,12048,1,0,0:0:0:0:
484,104,12692,2,0,L|436:188,1,79.9999952316285,0|0,0:0|0:0,0:0:0:0:
384,108,13366,6,0,P|272:104|228:148,1,159.999990463257,0|0,0:0|0:0,0:0:0:0:
196,300,14684,2,0,P|128:338|51:322,1,159.999990463257,0|0,0:0|0:0,0:0:0:0:
0,252,15673,1,0,0:0:0:0:
28,168,16003,6,0,P|95:129|172:145,1,159.999990463257,0|0,0:0|0:0,0:0:0:0:
272,292,17336,1,0,0:0:0:0:
424,204,18003,2,0,P|404:168|364:140,1,79.9999952316285,0|0,0:0|0:0,0:0:0:0:
288,120,18669,6,0,P|212:137|162:202,1,159.999990463257,0|0,0:0|0:0,0:0:0:0:
260,348,20003,2,0,P|335:330|385:265,1,159.999990463257,0|0,0:0|0:0,0:0:0:0:
356,184,21003,1,0,0:0:0:0:
286,130,21330,5,0,0:0:0:0:
316,47,21678,1,0,0:0:0:0:
405,50,22027,1,0,0:0:0:0:
429,134,22376,1,0,0:0:0:0:
356,184,22725,1,0,0:0:0:0:
48,348,24045,6,0,P|115:357|212:236,1,239.999985694885,0|0,0:0|1:0,0:0:0:0:
300,235,25378,2,0,P|349:338|464:348,1,239.999985694885,0|0,0:0|1:0,0:0:0:0:
512,276,26711,1,0,0:0:0:0:
224,76,28045,2,0,P|256:28|320:8,2,119.999992847443,8|0|0,0:0|0:0|0:0,0:0:0:0:
168,144,29378,6,0,P|69:120|152:64,1,239.999985694885,0|0,0:0|0:0,0:0:0:0:
224,76,30711,2,0,B|276:132|248:188|208:240|260:304,1,239.999985694885,0|0,0:0|1:0,0:0:0:0:
332,352,32045,1,0,0:0:0:0:
464,36,34711,6,0,P|396:26|300:148,1,239.999985694885,0|0,0:0|1:0,0:0:0:0:
211,148,36045,2,0,P|162:45|48:36,1,239.999985694885,0|0,0:0|1:0,0:0:0:0:
0,108,37378,2,0,P|49:211|163:220,1,239.999985694885,0|0,0:0|1:0,0:0:0:0:
211,148,38711,1,0,0:0:0:0:
252,340,39461,2,0,P|249:310|262:270,1,59.9999964237214,0|0,0:0|1:0,0:0:0:0:
336,316,40045,6,0,P|424:348|348:162,1,479.999971389771,0|0,0:0|1:0,0:0:0:0:
272,120,42322,1,0,0:0:0:0:
272,208,42730,2,0,P|188:232|204:68,1,319.999980926514,0|8,0:0|0:0,0:0:0:0:
348,161,44708,1,0,0:0:0:0:
352,336,45375,6,0,P|413:353|402:232,1,239.999985694885,8|0,0:0|1:0,0:0:0:0:
316,256,46708,2,0,L|236:244,1,79.9999952316285,0|0,0:0|0:0,0:0:0:0:
152,268,47375,2,0,L|72:256,1,79.9999952316285,2|0,0:0|0:0,0:0:0:0:
20,188,48041,2,0,P|8:132|108:176,1,239.999985694885,0|0,0:0|0:0,0:0:0:0:
196,160,49375,2,0,P|244:172|284:232,2,119.999992847443,2|0|0,0:0|0:0|0:0,0:0:0:0:
200,248,50708,6,0,P|301:312|363:208,1,239.999985694885,8|0,0:0|0:0,0:0:0:0:
68,56,52986,1,0,0:0:0:0:
92,140,53323,2,0,P|180:209|275:149,1,239.999985694885,0|0,0:0|0:0,0:0:0:0:
264,60,54671,2,0,P|338:83|364:156,1,159.999990463257,2|0,0:0|0:0,0:0:0:0:
224,260,56019,6,0,P|108:280|80:164,1,239.999985694885,8|0,0:0|0:0,0:0:0:0:
336,164,58041,1,0,0:0:0:0:
292,336,58715,2,0,P|408:356|436:240,1,239.999985694885,0|0,0:0|0:0,0:0:0:0:
420,176,60063,1,0,0:0:0:0:
496,16,60720,2,0,P|464:48|424:60,1,79.9999952316285,0|0,0:0|0:0,0:0:0:0:
348,32,61379,6,0,P|260:24|256:148,1,239.999985694885,8|0,0:0|0:0,0:0:0:0:
328,196,62712,2,0,L|448:176,2,119.999992847443,0|0|0,0:0|0:0|0:0,0:0:0:0:
360,280,64045,1,0,0:0:0:0:
92,52,65379,2,0,P|60:104|4:120,2,119.999992847443,2|0|0,0:0|0:0|0:0,0:0:0:0:
164,104,66712,6,0,P|326:51|248:240,1,479.999971389771,8|0,0:0|0:0,0:0:0:0:
172,192,69045,1,2,0:0:0:0:
92,156,69379,2,0,P|17:202|120:248,1,239.999985694885,0|0,0:0|0:0,0:0:0:0:
132,344,70712,6,0,L|252:368,2,119.999992847443,0|0|0,0:0|0:0|0:0,0:0:0:0:
44,356,72045,1,2,0:0:0:0:
196,268,72712,2,0,P|244:228|244:136,2,159.999990463257,0|0|0,0:0|0:0|0:0,0:0:0:0:
20,272,74712,1,8,0:0:0:0:
168,184,75379,2,0,P|232:188|285:272,2,159.999990463257,0|2|2,0:0|0:0|0:0,0:0:0:0:
44,56,77379,6,0,P|92:96|184:80,1,159.999990463257,8|0,0:0|0:0,0:0:0:0:
256,32,78379,1,0,0:0:0:0:
329,80,78712,2,0,P|404:100|468:55,1,159.999990463257,2|0,0:0|0:0,0:0:0:0:
468,232,80045,2,0,P|404:187|329:207,1,159.999990463257,8|0,0:0|0:0,0:0:0:0:
256,256,81045,1,0,0:0:0:0:
182,207,81379,2,0,P|106:187|43:231,1,159.999990463257,0|2,0:0|0:0,0:0:0:0:
196,324,82670,6,0,P|271:343|334:299,1,159.999990463257,8|0,0:0|0:0,0:0:0:0:
340,124,84003,2,0,P|410:157|431:231,1,159.999990463257,0|2,0:0|0:0,0:0:0:0:
256,256,85378,2,0,L|244:176,1,79.9999952316285,8|0,0:0|0:0,0:0:0:0:
192,104,86044,2,0,L|180:24,2,79.9999952316285,0|0|0,0:0|0:0|0:0,0:0:0:0:
64,228,87378,1,0,0:0:0:0:
232,172,88044,6,0,B|356:132|337:246|457:204,1,239.999985694885,8|0,0:0|0:0,0:0:0:0:
224,84,90044,1,2,0:0:0:0:
280,256,90711,2,0,P|248:304|160:312,2,119.999992847443,8|2|2,0:0|0:0|0:0,0:0:0:0:
196,232,92029,2,0,B|113:215|124:270|40:254,1,159.999990463257,0|2,0:0|0:0,0:0:0:0:
9,80,93348,6,0,P|59:110|68:167,2,119.999992847443,8|0|2,0:0|0:0|0:0,0:0:0:0:
184,52,94996,1,0,0:0:0:0:
224,128,95326,2,0,P|292:164|372:148,1,159.999990463257,2|8,0:0|0:0,0:0:0:0:
512,248,96659,2,0,P|479:226|438:219,1,79.9999952316285,2|0,0:0|0:0,0:0:0:0:
368,272,97333,2,0,P|316:308|256:304,2,119.999992847443,2|0|2,0:0|0:0|0:0,0:0:0:0:
356,184,98681,6,0,P|336:128|468:104,1,239.999985694885,8|0,0:0|0:0,0:0:0:0:
212,32,100704,1,2,0:0:0:0:
164,204,101378,2,0,P|108:240|56:232,2,119.999992847443,8|0|2,0:0|0:0|0:0,0:0:0:0:
397,336,103378,2,0,P|371:305|336:288,1,79.9999952316285
248,292,104044,6,0,P|267:235|336:200,2,119.999992847443,2|0|8,0:0|0:0|0:0,0:0:0:0:
172,136,105711,1,0,0:0:0:0:
144,212,106020,2,0,P|97:232|61:227,1,79.9999952316285,0|2,0:0|0:0,0:0:0:0:
92,148,106686,2,0,P|100:96|224:76,1,159.999990463257,8|0,0:0|0:0,0:0:0:0:
256,116,107686,1,0,0:0:0:0:
272,204,108019,2,0,P|345:225|402:174,1,159.999990463257,2|0,0:0|0:0,0:0:0:0:
232,132,109352,6,0,P|192:184|216:264,2,119.999992847443,8|0|8,0:0|0:0|0:0,0:0:0:0:
316,112,110686,2,0,P|368:133|390:247,1,159.999990463257,0|0,0:0|0:0,0:0:0:0:
248,320,112019,2,0,B|128:368|128:252|20:292,1,239.999985694885,8|8,0:0|0:0,0:0:0:0:
61,371,113352,1,0,0:0:0:0:
73,196,114019,2,0,L|80:84,1,79.9999952316285,2|0,0:0|0:0,0:0:0:0:
128,52,114686,6,0,P|180:56|220:108,1,119.999992847443,8|0,0:0|0:0,0:0:0:0:
336,88,115686,1,8,0:0:0:0:
208,208,116352,1,0,0:0:0:0:
208,208,116686,2,0,P|243:211|285:186,1,79.9999952316285,0|2,0:0|0:0,0:0:0:0:
356,144,117352,2,0,B|394:218|333:227|365:301,1,159.999990463257,0|2,0:0|0:0,0:0:0:0:
440,344,118352,1,0,0:0:0:0:
511,296,118685,2,0,P|482:269|444:260,1,79.9999952316285,0|0,0:0|0:0,0:0:0:0:
364,298,119352,2,0,P|334:324|296:334,1,79.9999952316285,2|0,0:0|0:0,0:0:0:0:
216,300,120018,6,0,P|136:276|176:372,1,239.999985694885,8|0,0:0|0:0,0:0:0:0:
264,372,121352,2,0,P|297:330|301:290,1,79.9999952316285,0|0,0:0|0:0,0:0:0:0:
272,224,122018,2,0,P|283:185|310:157,1,79.9999952316285,2|0,0:0|0:0,0:0:0:0:
360,232,122685,2,0,P|392:256|472:256,2,119.999992847443,8|0|0,0:0|0:0|0:0,0:0:0:0:
310,157,124018,2,0,P|278:133|198:133,2,119.999992847443,8|2|2,0:0|0:0|0:0,0:0:0:0:
272,236,125352,6,0,P|252:276|288:372,1,119.999992847443,8|0,0:0|0:0,0:0:0:0:
384,363,126352,2,0,P|403:287|359:223,1,159.999990463257,8|0,0:0|0:0,0:0:0:0:
308,152,127352,2,0,P|300:112|334:51,1,79.9999952316285,0|0,0:0|0:0,0:0:0:0:
256,192,128018,12,10,130684,0:0:0:0:
316,228,132684,6,0,L|391:198,1,79.9999952316285,0|0,0:0|0:0,0:0:0:0:
472,164,133351,6,0,P|398:142|361:73,1,159.999990463257,0|0,0:0|0:0,0:0:0:0:
284,240,134711,2,0,P|220:196|132:200,1,159.999990463257,0|0,0:0|0:0,0:0:0:0:
168,280,135711,1,0,0:0:0:0:
236,336,136044,6,0,P|314:337|379:292,1,159.999990463257,0|0,0:0|0:0,0:0:0:0:
432,124,137377,1,0,0:0:0:0:
457,301,138044,2,0,P|389:297|369:285,1,79.9999952316285,0|0,0:0|0:0,0:0:0:0:
316,232,138711,6,0,P|204:228|160:272,1,159.999990463257,0|0,0:0|0:0,0:0:0:0:
244,96,140059,2,0,P|356:92|400:136,1,159.999990463257,0|0,0:0|0:0,0:0:0:0:
364,292,141407,2,0,P|252:296|208:252,1,159.999990463257,0|0,0:0|0:0,0:0:0:0:
184,188,142385,1,0,0:0:0:0:
148,108,142711,1,0,0:0:0:0:
288,0,143363,2,0,L|328:87,1,79.9999952316285,0|0,0:0|0:0,0:0:0:0:
356,152,144015,6,0,P|300:207|222:211,1,159.999990463257,0|0,0:0|0:0,0:0:0:0:
136,60,145355,2,0,P|57:64|1:118,1,159.999990463257,0|0,0:0|0:0,0:0:0:0:
0,208,146361,1,0,0:0:0:0:
64,268,146696,6,0,P|142:263|198:209,1,159.999990463257,0|0,0:0|0:0,0:0:0:0:
360,140,148037,1,0,0:0:0:0:
184,132,148707,2,0,P|183:172|198:209,1,79.9999952316285,0|0,0:0|0:0,0:0:0:0:
260,268,149378,6,0,P|336:251|386:186,1,159.999990463257,0|0,0:0|0:0,0:0:0:0:
288,40,150725,2,0,P|213:58|163:123,1,159.999990463257,0|0,0:0|0:0,0:0:0:0:
192,204,151736,1,0,0:0:0:0:
262,258,152073,5,0,0:0:0:0:
232,341,152413,1,0,0:0:0:0:
143,338,152754,1,0,0:0:0:0:
119,254,153095,1,0,0:0:0:0:
192,204,153436,1,0,0:0:0:0:
192,144,163464,6,0,L|88:128,1,79.9999952316285,0|0,0:0|0:0,0:0:0:0:
92,216,164195,2,0,L|171:228,1,79.9999952316285,0|0,0:0|0:0,0:0:0:0:
256,204,164927,2,0,L|312:336,1,119.999992847443,0|2,0:0|0:0,0:0:0:0:
420,128,166390,5,8,0:0:0:0:
