osu file format v14

[General]
AudioFilename: 7days.mp3
AudioLeadIn: 0
PreviewTime: 2070
Countdown: 0
SampleSet: Soft
StackLeniency: 0.3
Mode: 0
LetterboxInBreaks: 0
WidescreenStoryboard: 0

[Editor]
Bookmarks: 115378
DistanceSpacing: 1.1
BeatDivisor: 4
GridSize: 4
TimelineZoom: 1

[Metadata]
Title:Suisouka
TitleUnicode:水想花
Artist:Rita
ArtistUnicode:Rita
Creator:Fushimi Rio
Version:Blossom
Source:セヴンデイズ あなたとすごす七日間
Tags:seven days visual novel eroge opening hotaru sounds LIFE0 楪
BeatmapID:1390955
BeatmapSetID:656542

[Difficulty]
HPDrainRate:7.2
CircleSize:4.8
OverallDifficulty:6
ApproachRate:8
SliderMultiplier:3.59999990463257
SliderTickRate:1

[Events]
//Background and Video events
Video,0,"OP.flv"
0,0,"bg3.jpg",0,0
//Break Periods
2,154118,162592
//Storyboard Layer 0 (Background)
//Storyboard Layer 1 (Fail)
//Storyboard Layer 2 (Pass)
//Storyboard Layer 3 (Foreground)
//Storyboard Sound Samples

[TimingPoints]
92,659.340659340659,4,2,1,20,1,0
2234,-100,4,2,1,25,0,0
2399,-100,4,2,1,30,0,0
2564,-100,4,2,1,35,0,0
2729,-100,4,2,1,40,0,0
3059,-100,4,2,1,30,0,0
3718,-100,4,2,1,40,0,0
4542,-100,4,2,1,30,0,0
5366,-100,4,2,1,40,0,0
6685,-100,4,2,1,30,0,0
7674,-100,4,2,1,25,0,0
8004,674.157303370787,4,2,1,30,1,0
8678,-100,4,2,1,40,0,0
9352,-111.111111111111,4,2,1,30,0,0
10026,-111.111111111111,4,2,1,25,0,0
10700,-142.857142857143,4,2,1,25,0,0
11374,-200,4,2,1,25,0,0
11711,-200,4,2,1,20,0,0
12048,-83.3333333333333,4,2,1,20,0,0
12554,-83.3333333333333,4,2,1,20,0,0
12692,674.157303370787,4,2,1,20,1,0
12861,-83.3333333333333,4,2,1,25,0,0
13029,-83.3333333333333,4,2,1,30,0,0
13198,-83.3333333333333,4,2,1,35,0,0
13366,659.340659340659,4,2,1,40,1,0
13695,-100,4,2,1,30,0,0
14355,-100,4,2,1,40,0,0
15344,-100,4,2,1,30,0,0
16003,666.666666666667,4,2,1,40,1,0
17003,-100,4,2,1,30,0,0
18336,-100,4,2,1,25,0,0
18669,-83.3333333333333,4,2,1,30,0,0
19336,-111.111111111111,4,2,1,40,0,0
19836,-133.333333333333,4,2,1,30,0,0
20669,-125,4,2,1,25,0,0
21169,-125,4,2,1,20,0,0
21330,697.674418604651,4,2,1,25,1,0
22027,-100,4,2,1,30,0,0
22376,-100,4,2,1,25,0,0
22725,-100,4,2,1,20,0,0
24045,666.666666666667,4,2,1,25,1,0
24045,-200,4,2,1,25,0,0
25378,-133.333333333333,4,2,1,20,0,0
26711,-166.666666666667,4,2,1,15,0,0
28045,-166.666666666667,4,2,1,25,0,0
28545,-166.666666666667,4,2,1,20,0,0
32045,-220,4,2,1,25,0,0
34711,-200,4,2,1,25,0,0
36045,-133.333333333333,4,2,1,20,0,0
37378,-166.666666666667,4,2,1,15,0,0
39461,666.666666666667,4,2,1,20,1,0
39461,-200,4,2,1,20,0,0
40045,666.666666666667,4,2,1,25,1,0
40045,-200,4,2,1,25,0,0
42322,666.666666666667,4,2,1,20,1,0
42730,659.340659340659,4,2,1,20,1,0
42730,-200,4,2,1,20,0,0
44048,-200,4,2,1,25,0,0
44708,-200,4,2,1,20,0,0
45375,666.666666666667,4,2,1,20,1,0
45375,-200,4,2,1,20,0,0
49378,-200,4,2,1,25,0,0
50878,-200,4,2,1,20,0,0
52986,674.157303370787,4,2,1,20,1,0
52986,-200,4,2,1,20,0,0
56019,674.157303370787,4,2,1,20,1,0
56019,-200,4,2,1,20,0,0
60720,659.340659340659,4,2,1,20,1,0
60720,-200,4,2,1,20,0,0
61378,-166.666666666667,4,2,1,20,0,0
61379,666.666666666667,4,2,1,20,1,0
61379,-166.666666666667,4,2,1,20,0,0
65378,-200,4,2,1,20,0,0
66711,-166.666666666667,4,2,1,20,0,0
82670,666.666666666667,4,2,1,20,1,0
82670,-166.666666666667,4,2,1,20,0,0
85378,666.666666666667,4,2,1,15,1,0
86045,-166.666666666667,4,2,1,20,0,0
86378,-166.666666666667,4,2,1,25,0,0
86711,-200,4,2,1,30,0,0
87378,-200,4,2,1,20,0,0
87878,-200,4,2,1,25,0,0
88045,-200,4,2,1,30,0,0
88378,-200,4,2,1,20,0,0
88711,-166.666666666667,4,2,1,25,0,0
89045,-125,4,2,1,30,0,0
90045,-100,4,2,1,30,0,0
90711,659.340659340659,4,2,1,40,1,0
91040,-100,4,2,1,15,0,0
91205,-66.6666666666667,4,2,1,30,0,0
91535,-66.6666666666667,4,2,1,15,0,0
91700,-100,4,2,1,25,0,0
92029,-83.3333333333333,4,2,1,20,0,0
92689,-83.3333333333333,4,2,1,25,0,0
93348,-100,4,2,1,30,0,0
93842,-50,4,2,1,20,0,0
94337,-62.5,4,2,1,30,0,0
94996,-100,4,2,1,25,0,0
95326,-80,4,2,1,30,0,0
95985,674.157303370787,4,2,1,40,1,0
95985,-80,4,2,1,40,0,0
96490,-80,4,2,1,15,0,0
96659,-80,4,2,1,20,0,0
96996,-80,4,2,1,25,0,0
97333,-55.5555555555556,4,2,1,30,0,0
97838,-52.6315789473684,4,2,1,35,0,0
98344,-80,4,2,1,35,0,0
98681,-89.2857142857143,4,2,1,30,0,0
99018,-100,4,2,1,20,0,0
99355,-60.00024000096,4,2,1,25,0,0
99692,-100,4,2,1,30,0,0
100704,-83.3333333333333,4,2,1,30,0,0
101378,666.666666666667,4,2,1,40,1,0
101378,-62.5,4,2,1,40,0,0
101878,-50,4,2,1,30,0,0
102378,-90.9090909090909,4,2,1,25,0,0
103378,-100,4,2,1,20,0,0
104044,-66.6666666666667,4,2,1,30,0,0
104544,-66.6666666666667,4,2,1,20,0,0
105044,-50,4,2,1,30,0,0
105628,-100,4,2,1,25,0,0
106020,666.666666666667,4,2,1,30,1,0
106186,-100,4,2,1,15,0,0
106353,-100,4,2,1,20,0,0
106520,-100,4,2,1,25,0,0
106686,666.666666666667,4,2,1,30,1,0
106686,-66.6666666666667,4,2,1,30,0,0
107186,-83.3333333333333,4,2,1,15,0,0
107352,-83.3333333333333,4,2,1,25,0,0
108019,-55.5555555555556,4,2,1,30,0,0
108686,-76.9230769230769,4,2,1,35,0,0
109353,-80,4,2,1,40,0,0
109853,-50,4,2,1,25,0,0
110353,-66.6666666666667,4,2,1,30,0,0
111186,-83.3333333333333,4,2,1,30,0,0
111519,-83.3333333333333,4,2,1,15,0,0
111686,-83.3333333333333,4,2,1,25,0,0
112020,-55.5555555555556,4,2,1,30,0,0
112520,-66.6666666666667,4,2,1,20,0,0
113020,-100,4,2,1,30,0,0
114019,-100,4,2,1,20,0,0
114353,-100,4,2,1,25,0,0
114686,731.707317073171,4,2,1,30,1,0
115234,-66.6666666666667,4,2,1,30,0,0
115686,666.666666666667,4,2,1,40,1,0
115686,-80,4,2,1,40,0,0
116353,-100,4,2,1,25,0,0
117019,-100,4,2,1,30,0,0
117352,666.666666666667,4,2,1,35,1,0
117352,-80,4,2,1,35,0,0
118018,-90.9090909090909,4,2,1,20,0,0
118352,-83.3333333333333,4,2,1,25,0,0
118686,-71.4285714285714,4,2,1,30,0,0
119020,-76.9230769230769,4,2,1,35,0,0
119353,-83.3333333333333,4,2,1,40,0,0
120685,-100,4,2,1,20,0,0
121019,-100,4,2,1,25,0,0
121352,-83.3333333333333,4,2,1,30,0,0
122018,-66.6666666666667,4,2,1,35,0,0
122686,-66.6666666666667,4,2,1,40,0,0
123186,-66.6666666666667,4,2,1,25,0,0
123685,-100,4,2,1,30,0,0
124018,-50,4,2,1,30,0,0
124518,-42,4,2,1,35,0,0
125018,-29,4,2,1,40,0,0
125352,731.707317073171,4,2,1,50,1,0
125352,-71.4285714285714,4,2,1,50,0,0
125534,-71.4285714285714,4,2,1,30,0,0
125900,-50,4,2,1,35,0,0
126352,666.666666666667,4,2,1,40,1,0
126352,-50,4,2,1,40,0,0
127018,-90.9090909090909,4,2,1,20,0,0
127352,-76.9230769230769,4,2,1,30,0,0
127853,-76.9230769230769,4,2,1,20,0,0
128018,666.666666666667,4,2,1,20,1,0
128686,-76.9230769230769,4,2,1,25,0,0
129353,-76.9230769230769,4,2,1,30,0,0
130019,-76.9230769230769,4,2,1,35,0,0
130686,-76.9230769230769,4,2,1,40,0,0
132684,-76.9230769230769,4,2,1,20,0,0
132851,-76.9230769230769,4,2,1,25,0,0
133018,-76.9230769230769,4,2,1,30,0,0
133184,-76.9230769230769,4,2,1,35,0,0
133351,-76.9230769230769,4,2,1,40,0,0
133684,-76.9230769230769,4,2,1,30,0,0
134351,-76.9230769230769,4,2,1,40,0,0
134711,666.666666666667,4,2,1,40,1,0
135211,-100,4,2,1,30,0,0
136044,-100,4,2,1,40,0,0
137377,-100,4,2,1,30,0,0
138377,-100,4,2,1,25,0,0
138711,674.157303370787,4,2,1,30,1,0
139385,-83.3333333333333,4,2,1,40,0,0
140059,-83.3333333333333,4,2,1,30,0,0
140733,-100,4,2,1,30,0,0
141407,652.173913043478,4,2,1,25,1,0
141407,-142.857142857143,4,2,1,25,0,0
142059,-200,4,2,1,25,0,0
142711,-83.3333333333333,4,2,1,20,0,0
143526,-83.3333333333333,4,2,1,25,0,0
143689,-83.3333333333333,4,2,1,30,0,0
143852,-83.3333333333333,4,2,1,35,0,0
144015,670.391061452514,4,2,1,40,1,0
144350,-100,4,2,1,30,0,0
145020,-100,4,2,1,40,0,0
145858,-100,4,2,1,30,0,0
146696,-100,4,2,1,40,0,0
148037,-100,4,2,1,30,0,0
149042,-100,4,2,1,25,0,0
149377,674.157303370787,4,2,1,30,1,0
149377,-76.9230769230769,4,2,1,30,0,0
150051,-66.6666666666667,4,2,1,40,0,0
150725,-100,4,2,1,30,0,0
151399,-100,4,2,1,25,0,0
151905,-133.333333333333,4,2,1,20,0,0
152073,681.818181818182,4,2,1,20,1,0
152754,-100,4,2,1,30,0,0
153095,-100,4,2,1,25,0,0
153436,-100,4,2,1,20,0,0
154800,705.882352941176,4,2,1,30,1,0
155505,722.89156626506,4,2,1,30,1,0
156227,800,4,2,1,30,1,0
157027,759.493670886076,4,2,1,30,1,0
157786,869.565217391304,4,2,1,30,1,0
158730,882.352941176471,4,2,1,30,1,0
159171,1000,4,2,1,30,1,0
159964,1034.48275862069,4,2,1,30,1,0
162733,731.707317073171,4,2,1,30,1,0
163464,731.707317073171,4,2,1,20,1,0
163464,-200,4,2,1,20,0,0
164561,-200,4,2,1,25,0,0
165476,-200,4,2,1,15,0,0
166390,-200,4,2,1,30,0,0

[Colours]
Combo1 : 204,128,255
Combo2 : 128,128,255
Combo3 : 255,128,255
Combo4 : 255,128,128
Combo5 : 128,255,128
Combo6 : 255,226,128

[HitObjects]
363,110,2070,5,0,0:0:0:0:
320,96,2234,1,0,0:0:0:0:
320,51,2399,1,0,0:0:0:0:
363,37,2564,1,0,0:0:0:0:
389,73,2729,1,0,0:0:0:0:
190,208,3059,5,0,0:0:0:0:
124,203,3223,1,0,0:0:0:0:
67,168,3388,1,0,0:0:0:0:
32,111,3553,1,0,0:0:0:0:
28,44,3718,1,0,0:0:0:0:
128,280,4048,5,0,0:0:0:0:
166,266,4212,1,0,0:0:0:0:
194,237,4377,1,0,0:0:0:0:
205,199,4542,1,0,0:0:0:0:
197,159,4707,1,0,0:0:0:0:
102,317,5037,5,0,0:0:0:0:
59,303,5201,1,0,0:0:0:0:
59,258,5366,1,0,0:0:0:0:
102,244,5531,1,0,0:0:0:0:
128,280,5696,1,0,0:0:0:0:
172,128,6026,5,0,0:0:0:0:
156,150,6190,1,0,0:0:0:0:
172,171,6355,1,0,0:0:0:0:
197,163,6520,1,0,0:0:0:0:
197,136,6685,1,0,0:0:0:0:
321,68,7344,5,0,0:0:0:0:
303,144,7674,1,0,0:0:0:0:
332,214,8004,6,0,B|390:190|388:142|370:90|444:66|469:115|469:115|439:153|376:122,1,269.999992847443
303,144,8678,2,0,B|226:97|231:14|231:14|298:10|321:68|321:68,1,269.999992847443
256,204,9352,2,0,B|184:242|122:201|122:201|151:150|204:155,1,242.999986146927
312,260,10026,2,0,B|370:232|414:312|456:333|482:311|498:281|495:242|455:230|426:243|414:264|438:284|449:277,1,242.999986146927
332,332,10700,6,0,B|274:343|244:292|244:292|248:344|208:368,1,188.999989225388
84,316,11374,2,0,P|144:298|193:318,1,89.9999976158143
136,380,12048,6,0,B|119:331|126:290|200:252|223:198|204:164|159:147|113:151|98:199|114:235|152:252|163:219|155:207,1,323.999981529237
192,120,12692,5,0,0:0:0:0:
148,112,12860,1,0,0:0:0:0:
106,124,13029,1,0,0:0:0:0:
74,155,13197,1,0,0:0:0:0:
60,197,13366,1,0,0:0:0:0:
288,60,13695,5,0,0:0:0:0:
353,80,13860,1,0,0:0:0:0:
353,148,14025,1,0,0:0:0:0:
288,169,14189,1,0,0:0:0:0:
249,114,14354,1,0,0:0:0:0:
128,244,14684,5,0,0:0:0:0:
127,288,14849,1,0,0:0:0:0:
170,303,15013,1,0,0:0:0:0:
196,266,15178,1,0,0:0:0:0:
169,230,15343,1,0,0:0:0:0:
320,356,15673,5,0,0:0:0:0:
350,361,15838,1,0,0:0:0:0:
380,353,16002,1,0,0:0:0:0:
402,331,16169,1,0,0:0:0:0:
412,302,16336,1,0,0:0:0:0:
324,184,16669,5,0,0:0:0:0:
302,179,16836,1,0,0:0:0:0:
281,186,17003,1,0,0:0:0:0:
265,201,17169,1,0,0:0:0:0:
258,222,17336,1,0,0:0:0:0:
258,222,18003,5,0,0:0:0:0:
323,185,18336,1,0,0:0:0:0:
284,292,18669,6,0,B|264:240|276:187|351:146|367:34|234:17|210:103|235:140|279:143|280:118,1,323.999981529237
356,53,19336,6,0,P|221:25|188:155,1,242.999986146927
389,122,20003,6,0,B|437:97|456:51|456:51|409:32|355:53,1,202.500002360344
276,112,20669,6,0,B|253:139|264:175|264:175|303:200|308:234,1,143.999996185303
244,284,21169,5,0,0:0:0:0:
232,272,21252,1,0,0:0:0:0:
229,255,21330,1,0,0:0:0:0:
164,320,21679,5,0,0:0:0:0:
82,278,22028,5,0,0:0:0:0:
96,187,22377,5,0,0:0:0:0:
187,172,22726,5,0,0:0:0:0:
328,304,24045,6,0,B|323:239|231:241|192:215|198:182|216:153|252:136|282:165|285:196|273:217|244:206|244:193,1,269.999992847443,0|0,0:0|1:0,0:0:0:0:
328,304,25378,6,0,B|397:236|307:133|298:63|343:38|393:31|447:55|443:117|410:152|374:158|358:114|374:102,1,405.000004720688,0|0,0:0|1:0,0:0:0:0:
328,303,26711,6,0,B|376:243|465:308|521:309|539:272|540:231|517:190|468:198|443:226|440:255|476:265|485:251,1,323.999981529237,0|0,0:0|1:0,0:0:0:0:
472,76,28045,5,8,0:0:0:0:
416,134,28545,1,0,0:0:0:0:
396,208,29045,1,0,0:0:0:0:
311,163,29378,6,0,B|272:112|315:71|315:71|359:114|311:163|262:216|311:278,1,323.999981529237
375,315,30711,6,0,B|199:242|228:372|112:356|68:312,1,323.999981529237
140,248,32045,6,0,B|157:228|172:172|136:104|52:96|52:96|40:144|48:188|100:212,1,327.272718602961,0|0,0:0|1:0,0:0:0:0:
184,56,34711,6,0,B|169:126|107:162|52:144|52:144|49:101|93:67,1,269.999992847443,0|0,0:0|1:0,0:0:0:0:
184,56,36045,6,0,B|285:50|355:120|350:202|350:202|300:212|248:184|228:130,1,405.000004720688,0|0,0:0|1:0,0:0:0:0:
184,56,37378,6,0,B|127:78|94:124|82:179|79:264|130:311|130:311|184:267|178:198,1,431.999975372315
292,284,39461,2,0,P|357:298|416:268,1,134.999992303849,0|0,0:0|1:0,0:0:0:0:
512,364,40045,6,0,B|462:383|407:374|360:354|328:288|329:238|338:171|374:147|412:128|412:128|440:161|453:196|439:243|416:269,1,539.999985694885,0|0,0:0|1:0,0:0:0:0:
200,276,42322,5,0,0:0:0:0:
260,232,42730,2,0,B|312:160|280:64|200:36|200:36|180:72|188:120|216:148,1,359.999990463257,0|8,0:0|0:0,0:0:0:0:
356,72,44708,1,0,0:0:0:0:
408,328,45375,6,0,P|380:308|472:304,1,269.999992847443,8|0,0:0|0:0,0:0:0:0:
344,264,46708,2,0,P|307:219|302:171,1,89.9999976158143
302,102,47375,2,0,P|311:158|291:202,1,89.9999976158143,2|0,0:0|0:0,0:0:0:0:
126,172,48041,6,0,P|184:62|302:102,1,269.999992847443
368,212,49375,2,0,P|420:236|496:212,2,134.999996423721,2|0|0,0:0|0:0|0:0,0:0:0:0:
328,120,50708,6,0,B|332:35|255:1|255:1|209:64|204:141|303:182|315:260|260:328|179:306,1,539.999985694885,8|0,0:0|1:0,0:0:0:0:
200,236,52986,5,0,0:0:0:0:
200,236,53323,2,0,B|130:222|91:283|112:336|112:336|124:364|112:380|88:384|64:368|88:332,1,269.999992847443
207,374,54671,2,0,P|252:302|200:236,1,179.999995231629,2|0,0:0|0:0,0:0:0:0:
179,308,56019,6,0,B|115:222|234:125|256:51|213:13|158:-2|95:13|88:82|117:126|154:140|181:95|165:78,1,449.999988079071,8|0,0:0|0:0,0:0:0:0:
256,256,58041,2,0,P|305:242|272:184,1,134.999996423721,0|0,0:0|1:0,0:0:0:0:
257,256,58715,6,0,B|346:296|363:222|396:221|452:234|460:288|448:321|416:336,1,269.999992847443
384,148,60064,2,0,P|419:174|436:215,1,89.9999976158143
367,267,60720,2,0,P|350:204|383:148,1,134.999996423721
389,155,61296,1,0,0:0:0:0:
389,155,61379,6,0,B|314:190|208:202|192:84|94:72|21:124|21:124|51:198|126:205|126:205|87:256|110:311|110:311|169:300|192:243,1,755.999956901552,8|0,0:0|0:0,0:0:0:0:
191,244,64045,1,0,0:0:0:0:
104,168,65378,6,0,P|127:117|95:47,2,134.999996423721,2|0|0,0:0|0:0|0:0,0:0:0:0:
36,212,66711,6,0,B|122:171|176:293|291:211|291:211|251:143|259:80|298:41|298:41|355:60|383:97|388:142|388:142|426:98|484:107|484:107|480:139|464:157,1,755.999956901552,8|2,0:0|0:0,0:0:0:0:
364,240,69378,2,0,B|342:296|409:299|423:376|423:376|467:333|477:287|458:238|435:226,1,323.999981529237
336,308,70712,6,0,B|272:332|244:276|179:300,2,161.999990764618
400,256,72045,2,0,P|355:227|302:233,1,107.999993843079,2|0,0:0|1:0,0:0:0:0:
212,376,72712,6,0,P|159:381|96:296,1,161.999990764618,0|0,0:0|1:0,0:0:0:0:
63,226,73379,2,0,P|140:231|177:299,1,161.999990764618
178,300,74045,2,0,P|186:247|225:212,1,107.999993843079
372,352,74711,1,8,0:0:0:0:
266,139,75378,6,0,P|214:130|168:155,1,107.999993843079
325,58,76045,2,0,P|281:88|266:139,1,107.999993843079,2|0,0:0|0:0,0:0:0:0:
400,188,76711,2,0,P|422:139|409:88,1,107.999993843079,2|0,0:0|0:0,0:0:0:0:
456,252,77378,6,0,B|364:320|288:184|196:264,1,269.999984607697,8|0,0:0|1:0,0:0:0:0:
260,328,78378,2,0,P|280:304|288:278,1,53.9999969215394
187,165,78712,2,0,P|111:232|139:331,1,215.999987686158,2|0,0:0|0:0,0:0:0:0:
400,188,80045,6,0,B|444:132|436:56|390:20|390:20|364:60|388:104,1,269.999984607697,8|0,0:0|1:0,0:0:0:0:
492,184,81045,2,0,P|502:204|503:237,1,53.9999969215394
444,311,81378,2,0,P|343:298|320:200,1,215.999987686158,0|2,0:0|0:0,0:0:0:0:
144,228,82670,6,0,B|64:216|76:102|48:51|6:54|-31:75|-56:116|-23:162|23:160|42:135|26:111,1,323.999981529237,8|0,0:0|0:0,0:0:0:0:
244,84,84003,2,0,P|190:88|147:119,1,107.999993843079
210,287,84670,2,0,P|232:239|228:185,1,107.999993843079,2|0,0:0|0:0,0:0:0:0:
100,240,85378,5,8,0:0:0:0:
116,324,85711,1,0,0:0:0:0:
176,372,86044,1,0,0:0:0:0:
240,376,86378,1,0,0:0:0:0:
291,357,86711,1,0,0:0:0:0:
291,357,87378,6,0,P|356:352|398:300,1,134.999996423721
395,297,87961,1,0,0:0:0:0:
390,295,88045,6,0,P|356:294|326:308,1,67.4999982118607,8|0,0:0|1:0,0:0:0:0:
108,311,88378,6,0,P|136:327|170:331,1,67.4999982118607,0|0,0:0|1:0,0:0:0:0:
182,285,88712,6,0,P|142:289|108:310,1,80.9999953823091,0|0,0:0|1:0,0:0:0:0:
248,336,89045,6,0,B|283:258|269:204|162:164|140:52|303:25|330:122|302:164|253:167|252:139,1,359.999990463257,0|0,0:0|1:0,0:0:0:0:
152,160,90045,2,0,P|202:41|352:101,1,314.99999165535,2|0,0:0|1:0,0:0:0:0:
380,164,90711,6,0,P|464:180|504:108,1,179.999995231629,8|0,0:0|0:0,0:0:0:0:
408,260,91205,2,0,B|397:305|417:357|457:369|457:369|441:329|377:309|337:329,1,269.999992847443,2|0,0:0|0:0,0:0:0:0:
268,368,91700,2,0,P|260:324|276:280,1,89.9999976158143,2|0,0:0|0:0,0:0:0:0:
342,174,92029,6,0,P|294:237|216:248,1,161.999990764618,0|0,0:0|1:0,0:0:0:0:
216,248,92359,2,0,P|157:201|149:145,1,107.999993843079,0|0,0:0|1:0,0:0:0:0:
128,52,92689,2,0,B|159:135|103:219|19:225|19:225|9:185|29:141|63:121,1,323.999981529237,2|0,0:0|0:0,0:0:0:0:
56,128,93265,1,0,0:0:0:0:
84,120,93348,6,0,P|136:120|196:260,1,224.999994039536,8|0,0:0|1:0,0:0:0:0:
197,257,93842,6,0,B|161:227|138:190|135:115|157:75|199:32|240:29|279:31|279:31|286:71|280:105|247:137|217:147,1,449.999988079071,0|0,0:0|1:0,0:0:0:0:
227,143,94337,6,0,B|257:117|338:121|395:161|431:249|431:249|332:212|272:308|196:257,1,503.99998664856,2|0,0:0|1:0,0:0:0:0:
197,257,94996,6,0,P|152:251|84:312,1,134.999996423721,0|0,0:0|1:0,0:0:0:0:
162,331,95326,2,0,B|165:278|147:239|63:221|26:173|36:134|76:105|123:97|151:141|145:181|111:208|92:178|96:164,1,337.499991059303,2|0,0:0|0:0,0:0:0:0:
96,165,95903,1,2,0:0:0:0:
104,168,95985,6,0,P|167:63|178:200,1,337.499991059303,8|0,0:0|0:0,0:0:0:0:
192,365,96659,2,0,P|243:325|252:276,1,112.499997019768,2|0,0:0|0:0,0:0:0:0:
339,139,96996,2,0,P|330:193|354:243,1,112.499997019768
351,353,97333,6,0,B|403:336|439:284|441:256|437:208|411:165|377:144|340:139|340:139|330:157|321:190|335:225|355:244,1,404.999976911546,2|0,0:0|1:0,0:0:0:0:
354,243,97838,6,0,P|522:213|404:72,1,427.499977259637,0|0,0:0|1:0,0:0:0:0:
339,139,98344,6,0,P|330:193|354:243,1,112.499997019768,2|0,0:0|1:0,0:0:0:0:
435,275,98681,6,0,P|438:225|415:181,1,100.799998560181,8|0,0:0|1:0,0:0:0:0:
354,243,99018,6,0,P|309:265|260:262,1,89.9999976158143,0|0,0:0|1:0,0:0:0:0:
193,113,99355,6,0,P|285:82|291:180,1,224.99909282094,0|0,0:0|1:0,0:0:0:0:
291,180,99692,6,0,B|238:219|172:169|192:112|192:112|176:166|160:210|112:234|56:230,1,359.999990463257
122,83,100704,2,0,B|116:57|73:26|27:24|-26:55|-26:55|44:89|30:154|92:148,1,323.999981529237,2|0,0:0|1:0,0:0:0:0:
237,180,101378,6,0,B|275:169|306:132|306:91|306:91|223:75|147:142|156:230,1,359.999990463257,8|0,0:0|1:0,0:0:0:0:
156,231,101878,6,0,B|166:324|243:375|318:362|318:362|334:276|300:204|237:180,1,449.999988079071,0|0,0:0|1:0,0:0:0:0:
238,180,102378,6,0,B|154:147|48:176|28:264|28:264|76:278|127:266|156:231,1,396.000001594544,2|0,0:0|0:0,0:0:0:0:
476,260,103378,6,0,B|408:320|350:274|296:232|220:280,1,269.999992847443,0|0,0:0|1:0,0:0:0:0:
284,340,104044,6,0,B|319:266|218:211|191:157|219:125|257:104|306:108|321:159|305:195|278:211|253:180|262:166,1,337.500003933907,2|0,0:0|1:0,0:0:0:0:
261,169,104544,6,0,P|284:76|348:204,1,337.500003933907,0|0,0:0|1:0,0:0:0:0:
294,250,105044,6,0,P|221:194|390:233,1,629.9999833107,8|0,0:0|1:0,0:0:0:0:
396,228,105711,2,0,P|372:273|376:329,1,89.9999976158143,0|0,0:0|1:0,0:0:0:0:
455,291,106020,2,0,P|428:247|377:223,1,89.9999976158143
371,311,106353,5,2,0:0:0:0:
371,311,106520,1,0,0:0:0:0:
397,153,106686,2,0,B|350:119|275:89|209:106|196:175|233:206|274:196|291:171|282:155|282:155|258:94|179:92,1,405.000004720688,8|0,0:0|0:0,0:0:0:0:
256,256,107353,6,0,P|308:243|346:207,1,107.999993843079
179,92,107686,2,0,P|131:110|90:173,1,107.999993843079
118,282,108019,6,0,B|213:208|205:56|115:3|115:3|76:43|70:108|96:154,1,485.999972293855,2|0,0:0|1:0,0:0:0:0:
264,272,108686,6,0,B|338:275|355:215|376:141|442:159|442:159|428:224|376:216,1,311.999977452597
270,196,109241,5,2,0:0:0:0:
196,292,109353,6,0,P|154:182|271:199,1,281.24999254942,8|0,0:0|1:0,0:0:0:0:
270,196,109853,6,0,B|264:180|271:134|295:109|328:90|328:90|356:122|376:157|367:216|348:257|285:299|242:302|196:292,1,449.999988079071,0|0,0:0|1:0,0:0:0:0:
270,196,110353,6,0,B|317:187|393:223|433:283|428:384|428:384|349:303|243:376|196:292,1,540.000006294251,8|0,0:0|1:0,0:0:0:0:
49,98,111186,6,0,P|147:84|181:179,1,215.999987686158,2|0,0:0|0:0,0:0:0:0:
119,341,111686,2,0,P|103:293|131:225,1,107.999993843079
328,332,112020,6,0,B|380:315|416:263|418:235|414:187|388:144|354:123|317:118|317:118|307:136|298:169|312:204|332:223,1,404.999976911546,8|0,0:0|1:0,0:0:0:0:
331,222,112520,6,0,P|480:160|340:86,1,337.500003933907,0|0,0:0|1:0,0:0:0:0:
331,222,113020,6,0,B|204:301|151:142|69:131|32:170|12:217|21:278|84:291|128:267|144:232|105:205|89:216,1,449.999988079071,8|0,0:0|1:0,0:0:0:0:
208,40,114020,6,0,P|220:83|212:127,1,89.9999976158143,2|0,0:0|0:0,0:0:0:0:
176,384,114353,2,0,P|164:340|172:297,1,89.9999976158143
316,148,114686,6,0,P|319:192|339:233,1,89.9999976158143,8|0,0:0|0:0,0:0:0:0:
416,280,115051,1,0,0:0:0:0:
451,61,115234,6,0,P|333:106|338:232,1,270.000003147125,0|0,0:0|1:0,0:0:0:0:
416,280,115686,6,0,B|355:230|285:241|248:330|179:325|122:284|122:284|153:215|229:219,1,449.999988079071,8|0,0:0|0:0,0:0:0:0:
356,340,116686,5,0,0:0:0:0:
356,340,116853,1,0,0:0:0:0:
416,280,117020,2,0,P|426:237|412:192,1,89.9999976158143,2|0,0:0|0:0,0:0:0:0:
276,304,117352,6,0,P|321:152|416:279,1,393.749989569187,0|0,0:0|1:0,0:0:0:0:
415,280,118018,6,0,P|367:277|335:240,1,99.0000003986359,2|0,0:0|0:0,0:0:0:0:
292,88,118352,2,0,P|372:84|404:96,1,107.999993843079
276,304,118686,6,0,P|212:319|152:296,1,125.999992816925
166,128,119019,2,0,P|214:156|217:224,1,125.999992816925
92,252,119353,2,0,P|70:104|211:60,1,323.999981529237,2|0,0:0|1:0,0:0:0:0:
430,278,120018,6,0,B|498:274|518:210|518:210|458:182|402:194|362:238|322:238|269:212,1,377.999978450776,8|0,0:0|1:0,0:0:0:0:
268,211,120685,2,0,P|231:175|220:104,1,89.9999976158143
236,288,121018,2,0,P|227:332|200:367,1,89.9999976158143
80,328,121352,6,0,B|227:256|243:418|385:337,1,323.999981529237,0|0,0:0|1:0,0:0:0:0:
444,207,122018,2,0,P|282:210|386:336,1,405.000004720688,2|0,0:0|1:0,0:0:0:0:
364,248,122685,6,0,B|317:218|271:214|210:281|147:290|116:260|111:208|128:160|184:158|217:185|224:230|186:232|175:221,1,337.500003933907,8|0,0:0|1:0,0:0:0:0:
194,222,123185,6,0,P|56:191|148:84,1,337.500003933907,0|0,0:0|1:0,0:0:0:0:
194,222,123685,6,0,P|197:171|234:139,1,89.9999976158143,0|0,0:0|1:0,0:0:0:0:
384,292,124018,6,0,B|420:262|443:225|446:150|424:110|382:67|341:64|302:66|302:66|295:106|301:140|334:172|364:182,1,449.999988079071,8|0,0:0|1:0,0:0:0:0:
354,178,124518,6,0,B|316:140|224:152|164:192|137:279|137:279|256:232|312:336|384:291,1,535.714271522704,2|0,0:0|1:0,0:0:0:0:
384,291,125018,6,0,B|477:246|503:133|435:40|435:40|350:84|354:178,1,465.517229047315,2|0,0:0|1:0,0:0:0:0:
383,291,125352,6,0,P|388:229|354:177,1,125.999992816925,8|0,0:0|0:0,0:0:0:0:
316,364,125717,1,2,0:0:0:0:
213,107,125900,6,0,P|147:243|299:250,1,359.999990463257,0|0,0:0|1:0,0:0:0:0:
463,99,126353,6,0,B|445:16|361:3|361:3|337:96|339:149|460:166|486:238|451:318|394:354|334:345|295:293|299:251,1,629.999964084627,8|0,0:0|1:0,0:0:0:0:
262,165,127018,2,0,P|292:204|298:252,1,99.0000003986359
216,236,127352,6,0,B|163:253|119:245|79:166|21:142|-15:162|-33:210|-28:259|22:275|61:259|79:217|43:206|31:214,1,350.999974634172
30,215,127936,1,0,0:0:0:0:
30,215,128018,5,10,0:0:0:0:
92,295,128351,1,0,0:0:0:0:
196,315,128684,1,0,0:0:0:0:
312,267,129018,1,0,0:0:0:0:
412,384,129351,5,2,0:0:0:0:
288,360,129684,1,0,0:0:0:0:
204,244,130018,1,0,0:0:0:0:
184,84,130351,1,0,0:0:0:0:
372,176,130684,5,8,0:0:0:0:
372,176,132684,5,0,0:0:0:0:
398,140,132851,1,0,0:0:0:0:
371,103,133018,1,0,0:0:0:0:
328,117,133184,1,0,0:0:0:0:
328,162,133351,1,0,0:0:0:0:
100,56,133684,5,0,0:0:0:0:
57,114,133851,1,0,0:0:0:0:
100,172,134018,1,0,0:0:0:0:
168,150,134184,1,0,0:0:0:0:
168,78,134351,1,0,0:0:0:0:
292,288,134711,5,0,0:0:0:0:
249,274,134877,1,0,0:0:0:0:
249,229,135044,1,0,0:0:0:0:
292,215,135211,1,0,0:0:0:0:
318,251,135377,1,0,0:0:0:0:
480,116,135711,5,0,0:0:0:0:
452,140,135877,1,0,0:0:0:0:
416,152,136044,1,0,0:0:0:0:
380,148,136211,1,0,0:0:0:0:
352,128,136377,1,0,0:0:0:0:
240,48,136711,5,0,0:0:0:0:
224,44,136877,1,0,0:0:0:0:
208,44,137044,1,0,0:0:0:0:
192,52,137211,1,0,0:0:0:0:
180,64,137377,1,0,0:0:0:0:
180,64,138044,5,0,0:0:0:0:
176,136,138377,1,0,0:0:0:0:
228,192,138711,6,0,B|281:155|233:77|236:30|268:19|302:20|335:42|325:83|299:101|275:101|270:70|281:64,1,269.999992847443
168,260,139385,6,0,B|104:216|160:122|157:66|119:52|78:54|39:80|51:129|81:151|110:151|117:114|103:107,1,323.999981529237
264,276,140059,6,0,B|335:302|380:202|427:173|461:196|483:230|483:277|437:296|401:284|385:260|411:233|425:240,1,323.999981529237
280,200,140733,6,0,B|221:171|177:252|135:273|110:250|94:220|97:182|136:169|166:182|177:204|153:224|142:216,1,269.999992847443
264,276,141407,6,0,B|322:287|352:236|352:236|348:288|388:312,1,188.999989225388
512,260,142059,2,0,P|452:242|403:262,1,89.9999976158143
460,324,142711,6,0,B|477:275|470:234|396:196|373:142|392:108|437:91|483:95|498:143|482:179|444:196|433:163|441:151,1,323.999981529237
356,120,143363,5,0,0:0:0:0:
380,82,143526,1,0,0:0:0:0:
419,61,143689,1,0,0:0:0:0:
462,61,143852,1,0,0:0:0:0:
501,80,144015,1,0,0:0:0:0:
228,28,144350,5,0,0:0:0:0:
158,45,144517,1,0,0:0:0:0:
103,95,144685,1,0,0:0:0:0:
93,166,144852,1,0,0:0:0:0:
120,233,145020,1,0,0:0:0:0:
376,300,145355,5,0,0:0:0:0:
408,268,145523,1,0,0:0:0:0:
412,224,145690,1,0,0:0:0:0:
396,180,145858,1,0,0:0:0:0:
356,160,146026,1,0,0:0:0:0:
156,288,146361,5,0,0:0:0:0:
113,274,146528,1,0,0:0:0:0:
113,229,146696,1,0,0:0:0:0:
156,215,146864,1,0,0:0:0:0:
182,251,147031,1,0,0:0:0:0:
336,328,147366,5,0,0:0:0:0:
353,322,147534,1,0,0:0:0:0:
353,304,147702,1,0,0:0:0:0:
335,298,147869,1,0,0:0:0:0:
325,313,148037,1,0,0:0:0:0:
325,313,148707,5,0,0:0:0:0:
390,276,149042,1,0,0:0:0:0:
351,383,149377,6,0,B|331:331|343:278|418:237|434:125|301:108|277:194|302:231|346:234|347:209,1,311.999977452597
464,292,150051,6,0,B|486:233|473:173|388:127|370:0|520:-19|547:78|519:120|469:123|468:95,1,360.000004196167
264,264,150725,6,0,B|248:224|257:184|314:153|326:69|226:56|208:121|227:149|260:151|260:132,1,239.999993642171
148,304,151399,6,0,B|158:276|151:244|105:219|95:151|176:140|191:193|176:215|149:217|153:209,1,179.999995231629
84,332,151905,5,0,0:0:0:0:
88,348,151989,1,0,0:0:0:0:
101,359,152073,1,0,0:0:0:0:
204,383,152413,5,0,0:0:0:0:
258,291,152754,5,0,0:0:0:0:
189,211,153095,5,0,0:0:0:0:
92,253,153436,5,0,0:0:0:0:
290,255,163342,6,0,P|300:244|315:238,1,29.9999992052714
291,255,163464,6,0,P|280:213|294:171,1,89.9999976158143
417,104,164195,6,0,P|406:147|372:176,1,89.9999976158143
336,104,164927,6,0,L|204:64,1,134.999996423721,0|2,0:0|0:0,0:0:0:0:
140,44,166390,1,8,0:0:0:0:
