osu file format v14

[General]
AudioFilename: audio.mp3
AudioLeadIn: 0
PreviewTime: 887
Countdown: 0
SampleSet: Soft
StackLeniency: 0.7
Mode: 0
LetterboxInBreaks: 0
WidescreenStoryboard: 1

[Editor]
Bookmarks: 20008,30386,51143,71900,92656,119413
DistanceSpacing: 0.9
BeatDivisor: 2
GridSize: 32
TimelineZoom: 1.6

[Metadata]
Title:Straight Seeker
TitleUnicode:Straight Seeker
Artist:Rita
ArtistUnicode:Rita
Creator:Irohas
Version:Normal
Source:神曲奏界ポリフォニカ アフタースクール
Tags:mugiwarasekai djulus キネティックノベル kinetic novel shinkyoku soukai polyphonica after school visual video game pop jpop japanese
BeatmapID:3499857
BeatmapSetID:1700350

[Difficulty]
HPDrainRate:4
CircleSize:3.5
OverallDifficulty:4
ApproachRate:5
SliderMultiplier:1.1
SliderTickRate:1

[Events]
//Background and Video events
0,0,"36213476_p0.jpg",0,0
//Break Periods
//Storyboard Layer 0 (Background)
//Storyboard Layer 1 (Fail)
//Storyboard Layer 2 (Pass)
//Storyboard Layer 3 (Foreground)
//Storyboard Layer 4 (Overlay)
//Storyboard Sound Samples

[TimingPoints]
-399,352.941176470588,4,2,2,30,1,0
19357,324.324324324324,4,2,1,55,1,0
20654,-100,4,2,1,60,0,0
31032,-100,4,2,1,70,0,0
51789,-100,4,2,1,60,0,0
72546,-100,4,2,1,50,0,0
93302,-100,4,2,1,70,0,0
111465,-100,4,2,1,55,0,0

[Colours]
Combo1 : 250,248,207
Combo2 : 199,237,252
Combo3 : 255,227,200
Combo4 : 252,205,208

[HitObjects]
19,72,20654,6,0,L|134:56,1,110,4|8,0:0|0:0,0:0:0:0:
206,116,21302,2,0,P|225:125|312:121,1,110,10|8,0:1|0:0,0:0:0:0:
335,98,21789,1,0,3:0:0:0:
417,43,22113,1,0,3:0:0:0:
482,117,22438,2,0,L|458:284,1,165,2|8,3:2|0:0,0:0:0:0:
380,340,23248,6,0,L|317:331,2,55,4|0|8,0:0|3:0|0:0,0:0:0:0:
458,280,23897,2,0,B|464:252|464:252|447:172,1,110,10|8,0:1|0:0,0:0:0:0:
414,168,24384,2,0,L|435:52,1,110,0|0,3:0|3:0,0:0:0:0:
348,11,25032,2,0,P|315:12|283:83,1,110,2|8,0:2|0:3,0:0:0:0:
262,100,25519,2,0,L|191:93,1,55,8|0,0:3|3:0,0:0:0:0:
199,62,25843,6,0,L|79:73,1,110,4|8,0:0|0:0,0:0:0:0:
23,146,26492,1,10,0:1:0:0:
80,228,26817,1,8,0:0:0:0:
87,230,26978,2,0,L|196:219,1,110,0|0,3:0|3:0,0:0:0:0:
283,268,27627,2,0,P|335:244|393:251,1,110,2|8,3:2|0:1,0:0:0:0:
415,263,28113,1,8,0:0:0:0:
478,186,28438,5,4,0:0:0:0:
480,180,28600,2,8,L|461:64,2,110,8|8|12,0:0|0:0|0:3,0:0:0:0:
512,185,29411,2,0,L|501:244,1,55,4|4,3:0|0:0,0:0:0:0:
427,306,29897,2,0,L|438:365,1,55,8|8,0:0|0:0,0:0:0:0:
407,374,30221,2,0,B|338:383|311:327|246:346,1,165,4|8,0:0|0:3,0:0:0:0:
158,303,31032,6,0,L|43:317,1,110,4|8,0:0|0:0,0:0:0:0:
17,305,31519,1,8,0:1:0:0:
0,208,31843,2,0,L|16:90,1,110,8|8,0:1|0:1,0:0:0:0:
35,73,32329,2,0,P|58:71|114:132,1,110,0|8,3:0|0:0,0:0:0:0:
107,160,32816,1,8,0:1:0:0:
168,237,33140,2,0,L|158:297,2,55,8|8|8,0:1|0:0|0:0,0:0:0:0:
195,219,33627,6,0,L|304:205,1,110,0|8,3:0|0:0,0:0:0:0:
325,230,34113,2,0,L|434:216,1,110,8|8,0:1|0:1,0:0:0:0:
504,145,34762,1,8,0:1:0:0:
498,147,34924,2,0,P|457:118|397:126,1,110,0|8,3:0|0:0,0:0:0:0:
308,85,35573,1,2,0:3:0:0:
223,135,35897,1,0,3:1:0:0:
132,95,36221,6,0,L|10:117,1,110,4|8,0:0|0:0,0:0:0:0:
16,213,36870,2,0,L|138:191,1,110,2|8,0:3|0:0,0:0:0:0:
148,216,37356,1,8,0:1:0:0:
152,221,37519,2,0,L|136:332,1,110,0|8,3:0|0:0,0:0:0:0:
220,381,38167,2,0,P|275:361|328:372,1,110,2|8,0:3|0:0,0:0:0:0:
421,337,38816,6,0,P|436:297|426:222,1,110,0|8,3:0|0:0,0:0:0:0:
401,214,39302,2,0,P|414:144|424:90,2,110,8|8|0,0:1|0:1|3:0,0:0:0:0:
374,234,40113,1,4,3:2:0:0:
286,188,40438,1,8,0:0:0:0:
280,185,40600,2,0,P|222:195|163:206,1,110,4|8,3:2|0:3,0:0:0:0:
146,182,41086,2,0,L|158:122,2,55,8|8|4,0:3|0:3|0:0,0:0:0:0:
69,247,41735,5,8,0:0:0:0:
64,250,41897,2,0,B|54:281|54:281|67:372,1,110,8|8,0:1|0:1,0:0:0:0:
88,381,42384,1,8,0:0:0:0:
178,341,42708,2,0,L|305:325,1,110,0|8,3:0|0:0,0:0:0:0:
300,357,43194,2,0,P|354:340|412:355,1,110,8|2,0:1|0:0,0:0:0:0:
431,370,43681,1,8,0:0:0:0:
494,293,44005,6,0,P|504:273|494:176,1,110,0|8,3:0|0:0,0:0:0:0:
410,146,44654,2,0,L|422:79,1,55,2|8,0:3|0:1,0:0:0:0:
386,89,44978,2,0,L|398:22,1,55,8|8,0:0|0:1,0:0:0:0:
368,15,45302,2,0,P|352:15|245:0,1,110,0|8,3:0|0:0,0:0:0:0:
176,58,45951,2,0,L|55:77,1,110,2|8,0:3|0:3,0:0:0:0:
52,46,46438,5,0,3:0:0:0:
45,48,46600,2,0,B|28:78|28:78|42:160,1,110,4|8,0:0|0:0,0:0:0:0:
113,219,47248,1,8,0:0:0:0:
61,304,47573,1,8,0:0:0:0:
119,382,47897,1,12,0:0:0:0:
435,315,49194,5,4,0:0:0:0:
440,311,49356,2,8,P|453:312|498:393,2,110,8|8|12,0:0|0:0|0:3,0:0:0:0:
414,289,50167,2,0,L|430:227,1,55,4|4,3:0|0:0,0:0:0:0:
497,164,50654,2,0,P|492:153|486:103,1,55,8|8,0:0|0:0,0:0:0:0:
467,83,50978,2,0,B|409:62|373:116|304:97,1,165,4|8,0:0|0:3,0:0:0:0:
231,162,51789,5,4,0:0:0:0:
147,108,52113,2,0,P|147:98|169:-4,2,110,8|2|8,0:0|0:1|0:0,0:0:0:0:
82,183,53086,2,0,P|52:188|1:87,2,165,0|2|8,3:0|0:1|0:0,0:0:0:0:
145,259,54384,6,0,L|263:245,1,110,0|8,3:0|0:0,0:0:0:0:
341,200,55032,1,2,0:1:0:0:
419,260,55356,1,8,0:0:0:0:
497,199,55681,2,0,P|504:181|502:84,1,110,0|8,3:0|0:0,0:0:0:0:
488,62,56167,2,0,L|376:78,1,110,2|0,0:0|3:0,0:0:0:0:
349,62,56654,2,8,L|362:2,2,55,8|8|4,0:3|0:0|0:0,0:0:0:0:
292,141,57302,5,8,0:0:0:0:
288,146,57465,2,0,B|219:155|192:99|127:118,1,165,2|8,0:0|0:0,0:0:0:0:
34,85,58275,2,0,P|43:143|52:203,1,110,0|8,3:0|0:0,0:0:0:0:
30,219,58762,2,0,P|14:248|15:329,1,110,2|0,0:1|3:0,0:0:0:0:
32,349,59248,1,8,0:0:0:0:
127,383,59573,6,0,L|238:369,1,110,0|8,3:0|0:0,0:0:0:0:
306,300,60221,1,2,0:1:0:0:
391,351,60546,2,0,L|459:341,1,55,8|0,0:0|3:0,0:0:0:0:
475,329,60870,2,0,B|487:298|487:298|466:210,1,110,4|8,0:0|0:0,0:0:0:0:
457,192,61356,1,4,0:0:0:0:
381,125,61681,2,0,P|395:87|402:13,1,110,8|8,0:3|0:3,0:0:0:0:
434,23,62167,6,0,L|312:39,1,110,4|8,0:0|0:0,0:0:0:0:
239,92,62816,2,0,P|184:74|134:84,1,110,8|8,0:1|0:0,0:0:0:0:
49,31,63465,2,0,P|23:49|17:122,1,110,0|8,3:0|0:0,0:0:0:0:
37,147,63951,1,2,0:0:0:0:
87,232,64275,2,0,L|75:294,1,55,0|8,3:0|0:0,0:0:0:0:
144,358,64762,6,0,P|162:357|258:385,1,110,0|8,3:0|0:0,0:0:0:0:
332,325,65411,2,0,L|446:308,1,110,8|8,0:1|0:0,0:0:0:0:
490,224,66059,2,0,L|505:158,2,55,0|0|8,3:0|3:0|0:0,0:0:0:0:
503,254,66546,1,2,0:0:0:0:
409,223,66870,2,0,L|300:239,1,110,8|8,0:3|0:3,0:0:0:0:
270,225,67356,5,4,0:0:0:0:
289,127,67681,1,8,0:0:0:0:
298,19,68005,2,0,P|286:26|128:52,1,165,8|8,0:1|0:0,0:0:0:0:
115,30,68654,2,0,L|0:52,1,110,0|8,3:0|0:0,0:0:0:0:
5,150,69302,2,0,L|120:128,1,110,8|8,0:1|0:0,0:0:0:0:
185,197,69951,6,0,L|173:260,2,55,0|10|8,3:0|0:1|0:0,0:0:0:0:
217,189,70438,1,10,0:1:0:0:
278,111,70762,2,0,L|290:48,2,55,10|8|10,0:1|0:0|0:1,0:0:0:0:
301,134,71248,6,0,B|363:122|363:122|395:139|395:139|467:123,2,165,4|4|0,0:0|0:0|3:1,0:0:0:0:
217,189,72546,6,0,L|96:176,1,110,4|2,0:0|0:1,0:0:0:0:
81,157,73032,1,2,3:1:0:0:
8,283,73519,1,8,0:0:0:0:
77,353,73843,2,0,L|198:336,1,110,2|2,3:1|0:1,0:0:0:0:
210,359,74329,2,0,B|272:349|272:349|300:369|300:369|374:357,1,165,2|8,0:1|0:0,0:0:0:0:
450,305,75140,6,0,B|465:277|488:257|488:257|451:152,2,165,4|4|8,0:3|0:3|0:0,0:0:0:0:
366,358,76438,2,0,B|297:367|270:311|205:330,2,165,4|4|8,0:3|0:3|0:0,0:0:0:0:
450,305,77735,6,0,P|465:254|446:192,1,110,2|2,3:1|0:1,0:0:0:0:
422,183,78221,2,0,L|438:69,1,110,2|2,3:1|0:0,0:0:0:0:
427,42,78708,1,8,0:0:0:0:
336,2,79032,2,0,P|307:1|268:74,1,110,2|2,3:1|0:1,0:0:0:0:
296,72,79519,2,0,P|227:30|145:35,1,165,2|8,0:1|0:0,0:0:0:0:
77,109,80329,6,0,L|102:282,2,165,4|4|10,0:3|0:3|0:0,0:0:0:0:
145,34,81627,2,0,P|173:23|256:112,2,165,10|10|8,0:1|0:1|0:0,0:0:0:0:
77,109,82924,6,0,L|93:220,1,110,4|2,0:0|0:1,0:0:0:0:
64,236,83411,2,0,P|47:263|45:339,1,110,2|0,3:1|0:0,0:0:0:0:
135,379,84059,1,0,3:0:0:0:
141,383,84221,2,0,P|160:368|258:363,1,110,2|2,3:1|0:1,0:0:0:0:
266,380,84708,2,0,P|286:382|346:270,1,165,2|8,0:1|0:0,0:0:0:0:
268,221,85519,6,0,B|252:162|305:130|282:57,2,165,2|2|8,3:1|0:1|0:0,0:0:0:0:
349,277,86816,2,0,P|371:281|441:167,2,165,2|2|8,3:1|0:1|0:0,0:0:0:0:
273,341,88113,6,0,L|150:332,1,110,4|0,0:0|3:0,0:0:0:0:
133,348,88600,1,8,0:3:0:0:
7,268,89086,1,8,0:3:0:0:
76,196,89411,2,0,B|88:161|88:161|70:79,1,110,0|0,3:0|3:0,0:0:0:0:
86,60,89897,2,0,L|208:70,1,110,8|8,0:3|0:3,0:0:0:0:
226,55,90384,1,8,0:3:0:0:
256,192,90708,12,8,92167,0:0:0:0:
0,384,93302,6,0,P|14:345|81:330,1,110,4|8,0:0|0:0,0:0:0:0:
105,312,93789,2,0,L|221:324,2,110,8|8|8,0:1|0:1|0:1,0:0:0:0:
86,284,94600,1,0,3:0:0:0:
23,210,94924,1,8,0:0:0:0:
19,205,95086,2,0,L|39:86,1,110,8|8,0:1|0:1,0:0:0:0:
66,80,95573,2,0,L|77:14,2,55,8|8|0,0:0|0:0|3:0,0:0:0:0:
139,148,96221,5,8,0:0:0:0:
145,149,96384,2,0,P|189:127|253:134,1,110,8|8,0:1|0:1,0:0:0:0:
332,184,97032,1,8,0:1:0:0:
338,188,97194,2,0,L|398:179,1,55,0|8,3:0|0:1,0:0:0:0:
412,206,97519,2,0,P|409:213|393:319,2,110,8|2|0,0:0|0:3|3:1,0:0:0:0:
476,127,98492,6,0,L|457:7,1,110,4|8,0:0|0:0,0:0:0:0:
367,55,99140,2,0,P|315:30|259:36,1,110,2|8,0:3|0:0,0:0:0:0:
243,8,99627,1,8,0:1:0:0:
238,12,99789,2,0,L|120:28,1,110,0|8,3:0|0:0,0:0:0:0:
48,84,100438,1,2,0:3:0:0:
109,161,100762,1,8,0:0:0:0:
37,228,101086,6,0,B|25:257|25:257|43:348,1,110,0|8,3:0|0:0,0:0:0:0:
20,360,101573,2,0,P|37:357|136:377,1,110,8|8,0:1|0:1,0:0:0:0:
221,341,102221,1,0,3:0:0:0:
227,343,102384,2,0,L|349:326,1,110,4|8,3:2|0:0,0:0:0:0:
365,342,102870,1,4,3:2:0:0:
441,278,103194,2,0,L|508:288,2,55,8|8|8,0:3|0:3|0:3,0:0:0:0:
414,258,103681,6,0,L|435:138,1,110,4|8,0:0|0:0,0:0:0:0:
400,147,104167,2,0,L|421:27,1,110,8|8,0:1|0:1,0:0:0:0:
408,7,104654,1,8,0:0:0:0:
320,53,104978,2,0,P|273:30|215:37,1,110,0|8,3:0|0:0,0:0:0:0:
191,57,105465,1,8,0:1:0:0:
116,120,105789,2,0,L|55:111,1,55,2|8,0:0|0:0,0:0:0:0:
6,194,106275,6,0,B|26:227|26:227|10:308,1,110,0|8,3:0|0:0,0:0:0:0:
87,361,106924,2,0,L|157:348,1,55,2|8,0:3|0:1,0:0:0:0:
165,372,107248,2,0,L|235:359,1,55,8|8,0:0|0:1,0:0:0:0:
249,375,107573,1,0,3:0:0:0:
322,308,107897,1,8,0:0:0:0:
405,361,108221,1,2,0:3:0:0:
409,366,108384,2,0,P|439:367|480:306,1,110,2|0,0:1|3:0,0:0:0:0:
512,299,108870,6,0,B|528:266|538:179|525:112|424:47|326:72|294:190|380:247|442:220,1,440,4|4,0:0|0:0,0:0:0:0:
371,307,110492,2,0,L|256:297,1,110,4|2,0:0|0:0,0:0:0:0:
198,221,111140,2,0,P|200:206|213:160,1,55,0|0,3:0|3:0,0:0:0:0:
189,141,111465,6,0,L|68:161,1,110,4|4,0:0|0:3,0:0:0:0:
63,64,112113,1,2,0:1:0:0:
69,66,112275,2,0,L|190:46,1,110,2|2,0:0|0:1,0:0:0:0:
198,22,112762,2,0,P|225:17|285:126,2,165,4|4|8,0:3|0:3|0:0,0:0:0:0:
169,116,114059,6,0,L|184:237,1,110,2|4,3:1|0:3,0:0:0:0:
262,287,114708,1,2,0:1:0:0:
268,291,114870,2,0,L|393:273,1,110,2|2,0:0|0:1,0:0:0:0:
398,299,115356,1,4,0:3:0:0:
269,373,115843,1,4,0:3:0:0:
136,305,116329,1,8,0:0:0:0:
50,357,116654,6,0,L|30:245,1,110,2|4,3:1|0:3,0:0:0:0:
98,176,117302,1,2,0:1:0:0:
104,176,117465,2,0,P|121:140|114:61,1,110,2|2,0:0|0:1,0:0:0:0:
92,91,117951,2,0,P|107:97|225:29,1,165,4|4,0:3|0:3,0:0:0:0:
366,67,118924,2,0,L|432:57,1,55,12|0,0:0|0:0,0:0:0:0:
490,128,119411,6,8,L|476:188,1,55,8|8,0:0|0:0,0:0:0:0:
502,202,119735,2,8,L|488:262,2,55,8|10|2,0:0|0:0|0:1,0:0:0:0:
