osu file format v14

[General]
AudioFilename: audio.mp3
AudioLeadIn: 0
PreviewTime: 887
Countdown: 0
SampleSet: Soft
StackLeniency: 0.3
Mode: 0
LetterboxInBreaks: 0
WidescreenStoryboard: 1

[Editor]
Bookmarks: 20008,30386,51143,71900,92656,119413
DistanceSpacing: 0.7
BeatDivisor: 8
GridSize: 4
TimelineZoom: 1.6

[Metadata]
Title:Straight Seeker
TitleUnicode:Straight Seeker
Artist:Rita
ArtistUnicode:Rita
Creator:Irohas
Version:Insane
Source:神曲奏界ポリフォニカ アフタースクール
Tags:mugiwarasekai djulus キネティックノベル kinetic novel shinkyoku soukai polyphonica after school visual video game pop jpop japanese
BeatmapID:3499856
BeatmapSetID:1700350

[Difficulty]
HPDrainRate:5.5
CircleSize:4.1
OverallDifficulty:7
ApproachRate:8
SliderMultiplier:1.5
SliderTickRate:1

[Events]
//Background and Video events
0,0,"36213476_p0.jpg",0,0
//Break Periods
//Storyboard Layer 0 (Background)
//Storyboard Layer 1 (Fail)
//Storyboard Layer 2 (Pass)
//Storyboard Layer 3 (Foreground)
//Storyboard Layer 4 (Overlay)
//Storyboard Sound Samples

[TimingPoints]
-399,352.941176470588,4,2,2,30,1,0
1012,-125,4,2,2,30,0,0
2247,-188.679245283019,4,2,2,30,0,0
3835,-125,4,2,2,30,0,0
6659,-188.679245283019,4,2,2,30,0,0
8070,-125,4,2,2,30,0,0
12306,-125,4,2,2,35,0,0
17953,-125,4,2,2,45,0,0
19357,324.324324324324,4,2,1,55,1,0
19357,-125,4,2,1,55,0,0
19681,-100,4,2,2,55,0,0
20005,-100,4,2,1,60,0,0
20654,-125,4,2,1,60,0,0
25519,-100,4,2,1,60,0,0
25843,-125,4,2,1,60,0,0
28600,-100,4,2,1,60,0,0
31032,-111.111111111111,4,2,1,70,0,0
40113,-100,4,2,1,70,0,0
40438,-71.4285714285714,4,2,1,70,0,0
40600,-100,4,2,1,70,0,0
40924,-83.3333333333333,4,2,1,70,0,0
41248,-133.333333333333,4,2,1,70,0,0
41411,-111.111111111111,4,2,1,70,0,0
43681,-111.111111111111,4,2,1,70,0,0
48221,-125,4,2,1,70,0,0
48546,-111.111111111111,4,2,1,70,0,0
52113,-125,4,2,1,60,0,0
53573,-125,4,2,1,30,0,0
53735,-125,4,2,1,60,0,0
55519,-125,4,2,1,30,0,0
55681,-125,4,2,1,60,0,0
58762,-125,4,2,1,30,0,0
58924,-125,4,2,1,60,0,0
60870,-90.9090909090909,4,2,1,70,0,0
61681,-90.9090909090909,4,2,1,50,0,0
61762,-111.111111111111,4,2,1,60,0,0
62167,-111.111111111111,4,2,1,70,0,0
62492,-111.111111111111,4,2,1,60,0,0
70600,-111.111111111111,4,2,1,70,0,0
71248,-133.333333333333,4,2,1,60,0,0
72870,-133.333333333333,4,2,1,50,0,0
74735,-133.333333333333,4,2,2,50,0,0
74816,-133.333333333333,4,2,1,50,0,0
79924,-133.333333333333,4,2,2,50,0,0
80005,-133.333333333333,4,2,1,50,0,0
85113,-133.333333333333,4,2,2,50,0,0
85194,-133.333333333333,4,2,1,50,0,0
85519,-142.857142857143,4,2,1,50,0,0
88113,-125,4,2,1,55,0,0
88356,-125,4,2,1,5,0,0
88438,-125,4,2,1,55,0,0
88519,-125,4,2,1,5,0,0
88600,-399.999999999994,4,2,1,55,0,0
89411,-125,4,2,1,55,0,0
89654,-100,4,2,1,5,0,0
89735,-76.9230769230769,4,2,1,55,0,0
89816,-76.9230769230769,4,2,1,5,0,0
89897,-270.27027027027,4,2,1,55,0,0
90384,-62.5,4,2,1,55,0,0
90708,-100,4,2,1,60,0,0
91194,-83.3333333333333,4,2,1,60,0,0
91681,-71.4285714285714,4,2,1,60,0,0
92167,-62.5,4,2,1,60,0,0
93302,-111.111111111111,4,2,1,70,0,0
93627,-111.111111111111,4,2,1,70,0,0
95573,-111.111111111111,4,2,1,70,0,0
95897,-111.111111111111,4,2,1,70,0,0
97032,-111.111111111111,4,2,1,70,0,0
97194,-111.111111111111,4,2,1,70,0,0
100762,-111.111111111111,4,2,1,70,0,0
102384,-100,4,2,1,70,0,0
102708,-71.4285714285714,4,2,1,70,0,0
102870,-100,4,2,1,70,0,0
103194,-111.111111111111,4,2,1,70,0,0
103519,-142.857142857143,4,2,1,70,0,0
103681,-111.111111111111,4,2,1,70,0,0
108951,-111.111111111111,4,2,2,70,0,0
109113,-111.111111111111,4,2,1,70,0,0
110816,-133.333333333333,4,2,1,70,0,0
111465,-133.333333333333,4,2,1,55,0,0
113492,-133.333333333333,4,2,1,30,0,0
113735,-133.333333333333,4,2,1,55,0,0
113978,-133.333333333333,4,2,1,5,0,0
114059,-133.333333333333,4,2,1,55,0,0
120059,-133.333333333333,4,2,1,45,0,0

[Colours]
Combo1 : 250,248,207
Combo2 : 199,237,252
Combo3 : 255,227,200
Combo4 : 252,205,208

[HitObjects]
5,369,1012,6,0,P|13:348|106:326,1,120,10|2,0:1|0:0,0:0:0:0:
178,365,1542,2,0,L|242:357,1,60,2|0,0:0|0:0,0:0:0:0:
298,287,1895,2,0,L|275:165,1,120,2|2,0:0|0:0,0:0:0:0:
405,20,2424,6,0,B|376:146|376:146|399:104|434:99,1,198.750000303268,8|2,0:1|0:3,0:0:0:0:
497,157,3483,1,2,0:0:0:0:
497,157,3836,6,0,L|479:279,1,120,8|2,0:1|0:0,0:0:0:0:
390,362,4365,2,0,P|381:341|381:300,1,60,2|0,0:0|0:0,0:0:0:0:
329,223,4718,2,0,P|306:219|264:296,1,120,2|2,0:0|0:0,0:0:0:0:
177,344,5248,2,0,L|113:335,1,60,10|2,0:1|0:0,0:0:0:0:
38,277,5600,6,0,B|19:243|19:243|41:158,2,120,2|2|2,0:0|0:0|0:0,0:0:0:0:
239,119,6659,6,0,B|286:93|302:3|239:-39|182:-5|180:45|202:65,1,238.500000363922,2|2,0:1|0:3,0:0:0:0:
202,65,8071,6,0,L|332:49,1,120,8|2,0:1|0:0,0:0:0:0:
446,121,8600,1,2,0:3:0:0:
446,121,8777,2,0,P|414:129|380:126,1,60,2|2,0:0|0:0,0:0:0:0:
323,200,9130,2,0,L|333:271,1,60,2|2,0:0|0:0,0:0:0:0:
409,324,9483,6,0,P|427:319|490:388,1,120,2|2,0:1|0:0,0:0:0:0:
331,259,10012,2,0,L|205:276,1,120,2|2,0:3|0:3,0:0:0:0:
139,330,10542,2,0,P|107:320|78:320,1,60,2|2,0:0|0:0,0:0:0:0:
26,244,10895,6,0,L|37:184,2,60,10|2|2,0:1|0:0|0:0,0:0:0:0:
80,319,11424,1,2,0:3:0:0:
185,155,11777,5,2,0:3:0:0:
187,149,11953,2,0,P|184:130|172:87,1,60,2|2,0:3|0:3,0:0:0:0:
229,13,12306,6,0,P|280:33|344:15,1,120,10|2,0:1|0:0,0:0:0:0:
408,79,12836,2,0,L|390:202,1,120,2|2,0:3|0:0,0:0:0:0:
464,289,13365,2,0,P|472:262|466:221,1,60,2|0,0:3|0:0,0:0:0:0:
411,384,13718,6,0,P|426:362|516:346,1,120,10|2,0:1|0:0,0:0:0:0:
333,307,14248,2,0,P|299:321|269:321,1,60,2|4,0:3|0:0,0:0:0:0:
195,368,14599,2,0,L|129:359,1,60,2|2,0:3|0:0,0:0:0:0:
135,359,15130,6,0,B|118:322|118:322|141:242,1,120,10|2,0:1|0:0,0:0:0:0:
4,126,15659,1,2,0:3:0:0:
4,126,15836,2,0,B|21:163|21:163|-2:243,1,120,8|2,0:2|0:3,0:0:0:0:
171,22,16542,5,8,0:1:0:0:
171,22,16718,2,0,P|183:22|231:8,1,60,10|10,0:0|0:0,0:0:0:0:
380,78,17071,2,0,L|320:67,1,60,2|2,0:3|0:1,0:0:0:0:
251,135,17424,2,0,L|260:199,1,60,2|10,0:3|0:0,0:0:0:0:
196,270,17777,5,4,0:0:0:0:
187,273,17953,2,0,B|149:262|149:262|112:293|75:286,1,120,2|2,0:1|0:0,0:0:0:0:
224,384,18483,2,0,P|264:358|336:360,1,120,2|2,0:3|0:3,0:0:0:0:
423,315,19012,2,0,P|432:293|436:255,1,60,2|10,0:2|0:0,0:0:0:0:
502,176,19357,6,0,L|485:47,1,120,4|2,0:3|0:1,0:0:0:0:
372,138,20005,6,8,L|329:133,3,37.5
260,79,20329,6,8,L|217:84,3,37.5,8|8|0|0,0:3|0:3|3:0|3:0,0:0:0:0:
150,131,20654,6,0,L|84:122,1,60,4|0,0:0|3:0,0:0:0:0:
8,79,20978,1,8,0:0:0:0:
8,79,21302,1,10,0:1:0:0:
8,79,21627,5,8,0:0:0:0:
14,76,21789,2,0,P|22:52|27:15,1,60,0|10,3:0|0:1,0:0:0:0:
162,189,22113,2,0,P|154:165|149:128,1,60,0|8,3:0|0:0,0:0:0:0:
52,215,22438,2,0,L|35:340,1,120,2|0,3:2|0:0,0:0:0:0:
114,381,22924,1,8,0:0:0:0:
114,381,23248,5,4,0:0:0:0:
119,384,23411,1,0,3:0:0:0:
203,353,23573,5,8,0:0:0:0:
311,293,23897,5,10,0:1:0:0:
403,341,24221,5,8,0:0:0:0:
472,286,24384,6,0,L|462:227,1,60,0|10,3:0|0:1,0:0:0:0:
387,161,24708,6,0,L|397:102,1,60,0|8,3:0|0:0,0:0:0:0:
446,1,25032,6,0,P|464:1|497:83,1,120,2|8,0:2|0:3,0:0:0:0:
376,171,25519,6,0,L|302:162,1,75,8|0,0:3|3:0,0:0:0:0:
225,108,25843,6,0,P|220:86|218:46,1,60,4|0,0:0|3:0,0:0:0:0:
225,39,26167,1,8,0:0:0:0:
95,134,26492,5,10,0:1:0:0:
178,247,26816,5,8,0:0:0:0:
112,309,26978,6,0,L|42:302,1,60,0|10,3:0|0:1,0:0:0:0:
189,384,27302,2,0,L|254:377,1,60,0|8,3:0|0:0,0:0:0:0:
327,325,27627,2,0,B|349:291|349:291|323:211,1,120,2|8,3:2|0:1,0:0:0:0:
251,148,28113,1,8,0:0:0:0:
374,0,28438,5,4,0:0:0:0:
364,9,28600,2,8,L|377:84,1,75,8|8,0:0|0:0,0:0:0:0:
466,200,28924,2,8,P|467:177|484:120,1,75,8|8,0:0|0:0,0:0:0:0:
269,53,29248,2,0,P|233:60|184:69,1,75,12|4,0:3|3:0,0:0:0:0:
95,10,29573,1,4,0:0:0:0:
39,241,29897,5,8,0:0:0:0:
21,149,30059,1,8,0:0:0:0:
0,61,30221,1,4,0:0:0:0:
39,241,30546,5,8,0:0:0:0:
12,375,30708,5,8,0:3:0:0:
12,375,30789,5,0,3:0:0:0:
12,375,30870,5,0,3:0:0:0:
12,375,30951,5,0,3:0:0:0:
12,375,31032,6,0,P|21:354|120:323,1,134.999995880127,4|8,0:0|0:0,0:0:0:0:
215,156,31519,2,0,L|202:227,1,67.4999979400635,8|2,0:1|0:3,0:0:0:0:
299,384,31843,2,0,P|310:358|308:310,1,67.4999979400635,8|8,0:1|0:0,0:0:0:0:
211,336,32167,1,8,0:1:0:0:
354,218,32329,6,0,L|334:74,1,134.999995880127,0|8,3:0|0:0,0:0:0:0:
449,0,32816,2,0,L|434:72,1,67.4999979400635,8|2,0:1|0:3,0:0:0:0:
449,0,33140,1,8,0:1:0:0:
496,153,33302,6,8,L|481:225,1,67.4999979400635,8|8,0:0|0:0,0:0:0:0:
364,314,33627,6,0,P|388:308|444:386,1,134.999995880127,0|8,3:0|0:0,0:0:0:0:
271,242,34113,2,0,P|236:257|201:259,1,67.4999979400635,8|2,0:1|0:3,0:0:0:0:
140,180,34438,2,0,L|160:43,1,134.999995880127,8|8,0:1|0:1,0:0:0:0:
29,190,34924,6,0,L|41:257,1,67.4999979400635,0|8,3:0|0:1,0:0:0:0:
125,383,35248,2,0,P|126:362|137:315,1,67.4999979400635,8|8,0:0|0:1,0:0:0:0:
31,347,35573,1,2,0:3:0:0:
238,370,35735,5,8,0:3:0:0:
244,367,35897,1,0,3:1:0:0:
251,364,36059,1,0,3:0:0:0:
264,372,36221,6,0,B|284:335|284:335|261:236,2,134.999995880127,4|8|2,0:0|0:0|0:3,0:0:0:0:
461,342,37032,1,8,0:1:0:0:
458,347,37194,2,0,P|428:358|388:354,1,67.4999979400635,8|8,0:0|0:1,0:0:0:0:
423,259,37519,6,0,L|445:118,1,134.999995880127,0|8,3:0|0:0,0:0:0:0:
372,54,38005,1,8,0:1:0:0:
456,0,38167,2,0,L|528:10,1,67.4999979400635,2|8,0:3|0:1,0:0:0:0:
314,128,38492,2,0,P|299:128|247:142,1,67.4999979400635,8|8,0:0|0:1,0:0:0:0:
167,78,38816,2,0,L|181:6,1,67.4999979400635,0|0,3:0|0:0,0:0:0:0:
248,141,39140,1,8,0:0:0:0:
58,208,39302,6,0,P|33:174|61:87,1,134.999995880127,8|8,0:1|0:1,0:0:0:0:
156,260,39789,1,8,0:0:0:0:
73,326,39951,1,0,3:0:0:0:
158,384,40113,6,0,B|210:397|248:341|311:369,1,150,4|8,3:2|0:0,0:0:0:0:
457,316,40600,6,0,P|439:289|363:284,1,112.5,4|0,3:2|0:0,0:0:0:0:
349,275,40924,6,0,L|370:178,1,89.9999972534181,8|8,0:3|0:3,0:0:0:0:
287,38,41248,5,8,0:3:0:0:
280,38,41329,1,0,3:1:0:0:
274,38,41411,6,0,B|238:58|238:58|255:159,1,134.999995880127,4|8,0:0|0:0,0:0:0:0:
125,309,41897,2,0,L|149:172,1,134.999995880127,8|8,0:1|0:1,0:0:0:0:
74,96,42384,2,0,P|54:108|11:114,1,67.4999979400635,8|8,0:0|0:1,0:0:0:0:
168,12,42708,6,0,P|194:7|249:84,1,134.999995880127,0|8,3:0|0:0,0:0:0:0:
331,155,43194,2,0,P|360:143|401:144,1,67.4999979400635,8|2,0:1|0:3,0:0:0:0:
483,95,43519,2,0,P|491:67|492:21,1,67.4999979400635,2|8,0:0|0:0,0:0:0:0:
478,14,43843,1,0,0:0:0:0:
395,142,44005,6,0,L|410:288,1,134.999995880127,0|8,3:0|0:0,0:0:0:0:
208,377,44654,1,2,0:3:0:0:
108,340,44816,1,8,0:1:0:0:
187,277,44978,1,8,0:0:0:0:
208,377,45140,1,8,0:1:0:0:
0,229,45302,6,0,P|22:239|118:202,1,134.999995880127,0|8,3:0|0:0,0:0:0:0:
180,122,45789,1,8,0:1:0:0:
264,176,45951,2,0,L|337:166,1,67.4999979400635,2|2,0:3|0:1,0:0:0:0:
500,98,46275,5,8,0:3:0:0:
467,102,46356,1,0,3:0:0:0:
441,82,46437,1,0,3:0:0:0:
436,49,46518,1,0,3:0:0:0:
457,32,46600,6,0,L|436:171,1,134.999995880127,4|8,0:0|0:0,0:0:0:0:
504,241,47086,1,0,3:0:0:0:
424,320,47248,1,8,0:0:0:0:
501,384,47411,5,0,3:0:0:0:
313,299,47573,2,0,P|276:302|248:313,1,67.4999979400635,8|0,0:0|3:0,0:0:0:0:
82,261,47897,2,0,L|159:249,1,67.4999979400635,12|0,0:0|0:0,0:0:0:0:
219,180,48221,2,2,L|198:54,1,120,2|2,0:1|0:0,0:0:0:0:
331,2,48708,1,8,0:3:0:0:
331,2,48789,1,0,3:0:0:0:
331,2,48870,2,0,L|322:43,3,33.7499989700318,0|0|0|0,3:0|3:0|3:0|3:0,0:0:0:0:
338,48,49194,5,4,0:0:0:0:
280,127,49356,1,8,0:0:0:0:
355,187,49519,2,0,L|425:177,1,67.4999979400635,8|8,0:0|0:0,0:0:0:0:
296,336,49843,2,0,P|288:312|287:266,1,67.4999979400635,8|12,0:0|0:3,0:0:0:0:
388,290,50167,1,4,3:0:0:0:
195,384,50329,6,0,P|131:349|67:360,1,134.999995880127,4|8,0:0|0:0,0:0:0:0:
14,262,50816,1,8,0:0:0:0:
9,251,50978,2,0,B|30:118,1,134.999995880127,4|8,0:0|0:0,0:0:0:0:
131,229,51465,2,0,L|207:218,1,67.4999979400635,8|0,0:3|3:0,0:0:0:0:
204,221,51708,1,0,3:0:0:0:
210,223,51789,1,4,0:0:0:0:
472,376,52113,6,0,L|495:251,1,120,8|2,0:0|0:1,0:0:0:0:
398,165,52600,1,2,0:0:0:0:
398,165,52762,2,0,P|405:189|411:229,1,60,8|0,0:0|0:0,0:0:0:0:
512,111,53086,6,0,P|501:88|417:64,1,120,0|8,3:0|0:0,0:0:0:0:
331,9,53573,2,0,L|208:27,1,120,2|0,0:1|0:0,0:0:0:0:
136,129,54059,2,0,P|126:110|121:68,1,60,8|0,0:0|0:0,0:0:0:0:
52,8,54384,5,0,3:0:0:0:
7,201,54708,2,0,L|19:262,1,60,8|0,0:0|0:0,0:0:0:0:
95,364,55032,2,0,P|98:334|106:305,1,60,2|0,0:1|0:0,0:0:0:0:
187,255,55356,2,0,L|250:264,1,60,8|2,0:0|0:1,0:0:0:0:
328,361,55681,6,0,P|339:340|425:323,1,120,0|8,3:0|0:0,0:0:0:0:
505,274,56167,1,2,0:0:0:0:
505,274,56492,5,0,3:0:0:0:
430,185,56654,5,8,0:3:0:0:
503,111,56816,5,8,0:0:0:0:
488,89,56978,6,0,L|357:107,1,120,4|8,0:0|0:0,0:0:0:0:
270,0,57465,1,2,0:0:0:0:
270,0,57627,2,0,L|281:64,1,60,2|0,0:1|0:0,0:0:0:0:
172,162,57951,2,0,P|175:132|185:103,1,60,8|2,0:0|0:0,0:0:0:0:
116,32,58275,5,0,3:0:0:0:
0,218,58600,1,8,0:0:0:0:
67,280,58762,2,0,L|192:261,1,120,2|0,0:1|3:0,0:0:0:0:
267,319,59248,2,0,P|258:341|251:376,1,60,8|8,0:0|0:0,0:0:0:0:
185,261,59573,6,0,L|163:138,2,120,0|8|2,3:0|0:0|0:1,0:0:0:0:
371,376,60546,1,8,0:0:0:0:
374,367,60708,1,0,3:0:0:0:
462,384,60870,6,0,B|477:353|499:344|499:344|464:228,1,165.000005035401,4|8,0:0|0:0,0:0:0:0:
365,174,61356,6,0,P|377:146|503:128,1,165.000005035401,4|8,0:0|0:3,0:0:0:0:
334,271,61843,6,0,P|296:266|252:261,1,67.4999979400635,8|8,0:1|0:3,0:0:0:0:
171,200,62167,6,0,L|32:221,2,134.999995880127,4|8|8,0:0|0:0|0:1,0:0:0:0:
262,148,62978,2,0,P|265:139|271:75,1,67.4999979400635,2|8,0:0|0:0,0:0:0:0:
257,92,63465,6,0,L|323:81,1,67.4999979400635,0|0,3:0|0:0,0:0:0:0:
433,0,63789,1,8,0:0:0:0:
492,73,63951,2,0,L|467:214,1,134.999995880127,2|0,0:0|3:0,0:0:0:0:
387,293,64438,2,8,P|380:271|383:222,1,67.4999979400635,8|8,0:0|0:0,0:0:0:0:
355,384,64762,6,0,P|367:365|472:342,1,134.999995880127,0|8,3:0|0:0,0:0:0:0:
230,327,65411,2,0,L|156:340,1,67.4999979400635,8|2,0:1|0:0,0:0:0:0:
59,261,65735,2,0,L|133:248,1,67.4999979400635,8|0,0:0|0:0,0:0:0:0:
199,184,66059,6,0,L|174:52,1,134.999995880127,0|8,3:0|0:0,0:0:0:0:
266,32,66546,2,0,L|275:-4,2,33.7499989700318,2|2|8,0:0|0:1|0:1,0:0:0:0:
351,90,66870,5,8,0:3:0:0:
152,4,67194,5,8,0:3:0:0:
90,75,67356,6,0,P|70:84|20:88,1,67.4999979400635,4|0,0:0|0:0,0:0:0:0:
237,199,67681,2,0,P|217:190|167:186,1,67.4999979400635,8|0,0:0|0:0,0:0:0:0:
107,251,68005,2,0,L|124:386,1,134.999995880127,8|8,0:1|0:0,0:0:0:0:
23,325,68492,1,8,0:0:0:0:
220,361,68654,5,0,3:0:0:0:
220,361,68978,1,8,0:0:0:0:
220,361,69302,2,0,P|251:351|297:351,1,67.4999979400635,8|2,0:1|0:0,0:0:0:0:
370,298,69627,2,0,L|445:308,1,67.4999979400635,8|2,0:0|0:0,0:0:0:0:
492,242,69951,5,0,3:0:0:0:
489,235,70113,5,10,0:1:0:0:
486,240,70275,5,8,0:0:0:0:
512,329,70438,5,10,0:1:0:0:
417,174,70762,1,10,0:1:0:0:
419,165,70924,1,8,0:0:0:0:
421,157,71086,1,10,0:1:0:0:
495,102,71248,5,4,0:0:0:0:
353,12,71573,5,8,0:0:0:0:
345,17,71735,1,4,0:0:0:0:
259,96,72059,5,8,0:3:0:0:
240,90,72221,1,0,3:1:0:0:
256,78,72384,1,0,3:1:0:0:
251,89,72546,6,0,L|139:108,1,112.500004291535,4|2,0:0|0:1,0:0:0:0:
69,60,73032,1,2,3:1:0:0:
69,60,73519,2,0,P|77:33|81:0,1,56.2500021457673,8|0,0:0|3:0,0:0:0:0:
14,143,73843,6,0,L|31:256,1,112.500004291535,2|2,3:1|0:1,0:0:0:0:
101,320,74329,2,0,P|58:354|4:351,1,112.500004291535,2|2,0:1|0:3,0:0:0:0:
30,254,74816,1,8,0:0:0:0:
219,363,75140,6,0,L|336:347,1,112.500004291535,4|10,0:3|0:1,0:0:0:0:
421,384,75627,2,0,B|435:348|435:348|418:272,1,112.500004291535,4|10,0:3|0:1,0:0:0:0:
488,213,76113,2,0,L|500:157,1,56.2500021457673,8|10,0:0|0:1,0:0:0:0:
445,85,76438,5,4,0:3:0:0:
445,85,76924,1,4,0:3:0:0:
445,85,77411,2,0,L|386:75,1,56.2500021457673,8|0,0:0|0:0,0:0:0:0:
339,0,77735,6,0,P|317:-2|284:76,1,112.500004291535,2|2,3:1|0:1,0:0:0:0:
206,131,78221,2,0,L|142:122,1,56.2500021457673,2|0,3:1|0:0,0:0:0:0:
56,176,78546,2,0,L|38:57,1,112.500004291535,2|0,0:0|3:0,0:0:0:0:
109,0,79032,5,2,3:1:0:0:
206,131,79356,5,2,0:1:0:0:
119,224,79681,5,0,3:0:0:0:
166,296,80005,5,8,0:0:0:0:
120,355,80329,6,0,L|237:342,1,112.500004291535,4|10,0:3|0:1,0:0:0:0:
298,278,80816,1,4,0:3:0:0:
445,378,81302,2,0,P|454:358|459:321,1,56.2500021457673,10|10,0:0|0:1,0:0:0:0:
480,325,81627,6,0,B|457:214|457:214|474:246|504:254,2,168.750006437302,10|10|8,0:1|0:1|0:0,0:0:0:0:
361,211,82924,6,0,L|378:96,1,112.500004291535,4|2,0:0|0:1,0:0:0:0:
318,33,83411,2,0,P|272:58|206:51,1,112.500004291535,2|0,3:1|0:0,0:0:0:0:
77,131,84059,1,0,3:0:0:0:
74,126,84221,2,0,P|75:112|89:60,1,56.2500021457673,2|0,3:1|0:0,0:0:0:0:
39,0,84546,1,2,0:1:0:0:
84,71,84708,6,0,L|94:189,1,112.500004291535,2|2,0:1|0:3,0:0:0:0:
160,238,85194,1,8,0:0:0:0:
0,384,85519,6,0,B|58:394|86:334|157:357,1,157.499995193482,2|2,3:1|0:1,0:0:0:0:
330,238,86329,1,2,0:0:0:0:
321,245,86492,2,0,L|310:300,1,52.4999983978272,8|0,0:0|3:0,0:0:0:0:
382,374,86816,6,0,P|394:352|513:316,2,157.499995193482,2|2|8,3:1|0:1|0:0,0:0:0:0:
263,249,88113,6,0,B|243:215|243:215|271:134,1,120,4|0,0:0|3:0,0:0:0:0:
206,64,88600,6,0,L|147:74,1,56.25,8|8,0:3|0:3,0:0:0:0:
33,142,89411,6,0,L|13:14,1,120,0|0,3:0|3:0,0:0:0:0:
130,190,89897,6,0,L|120:249,1,55.5000013549805,8|8,0:3|0:3,0:0:0:0:
181,309,90384,1,8,0:3:0:0:
181,309,90708,6,8,L|230:300,2,37.5,8|8|8,0:0|0:0|0:1,0:0:0:0:
322,219,91194,6,8,L|366:226,2,44.999998626709,8|8|8,0:0|0:0|0:1,0:0:0:0:
460,303,91681,6,8,L|521:295,2,52.4999983978272,8|8|8,0:0|0:0|0:1,0:0:0:0:
384,384,92167,5,8,0:0:0:0:
373,384,92248,1,8,0:0:0:0:
263,319,92654,5,8,0:0:0:0:
227,311,92735,1,8,0:0:0:0:
191,311,92816,1,8,0:0:0:0:
157,323,92897,1,8,0:0:0:0:
127,342,92978,1,8,0:3:0:0:
96,361,93059,1,0,3:0:0:0:
62,370,93140,1,0,3:0:0:0:
26,369,93221,1,0,3:0:0:0:
16,358,93302,6,0,P|30:333|127:315,1,134.999995880127,4|8,0:0|0:0,0:0:0:0:
264,249,93789,2,0,L|190:239,1,67.4999979400635,8|2,0:1|0:3,0:0:0:0:
265,371,94113,2,0,B|312:379|347:334|399:351,1,134.999995880127,8|8,0:1|0:1,0:0:0:0:
481,301,94600,2,0,P|489:274|488:226,1,67.4999979400635,0|8,3:0|0:1,0:0:0:0:
404,53,94924,1,8,0:0:0:0:
479,120,95086,5,8,0:1:0:0:
479,120,95411,1,8,0:1:0:0:
501,12,95573,5,8,0:0:0:0:
479,120,95735,1,8,0:0:0:0:
404,53,95897,6,0,L|262:72,1,134.999995880127,0|8,3:0|0:0,0:0:0:0:
133,19,96384,2,0,P|161:7|203:5,1,67.4999979400635,8|0,0:1|0:0,0:0:0:0:
165,186,96708,1,8,0:1:0:0:
165,186,96870,2,0,L|178:116,1,67.4999979400635,8|8,0:0|0:1,0:0:0:0:
79,230,97194,5,0,3:0:0:0:
147,296,97356,1,8,0:1:0:0:
90,371,97519,2,0,P|71:381|20:383,1,67.4999979400635,8|8,0:0|0:1,0:0:0:0:
248,260,97843,2,0,P|281:261|312:275,1,67.4999979400635,2|8,0:3|0:3,0:0:0:0:
383,333,98167,2,0,L|484:316,1,101.249996910095,0|0,3:1|0:0,0:0:0:0:
502,320,98492,6,0,B|508:296|523:277|523:277|497:183,1,134.999995880127,4|8,0:0|0:0,0:0:0:0:
281,0,99140,2,0,L|268:68,1,67.4999979400635,2|8,0:3|0:1,0:0:0:0:
384,179,99465,2,0,P|377:159|371:112,1,67.4999979400635,8|0,0:0|0:0,0:0:0:0:
450,37,99789,2,0,L|523:48,1,67.4999979400635,0|0,3:0|0:0,0:0:0:0:
269,168,100113,6,0,B|217:174|187:136|132:152,1,134.999995880127,8|2,0:0|0:3,0:0:0:0:
54,90,100600,1,8,0:1:0:0:
4,172,100762,2,0,P|15:207|20:245,1,67.4999979400635,8|8,0:0|0:1,0:0:0:0:
111,367,101086,2,0,L|123:297,1,67.4999979400635,0|0,3:0|0:0,0:0:0:0:
12,328,101411,1,8,0:0:0:0:
225,344,101573,6,0,P|290:338|336:385,1,134.999995880127,8|8,0:1|0:1,0:0:0:0:
512,299,102059,2,0,P|490:313|444:317,1,67.4999979400635,8|0,0:0|3:0,0:0:0:0:
372,250,102384,6,0,B|356:194|406:170|387:99,1,150,4|8,3:2|0:0,0:0:0:0:
288,58,102870,6,0,P|295:29|400:3,1,150,4|8,3:2|0:3,0:0:0:0:
230,157,103356,6,0,P|197:145|155:146,1,67.4999979400635,8|8,0:3|0:3,0:0:0:0:
59,203,103681,6,0,L|36:66,1,134.999995880127,4|8,0:0|0:0,0:0:0:0:
116,361,104167,2,0,P|64:322|0:332,1,134.999995880127,8|8,0:1|0:1,0:0:0:0:
211,268,104654,2,0,P|244:265|278:249,1,67.4999979400635,8|8,0:0|0:1,0:0:0:0:
450,357,104978,6,0,B|385:339|385:339|339:347|347:388,1,134.999995880127,0|8,3:0|0:0,0:0:0:0:
488,263,105465,2,0,P|496:230|496:190,1,67.4999979400635,8|0,0:1|0:0,0:0:0:0:
400,47,105789,1,2,0:0:0:0:
400,47,105951,2,0,L|410:118,1,67.4999979400635,8|0,0:0|0:0,0:0:0:0:
329,187,106275,6,0,P|282:156|194:171,1,134.999995880127,0|8,3:0|0:0,0:0:0:0:
96,10,106924,1,2,0:3:0:0:
5,57,107086,1,8,0:1:0:0:
88,109,107248,1,8,0:0:0:0:
96,10,107411,1,8,0:1:0:0:
0,176,107573,6,0,L|18:310,1,134.999995880127,0|8,3:0|0:0,0:0:0:0:
99,380,108059,1,8,0:1:0:0:
99,380,108221,2,0,P|132:368|168:368,1,67.4999979400635,2|2,0:3|0:1,0:0:0:0:
251,313,108546,1,8,0:3:0:0:
325,369,108708,1,0,3:0:0:0:
416,342,108870,1,4,0:0:0:0:
416,342,109194,6,8,L|423:300,3,33.7499989700318
482,237,109519,6,8,L|475:195,3,33.7499989700318,8|8|8|8,0:0|0:0|0:0|0:0,0:0:0:0:
393,158,109843,1,8,0:0:0:0:
425,165,109924,1,8,0:0:0:0:
458,159,110005,1,8,0:0:0:0:
486,140,110086,1,8,0:0:0:0:
504,112,110167,5,4,0:0:0:0:
504,112,110492,1,4,0:0:0:0:
229,0,110816,2,0,L|245:119,1,112.500004291535,2|0,0:0|3:0,0:0:0:0:
151,207,111302,1,0,3:0:0:0:
151,207,111465,2,0,P|153:185|162:148,1,56.2500021457673,4|2,0:0|0:0,0:0:0:0:
110,82,111789,2,0,L|-6:103,1,112.500004291535,4|2,0:3|0:1,0:0:0:0:
42,6,112275,1,2,0:0:0:0:
104,255,112600,5,2,0:1:0:0:
102,261,112762,2,0,P|81:281|-2:292,1,112.500004291535,4|8,0:3|0:1,0:0:0:0:
166,343,113248,2,0,P|220:342|270:378,1,112.500004291535,4|8,0:3|0:1,0:0:0:0:
343,318,113735,2,0,L|407:310,1,56.2500021457673,8|0,0:0|0:0,0:0:0:0:
483,373,114059,6,0,L|503:253,1,112.500004291535,2|4,3:1|0:3,0:0:0:0:
375,64,114708,1,2,0:1:0:0:
375,64,114870,2,0,B|355:98|355:98|367:174,1,112.500004291535,2|2,0:0|0:1,0:0:0:0:
298,235,115356,2,0,L|239:227,1,56.2500021457673,4|8,0:3|0:1,0:0:0:0:
180,167,115681,1,8,0:1:0:0:
120,227,115843,2,0,P|112:247|111:282,1,56.2500021457673,4|8,0:3|0:1,0:0:0:0:
196,361,116167,2,0,L|188:325,2,28.1250010728836,8|8|8,0:1|0:1|0:0,0:0:0:0:
196,361,116654,6,0,L|80:377,1,112.500004291535,2|4,3:1|0:3,0:0:0:0:
306,270,117302,1,2,0:1:0:0:
306,270,117465,2,0,P|354:287|418:270,1,112.500004291535,2|2,0:0|0:1,0:0:0:0:
470,207,117951,2,0,L|460:149,1,56.2500021457673,4|8,0:3|0:1,0:0:0:0:
412,273,118275,1,8,0:1:0:0:
470,207,118438,6,0,P|474:182|491:91,1,112.500004291535,4|8,0:3|0:1,0:0:0:0:
440,24,118924,1,12,0:0:0:0:
434,27,119086,1,0,0:0:0:0:
434,27,119411,5,8,0:0:0:0:
355,64,119573,1,8,0:0:0:0:
278,13,119735,5,8,0:0:0:0:
196,36,119897,1,10,0:0:0:0:
115,60,120059,1,2,0:1:0:0:
