osu file format v14

[General]
AudioFilename: audio.mp3
AudioLeadIn: 0
PreviewTime: 887
Countdown: 0
SampleSet: Soft
StackLeniency: 0.1
Mode: 0
LetterboxInBreaks: 0
WidescreenStoryboard: 1

[Editor]
Bookmarks: 20008,30386,51143,71900,92656,119413
DistanceSpacing: 1.6
BeatDivisor: 8
GridSize: 4
TimelineZoom: 1.3

[Metadata]
Title:Straight Seeker
TitleUnicode:Straight Seeker
Artist:Rita
ArtistUnicode:Rita
Creator:Irohas
Version:Expert
Source:神曲奏界ポリフォニカ アフタースクール
Tags:mugiwarasekai djulus キネティックノベル kinetic novel shinkyoku soukai polyphonica after school visual video game pop jpop japanese
BeatmapID:3474298
BeatmapSetID:1700350

[Difficulty]
HPDrainRate:6
CircleSize:4.2
OverallDifficulty:8.2
ApproachRate:9.1
SliderMultiplier:1.6
SliderTickRate:1

[Events]
//Background and Video events
0,0,"36213476_p0.jpg",0,0
//Break Periods
//Storyboard Layer 0 (Background)
//Storyboard Layer 1 (Fail)
//Storyboard Layer 2 (Pass)
//Storyboard Layer 3 (Foreground)
//Storyboard Layer 4 (Overlay)
//Storyboard Sound Samples

[TimingPoints]
-399,352.941176470588,4,2,2,30,1,0
1012,-133.333333333333,4,2,2,30,0,0
2247,-188.679245283019,4,2,2,30,0,0
3835,-133.333333333333,4,2,2,30,0,0
6659,-188.679245283019,4,2,2,30,0,0
8070,-133.333333333333,4,2,2,30,0,0
12306,-133.333333333333,4,2,2,35,0,0
13717,-133.333333333333,4,2,2,35,0,0
17953,-133.333333333333,4,2,2,45,0,0
19357,324.324324324324,4,2,1,55,1,0
19357,-125,4,2,1,55,0,0
19681,-125,4,2,2,55,0,0
20005,-100,4,2,1,60,0,0
20329,-125,4,2,1,60,0,0
20654,-125,4,2,1,60,0,0
31032,-100,4,2,1,70,0,0
33302,-66.6666666666667,4,2,1,70,0,0
34113,-100,4,2,1,70,0,0
40113,-66.6666666666667,4,2,1,70,0,0
40438,-71.4285714285714,4,2,1,70,0,0
40600,-66.6666666666667,4,2,1,70,0,0
40924,-71.4285714285714,4,2,1,70,0,0
41248,-133.333333333333,4,2,1,70,0,0
41411,-100,4,2,1,70,0,0
43519,-66.6666666666667,4,2,1,70,0,0
43681,-100,4,2,1,70,0,0
48221,-125,4,2,1,70,0,0
52113,-111.111111111111,4,2,1,60,0,0
53573,-111.111111111111,4,2,1,30,0,0
53735,-111.111111111111,4,2,1,60,0,0
55519,-111.111111111111,4,2,1,30,0,0
55681,-111.111111111111,4,2,1,60,0,0
58762,-111.111111111111,4,2,1,30,0,0
58924,-111.111111111111,4,2,1,60,0,0
60870,-66.6666666666667,4,2,1,70,0,0
61681,-66.6666666666667,4,2,1,60,0,0
61762,-142.857142857143,4,2,1,60,0,0
62167,-90.9090909090909,4,2,1,70,0,0
62492,-111.111111111111,4,2,1,60,0,0
70600,-111.111111111111,4,2,1,70,0,0
71248,-133.333333333333,4,2,1,60,0,0
72870,-133.333333333333,4,2,1,50,0,0
74735,-133.333333333333,4,2,2,50,0,0
74816,-133.333333333333,4,2,1,50,0,0
79924,-133.333333333333,4,2,2,50,0,0
80005,-133.333333333333,4,2,1,50,0,0
85113,-133.333333333333,4,2,2,50,0,0
85194,-133.333333333333,4,2,1,50,0,0
85519,-142.857142857143,4,2,1,50,0,0
88113,-100,4,2,1,55,0,0
88356,-100,4,2,1,5,0,0
88438,-76.9230769230769,4,2,1,55,0,0
88519,-76.9230769230769,4,2,1,5,0,0
88600,-125,4,2,1,55,0,0
89411,-100,4,2,1,55,0,0
89654,-100,4,2,1,5,0,0
89735,-76.9230769230769,4,2,1,55,0,0
89816,-76.9230769230769,4,2,1,5,0,0
89897,-125,4,2,1,55,0,0
90384,-62.5,4,2,1,55,0,0
90708,-62.5,4,2,1,60,0,0
91681,-50,4,2,1,60,0,0
92167,-62.5,4,2,1,60,0,0
93302,-95.2380952380952,4,2,1,80,0,0
93627,-100,4,2,1,70,0,0
95573,-40,4,2,1,70,0,0
95897,-100,4,2,1,70,0,0
97032,-71.4285714285714,4,2,1,70,0,0
97194,-100,4,2,1,70,0,0
100762,-100,4,2,1,70,0,0
102384,-55.5555555555556,4,2,1,70,0,0
102708,-66.6666666666667,4,2,1,70,0,0
102870,-45.4545454545455,4,2,1,70,0,0
103194,-71.4285714285714,4,2,1,70,0,0
103519,-142.857142857143,4,2,1,70,0,0
103681,-100,4,2,1,70,0,0
108951,-100,4,2,2,70,0,0
109113,-100,4,2,1,70,0,0
111465,-100,4,2,1,55,0,0
113492,-100,4,2,1,30,0,0
113735,-58.8235294117647,4,2,1,55,0,0
113978,-62.5,4,2,1,5,0,0
114059,-166.666666666667,4,2,1,55,0,0
120059,-166.666666666667,4,2,1,45,0,0

[Colours]
Combo1 : 250,248,207
Combo2 : 199,237,252
Combo3 : 255,227,200
Combo4 : 252,205,208

[HitObjects]
11,376,1012,6,0,P|24:350|108:332,1,120.000004577637,10|2,0:1|0:0,0:0:0:0:
185,295,1542,2,0,P|194:267|192:232,1,60.0000022888184,2|0,0:3|0:0,0:0:0:0:
129,179,1895,2,0,L|64:192,1,60.0000022888184,2|0,0:0|0:3,0:0:0:0:
386,380,2248,6,0,B|456:343|477:205|355:171|308:268|371:308,1,296.800000452881,2|2,0:0|0:0,0:0:0:0:
367,305,3836,6,0,L|387:178,1,120.000004577637,8|2,0:1|0:0,0:0:0:0:
324,106,4365,2,0,P|304:117|264:119,1,60.0000022888184,2|0,0:3|0:0,0:0:0:0:
389,27,4718,2,0,P|412:22|472:91,1,120.000004577637,2|2,0:0|0:0,0:0:0:0:
472,83,5248,1,10,0:1:0:0:
250,1,5600,6,0,L|189:13,1,60.0000022888184,2|0,0:0|0:3,0:0:0:0:
69,101,5953,2,0,L|130:89,1,60.0000022888184,4|0,0:0|0:3,0:0:0:0:
196,153,6306,2,0,P|188:174|184:216,1,60.0000022888184,2|0,0:0|0:0,0:0:0:0:
72,368,6659,6,0,B|124:308|94:172|-31:183|-40:291|32:306,1,296.800000452881,2|2,0:1|0:0,0:0:0:0:
72,368,8071,6,0,P|101:341|187:345,1,120.000004577637,8|2,0:1|0:0,0:0:0:0:
248,278,8600,1,2,0:3:0:0:
248,278,8777,2,0,L|226:159,1,120.000004577637,2|2,0:0|0:0,0:0:0:0:
380,0,9483,6,0,L|358:118,1,120.000004577637,2|2,0:1|0:0,0:0:0:0:
425,221,10012,2,0,P|436:198|437:159,1,60.0000022888184,2|4,0:3|0:0,0:0:0:0:
387,304,10365,2,0,P|412:280|500:277,1,120.000004577637,2|2,0:3|0:0,0:0:0:0:
335,384,10895,6,0,P|315:376|274:373,1,60.0000022888184,10|2,0:1|0:0,0:0:0:0:
208,319,11248,1,2,0:0:0:0:
260,245,11424,2,0,L|246:186,1,60.0000022888184,2|4,0:3|0:0,0:0:0:0:
89,384,11777,1,2,0:3:0:0:
89,384,11953,2,0,L|102:325,1,60.0000022888184,2|2,0:3|0:3,0:0:0:0:
0,256,12306,6,0,P|11:224|98:207,2,120.000004577637,10|2|8,0:1|0:0|0:0,0:0:0:0:
161,7,13365,2,0,P|151:35|147:69,1,60.0000022888184,2|0,0:3|0:0,0:0:0:0:
221,133,13718,6,0,L|350:115,1,120.000004577637,10|2,0:1|0:0,0:0:0:0:
413,183,14248,2,0,L|398:243,1,60.0000022888184,2|4,0:3|0:0,0:0:0:0:
487,348,14600,2,0,P|505:327|491:234,1,120.000004577637,2|8,0:3|0:0,0:0:0:0:
365,347,15130,6,0,B|295:324|267:390|188:370,1,180.000006866455,10|2,0:1|0:3,0:0:0:0:
102,305,15836,6,0,L|132:125,1,180.000006866455,8|8,0:2|0:0,0:0:0:0:
27,20,16542,5,8,0:1:0:0:
39,106,16718,1,10,0:0:0:0:
45,100,16895,5,10,0:0:0:0:
34,21,17071,1,2,0:3:0:0:
56,63,17248,5,2,0:1:0:0:
37,146,17424,1,2,0:3:0:0:
20,229,17600,1,10,0:0:0:0:
140,358,17953,6,0,B|182:388|279:392|396:346|422:241|383:173|291:164|226:216|269:291|292:309,1,450.000017166138,2|0,0:1|0:0,0:0:0:0:
276,287,19357,6,0,L|359:273,1,64,4|0,0:3|0:0,0:0:0:0:
433,331,19681,2,0,P|434:317|450:263,1,64,2|0,0:1|0:0,0:0:0:0:
512,204,20005,5,8,0:0:0:0:
505,172,20086,1,8,0:0:0:0:
499,141,20167,1,8,0:0:0:0:
492,109,20248,1,8,0:0:0:0:
468,99,20329,6,0,L|479:58,1,32,8|8,0:3|0:3,0:0:0:0:
392,30,20492,6,0,L|384:-1,1,32,0|0,3:0|0:0,0:0:0:0:
324,95,20654,5,4,0:0:0:0:
240,113,20816,1,0,3:0:0:0:
170,67,20978,1,8,0:0:0:0:
170,67,21302,6,0,L|39:92,1,128,10|8,0:1|0:0,0:0:0:0:
8,194,21789,2,0,P|43:196|73:184,1,64,0|10,3:0|0:1,0:0:0:0:
147,247,22113,2,0,L|134:314,1,64,0|8,3:0|0:0,0:0:0:0:
203,375,22438,2,0,P|233:346|320:349,1,128,2|0,3:2|0:0,0:0:0:0:
398,304,22924,2,0,P|406:277|408:235,1,64,8|0,0:0|0:0,0:0:0:0:
398,227,23248,1,4,0:0:0:0:
501,88,23411,6,0,L|487:152,1,64,0|8,3:0|0:0,0:0:0:0:
487,150,23897,2,0,P|483:138|478:17,1,128,10|8,0:1|0:0,0:0:0:0:
379,110,24384,2,0,L|312:101,1,64,0|10,3:0|0:1,0:0:0:0:
239,168,24708,2,0,P|206:182|169:177,1,64,0|8,3:0|0:0,0:0:0:0:
89,126,25032,2,0,P|95:93|114:-7,1,128,2|8,0:2|0:3,0:0:0:0:
178,180,25519,5,8,0:3:0:0:
103,252,25681,1,0,3:0:0:0:
176,323,25843,1,4,0:0:0:0:
99,384,26005,6,0,P|63:370|31:369,1,64,0|8,3:0|0:0,0:0:0:0:
285,365,26492,6,0,L|425:379,1,128,10|8,0:1|0:0,0:0:0:0:
498,327,26978,2,0,P|490:307|486:256,1,64,0|10,3:0|0:1,0:0:0:0:
419,143,27302,2,0,L|408:206,1,64,0|8,3:0|0:0,0:0:0:0:
512,85,27627,2,0,P|479:33|416:33,1,128,2|8,3:2|0:1,0:0:0:0:
277,99,28113,2,0,L|340:88,1,64,8|0,0:0|0:0,0:0:0:0:
417,32,28438,1,4,0:0:0:0:
246,0,28599,5,8,0:0:0:0:
108,86,28761,1,8,0:0:0:0:
262,176,28923,1,8,0:0:0:0:
209,87,29085,1,8,0:0:0:0:
189,214,29247,5,12,0:3:0:0:
191,225,29410,1,4,3:0:0:0:
348,82,29572,1,4,0:0:0:0:
111,261,29897,5,8,0:0:0:0:
109,272,30059,1,8,0:0:0:0:
348,82,30221,5,4,0:0:0:0:
0,233,30546,1,8,0:0:0:0:
17,334,30708,5,8,0:3:0:0:
15,343,30789,1,0,3:0:0:0:
14,352,30870,5,0,3:0:0:0:
12,361,30951,1,0,3:0:0:0:
29,379,31032,6,0,P|89:337|181:343,1,160,4|8,0:0|0:0,0:0:0:0:
322,226,31519,2,0,P|280:246|232:240,1,80,8|2,0:1|0:3,0:0:0:0:
264,137,31843,1,8,0:1:0:0:
435,367,32005,2,0,P|444:323|454:277,1,80,8|8,0:0|0:1,0:0:0:0:
241,384,32329,2,0,P|264:372|332:366,1,80,0|8,3:0|0:1,0:0:0:0:
511,109,32654,1,8,0:0:0:0:
430,46,32816,2,0,B|391:73|391:73|415:186,1,160,8|8,0:1|0:1,0:0:0:0:
291,267,33302,6,0,P|304:236|307:203,1,60.0000022888184,8|0,0:0|0:0,0:0:0:0:
462,384,33465,6,0,P|449:353|445:318,1,60.0000022888184,8|0,0:0|0:0,0:0:0:0:
261,361,33627,6,0,B|195:341|158:400|85:384,1,180.000006866455,0|0,3:0|0:0,0:0:0:0:
0,240,33951,2,0,L|13:300,1,60.0000022888184,8|0,0:0|0:0,0:0:0:0:
81,378,34113,6,0,L|100:288,1,80,8|2,0:1|0:3,0:0:0:0:
45,57,34438,1,8,0:1:0:0:
6,167,34600,2,0,P|49:158|91:150,1,80,8|8,0:0|0:1,0:0:0:0:
253,260,34843,1,0,0:0:0:0:
253,265,34924,2,0,P|210:274|165:284,1,80,0|8,3:0|0:1,0:0:0:0:
355,156,35248,2,0,P|381:152|456:251,1,160,8|2,0:0|0:3,0:0:0:0:
212,144,35735,5,8,0:3:0:0:
244,54,35897,1,0,3:1:0:0:
329,16,36059,1,0,3:0:0:0:
416,40,36221,1,4,0:0:0:0:
120,384,36546,6,0,P|108:361|112:297,1,80,8|2,0:0|0:0,0:0:0:0:
212,144,36870,2,0,L|197:226,1,80,2|8,0:3|0:1,0:0:0:0:
88,70,37194,1,8,0:0:0:0:
234,14,37356,1,8,0:1:0:0:
82,171,37519,2,0,L|0:159,1,80,0|0,3:0|0:0,0:0:0:0:
233,384,37843,6,0,P|255:351|334:339,1,120,8|0,0:0|0:0,0:0:0:0:
436,278,38167,2,0,L|419:361,1,80,2|8,0:3|0:1,0:0:0:0:
346,96,38492,1,8,0:0:0:0:
512,165,38654,5,8,0:1:0:0:
506,168,38735,1,2,0:1:0:0:
501,171,38816,2,0,P|484:171|419:187,1,80,0|0,3:0|0:0,0:0:0:0:
255,52,39140,1,8,0:0:0:0:
338,0,39302,6,0,L|419:13,1,80,8|2,0:1|0:3,0:0:0:0:
145,138,39627,2,0,L|223:150,1,80,8|8,0:1|0:0,0:0:0:0:
73,23,39951,1,0,3:0:0:0:
0,219,40113,6,0,B|26:214|48:240|48:240|12:106,1,180.000006866455,4|0,3:2|0:0,0:0:0:0:
148,259,40438,6,0,L|135:322,1,55.9999982910157,8|0,0:0|0:0,0:0:0:0:
209,384,40600,6,0,B|274:395|299:330|395:355,1,180.000006866455,4|0,3:2|0:0,0:0:0:0:
512,313,40924,6,0,L|494:381,1,55.9999982910157,8|0,0:3|0:0,0:0:0:0:
357,209,41086,6,0,L|366:271,1,55.9999982910157,8|0,0:3|0:0,0:0:0:0:
496,85,41248,6,0,L|488:120,1,30.0000011444092,8|0,0:3|0:0,0:0:0:0:
486,129,41411,6,0,P|460:136|384:41,1,160,4|8,0:0|0:0,0:0:0:0:
194,167,41897,1,8,0:1:0:0:
199,169,41978,1,2,0:1:0:0:
204,172,42059,2,0,P|245:165|289:158,1,80,2|8,0:3|0:1,0:0:0:0:
103,234,42384,1,8,0:0:0:0:
204,53,42546,1,8,0:1:0:0:
117,1,42708,6,0,P|95:12|39:21,1,80,0|8,3:0|0:1,0:0:0:0:
282,158,43032,1,8,0:0:0:0:
228,225,43194,6,0,L|249:352,1,120,8|0,0:1|0:0,0:0:0:0:
134,384,43519,6,0,P|137:358|150:323,1,60.0000022888184,2|0,0:0|0:0,0:0:0:0:
103,234,43681,6,0,P|75:251|18:263,1,80,8|0,0:0|0:0,0:0:0:0:
324,384,44005,6,0,B|409:379|383:331|484:339,1,160,0|8,3:0|0:0,0:0:0:0:
255,207,44492,1,2,0:0:0:0:
365,89,44654,2,0,P|356:134|347:184,1,80,2|8,0:3|0:1,0:0:0:0:
286,11,44978,1,8,0:0:0:0:
476,111,45140,1,8,0:1:0:0:
255,207,45302,6,0,P|231:196|177:192,1,80,0|8,3:0|0:1,0:0:0:0:
101,384,45627,2,0,P|99:364|85:303,1,80,8|8,0:0|0:1,0:0:0:0:
214,361,45951,5,2,0:3:0:0:
30,217,46113,1,2,0:1:0:0:
26,210,46194,1,2,0:1:0:0:
23,203,46275,5,8,0:3:0:0:
30,163,46356,1,0,3:0:0:0:
37,124,46437,1,0,3:0:0:0:
44,84,46518,1,0,3:0:0:0:
10,14,46600,1,4,0:0:0:0:
255,207,46924,5,8,0:0:0:0:
224,101,47086,1,0,3:0:0:0:
324,275,47248,5,8,0:0:0:0:
359,42,47411,1,0,3:0:0:0:
400,349,47573,5,8,0:0:0:0:
486,8,47735,1,0,3:0:0:0:
117,210,47897,5,12,0:0:0:0:
117,210,48221,6,0,B|88:83|88:83|107:115|142:118,1,192,2|8,0:1|0:3,0:0:0:0:
211,55,48789,1,2,0:1:0:0:
211,55,48870,2,0,L|202:19,2,32,0|8|8,3:0|0:1|3:1,0:0:0:0:
289,107,49113,1,0,0:0:0:0:
287,114,49194,5,4,0:0:0:0:
382,93,49356,1,8,0:0:0:0:
232,203,49519,5,8,0:0:0:0:
476,117,49681,1,8,0:0:0:0:
297,3,49843,1,8,0:0:0:0:
377,188,50005,5,12,0:3:0:0:
361,280,50167,5,4,3:0:0:0:
339,374,50329,5,4,0:0:0:0:
339,374,50654,5,8,0:0:0:0:
361,274,50816,1,8,0:0:0:0:
380,178,50978,1,4,0:0:0:0:
339,374,51302,5,8,0:0:0:0:
380,178,51465,1,8,0:3:0:0:
355,276,51627,5,0,3:0:0:0:
350,278,51708,5,0,3:0:0:0:
345,280,51789,5,4,0:0:0:0:
10,384,52113,6,0,P|0:359|2:310,1,71.9999978027344,8|0,0:0|0:0,0:0:0:0:
81,124,52438,2,0,L|67:203,1,71.9999978027344,2|2,0:1|0:0,0:0:0:0:
194,293,52762,2,0,P|187:278|180:214,1,71.9999978027344,8|0,0:0|0:0,0:0:0:0:
105,344,53086,6,0,P|119:339|230:386,1,143.999995605469,0|8,3:0|0:0,0:0:0:0:
490,267,53573,2,0,P|437:312|363:308,1,143.999995605469,2|0,0:1|0:0,0:0:0:0:
288,246,54059,2,0,P|289:232|306:175,1,71.9999978027344,8|0,0:0|0:0,0:0:0:0:
211,31,54384,2,0,L|225:103,1,71.9999978027344,0|2,3:0|0:0,0:0:0:0:
350,0,54708,6,0,P|346:11|334:78,1,71.9999978027344,8|0,0:0|0:0,0:0:0:0:
153,274,55032,2,0,P|157:263|169:196,1,71.9999978027344,2|0,0:1|0:0,0:0:0:0:
89,129,55356,6,0,L|18:144,1,71.9999978027344,8|2,0:0|0:1,0:0:0:0:
288,246,55681,2,0,L|359:231,1,71.9999978027344,0|2,3:0|0:0,0:0:0:0:
288,146,56005,1,8,0:0:0:0:
199,384,56167,6,0,P|235:354|334:350,1,143.999995605469,2|0,0:0|3:0,0:0:0:0:
512,186,56654,1,8,0:3:0:0:
347,249,56816,1,8,0:0:0:0:
476,366,56978,6,0,P|488:333|479:291,1,71.9999978027344,4|0,0:0|0:0,0:0:0:0:
366,33,57302,1,8,0:0:0:0:
290,118,57465,2,0,P|348:150|423:132,1,143.999995605469,2|0,0:0|0:0,0:0:0:0:
219,212,57951,2,0,P|209:212|144:234,1,71.9999978027344,8|2,0:0|0:0,0:0:0:0:
59,157,58275,6,0,L|84:10,1,143.999995605469,0|8,3:0|0:0,0:0:0:0:
132,320,58762,2,0,P|79:359|0:341,1,143.999995605469,2|0,0:1|3:0,0:0:0:0:
56,249,59248,1,8,0:0:0:0:
233,366,59411,1,8,0:0:0:0:
239,368,59492,1,2,0:1:0:0:
245,370,59573,6,0,B|294:350|332:396|387:377,1,143.999995605469,0|8,3:0|0:0,0:0:0:0:
512,304,60059,1,8,0:1:0:0:
512,304,60221,2,0,L|435:293,1,71.9999978027344,2|2,0:1|0:0,0:0:0:0:
351,225,60546,1,8,0:0:0:0:
464,149,60708,1,0,3:0:0:0:
266,0,60870,6,0,B|242:20|211:30|211:30|238:148,1,179.999994506836,4|0,0:0|0:0,0:0:0:0:
162,215,61194,6,0,L|97:204,1,60.0000022888184,8|0,0:0|0:0,0:0:0:0:
312,381,61356,6,0,B|362:357|384:275|322:197|234:249|251:327|283:335|321:334,1,240.000009155274,4|8,0:0|0:3,0:0:0:0:
284,325,61762,5,2,0:1:0:0:
284,325,61843,2,0,L|317:319,1,27.9999991455078,8|2,0:1|0:1,0:0:0:0:
162,215,62005,6,0,L|189:219,1,27.9999991455078,8|0,0:3|0:0,0:0:0:0:
5,367,62167,6,0,B|127:339|127:339|95:355|95:389,1,176.000005371094,4|8,0:0|0:0,0:0:0:0:
60,227,62654,1,0,0:0:0:0:
65,224,62735,1,2,0:1:0:0:
71,223,62816,2,0,P|80:202|86:152,1,71.9999978027344,8|2,0:1|0:0,0:0:0:0:
311,319,63140,2,0,P|302:298|296:248,1,71.9999978027344,8|8,0:0|0:0,0:0:0:0:
231,48,63465,6,0,L|208:202,1,143.999995605469,0|8,3:0|0:0,0:0:0:0:
399,384,63951,6,0,B|432:346|432:346|400:248,1,143.999995605469,2|0,0:0|3:0,0:0:0:0:
202,375,64438,2,0,P|227:364|280:359,1,71.9999978027344,8|8,0:0|0:0,0:0:0:0:
97,279,64762,6,0,P|76:278|41:376,1,143.999995605469,0|8,3:0|0:0,0:0:0:0:
180,206,65248,1,2,0:0:0:0:
183,201,65329,1,2,0:1:0:0:
186,196,65411,2,0,L|163:48,1,143.999995605469,8|8,0:1|0:0,0:0:0:0:
302,182,65897,1,0,0:0:0:0:
295,187,66059,2,0,L|281:262,1,71.9999978027344,0|0,3:0|3:0,0:0:0:0:
392,377,66384,2,0,P|402:346|400:300,1,71.9999978027344,8|2,0:0|0:0,0:0:0:0:
280,361,66708,5,8,0:1:0:0:
512,200,66870,1,8,0:3:0:0:
483,119,67032,1,10,0:1:0:0:
406,85,67194,1,8,0:3:0:0:
329,113,67356,5,4,0:0:0:0:
0,6,67681,1,8,0:0:0:0:
77,203,68005,5,8,0:1:0:0:
158,173,68167,1,0,3:0:0:0:
132,86,68329,1,8,0:0:0:0:
50,114,68492,1,8,0:0:0:0:
190,343,68654,5,0,3:0:0:0:
256,10,68978,1,8,0:0:0:0:
407,179,69302,5,8,0:1:0:0:
329,145,69464,1,2,0:0:0:0:
400,91,69626,1,8,0:0:0:0:
327,238,69789,5,2,0:0:0:0:
212,57,69951,1,0,3:0:0:0:
145,177,70113,1,10,0:1:0:0:
72,102,70275,1,8,0:0:0:0:
8,154,70438,5,10,0:1:0:0:
287,378,70762,5,10,0:1:0:0:
368,341,70924,5,8,0:0:0:0:
299,295,71086,5,10,0:1:0:0:
313,336,71248,6,0,B|225:311|180:406|84:384,1,240.000009155274,4|0,0:0|0:0,0:0:0:0:
18,325,72059,5,8,0:3:0:0:
23,322,72221,5,0,3:1:0:0:
18,319,72384,5,0,3:1:0:0:
21,324,72546,6,0,L|-2:199,1,120.000004577637,4|2,0:0|0:1,0:0:0:0:
60,112,73032,2,0,L|53:146,1,30.0000011444092,2|0,3:1|0:0,0:0:0:0:
311,19,73356,1,2,0:0:0:0:
223,0,73519,2,0,L|235:66,1,60.0000022888184,8|0,0:0|3:0,0:0:0:0:
313,136,73843,6,0,P|337:140|412:84,1,120.000004577637,2|2,3:1|0:1,0:0:0:0:
240,224,74329,2,0,P|196:199|123:209,1,120.000004577637,2|2,0:1|0:3,0:0:0:0:
64,260,74816,2,0,L|70:291,1,30.0000011444092,8|0,0:0|0:0,0:0:0:0:
264,383,75140,5,4,0:3:0:0:
269,380,75302,1,10,0:1:0:0:
275,378,75465,1,10,0:1:0:0:
280,376,75627,1,4,0:3:0:0:
268,356,75789,5,10,0:1:0:0:
284,359,75951,1,10,0:1:0:0:
359,371,76113,5,8,0:0:0:0:
376,374,76275,1,10,0:1:0:0:
512,246,76438,5,4,0:3:0:0:
436,268,76600,1,10,0:1:0:0:
510,234,76762,5,10,0:1:0:0:
432,260,76924,1,4,0:3:0:0:
356,289,77086,1,10,0:1:0:0:
275,231,77248,6,0,L|284:197,2,30.0000011444092,2|2|8,0:1|0:1|0:0,0:0:0:0:
9,377,77735,6,0,P|20:351|104:330,1,120.000004577637,2|2,3:1|0:1,0:0:0:0:
170,262,78221,2,0,L|147:134,1,120.000004577637,2|2,3:1|0:0,0:0:0:0:
246,29,78708,2,0,L|234:91,1,60.0000022888184,8|0,0:0|3:0,0:0:0:0:
118,5,79032,5,2,3:1:0:0:
352,93,79356,2,0,P|367:94|414:81,1,60.0000022888184,2|2,0:1|0:1,0:0:0:0:
489,133,79681,2,0,L|477:202,1,60.0000022888184,0|2,3:0|0:3,0:0:0:0:
415,255,80005,2,0,L|427:324,1,60.0000022888184,8|0,0:0|0:0,0:0:0:0:
218,380,80329,5,4,0:3:0:0:
242,297,80492,1,10,0:1:0:0:
210,378,80654,1,10,0:1:0:0:
233,295,80816,1,4,0:3:0:0:
153,320,80978,5,2,0:1:0:0:
294,369,81140,1,10,0:1:0:0:
342,251,81302,1,10,0:0:0:0:
206,191,81465,1,10,0:1:0:0:
238,287,81627,5,10,0:1:0:0:
201,196,81789,1,10,0:1:0:0:
114,229,81951,1,10,0:1:0:0:
146,319,82113,1,10,0:1:0:0:
181,251,82275,5,10,0:1:0:0:
203,157,82438,5,2,0:1:0:0:
224,63,82600,5,8,0:0:0:0:
5,16,82924,6,0,L|124:-4,1,120.000004577637,4|2,0:0|0:1,0:0:0:0:
224,63,83411,2,0,L|183:73,1,30.0000011444092,2|0,3:1|0:0,0:0:0:0:
334,0,83735,1,2,0:0:0:0:
393,60,83897,2,0,L|381:122,1,60.0000022888184,8|0,0:0|3:0,0:0:0:0:
477,205,84221,6,0,P|491:185|477:90,1,120.000004577637,2|2,3:1|0:1,0:0:0:0:
366,220,84708,2,0,L|385:349,1,120.000004577637,2|2,0:1|0:3,0:0:0:0:
285,384,85194,2,0,P|266:378|218:376,1,60.0000022888184,8|0,0:0|0:0,0:0:0:0:
141,325,85519,6,0,B|93:316|47:358|47:358|6:353|-1:322,2,167.999994873047,2|2|8,3:1|0:1|0:0,0:0:0:0:
253,233,86654,1,0,3:0:0:0:
185,165,86816,6,0,L|217:-8,2,167.999994873047,2|2|8,3:1|0:1|0:0,0:0:0:0:
512,384,88113,6,0,P|500:360|406:347,1,120,4|0,0:0|0:0,0:0:0:0:
333,293,88438,6,0,P|325:276|323:232,1,51.999997619629,0|0,3:0|0:0,0:0:0:0:
97,368,88600,6,0,B|228:339|228:339|194:355|194:398,1,192,8|8,0:3|0:3,0:0:0:0:
196,384,89411,6,0,L|173:262,1,120,0|0,3:0|0:0,0:0:0:0:
271,174,89735,6,0,P|262:197|257:237,1,51.999997619629,0|0,3:0|0:0,0:0:0:0:
0,151,89897,6,0,P|32:99|100:104,1,128,8|8,0:3|0:3,0:0:0:0:
173,146,90384,6,0,P|185:121|188:82,1,64,8|0,0:3|0:0,0:0:0:0:
277,60,90546,6,0,P|274:32|258:-1,1,64,0|0,3:0|0:0,0:0:0:0:
0,380,90708,6,0,B|36:284|198:238|219:407|104:400|71:357,1,320,8|0,0:0|0:0,0:0:0:0:
415,369,91194,6,0,B|452:337|453:228|390:195|332:213|332:213|376:229|380:283,1,320,8|0,0:0|0:0,0:0:0:0:
287,346,91681,6,8,B|254:350|236:376|236:376|298:117|298:117|276:157|245:165,1,400,8|0,0:0|0:0,0:0:0:0:
24,204,92167,6,0,B|49:100|156:21|280:81|163:137|130:117|117:62,1,320,8|0,0:0|0:0,0:0:0:0:
117,62,92654,6,0,P|124:48|133:-8,1,64,8|8,0:0|0:0,0:0:0:0:
326,197,92816,2,0,P|319:183|309:129,1,64,8|8,0:0|0:0,0:0:0:0:
164,352,92978,1,8,0:3:0:0:
146,292,93059,1,0,3:0:0:0:
92,261,93140,1,0,3:0:0:0:
32,279,93221,1,0,3:0:0:0:
13,329,93302,6,0,L|187:304,1,167.999994873047,4|8,0:0|0:0,0:0:0:0:
325,367,93789,2,0,P|298:385|242:380,1,80,8|2,0:1|0:3,0:0:0:0:
420,274,94113,2,0,P|444:269|518:371,1,160,8|8,0:1|0:1,0:0:0:0:
326,197,94600,2,0,P|328:181|347:112,1,80,0|8,3:0|0:1,0:0:0:0:
444,174,94924,5,8,0:0:0:0:
233,0,95086,2,0,B|190:25|190:25|214:147,1,160,8|8,0:1|0:1,0:0:0:0:
79,308,95573,6,8,B|53:278|48:206|114:168|178:222|155:274|102:276,1,200,8|8,0:0|0:0,0:0:0:0:
129,267,95897,6,0,L|0:291,1,120,0|0,3:0|0:0,0:0:0:0:
11,289,96221,1,8,0:0:0:0:
246,384,96384,2,0,P|251:376|261:302,1,80,8|0,0:1|0:0,0:0:0:0:
340,114,96708,2,0,L|359:241,1,120,8|0,0:1|0:0,0:0:0:0:
435,296,97032,6,0,P|448:274|452:241,1,55.9999982910157,8|0,0:1|0:0,0:0:0:0:
460,231,97194,6,0,L|443:140,1,80,0|8,3:0|0:1,0:0:0:0:
246,384,97519,6,0,P|247:369|269:294,1,80,8|8,0:0|0:1,0:0:0:0:
8,122,97843,6,0,P|16:143|28:214,1,80,2|8,0:3|0:3,0:0:0:0:
137,243,98167,6,0,P|129:222|117:151,1,80,0|0,3:1|3:0,0:0:0:0:
13,324,98411,5,0,0:0:0:0:
13,324,98492,2,0,P|43:314|135:389,2,160,4|8|2,0:0|0:0|0:3,0:0:0:0:
303,207,99302,1,8,0:1:0:0:
214,118,99465,2,0,L|197:204,1,80,8|0,0:0|0:0,0:0:0:0:
330,384,99789,2,0,L|350:297,1,80,0|0,3:0|0:0,0:0:0:0:
435,233,100113,6,0,P|457:246|518:253,1,80,8|8,0:0|0:1,0:0:0:0:
215,363,100438,2,0,P|175:366|139:384,1,80,2|0,0:3|0:0,0:0:0:0:
55,348,100762,2,0,P|49:339|39:228,1,120,8|0,0:0|0:0,0:0:0:0:
125,184,101086,6,0,P|99:195|-1:125,1,160,0|8,3:0|0:0,0:0:0:0:
199,0,101573,2,0,L|180:82,1,80,8|2,0:1|0:3,0:0:0:0:
352,112,101897,1,8,0:1:0:0:
264,238,102059,2,0,P|264:223|245:152,1,80,8|0,0:0|3:0,0:0:0:0:
428,238,102384,6,0,B|396:381|396:381|413:349|458:346,1,215.999993408203,4|0,3:2|0:0,0:0:0:0:
292,336,102708,2,0,L|223:351,1,60.0000022888184,8|0,0:0|0:0,0:0:0:0:
30,326,102870,6,0,B|52:254|140:235|192:259|192:259|152:261|133:293,1,264.000008056641,4|0,3:2|0:0,0:0:0:0:
135,289,103194,6,0,L|148:227,1,55.9999982910157,8|0,0:3|0:0,0:0:0:0:
33,112,103356,6,0,L|44:166,1,55.9999982910157,8|0,0:3|0:0,0:0:0:0:
149,47,103519,6,0,L|155:19,1,27.9999991455078,8|0,0:3|0:0,0:0:0:0:
144,1,103681,6,0,L|-17:31,1,160,4|8,0:0|0:0,0:0:0:0:
190,147,104167,1,8,0:1:0:0:
196,150,104248,1,2,0:1:0:0:
202,152,104329,2,0,P|238:136|283:139,1,80,2|8,0:3|0:1,0:0:0:0:
488,72,104654,1,8,0:0:0:0:
341,0,104816,1,8,0:1:0:0:
387,122,104978,6,0,L|362:281,1,160,0|8,3:0|0:0,0:0:0:0:
435,376,105465,2,0,P|474:379|510:361,1,80,8|0,0:1|0:0,0:0:0:0:
184,238,105789,1,2,0:0:0:0:
248,384,105951,2,0,P|248:376|273:296,1,80,8|0,0:0|0:0,0:0:0:0:
184,238,106275,6,0,L|51:263,1,120,0|0,3:0|0:0,0:0:0:0:
7,197,106600,2,0,L|23:113,1,80,8|2,0:0|0:0,0:0:0:0:
182,0,106924,5,2,0:3:0:0:
209,90,107086,1,8,0:1:0:0:
306,0,107248,5,8,0:0:0:0:
261,174,107411,1,8,0:1:0:0:
354,118,107573,6,0,P|378:113|452:215,2,160,0|8|2,3:0|0:0|0:3,0:0:0:0:
261,174,108384,5,2,0:1:0:0:
275,265,108546,5,8,0:3:0:0:
292,359,108708,5,0,3:0:0:0:
184,376,108870,5,4,0:0:0:0:
180,375,108951,1,8,0:1:0:0:
176,374,109032,1,8,0:1:0:0:
172,373,109113,1,8,0:0:0:0:
168,373,109194,1,8,0:0:0:0:
164,372,109275,1,8,0:0:0:0:
160,371,109356,1,8,0:0:0:0:
156,371,109437,1,8,0:0:0:0:
152,370,109518,1,8,0:0:0:0:
148,369,109599,1,8,0:0:0:0:
144,368,109680,1,8,0:0:0:0:
141,368,109762,1,8,0:0:0:0:
153,342,109843,5,8,0:0:0:0:
113,348,109924,5,8,0:0:0:0:
74,355,110005,5,8,0:0:0:0:
34,362,110086,5,8,0:0:0:0:
0,371,110167,5,4,0:0:0:0:
390,250,110492,1,4,0:0:0:0:
439,317,110654,5,2,0:0:0:0:
437,327,110735,1,8,0:1:0:0:
435,337,110816,1,0,3:0:0:0:
390,250,110978,5,8,0:3:0:0:
405,163,111140,1,0,3:0:0:0:
386,254,111302,1,0,3:0:0:0:
407,156,111465,5,4,0:0:0:0:
390,85,111627,1,2,0:0:0:0:
374,10,111789,1,4,0:3:0:0:
374,10,112113,5,2,0:1:0:0:
298,31,112275,1,2,0:0:0:0:
298,39,112600,5,2,0:1:0:0:
221,18,112762,1,4,0:3:0:0:
144,42,112924,1,8,0:1:0:0:
117,113,113086,1,8,0:1:0:0:
298,39,113248,1,4,0:3:0:0:
0,384,113735,6,0,B|-19:337|2:271|56:272|56:272|27:300|33:330,1,204.000003890991,8|0,0:0|0:0,0:0:0:0:
32,321,114059,6,0,L|87:311,1,47.9999985351563,2|2,3:1|0:0,0:0:0:0:
141,258,114384,1,4,0:3:0:0:
141,258,114708,1,2,0:1:0:0:
192,365,114870,2,0,P|204:337|202:312,1,47.9999985351563,2|4,0:0|0:3,0:0:0:0:
141,258,115194,1,2,0:1:0:0:
327,370,115356,1,4,0:3:0:0:
406,382,115519,1,8,0:1:0:0:
477,345,115681,1,8,0:1:0:0:
496,268,115843,1,4,0:3:0:0:
443,204,116005,5,8,0:1:0:0:
447,203,116086,5,8,0:1:0:0:
447,199,116167,5,8,0:1:0:0:
446,195,116248,5,8,0:1:0:0:
441,197,116329,5,8,0:0:0:0:
447,199,116654,2,0,L|438:146,1,47.9999985351563,2|2,3:1|0:0,0:0:0:0:
377,94,116978,2,0,L|393:-11,1,95.9999970703126,4|2,0:3|0:1,0:0:0:0:
279,62,117465,2,0,P|254:74|228:74,1,47.9999985351563,2|4,0:0|0:3,0:0:0:0:
161,25,117789,1,2,0:1:0:0:
114,92,117951,6,0,L|128:195,1,95.9999970703126,4|8,0:3|0:1,0:0:0:0:
45,256,118438,2,0,P|28:232|54:160,1,95.9999970703126,4|8,0:3|0:1,0:0:0:0:
192,366,118924,1,12,0:0:0:0:
192,366,119411,5,8,0:0:0:0:
348,262,119573,1,8,0:0:0:0:
239,188,119735,5,8,0:0:0:0:
488,274,119897,1,10,0:0:0:0:
416,346,120059,5,2,0:1:0:0:
