osu file format v14

[General]
AudioFilename: audio.mp3
AudioLeadIn: 0
PreviewTime: 887
Countdown: 0
SampleSet: Soft
StackLeniency: 0.4
Mode: 0
LetterboxInBreaks: 0
WidescreenStoryboard: 1

[Editor]
Bookmarks: 20008,30386,51143,71900,92656,119413
DistanceSpacing: 1.8
BeatDivisor: 4
GridSize: 4
TimelineZoom: 1.6

[Metadata]
Title:Straight Seeker
TitleUnicode:Straight Seeker
Artist:Rita
ArtistUnicode:Rita
Creator:Irohas
Version:Djulus' Insane
Source:神曲奏界ポリフォニカ アフタースクール
Tags:mugiwarasekai djulus キネティックノベル kinetic novel shinkyoku soukai polyphonica after school visual video game pop jpop japanese
BeatmapID:3499854
BeatmapSetID:1700350

[Difficulty]
HPDrainRate:5.5
CircleSize:4.4
OverallDifficulty:7.5
ApproachRate:8
SliderMultiplier:1.6
SliderTickRate:1

[Events]
//Background and Video events
0,0,"36213476_p0.jpg",0,0
//Break Periods
//Storyboard Layer 0 (Background)
//Storyboard Layer 1 (Fail)
//Storyboard Layer 2 (Pass)
//Storyboard Layer 3 (Foreground)
//Storyboard Layer 4 (Overlay)
//Storyboard Sound Samples

[TimingPoints]
-399,352.941176470588,4,2,2,30,1,0
1012,-133.333333333333,4,2,2,30,0,0
2247,-188.679245283019,4,2,2,30,0,0
3835,-133.333333333333,4,2,2,30,0,0
6659,-188.679245283019,4,2,2,30,0,0
8070,-133.333333333333,4,2,2,30,0,0
12306,-133.333333333333,4,2,2,35,0,0
13717,-133.333333333333,4,2,2,35,0,0
17953,-133.333333333333,4,2,2,45,0,0
19357,324.324324324324,4,2,1,55,1,0
19357,-125,4,2,1,55,0,0
19681,-100,4,2,2,55,0,0
20005,-100,4,2,1,60,0,0
20654,-100,4,2,1,60,0,0
22924,-66.6666666666667,4,2,1,60,0,0
23248,-100,4,2,1,60,0,0
31032,-100,4,2,1,70,0,0
34113,-100,4,2,1,70,0,0
40113,-66.6666666666667,4,2,1,70,0,0
40438,-71.4285714285714,4,2,1,70,0,0
40600,-66.6666666666667,4,2,1,70,0,0
40924,-71.4285714285714,4,2,1,70,0,0
41248,-133.333333333333,4,2,1,70,0,0
41411,-100,4,2,1,70,0,0
43519,-66.6666666666667,4,2,1,70,0,0
43681,-100,4,2,1,70,0,0
48221,-125,4,2,1,70,0,0
50329,-66.6666666666667,4,2,1,70,0,0
50978,-100,4,2,1,70,0,0
52113,-111.111111111111,4,2,1,60,0,0
53573,-111.111111111111,4,2,1,30,0,0
53735,-111.111111111111,4,2,1,60,0,0
55519,-111.111111111111,4,2,1,30,0,0
55681,-111.111111111111,4,2,1,60,0,0
58762,-111.111111111111,4,2,1,30,0,0
58924,-111.111111111111,4,2,1,60,0,0
60870,-66.6666666666667,4,2,1,70,0,0
61681,-66.6666666666667,4,2,1,60,0,0
61762,-142.857142857143,4,2,1,60,0,0
62167,-90.9090909090909,4,2,1,70,0,0
62492,-111.111111111111,4,2,1,60,0,0
70600,-111.111111111111,4,2,1,70,0,0
71248,-100,4,2,1,60,0,0
72546,-133.333333333333,4,2,1,60,0,0
72870,-133.333333333333,4,2,1,50,0,0
74735,-133.333333333333,4,2,2,50,0,0
74816,-133.333333333333,4,2,1,50,0,0
79924,-133.333333333333,4,2,2,50,0,0
80005,-133.333333333333,4,2,1,50,0,0
85113,-133.333333333333,4,2,2,50,0,0
85194,-133.333333333333,4,2,1,50,0,0
85519,-142.857142857143,4,2,1,50,0,0
88113,-100,4,2,1,55,0,0
88356,-100,4,2,1,5,0,0
88438,-76.9230769230769,4,2,1,55,0,0
88519,-76.9230769230769,4,2,1,5,0,0
88600,-125,4,2,1,55,0,0
89411,-100,4,2,1,55,0,0
89654,-100,4,2,1,5,0,0
89735,-76.9230769230769,4,2,1,55,0,0
89816,-76.9230769230769,4,2,1,5,0,0
89897,-125,4,2,1,55,0,0
90708,-62.5,4,2,1,60,0,0
91681,-50,4,2,1,60,0,0
92167,-62.5,4,2,1,60,0,0
92978,-133.333333333333,4,2,1,60,0,0
93302,-95.2380952380952,4,2,1,70,0,0
93627,-100,4,2,1,70,0,0
95573,-40,4,2,1,70,0,0
95897,-100,4,2,1,70,0,0
97032,-71.4285714285714,4,2,1,70,0,0
97194,-100,4,2,1,70,0,0
100762,-100,4,2,1,70,0,0
102384,-66.6666666666667,4,2,1,70,0,0
102708,-66.6666666666667,4,2,1,70,0,0
102870,-66.6666666666667,4,2,1,70,0,0
103194,-71.4285714285714,4,2,1,70,0,0
103519,-142.857142857143,4,2,1,70,0,0
103681,-100,4,2,1,70,0,0
108951,-100,4,2,2,70,0,0
109113,-100,4,2,1,70,0,0
110492,-222.222222222221,4,2,1,70,0,0
111465,-100,4,2,1,55,0,0
113492,-100,4,2,1,30,0,0
113735,-100,4,2,1,55,0,0
113978,-62.5,4,2,1,5,0,0
114059,-166.666666666667,4,2,1,55,0,0
120059,-166.666666666667,4,2,1,45,0,0

[Colours]
Combo1 : 250,248,207
Combo2 : 199,237,252
Combo3 : 255,227,200
Combo4 : 252,205,208

[HitObjects]
185,375,1012,6,0,L|210:230,1,120.000004577637,10|2,0:1|0:0,0:0:0:0:
158,187,1542,2,0,L|84:198,1,60.0000022888184,2|0,0:0|0:0,0:0:0:0:
6,133,1895,2,0,P|36:99|114:104,1,120.000004577637,2|2,0:0|0:0,0:0:0:0:
228,37,2424,5,8,0:1:0:0:
227,45,2600,1,2,0:0:0:0:
226,54,2777,1,2,0:0:0:0:
237,73,2953,6,0,B|322:89|322:29|410:64,1,169.600000258789,2|4,0:3|0:0,0:0:0:0:
448,143,3836,5,8,0:1:0:0:
448,143,4189,1,2,0:0:0:0:
441,152,4365,2,0,L|369:147,1,60.0000022888184,2|0,0:0|0:0,0:0:0:0:
337,239,4718,2,0,L|396:245,1,60.0000022888184,2|2,0:0|0:0,0:0:0:0:
279,156,5071,2,0,P|218:163|197:224,1,120.000004577637,2|2,0:0|0:0,0:0:0:0:
143,286,5600,6,0,L|14:269,2,120.000004577637,2|2|2,0:0|0:0|0:0,0:0:0:0:
143,286,6659,6,0,L|133:229,2,42.4000000646973,2|2|2,0:1|0:0|0:0,0:0:0:0:
201,354,7189,2,0,P|251:323|317:333,1,127.200000194092,2|2,0:3|0:3,0:0:0:0:
496,221,8071,5,8,0:1:0:0:
496,221,8424,2,0,L|417:215,1,60.0000022888184,2|0,0:0|0:3,0:0:0:0:
350,165,8777,2,0,L|360:229,1,60.0000022888184,0|2,0:0|0:0,0:0:0:0:
437,130,9130,2,0,P|440:87|449:58,1,60.0000022888184,2|2,0:0|0:0,0:0:0:0:
374,18,9483,6,0,L|243:34,1,120.000004577637,2|2,0:1|0:0,0:0:0:0:
177,112,10012,2,0,P|197:110|250:119,1,60.0000022888184,2|4,0:3|0:0,0:0:0:0:
129,31,10365,2,0,L|60:47,1,60.0000022888184,2|0,0:3|0:0,0:0:0:0:
18,108,10718,1,2,0:0:0:0:
26,121,10895,5,10,0:1:0:0:
18,195,11071,1,2,0:0:0:0:
4,273,11248,1,2,0:0:0:0:
94,368,11424,6,0,P|121:317|90:244,1,120.000004577637,2|2,0:3|0:3,0:0:0:0:
172,196,11953,6,0,L|244:209,1,60.0000022888184,2|2,0:3|0:3,0:0:0:0:
320,261,12306,6,0,B|375:257|533:188|390:-31|270:115|321:163|336:163,1,330.000012588501,10|0,0:1|0:0,0:0:0:0:
336,167,13365,2,0,L|414:157,1,60.0000022888184,2|0,0:3|0:0,0:0:0:0:
489,223,13718,5,10,0:1:0:0:
491,233,13895,1,2,0:0:0:0:
473,304,14071,5,2,0:0:0:0:
476,313,14248,1,2,0:3:0:0:
406,359,14424,5,4,0:0:0:0:
398,355,14600,2,0,L|317:344,1,60.0000022888184,2|2,0:3|0:0,0:0:0:0:
0,214,15130,6,0,B|49:188|90:213|90:213|123:174|189:183,1,180.000006866455,10|2,0:1|0:3,0:0:0:0:
324,133,15836,6,0,P|261:78|164:113,1,180.000006866455,8|8,0:2|0:0,0:0:0:0:
161,180,16542,6,0,L|183:301,1,120.000004577637,8|10,0:1|0:0,0:0:0:0:
246,341,17071,1,2,0:3:0:0:
247,333,17248,1,2,0:1:0:0:
305,284,17424,1,2,0:3:0:0:
379,296,17601,1,10,0:0:0:0:
426,357,17777,1,4,0:0:0:0:
506,234,17953,6,0,P|464:245|401:204,1,120.000004577637,2|2,0:1|0:0,0:0:0:0:
426,80,18483,2,0,P|482:69|544:117,1,120.000004577637,2|2,0:3|0:3,0:0:0:0:
461,161,19012,6,0,L|383:169,1,60.0000022888184,2|10,0:2|0:0,0:0:0:0:
275,229,19357,6,0,B|134:261|194:72|54:70|4:137|33:249|114:225|211:138,1,448,4|0,0:3|0:0,0:0:0:0:
282,56,20654,5,4,0:0:0:0:
348,109,20816,1,0,3:0:0:0:
438,70,20978,5,8,0:0:0:0:
438,70,21302,1,10,0:1:0:0:
438,70,21627,1,8,0:0:0:0:
495,195,21789,2,0,P|495:151|511:109,1,80,0|10,3:0|0:1,0:0:0:0:
435,293,22113,2,0,P|482:294|521:313,1,80,0|8,3:0|0:0,0:0:0:0:
341,212,22438,5,2,3:2:0:0:
336,214,22519,1,2,0:1:0:0:
303,201,22600,2,0,L|317:132,1,40,10|2,0:1|0:1,0:0:0:0:
241,58,22762,2,0,L|245:101,1,40,8|2,0:1|0:0,0:0:0:0:
145,166,22924,6,0,P|163:156|146:167,3,60.0000022888184,8|2|2|2,0:0|0:1|0:0|0:1,0:0:0:0:
83,229,23248,6,0,L|-24:246,1,80,4|0,0:0|3:0,0:0:0:0:
171,348,23573,2,0,B|249:357|246:300|331:321,1,160,8|10,0:0|0:1,0:0:0:0:
401,352,24059,1,2,0:0:0:0:
470,305,24221,5,8,0:0:0:0:
470,305,24384,2,0,L|484:213,1,80,0|10,3:0|0:1,0:0:0:0:
405,72,24708,2,0,P|421:120|396:168,1,80,0|8,3:0|0:0,0:0:0:0:
327,202,25032,2,0,L|227:188,1,80,2|10,0:2|0:1,0:0:0:0:
37,164,25356,5,8,0:3:0:0:
66,83,25519,1,8,0:3:0:0:
150,56,25681,1,0,3:0:0:0:
231,102,25843,5,4,0:0:0:0:
138,235,26005,2,0,P|126:188|149:146,1,80,0|8,3:0|0:0,0:0:0:0:
279,335,26492,5,10,0:1:0:0:
267,332,26816,1,8,0:0:0:0:
267,332,26978,2,0,L|176:345,1,80,0|10,3:0|0:1,0:0:0:0:
416,258,27302,2,0,P|456:278|504:267,1,80,0|8,3:0|0:0,0:0:0:0:
229,146,27627,1,2,3:2:0:0:
334,51,27789,1,10,0:1:0:0:
329,78,27870,1,10,0:1:0:0:
325,106,27951,1,8,0:1:0:0:
320,133,28032,1,10,0:1:0:0:
315,160,28113,2,0,L|304:55,1,80,8|0,0:0|0:0,0:0:0:0:
63,212,28600,5,8,0:0:0:0:
191,245,28762,1,8,0:0:0:0:
159,367,28924,1,8,0:0:0:0:
31,335,29086,1,8,0:0:0:0:
113,281,29248,5,12,0:3:0:0:
108,289,29411,1,4,3:0:0:0:
126,303,29573,5,4,0:0:0:0:
491,197,29897,5,8,0:0:0:0:
391,128,30059,1,8,0:0:0:0:
463,36,30221,2,0,P|507:84|459:177,1,160,4|8,0:0|0:0,0:0:0:0:
337,223,30708,5,8,0:3:0:0:
318,214,30789,1,0,3:0:0:0:
291,213,30870,1,0,3:0:0:0:
267,204,30951,1,0,3:0:0:0:
275,193,31032,6,0,P|284:145|251:94,1,80,4|0,0:0|0:0,0:0:0:0:
123,64,31356,1,8,0:0:0:0:
209,0,31519,6,0,L|184:168,1,160,8|8,0:1|0:1,0:0:0:0:
90,236,32005,2,0,P|99:192|92:145,1,80,8|8,0:0|0:1,0:0:0:0:
181,349,32329,2,0,B|155:337|142:321|142:321|13:351,1,160,0|8,3:0|0:0,0:0:0:0:
224,268,32816,2,0,L|326:288,1,80,8|2,0:1|0:3,0:0:0:0:
505,77,33302,5,8,0:0:0:0:
424,43,33465,1,8,0:0:0:0:
359,98,33627,2,0,P|310:103|276:53,1,80,0|0,3:0|0:0,0:0:0:0:
432,37,33951,5,8,0:0:0:0:
461,125,34113,2,0,L|437:300,1,160,8|8,0:1|0:1,0:0:0:0:
355,364,34600,5,8,0:0:0:0:
276,330,34762,1,8,0:1:0:0:
156,357,34924,6,0,P|137:287|186:237,1,120,0|0,3:0|0:0,0:0:0:0:
259,207,35248,2,0,L|242:304,1,80,8|8,0:0|0:1,0:0:0:0:
445,169,35573,1,2,0:3:0:0:
436,162,35735,1,8,0:3:0:0:
350,170,35897,1,0,3:1:0:0:
312,92,36059,1,0,3:0:0:0:
142,51,36221,6,0,P|72:46|48:124,1,160,4|8,0:0|0:0,0:0:0:0:
128,238,36708,1,2,0:0:0:0:
128,238,36870,2,0,P|132:185|143:143,1,80,2|8,0:3|0:1,0:0:0:0:
29,268,37194,2,0,L|47:364,1,80,8|8,0:0|0:1,0:0:0:0:
141,371,37519,6,0,P|181:336|263:361,1,120,0|0,3:0|0:0,0:0:0:0:
327,382,37843,2,0,P|328:337|346:294,1,80,8|8,0:0|0:1,0:0:0:0:
496,254,38167,6,0,P|435:257|400:227,1,80,2|8,0:3|0:1,0:0:0:0:
284,126,38492,2,0,L|378:143,1,80,8|8,0:0|0:1,0:0:0:0:
274,231,38816,6,0,B|191:235|205:185|109:209,1,160,0|8,3:0|0:0,0:0:0:0:
42,133,39302,6,0,P|6:175|40:282,1,160,8|8,0:1|0:1,0:0:0:0:
137,183,39789,5,8,0:0:0:0:
119,92,39951,1,0,3:0:0:0:
245,68,40113,2,0,B|286:34|331:53|331:53|358:116|436:99,1,180.000006866455,4|0,3:2|0:0,0:0:0:0:
397,102,40438,2,0,P|406:65|427:29,1,55.9999982910157,8|0,0:0|0:0,0:0:0:0:
512,165,40600,6,0,B|479:141|431:150|431:150|412:205|339:200,1,180.000006866455,4|0,3:2|0:0,0:0:0:0:
290,232,40924,6,0,L|363:242,1,55.9999982910157,8|0,0:3|0:0,0:0:0:0:
238,178,41086,6,0,L|171:192,1,55.9999982910157,8|0,0:3|0:0,0:0:0:0:
121,233,41248,6,0,L|78:226,1,30.0000011444092,8|0,0:3|0:0,0:0:0:0:
64,198,41411,6,0,P|9:260|54:351,1,160,4|8,0:0|0:0,0:0:0:0:
120,370,41897,1,8,0:1:0:0:
120,370,41978,1,2,0:1:0:0:
120,370,42059,2,0,L|213:364,1,80,2|8,0:3|0:1,0:0:0:0:
380,287,42384,5,8,0:0:0:0:
229,234,42546,1,8,0:1:0:0:
284,384,42708,2,0,P|300:338|273:293,1,80,0|8,3:0|0:1,0:0:0:0:
132,155,43032,1,8,0:0:0:0:
46,220,43194,2,0,P|113:259|212:230,1,160,8|2,0:1|0:0,0:0:0:0:
261,160,43681,6,0,L|245:65,1,80,8|0,0:0|0:0,0:0:0:0:
410,29,44005,6,0,B|386:58|386:58|411:152,1,120,0|0,3:0|0:0,0:0:0:0:
482,204,44329,2,0,P|487:172|508:120,1,80,8|2,0:0|0:0,0:0:0:0:
389,326,44654,6,0,P|346:292|268:311,1,120,2|0,0:3|0:0,0:0:0:0:
197,273,44978,2,0,L|213:364,1,80,8|8,0:0|0:1,0:0:0:0:
22,211,45302,6,0,B|106:222|105:166|211:195,1,160,0|8,3:0|0:0,0:0:0:0:
285,112,45789,1,8,0:1:0:0:
285,112,45951,2,0,P|228:117|195:87,1,80,2|2,0:3|0:1,0:0:0:0:
395,31,46275,5,8,0:3:0:0:
433,39,46356,1,0,3:0:0:0:
461,67,46437,1,0,3:0:0:0:
468,106,46518,1,0,3:0:0:0:
447,150,46599,5,4,0:0:0:0:
447,150,46924,5,8,0:0:0:0:
429,298,47086,1,0,3:0:0:0:
354,349,47248,5,8,0:0:0:0:
329,189,47411,1,0,3:0:0:0:
259,128,47573,5,8,0:0:0:0:
231,305,47735,1,0,3:0:0:0:
86,240,47897,5,12,0:0:0:0:
86,240,48221,2,0,P|139:241|160:160,1,128,2|2,0:1|0:0,0:0:0:0:
111,77,48708,5,8,0:3:0:0:
104,78,48789,1,2,0:1:0:0:
90,94,48870,2,0,L|40:100,1,32,0|8,3:0|0:1,0:0:0:0:
175,26,49032,2,0,L|206:32,1,32,0|2,3:0|0:0,0:0:0:0:
285,101,49194,5,4,0:0:0:0:
290,103,49356,1,8,0:0:0:0:
364,50,49519,5,8,0:0:0:0:
352,138,49681,1,8,0:0:0:0:
341,226,49843,1,8,0:0:0:0:
460,348,50005,5,12,0:3:0:0:
440,261,50167,1,4,3:0:0:0:
338,261,50329,6,0,B|225:234|242:332|99:312,1,240.000009155274,4|8,0:0|0:0,0:0:0:0:
21,199,50816,5,8,0:0:0:0:
99,152,50978,2,0,L|196:169,1,80,4|0,0:0|0:0,0:0:0:0:
379,152,51302,5,8,0:0:0:0:
220,78,51465,1,8,0:3:0:0:
335,7,51627,1,0,3:0:0:0:
327,46,51708,1,0,3:0:0:0:
320,85,51789,1,4,0:0:0:0:
320,85,52113,6,0,P|315:45|324:0,1,71.9999978027344,8|0,0:0|0:0,0:0:0:0:
142,155,52438,2,0,P|152:109|147:67,1,71.9999978027344,2|2,0:1|0:0,0:0:0:0:
297,220,52762,5,8,0:0:0:0:
297,220,53086,2,0,P|355:259|444:229,1,143.999995605469,0|8,3:0|0:0,0:0:0:0:
491,163,53573,1,2,0:1:0:0:
491,163,53735,2,0,L|401:165,1,71.9999978027344,2|0,0:1|0:0,0:0:0:0:
326,68,54059,2,0,P|367:81|411:68,1,71.9999978027344,8|0,0:0|0:0,0:0:0:0:
266,146,54384,6,0,P|230:134|189:140,1,71.9999978027344,0|2,3:0|0:0,0:0:0:0:
64,61,54708,2,0,P|104:67|136:49,1,71.9999978027344,8|0,0:0|0:0,0:0:0:0:
230,9,55032,1,2,0:1:0:0:
88,182,55356,1,8,0:0:0:0:
150,242,55519,1,2,0:1:0:0:
87,315,55681,2,0,L|-1:322,1,71.9999978027344,0|2,3:0|0:0,0:0:0:0:
215,352,56005,5,8,0:0:0:0:
218,347,56167,2,0,B|325:367|320:278|448:314,1,215.999993408203,2|8,0:0|0:3,0:0:0:0:
498,245,56816,1,8,0:0:0:0:
429,183,56978,6,0,P|377:196|342:173,1,71.9999978027344,4|0,0:0|0:0,0:0:0:0:
186,111,57302,1,8,0:0:0:0:
258,31,57465,2,0,L|280:192,1,143.999995605469,2|0,0:0|0:0,0:0:0:0:
186,264,57951,2,0,L|198:181,1,71.9999978027344,8|2,0:0|0:0,0:0:0:0:
279,358,58275,6,0,P|332:355|369:380,1,71.9999978027344,0|2,3:0|0:0,0:0:0:0:
186,264,58600,1,8,0:0:0:0:
116,321,58762,2,0,P|59:321|26:234,1,143.999995605469,2|0,0:1|3:0,0:0:0:0:
123,151,59248,2,0,P|109:187|105:237,1,71.9999978027344,8|8,0:0|0:0,0:0:0:0:
34,60,59573,5,0,3:0:0:0:
42,65,59735,1,8,0:1:0:0:
118,48,59897,1,8,0:0:0:0:
123,53,60059,1,8,0:1:0:0:
197,32,60221,1,2,0:1:0:0:
202,37,60383,1,2,0:0:0:0:
292,94,60546,5,8,0:0:0:0:
259,205,60708,1,0,3:0:0:0:
418,362,60870,6,0,B|432:339|457:329|457:329|426:183,1,180.000006866455,4|0,0:0|0:0,0:0:0:0:
497,145,61194,2,0,P|512:158|498:143,1,60.0000022888184,8|0,0:0|0:0,0:0:0:0:
417,205,61356,2,0,B|328:209|339:152|223:182,1,180.000006866455,4|0,0:0|0:0,0:0:0:0:
154,112,61681,1,8,0:3:0:0:
162,125,61762,1,2,0:1:0:0:
178,129,61843,1,8,0:1:0:0:
185,118,61924,1,2,0:1:0:0:
206,97,62005,6,0,L|196:50,1,27.9999991455078,8|0,0:3|0:0,0:0:0:0:
264,11,62167,5,4,0:0:0:0:
264,11,62492,2,0,P|255:54|258:86,1,71.9999978027344,8|0,0:0|0:0,0:0:0:0:
163,140,62816,2,0,L|82:129,1,71.9999978027344,8|2,0:1|0:0,0:0:0:0:
266,245,63140,2,0,P|319:225|381:262,1,107.999996704102,8|0,0:0|0:0,0:0:0:0:
419,316,63465,6,0,L|253:330,1,143.999995605469,0|8,3:0|0:0,0:0:0:0:
183,375,63951,2,0,B|158:342|158:342|193:228,1,143.999995605469,2|0,0:0|3:0,0:0:0:0:
261,118,64438,2,0,L|273:195,1,71.9999978027344,8|8,0:0|0:0,0:0:0:0:
374,247,64762,6,0,P|431:284|515:247,1,143.999995605469,0|8,3:0|0:0,0:0:0:0:
250,106,65411,2,0,L|103:125,1,143.999995605469,8|8,0:1|0:0,0:0:0:0:
21,346,66059,6,0,B|98:359|94:318|172:330,1,143.999995605469,0|8,3:0|0:0,0:0:0:0:
257,366,66546,2,0,P|251:316|258:285,1,71.9999978027344,2|8,0:0|0:1,0:0:0:0:
339,199,66870,1,8,0:3:0:0:
405,250,67032,1,10,0:1:0:0:
480,222,67194,1,8,0:3:0:0:
407,243,67356,6,0,L|401:159,1,71.9999978027344,4|0,0:0|0:0,0:0:0:0:
490,63,67681,2,0,P|479:105|476:143,1,71.9999978027344,8|0,0:0|0:0,0:0:0:0:
364,85,68005,2,0,P|315:107|241:57,1,143.999995605469,8|8,0:1|0:0,0:0:0:0:
137,166,68492,1,8,0:0:0:0:
137,166,68654,2,0,P|177:156|218:162,1,71.9999978027344,0|0,3:0|0:0,0:0:0:0:
135,12,68978,6,0,P|147:68|135:98,1,71.9999978027344,8|2,0:0|0:0,0:0:0:0:
11,207,69302,2,0,P|-3:151|10:126,1,71.9999978027344,8|2,0:1|0:0,0:0:0:0:
105,187,69627,2,0,L|91:278,1,71.9999978027344,8|2,0:0|0:0,0:0:0:0:
163,317,69951,5,0,3:0:0:0:
240,302,70113,1,10,0:1:0:0:
341,359,70275,5,8,0:0:0:0:
492,193,70600,1,2,0:3:0:0:
410,215,70762,1,10,0:1:0:0:
328,110,70924,5,8,0:0:0:0:
356,31,71086,1,10,0:1:0:0:
248,91,71248,6,0,L|270:256,1,160,4|8,0:0|0:0,0:0:0:0:
343,346,71735,2,0,P|350:303|362:266,1,80,4|0,0:0|0:0,0:0:0:0:
237,338,72059,5,8,0:3:0:0:
228,343,72221,1,0,3:1:0:0:
165,295,72384,1,0,3:1:0:0:
74,352,72546,6,0,P|70:308|66:291,2,60.0000022888184,4|0|2,0:0|0:0|0:1,0:0:0:0:
165,295,73032,2,0,B|146:267|146:267|172:180,1,120.000004577637,2|2,3:1|0:0,0:0:0:0:
263,138,73519,1,8,0:0:0:0:
322,184,73681,1,0,3:0:0:0:
422,143,73843,6,0,L|438:10,1,120.000004577637,2|2,3:1|0:1,0:0:0:0:
324,63,74329,6,0,B|256:71|253:22|165:44,1,150.000005722046,2|4,0:1|0:0,0:0:0:0:
159,46,74816,2,0,L|152:16,1,30.0000011444092,8|0,0:0|0:0,0:0:0:0:
26,190,75140,6,0,L|37:115,2,60.0000022888184,4|10|10,0:3|0:1|0:1,0:0:0:0:
86,263,75627,2,0,P|134:227|260:243,1,180.000006866455,4|8,0:3|0:0,0:0:0:0:
318,305,76275,1,10,0:1:0:0:
329,309,76438,6,0,L|400:319,2,60.0000022888184,4|10|10,0:3|0:1|0:1,0:0:0:0:
248,235,76924,2,0,B|234:138|293:158|272:52,1,180.000006866455,4|8,0:3|0:0,0:0:0:0:
273,60,77735,6,0,P|354:79|394:39,1,120.000004577637,2|2,3:1|0:1,0:0:0:0:
470,9,78221,2,0,L|454:144,1,120.000004577637,2|2,3:1|0:0,0:0:0:0:
376,206,78708,2,0,L|369:141,1,60.0000022888184,8|0,0:0|3:0,0:0:0:0:
464,225,79032,6,0,P|494:272|473:338,1,120.000004577637,2|2,3:1|0:1,0:0:0:0:
399,353,79519,1,2,0:1:0:0:
392,355,79681,2,0,L|288:338,1,90.0000034332277,0|4,3:0|0:0,0:0:0:0:
287,306,80005,2,0,L|321:302,1,30.0000011444092,8|0,0:0|0:0,0:0:0:0:
187,359,80329,6,0,P|137:376|72:332,1,120.000004577637,4|10,0:3|0:1,0:0:0:0:
0,257,80816,2,0,L|130:270,1,120.000004577637,4|10,0:3|0:1,0:0:0:0:
194,199,81302,2,0,L|183:127,1,60.0000022888184,10|10,0:0|0:1,0:0:0:0:
296,47,81627,5,10,0:1:0:0:
294,53,81789,1,10,0:1:0:0:
298,88,81951,1,10,0:1:0:0:
393,180,82113,5,10,0:1:0:0:
395,174,82275,1,10,0:1:0:0:
386,138,82437,1,2,0:1:0:0:
464,89,82600,6,0,L|509:98,1,30.0000011444092,8|0,0:0|0:0,0:0:0:0:
498,289,82924,6,0,P|463:260|385:264,1,120.000004577637,4|2,0:0|0:1,0:0:0:0:
288,340,83411,2,0,L|424:342,1,120.000004577637,2|0,3:1|0:0,0:0:0:0:
272,253,83897,2,0,L|202:269,1,60.0000022888184,8|0,0:0|3:0,0:0:0:0:
134,325,84221,2,0,B|112:295|112:295|140:200,1,120.000004577637,2|2,3:1|0:1,0:0:0:0:
36,67,84708,6,0,L|52:225,1,150.000005722046,2|4,0:1|0:0,0:0:0:0:
36,247,85194,2,0,L|-13:237,1,30.0000011444092,8|0,0:0|0:0,0:0:0:0:
159,179,85519,6,0,P|204:205|271:172,1,111.999996582031,2|2,3:1|0:1,0:0:0:0:
351,99,86005,2,0,L|227:108,1,111.999996582031,2|2,0:1|0:0,0:0:0:0:
359,205,86492,2,0,P|393:204|428:208,1,55.9999982910157,8|0,0:0|3:0,0:0:0:0:
501,154,86816,6,0,P|515:124|465:55,1,111.999996582031,2|2,3:1|0:1,0:0:0:0:
402,26,87302,2,0,L|277:48,1,111.999996582031,2|2,0:1|0:0,0:0:0:0:
285,40,87708,1,4,0:3:0:0:
279,36,87789,1,8,0:0:0:0:
193,86,88113,6,0,B|267:110|267:110|214:233,1,200,4|0,0:0|0:0,0:0:0:0:
278,283,88600,2,0,L|432:258,1,128,8|0,0:3|3:0,0:0:0:0:
493,281,89086,2,0,P|500:262|492:281,1,64,8|0,0:3|0:0,0:0:0:0:
279,350,89411,6,0,B|204:356|214:305|107:322,1,160,0|0,3:0|3:0,0:0:0:0:
57,255,89897,2,0,P|18:292|40:369,1,128,8|8,0:3|0:3,0:0:0:0:
140,229,90384,6,0,L|154:144,1,64,8|0,0:3|0:0,0:0:0:0:
95,84,90708,5,8,0:0:0:0:
57,90,90789,1,8,0:0:0:0:
19,96,90870,1,8,0:1:0:0:
358,309,91194,5,8,0:0:0:0:
396,303,91275,1,8,0:0:0:0:
433,297,91356,1,2,0:0:0:0:
234,27,91681,5,8,0:0:0:0:
232,36,91762,1,8,0:0:0:0:
230,43,91843,1,8,0:1:0:0:
278,357,92167,5,8,0:0:0:0:
280,348,92248,1,8,0:0:0:0:
282,341,92329,1,8,0:1:0:0:
470,206,92654,5,8,0:0:0:0:
453,165,92735,1,8,0:0:0:0:
419,136,92816,1,8,0:0:0:0:
376,127,92897,1,8,0:0:0:0:
333,138,92978,6,0,L|341:99,1,30.0000011444092,8|0,0:3|3:0,0:0:0:0:
288,39,93140,2,0,L|298:97,1,30.0000011444092,0|0,3:0|3:0,0:0:0:0:
225,130,93302,6,0,P|159:141|113:85,1,125.999996154785,4|0,0:0|0:0,0:0:0:0:
54,38,93627,2,0,P|31:79|50:132,1,80,8|8,0:0|0:1,0:0:0:0:
153,240,93951,1,2,0:3:0:0:
95,303,94113,2,0,L|6:290,1,80,8|8,0:1|0:0,0:0:0:0:
180,362,94438,1,8,0:1:0:0:
185,356,94600,5,0,3:0:0:0:
278,308,94762,1,8,0:1:0:0:
340,361,94924,1,8,0:0:0:0:
446,307,95086,6,0,P|374:323|312:269,1,160,8|8,0:1|0:1,0:0:0:0:
249,189,95573,5,8,0:0:0:0:
281,110,95735,1,8,0:0:0:0:
208,15,95897,6,0,L|232:193,1,160,0|8,3:0|0:0,0:0:0:0:
167,243,96384,2,0,L|80:236,1,80,8|0,0:1|0:0,0:0:0:0:
225,348,96708,2,0,P|269:337|321:347,1,80,8|8,0:1|0:0,0:0:0:0:
484,277,97032,1,8,0:1:0:0:
399,370,97194,6,0,L|373:205,1,160,0|8,3:0|0:0,0:0:0:0:
484,15,97843,5,2,0:3:0:0:
473,96,98005,1,8,0:3:0:0:
460,181,98167,1,0,3:1:0:0:
374,211,98329,5,0,3:0:0:0:
370,220,98492,2,0,B|295:227|300:175|205:208,1,160,4|8,0:0|0:0,0:0:0:0:
136,148,98978,1,2,0:0:0:0:
136,148,99140,2,0,P|118:198|132:234,1,80,2|8,0:3|0:1,0:0:0:0:
235,111,99465,6,0,P|223:48|224:12,1,80,8|0,0:0|0:0,0:0:0:0:
16,190,99789,2,0,P|34:131|31:91,1,80,0|0,3:0|0:0,0:0:0:0:
103,327,100113,6,0,P|45:323|11:337,1,80,8|8,0:0|0:1,0:0:0:0:
201,255,100438,2,0,P|251:267|287:248,1,80,2|0,0:3|0:0,0:0:0:0:
345,192,100762,2,0,L|322:26,1,160,8|0,0:0|3:0,0:0:0:0:
480,308,101411,1,8,0:0:0:0:
392,349,101573,6,0,B|355:331|355:331|225:369,1,160,8|8,0:1|0:1,0:0:0:0:
137,268,102059,2,0,P|193:291|233:279,1,80,8|0,0:0|3:0,0:0:0:0:
293,252,102384,6,0,B|270:163|338:172|304:51,1,180.000006866455,4|0,3:2|0:0,0:0:0:0:
253,15,102708,2,0,P|241:12|256:21,1,60.0000022888184,8|0,0:0|0:0,0:0:0:0:
319,80,102870,2,0,B|349:70|361:53|361:53|429:35|500:112,1,180.000006866455,4|0,3:2|0:0,0:0:0:0:
478,91,103194,6,0,L|465:162,1,55.9999982910157,8|0,0:3|0:0,0:0:0:0:
396,227,103356,2,0,L|383:162,1,55.9999982910157,8|0,0:3|0:0,0:0:0:0:
482,246,103519,6,0,L|478:296,1,27.9999991455078,8|0,0:3|0:0,0:0:0:0:
469,304,103681,6,0,P|415:339|324:298,1,160,4|8,0:0|0:0,0:0:0:0:
228,208,104167,1,8,0:1:0:0:
228,208,104248,1,2,0:1:0:0:
228,208,104329,2,0,L|325:224,1,80,2|8,0:3|0:1,0:0:0:0:
209,327,104654,2,0,P|171:313|122:322,1,80,8|8,0:0|0:1,0:0:0:0:
33,272,104978,5,0,3:0:0:0:
52,192,105140,1,8,0:1:0:0:
74,111,105302,1,8,0:0:0:0:
30,24,105465,6,0,L|43:121,1,80,8|0,0:1|0:0,0:0:0:0:
148,169,105789,1,2,0:0:0:0:
223,128,105951,6,0,B|302:140|303:92|397:120,1,160,8|0,0:0|3:0,0:0:0:0:
512,265,106600,1,8,0:0:0:0:
416,318,106762,1,2,0:0:0:0:
482,366,106924,2,0,L|459:253,1,80,2|8,0:3|0:1,0:0:0:0:
344,236,107248,1,8,0:0:0:0:
270,287,107411,1,8,0:1:0:0:
149,218,107573,6,0,P|119:264|159:359,1,160,0|8,3:0|0:0,0:0:0:0:
255,270,108059,2,0,P|256:219|267:172,1,80,8|2,0:1|0:3,0:0:0:0:
143,18,108384,5,2,0:1:0:0:
125,102,108546,1,8,0:3:0:0:
107,186,108708,1,0,3:0:0:0:
28,264,108870,6,0,L|67:269,7,40,4|8|8|8|8|8|8|8,0:0|0:1|0:1|0:0|0:0|0:0|0:0|0:0,0:0:0:0:
135,307,109519,1,8,0:0:0:0:
170,290,109600,1,8,0:0:0:0:
206,304,109681,1,8,0:0:0:0:
220,340,109762,1,8,0:0:0:0:
241,338,109843,1,8,0:0:0:0:
273,358,109924,1,8,0:0:0:0:
310,347,110005,1,8,0:0:0:0:
326,312,110086,1,8,0:0:0:0:
307,280,110167,5,12,0:0:0:0:
307,280,110492,6,0,L|299:194,1,71.9999978027344,4|2,0:0|0:0,0:0:0:0:
388,185,110978,1,8,0:3:0:0:
460,223,111140,1,0,3:0:0:0:
491,205,111302,1,0,3:0:0:0:
318,123,111465,6,0,P|276:138|233:117,1,80,4|2,0:0|0:0,0:0:0:0:
141,44,111789,2,0,B|186:68|186:68|157:178,1,160,4|2,0:3|0:1,0:0:0:0:
68,227,112275,1,2,0:0:0:0:
60,226,112438,2,0,P|57:178|48:146,1,80,4|2,0:3|0:1,0:0:0:0:
183,280,112762,6,0,P|147:278|105:315,2,80,4|8|8,0:3|0:1|0:1,0:0:0:0:
259,344,113248,6,0,B|359:358|338:277|463:320,1,200,4|8,0:3|0:1,0:0:0:0:
473,303,113735,2,0,L|465:253,1,40,8|0,0:0|0:0,0:0:0:0:
251,23,114059,5,2,3:1:0:0:
253,29,114221,1,2,0:0:0:0:
266,43,114384,6,0,L|258:159,1,95.9999970703126,4|0,0:3|0:0,0:0:0:0:
316,190,114870,2,0,L|331:298,1,95.9999970703126,2|2,0:0|0:1,0:0:0:0:
257,365,115356,2,0,L|267:307,1,47.9999985351563,4|8,0:3|0:1,0:0:0:0:
158,307,115681,1,8,0:1:0:0:
149,313,115843,2,0,P|101:322|43:238,1,143.999995605469,4|8,0:3|0:0,0:0:0:0:
33,87,116654,5,2,3:1:0:0:
83,146,116816,1,2,0:0:0:0:
91,149,116978,2,0,L|203:134,1,95.9999970703126,4|2,0:3|0:1,0:0:0:0:
242,190,117465,2,0,L|349:197,1,95.9999970703126,2|2,0:0|0:1,0:0:0:0:
415,111,117951,6,0,L|359:117,1,47.9999985351563,4|8,0:3|0:1,0:0:0:0:
309,51,118275,5,8,0:1:0:0:
309,51,118438,2,0,B|379:42|379:42|384:45|384:45|469:34,1,143.999995605469,4|12,0:3|0:0,0:0:0:0:
236,358,119411,5,8,0:0:0:0:
254,271,119573,1,8,0:0:0:0:
271,182,119735,1,8,0:0:0:0:
206,122,119897,6,0,L|169:128,1,23.9999992675781,10|0,0:0|0:0,0:0:0:0:
123,166,120059,6,0,L|54:171,1,47.9999985351563,2|0,0:1|0:0,0:0:0:0:
