osu file format v14

[General]
AudioFilename: audio.mp3
AudioLeadIn: 0
PreviewTime: 222400
Countdown: 0
SampleSet: Soft
StackLeniency: 0.7
Mode: 0
LetterboxInBreaks: 0
WidescreenStoryboard: 0

[Editor]
Bookmarks: 63942
DistanceSpacing: 2.6
BeatDivisor: 4
GridSize: 8
TimelineZoom: 1.499999

[Metadata]
Title:Song for friends
TitleUnicode:Song for friends
Artist:Rita
ArtistUnicode:Rita
Creator:bob80905
Version:Transcending Time
Source:リトルバスターズ!
Tags:Little Busters! 麻枝 准 MintJam setzer a2c Key Sounds Label Visual Art's Jun Maeda
BeatmapID:1355299
BeatmapSetID:614047

[Difficulty]
HPDrainRate:6
CircleSize:3.3
OverallDifficulty:7
ApproachRate:8
SliderMultiplier:1.5
SliderTickRate:1

[Events]
//Background and Video events
0,0,"song for friends background.jpg",0,0
//Break Periods
2,218766,220297
//Storyboard Layer 0 (Background)
//Storyboard Layer 1 (Fail)
//Storyboard Layer 2 (Pass)
//Storyboard Layer 3 (Foreground)
//Storyboard Layer 4 (Overlay)
//Storyboard Sound Samples

[TimingPoints]
-2712,451.127819548872,7,2,1,25,1,0
107,-133.333333333333,7,2,1,15,0,0
219,-133.333333333333,7,2,1,15,0,0
332,-133.333333333333,7,2,1,20,0,0
2701,-133.333333333333,7,2,1,30,0,0
3603,-133.333333333333,7,2,1,25,0,0
5859,-133.333333333333,7,2,1,35,0,0
6761,-133.333333333333,7,2,1,30,0,0
8565,-133.333333333333,7,2,1,25,0,0
9016,-133.333333333333,7,2,1,30,0,0
9918,-133.333333333333,7,2,1,25,0,0
12174,-133.333333333333,7,2,1,30,0,0
13076,-133.333333333333,7,2,1,20,0,0
15332,-133.333333333333,7,2,1,30,0,0
16235,-133.333333333333,7,2,1,20,0,0
18490,-133.333333333333,7,2,1,30,0,0
19392,-133.333333333333,7,2,1,20,0,0
21648,-133.333333333333,7,2,1,30,0,0
22550,-133.333333333333,7,2,1,20,0,0
24806,-133.333333333333,7,2,1,30,0,0
25708,-133.333333333333,7,2,1,20,0,0
27964,-133.333333333333,7,2,1,30,0,0
28866,-133.333333333333,7,2,1,20,0,0
29768,-133.333333333333,7,2,1,20,0,0
31122,-133.333333333333,7,2,1,30,0,0
31573,-133.333333333333,7,2,1,20,0,0
34280,-133.333333333333,7,2,1,30,0,0
35182,-133.333333333333,7,2,1,15,0,0
36535,-133.333333333333,7,2,1,20,0,0
37438,-133.333333333333,7,2,1,25,0,0
38340,-133.333333333333,7,2,1,30,0,0
40595,-133.333333333333,7,2,1,30,0,0
41047,-133.333333333333,7,2,1,20,0,0
43753,-133.333333333333,7,2,1,25,0,0
44204,-133.333333333333,7,2,1,25,0,0
46911,-133.333333333333,7,2,1,30,0,0
47813,-133.333333333333,7,2,1,25,0,0
63603,-200,7,2,1,30,0,0
64054,451.127819548872,4,2,1,35,1,1
64054,-100,4,2,1,35,0,1
70369,-83.3333333333333,4,2,1,35,0,1
70820,-100,4,2,1,35,0,1
92927,-133.333333333333,7,2,1,20,0,0
95182,-133.333333333333,7,2,1,25,0,0
96084,-133.333333333333,7,2,1,20,0,0
98340,-133.333333333333,7,2,1,25,0,0
99242,-133.333333333333,7,2,1,20,0,0
101498,-133.333333333333,7,2,1,25,0,0
102400,-133.333333333333,7,2,1,20,0,0
104656,-133.333333333333,7,2,1,25,0,0
105557,-133.333333333333,7,2,1,20,0,0
106911,-133.333333333333,7,2,1,25,0,0
107813,-133.333333333333,7,2,1,25,0,0
108716,-133.333333333333,7,2,1,20,0,0
110971,-133.333333333333,7,2,1,25,0,0
111874,-133.333333333333,7,2,1,20,0,0
114129,-133.333333333333,7,2,1,25,0,0
115031,-133.333333333333,7,2,1,20,0,0
117287,-133.333333333333,7,2,1,25,0,0
118189,-133.333333333333,7,2,1,20,0,0
120445,-133.333333333333,7,2,1,25,0,0
120896,-133.333333333333,7,2,1,20,0,0
123603,-133.333333333333,7,2,1,25,0,0
124505,-133.333333333333,7,2,1,20,0,0
126761,-133.333333333333,7,2,1,25,0,0
127663,-133.333333333333,7,2,1,20,0,0
129016,-133.333333333333,7,2,1,25,0,0
130821,-133.333333333333,7,2,1,25,0,0
156084,-200,7,2,1,25,0,0
156536,-100,7,2,1,35,0,1
185408,-133.333333333333,7,2,1,20,0,0
221047,-111.111111111111,7,2,1,10,0,0
221272,-111.111111111111,7,2,1,5,0,0
221498,-100,7,2,1,20,0,0
221723,-111.111111111111,7,2,1,5,0,0
221949,-90.9090909090908,7,2,1,25,0,0
222174,-111.111111111111,7,2,1,5,0,0
222400,-83.3333333333333,7,2,1,25,0,0
222625,-111.111111111111,7,2,1,5,0,0
222851,-100,7,2,1,25,0,0
223302,-100,7,2,1,35,0,1
251272,-100,7,2,1,35,0,0
252175,-100,7,2,1,35,0,1
265708,-80,7,2,1,35,0,1
266610,-100,7,2,1,35,0,1
281047,-133.333333333333,7,2,1,20,0,0
283302,-133.333333333333,7,2,1,25,0,0
284204,-133.333333333333,7,2,1,20,0,0
286460,-133.333333333333,7,2,1,25,0,0
287362,-133.333333333333,7,2,1,20,0,0
289618,-133.333333333333,7,2,1,25,0,0
290520,-133.333333333333,7,2,1,20,0,0
291874,-133.333333333333,7,2,1,25,0,0
292776,-133.333333333333,7,2,1,25,0,0
293678,-133.333333333333,7,2,1,20,0,0
295934,-133.333333333333,7,2,1,25,0,0
296836,-133.333333333333,7,2,1,20,0,0
299092,-133.333333333333,7,2,1,25,0,0
299994,-133.333333333333,7,2,1,20,0,0
302250,-133.333333333333,7,2,1,25,0,0
303152,-133.333333333333,7,2,1,20,0,0
303156,500,4,2,1,25,1,0
303656,555.555555555556,4,2,1,25,1,0
305044,-100,4,2,1,5,0,0

[Colours]
Combo1 : 176,87,179
Combo2 : 117,105,220
Combo3 : 181,128,74
Combo4 : 207,48,48
Combo5 : 192,192,192
Combo6 : 128,74,181
Combo7 : 213,213,43

[HitObjects]
350,141,107,5,0,0:0:0:0:
350,141,220,1,0,0:0:0:0:
350,141,333,2,0,L|326:149,2,14.0625005364418
204,197,897,6,0,P|148:173|124:117,1,112.500004291535
160,312,1799,1,2,0:0:0:0:
204,197,2250,5,0,0:0:0:0:
256,132,2475,1,0,0:0:0:0:
337,146,2701,1,0,0:0:0:0:
366,224,2927,1,0,0:0:0:0:
313,287,3152,1,0,0:0:0:0:
160,312,3603,6,0,P|96:288|64:240,1,112.500004291535,2|0,0:2|0:0,0:0:0:0:
24,144,4506,1,0,0:0:0:0:
224,98,4957,1,2,0:2:0:0:
152,224,5408,5,0,0:0:0:0:
224,265,5633,1,0,0:0:0:0:
297,224,5859,1,0,0:0:0:0:
297,140,6084,1,0,0:0:0:0:
224,98,6310,1,0,0:0:0:0:
88,176,6761,6,0,P|72:232|96:280,1,112.500004291535,2|0,0:2|0:0,0:0:0:0:
20,140,7663,1,0,0:0:0:0:
168,288,8115,1,2,0:2:0:0:
247,156,8566,5,0,0:0:0:0:
328,136,8791,1,0,0:0:0:0:
394,190,9017,1,0,0:0:0:0:
394,273,9242,1,0,0:0:0:0:
328,326,9468,1,0,0:0:0:0:
144,328,9919,6,0,P|88:288|79:228,1,112.500004291535,2|0,0:0|0:0,0:0:0:0:
180,152,10821,1,0,0:0:0:0:
272,336,11272,1,2,0:1:0:0:
198,235,11724,5,0,0:0:0:0:
180,152,11949,1,0,0:0:0:0:
224,83,12175,1,0,0:0:0:0:
305,64,12400,1,0,0:0:0:0:
375,110,12626,1,0,0:0:0:0:
351,247,13077,6,0,L|280:152,1,112.500004291535,2|0,3:1|3:0,0:0:0:0:
200,256,13979,1,0,3:2:0:0:
200,128,14430,2,0,P|232:88|304:72,1,112.500004291535,2|0,3:1|0:0,0:0:0:0:
388,124,15107,5,0,0:0:0:0:
333,320,15333,1,0,0:1:0:0:
396,218,15558,1,0,0:0:0:0:
424,328,15784,1,0,0:0:0:0:
424,328,16235,6,0,L|392:200,1,112.500004291535,2|0,3:2|3:0,3:3:0:0:
304,144,17137,1,0,3:0:0:0:
296,264,17588,2,0,P|248:304|184:304,1,112.500004291535,2|0,3:1|2:0,0:0:0:0:
57,297,18265,5,0,0:0:0:0:
228,134,18491,1,2,0:1:0:0:
199,308,18716,1,0,0:1:0:0:
82,153,18942,1,0,0:0:0:0:
82,153,19393,6,0,L|120:264,1,112.500004291535,2|0,3:2|3:0,3:3:0:0:
192,168,20295,1,0,3:0:0:0:
240,56,20746,2,0,L|256:136,1,56.2500021457673,2|0,3:2|3:0,3:3:0:0:
280,328,21197,5,0,0:0:0:0:
280,184,21423,1,0,0:0:0:0:
189,356,21648,1,0,0:1:0:0:
349,266,21874,1,0,0:0:0:0:
160,248,22100,1,0,0:0:0:0:
160,248,22551,6,0,L|280:256,1,112.500004291535,2|0,3:2|3:0,3:3:0:0:
144,168,23453,1,0,3:0:0:0:
248,256,23904,2,0,P|304:280|360:256,1,112.500004291535,2|0,3:1|0:0,0:0:0:0:
406,120,24581,5,0,0:0:0:0:
464,340,24806,1,0,0:0:0:0:
512,157,25032,1,0,0:0:0:0:
308,208,25257,1,0,0:0:0:0:
308,208,25709,6,0,L|190:158,1,112.500004291535,2|0,3:2|3:0,3:3:0:0:
88,120,26611,1,0,3:0:0:0:
112,248,27062,2,0,P|144:272|176:272,1,56.2500021457673,2|0,3:2|0:0,0:0:0:0:
289,291,27513,5,0,0:0:0:0:
328,193,27739,1,0,0:0:0:0:
186,356,27964,1,0,0:1:0:0:
390,280,28190,1,0,0:0:0:0:
215,217,28415,1,0,0:3:0:0:
219,220,28866,6,0,L|336:192,1,112.500004291535,2|0,3:2|3:0,3:3:0:0:
456,160,29769,1,0,3:0:0:0:
376,56,30220,2,0,P|328:72|304:88,1,56.2500021457673,2|0,3:2|0:0,0:0:0:0:
211,145,30671,1,0,0:0:0:0:
201,263,30897,1,0,0:0:0:0:
25,183,31122,1,0,0:0:0:0:
83,285,31348,1,0,0:0:0:0:
104,96,31573,2,0,P|128:64|160:40,1,56.2500021457673,0|0,3:0|3:0,3:3:0:0:
260,24,32024,6,0,P|316:24|380:72,1,112.500004291535,2|0,3:2|3:0,3:3:0:0:
294,205,32927,1,0,3:0:0:0:
464,80,33378,2,0,P|464:128|448:152,1,56.2500021457673,2|0,3:2|3:0,3:3:0:0:
452,288,33829,1,0,0:0:0:0:
294,205,34054,1,0,0:0:0:0:
374,366,34280,1,0,0:0:0:0:
404,190,34506,1,0,0:0:0:0:
274,318,34731,1,0,0:0:0:0:
274,318,35182,6,0,L|167:266,1,112.500004291535,2|0,3:2|3:0,3:3:0:0:
56,204,36084,1,0,3:0:0:0:
176,144,36536,2,0,P|248:120|288:128,1,112.500004291535,2|0,3:2|0:0,0:0:0:0:
390,175,37212,5,0,0:3:0:0:
344,376,37438,1,0,0:3:0:0:
432,250,37663,1,0,0:0:0:0:
257,317,37889,1,0,0:1:0:0:
257,317,38340,6,0,P|187:291|160:256,1,112.500004291535,6|0,3:2|3:0,3:3:0:0:
128,144,39242,1,0,3:0:0:0:
240,200,39694,2,0,L|295:231,1,56.2500021457673,2|0,3:2|3:0,3:3:0:0:
208,126,40145,5,0,0:0:0:0:
247,290,40370,1,0,0:0:0:0:
348,147,40596,1,2,2:1:0:0:
162,219,40821,1,0,2:0:0:0:
280,96,41047,6,0,P|336:66|384:72,1,112.500004291535,0|2,3:0|3:1,3:3:0:0:
264,8,41949,1,0,3:0:0:0:
238,136,42400,1,0,3:0:0:0:
344,64,42851,2,0,P|368:32|376:-8,1,56.2500021457673,2|0,3:1|3:0,3:3:0:0:
280,200,43303,5,0,0:0:0:0:
203,68,43528,1,0,0:0:0:0:
203,268,43754,1,0,0:1:0:0:
238,136,43979,1,0,0:1:0:0:
332,275,44205,6,0,P|372:283|428:227,1,112.500004291535,0|2,3:0|3:1,3:3:0:0:
456,136,45107,1,0,3:0:0:0:
345,138,45558,1,0,3:0:0:0:
440,216,46009,2,0,P|462:237|480:264,1,56.2500021457673,2|0,3:2|3:0,3:3:0:0:
360,216,46460,5,0,0:0:0:0:
423,326,46686,1,0,0:0:0:0:
282,185,46912,1,0,0:1:0:0:
312,299,47137,1,0,0:0:0:0:
405,137,47363,1,0,0:0:0:0:
405,137,47814,6,0,L|349:249,1,112.500004291535,2|0,3:1|3:0,3:3:0:0:
238,136,48716,1,0,3:0:0:0:
168,264,49167,2,0,P|104:256|64:200,1,112.500004291535,2|0,3:2|0:0,0:0:0:0:
76,70,49844,5,0,0:0:0:0:
166,160,50069,1,2,0:1:0:0:
206,3,50295,1,0,0:0:0:0:
248,160,50521,1,2,3:1:0:0:
336,67,50746,1,0,3:0:0:0:
166,160,50972,6,0,P|134:208|134:264,1,112.500004291535,6|0,3:2|3:0,3:3:0:0:
56,168,51874,1,0,3:0:0:0:
192,240,52325,2,0,P|240:232|296:192,1,112.500004291535,2|0,3:2|0:0,0:0:0:0:
424,72,53002,5,0,0:0:0:0:
380,234,53227,1,0,0:0:0:0:
464,185,53453,1,0,0:0:0:0:
384,322,53678,6,0,P|312:290|296:250,1,112.500004291535,2|0,3:2|3:0,3:3:0:0:
248,144,54581,1,0,3:0:0:0:
144,224,55032,2,0,L|48:296,1,112.500004291535,2|0,3:2|0:0,0:0:0:0:
240,248,55934,2,0,L|208:376,1,112.500004291535,2|0,3:1|0:0,0:0:0:0:
312,200,56836,6,0,P|368:160|504:224,1,225.000008583069,2|0,3:2|0:0,0:0:0:0:
472,304,57964,1,0,3:0:0:0:
400,248,58190,1,2,3:2:0:0:
320,304,58415,6,0,P|256:328|152:304,1,168.750006437302,0|0,3:0|0:0,0:0:0:0:
32,216,59543,2,0,L|96:184,1,56.2500021457673
184,136,59994,2,0,P|216:120|256:112,1,56.2500021457673
396,101,60445,5,0,0:0:0:0:
508,245,60897,1,0,0:0:0:0:
340,373,61348,1,0,0:0:0:0:
124,309,61799,1,0,0:0:0:0:
88,56,62250,1,2,0:1:0:0:
48,72,63603,6,0,P|32:80|16:96,1,37.5,0|0,3:0|3:0,3:3:0:0:
13,201,64054,6,0,P|64:131|250:174,1,300,4|8,2:2|2:2,2:2:0:0:
376,344,65408,1,0,3:0:0:0:
424,264,65633,2,0,P|432:224|384:112,1,150,0|0,3:0|2:0,0:0:0:0:
282,209,66310,6,0,L|258:305,1,75,2|2,0:1|2:1,0:0:0:0:
215,102,66761,2,0,L|232:16,1,75,10|0,0:2|2:0,0:0:0:0:
192,232,67212,5,0,3:0:0:0:
310,112,67438,1,0,3:0:0:0:
264,282,67663,1,2,3:1:0:0:
215,102,67889,2,0,P|179:61|62:151,1,225,0|8,3:0|2:2,0:0:0:0:
128,312,69017,1,0,3:1:0:0:
192,192,69241,2,0,P|272:128|392:120,1,225,0|0,3:1|0:0,0:0:0:0:
317,305,70370,6,8,P|274:282|261:221,1,89.9999972534181
335,229,70820,1,0,0:0:0:0:
312,39,71046,1,0,0:0:0:0:
192,192,71272,6,0,P|216:332|370:372,1,300,4|8,3:2|3:2,3:3:0:0:
480,296,72626,1,0,3:0:0:0:
336,288,72851,2,0,P|296:200|320:152,1,150,0|0,3:0|0:0,0:0:0:0:
452,226,73528,6,0,L|484:306,1,75,0|0,0:1|0:1,0:0:0:0:
390,119,73979,2,0,L|406:23,1,75,10|0,0:2|0:0,0:0:0:0:
336,288,74430,5,0,3:0:0:0:
390,119,74656,1,0,3:0:0:0:
424,304,74881,1,4,3:2:0:0:
470,119,75107,2,0,P|422:47|310:103,1,225,0|8,3:0|0:2,0:0:0:0:
424,304,76235,1,0,3:0:0:0:
264,352,76460,2,0,P|168:280|192:192,1,225,0|0,3:0|0:0,0:0:0:0:
408,200,77588,6,0,P|456:192|488:144,1,75,10|0,0:2|0:0,0:0:0:0:
336,240,78039,1,0,3:0:0:0:
416,120,78265,1,0,3:0:0:0:
336,320,78491,6,0,P|272:288|360:120,1,300,4|0,3:2|0:0,0:0:0:0:
456,360,79843,1,0,0:0:0:0:
336,320,80069,2,0,P|272:288|248:192,1,150,4|0,3:2|0:0,0:0:0:0:
312,72,80746,6,0,L|360:0,1,75
192,160,81197,2,0,L|128:240,1,75,10|0,0:2|0:0,0:0:0:0:
312,72,81648,5,0,3:0:0:0:
272,218,81874,1,0,3:0:0:0:
403,85,82100,1,0,3:0:0:0:
403,264,82325,2,0,P|339:304|179:304,1,225,0|8,3:0|3:2,3:3:0:0:
48,144,83453,1,0,3:0:0:0:
192,160,83678,2,0,B|288:160|328:208|328:208|224:232,1,225,0|2,3:0|0:1,0:0:0:0:
282,96,84806,2,0,B|346:88|386:120|386:120|386:192,1,150,8|0,3:2|0:0,0:0:0:0:
306,319,85709,5,0,3:0:0:0:
224,251,85934,1,0,0:0:0:0:
192,160,86160,2,0,P|207:98|287:101,1,150,0|8,0:0|0:2,0:0:0:0:
397,273,87062,1,0,3:0:0:0:
416,104,87513,2,0,P|384:48|280:32,1,150,0|0,3:0|3:0,3:3:0:0:
276,184,88415,2,0,P|221:152|123:190,1,150,0|0,3:0|3:0,3:3:0:0:
8,264,89318,6,0,P|44:315|158:320,1,150,0|0,1:0|2:0,1:1:0:0:
136,124,90220,2,0,P|141:185|237:247,1,150,0|0,1:0|2:0,1:1:0:0:
320,57,91122,2,0,P|293:113|345:215,1,150,0|0,1:0|2:0,1:1:0:0:
480,256,92024,1,8,0:2:0:0:
480,46,92475,1,0,0:3:0:0:
272,40,92927,6,0,P|224:88|208:152,1,112.500004291535,2|0,0:2|0:0,0:0:0:0:
336,152,93829,1,0,0:0:0:0:
264,264,94280,2,0,P|200:264|144:224,1,112.500004291535,2|0,0:2|0:0,0:0:0:0:
80,136,94957,5,0,0:0:0:0:
104,56,95182,1,0,0:0:0:0:
181,26,95408,1,0,0:0:0:0:
252,67,95633,1,0,0:0:0:0:
296,208,96084,6,0,P|224:256|176:256,1,112.500004291535
72,240,96987,1,0,0:0:0:0:
144,112,97438,2,0,P|184:72|256:48,1,112.500004291535,2|0,0:2|0:0,0:0:0:0:
368,40,98115,5,0,0:0:0:0:
449,65,98340,1,0,0:0:0:0:
480,143,98566,1,0,0:0:0:0:
437,217,98791,1,0,0:0:0:0:
296,272,99242,6,0,P|224:280|168:264,1,112.500004291535,2|0,0:2|0:0,0:0:0:0:
56,248,100145,1,0,0:0:0:0:
168,352,100596,2,0,P|232:360|296:344,1,112.500004291535,2|0,0:2|0:0,0:0:0:0:
408,272,101272,5,0,0:0:0:0:
425,188,101498,1,0,0:0:0:0:
372,121,101724,1,0,0:0:0:0:
287,121,101949,1,0,0:0:0:0:
200,272,102400,6,0,P|224:336|272:360,1,112.500004291535,2|0,0:2|0:0,0:0:0:0:
272,232,103302,1,0,0:0:0:0:
136,328,103754,2,0,P|120:272|152:208,1,112.500004291535,2|0,0:2|0:0,0:0:0:0:
264,136,104430,5,0,0:0:0:0:
346,125,104656,1,0,0:0:0:0:
412,176,104881,1,0,0:0:0:0:
424,259,105107,1,0,0:0:0:0:
288,336,105558,6,0,B|168:288,1,112.500004291535
64,248,106460,1,0,0:0:0:0:
120,128,106912,2,0,P|184:120|216:160,1,112.500004291535,2|0,3:2|0:0,0:0:0:0:
240,312,107588,5,0,0:0:0:0:
288,112,107814,1,2,0:1:0:0:
316,283,108039,1,0,0:0:0:0:
213,151,108265,1,0,0:0:0:0:
240,312,108716,6,0,P|288:360|344:360,1,112.500004291535,2|0,3:2|3:0,3:3:0:0:
448,304,109618,1,0,3:0:0:0:
316,283,110069,2,0,P|280:232|296:168,1,112.500004291535,2|0,3:2|0:0,0:0:0:0:
336,32,110746,5,0,0:0:0:0:
440,212,110972,1,0,0:0:0:0:
440,64,111197,1,0,0:0:0:0:
509,172,111423,1,0,0:0:0:0:
336,32,111874,6,0,P|272:24|216:64,1,112.500004291535,2|0,3:2|3:0,3:3:0:0:
144,136,112776,1,0,3:0:0:0:
232,230,113227,2,0,P|264:238|296:230,1,56.2500021457673
431,141,113678,5,0,0:0:0:0:
384,266,113904,1,0,0:0:0:0:
255,103,114130,1,0,2:0:0:0:
353,185,114355,1,0,2:0:0:0:
376,55,114581,1,0,2:0:0:0:
384,266,115032,6,0,P|328:266|275:221,1,112.500004291535,2|0,3:2|3:0,3:3:0:0:
424,192,115934,1,0,3:0:0:0:
352,368,116385,2,0,P|288:344|264:304,1,112.500004291535,2|0,3:2|0:0,0:0:0:0:
272,200,117062,5,0,0:0:0:0:
455,58,117287,1,2,0:1:0:0:
388,184,117513,1,0,0:0:0:0:
353,54,117739,1,0,0:0:0:0:
192,192,118190,6,0,P|200:256|256:280,1,112.500004291535,2|0,3:2|3:0,3:3:0:0:
272,168,119092,1,0,3:0:0:0:
328,304,119543,2,0,L|360:376,1,56.2500021457673,2|0,3:2|0:0,0:0:0:0:
349,152,119994,5,0,0:0:0:0:
252,319,120220,1,0,0:0:0:0:
501,236,120445,1,2,0:1:0:0:
296,236,120671,1,0,0:0:0:0:
401,305,120897,1,0,3:0:0:0:
401,305,121348,6,0,B|360:192,1,112.500004291535,2|0,3:2|3:0,3:3:0:0:
480,296,122250,1,0,3:0:0:0:
424,160,122701,2,0,L|400:88,1,56.2500021457673
479,221,123152,5,0,0:0:0:0:
504,128,123378,1,0,0:0:0:0:
360,265,123603,1,0,0:0:0:0:
424,160,123829,1,0,2:0:0:0:
464,296,124054,1,0,2:0:0:0:
464,296,124506,6,0,P|400:296|360:264,1,112.500004291535,2|0,3:2|3:0,3:3:0:0:
424,160,125408,1,0,3:0:0:0:
464,296,125859,2,0,L|488:352,1,56.2500021457673,2|0,3:2|3:0,3:3:0:0:
280,208,126310,5,0,0:0:0:0:
344,318,126536,1,0,0:0:0:0:
396,119,126761,1,2,0:1:0:0:
399,250,126987,1,0,0:0:0:0:
263,114,127212,1,0,0:0:0:0:
263,114,127663,6,0,P|207:98|144:104,1,112.500004291535,2|0,3:2|3:0,3:3:0:0:
32,144,128566,1,0,3:0:0:0:
96,256,129017,2,0,P|136:296|200:296,1,112.500004291535,2|0,3:2|0:0,0:0:0:0:
312,240,129694,5,0,0:0:0:0:
491,140,129919,1,0,0:0:0:0:
279,189,130145,1,0,0:0:0:0:
418,44,130370,1,0,0:0:0:0:
418,44,130821,6,0,P|344:64|296:96,1,112.500004291535
232,184,131724,1,0,0:0:0:0:
360,208,132175,2,0,P|392:256|400:280,1,56.2500021457673
456,336,132626,5,0,0:0:0:0:
456,176,132851,1,0,0:0:0:0:
352,376,133077,1,0,0:0:0:0:
418,258,133303,1,0,0:0:0:0:
250,350,133528,1,0,0:0:0:0:
250,350,133979,6,0,P|304:312|320:256,1,112.500004291535
352,144,134881,1,0,3:0:0:0:
224,168,135333,2,0,P|192:168|152:160,1,56.2500021457673
56,160,135784,5,0,0:0:0:0:
151,254,136009,1,0,0:0:0:0:
151,70,136235,1,0,0:0:0:0:
56,160,136460,1,0,0:0:0:0:
250,111,136686,1,0,0:0:0:0:
250,111,137137,6,0,P|216:144|144:168,1,112.500004291535
64,72,138039,1,0,0:0:0:0:
155,166,138491,2,0,P|175:210|171:238,1,56.2500021457673
126,340,138942,5,0,0:0:0:0:
95,227,139167,1,0,0:0:0:0:
278,332,139393,1,0,0:0:0:0:
212,217,139618,1,0,0:0:0:0:
385,263,139844,1,0,0:0:0:0:
385,263,140295,6,0,P|320:256|280:216,1,112.500004291535
408,176,141197,1,0,0:0:0:0:
280,136,141648,2,0,P|200:128|160:152,1,112.500004291535,2|0,3:1|0:0,0:0:0:0:
19,242,142325,5,0,0:0:0:0:
66,63,142551,1,0,0:0:0:0:
127,293,142776,1,0,0:0:0:0:
236,104,143002,1,2,3:1:0:0:
10,164,143227,1,0,0:0:0:0:
237,230,143453,6,0,P|262:238|355:230,2,112.500004291535,4|0|0,3:2|3:0|3:0,3:3:0:0:
64,72,144806,2,0,L|104:184,1,112.500004291535,2|0,3:1|0:0,0:0:0:0:
163,290,145483,5,0,0:0:0:0:
352,184,145709,1,2,3:1:0:0:
235,297,145934,1,0,0:0:0:0:
352,184,146160,6,0,P|408:168|456:192,1,112.500004291535,2|0,3:1|3:0,3:3:0:0:
440,80,147062,1,0,3:0:0:0:
352,184,147513,2,0,L|264:280,1,112.500004291535,2|0,3:1|0:0,0:0:0:0:
416,272,148415,2,0,L|384:384,1,112.500004291535,2|0,3:1|0:0,0:0:0:0:
440,200,149318,6,0,P|450:150|328:24,1,225.000008583069,2|2,3:1|0:1,0:0:0:0:
201,117,150671,1,0,3:0:0:0:
288,104,150897,2,0,P|364:156|314:210,1,168.750006437302,0|0,3:0|0:1,0:0:0:0:
120,184,152023,2,0,L|168:232,1,56.2500021457673
232,296,152475,2,0,P|256:320|296:336,1,56.2500021457673,2|0,3:1|3:0,3:3:0:0:
392,336,152927,5,0,0:0:0:0:
480,192,153378,1,0,0:0:0:0:
344,32,153829,1,0,0:0:0:0:
80,72,154280,1,0,0:0:0:0:
128,320,154731,1,2,0:1:0:0:
168,200,156084,6,0,P|144:216|136:240,1,37.5
72,264,156536,6,0,P|120:160|304:200,1,300,6|8,3:1|3:2,3:3:0:0:
384,336,157889,1,0,3:0:0:0:
447,255,158115,2,0,P|439:135|407:103,1,150,0|0,3:0|0:2,0:0:0:0:
304,32,158791,6,0,L|224:64,1,75,10|0,0:2|0:0,0:0:0:0:
223,182,159242,2,0,L|295:158,1,75
424,117,159693,5,0,0:0:0:0:
503,226,159919,1,0,0:0:0:0:
424,336,160145,1,0,0:0:0:0:
296,296,160370,2,0,P|344:208|432:272,1,225
232,352,161498,1,0,3:0:0:0:
144,272,161723,2,0,P|107:145|184:72,1,225,0|8,3:0|0:2,0:0:0:0:
266,236,162851,6,0,P|299:251|335:245,1,75,10|0,0:2|0:0,0:0:0:0:
408,176,163303,1,0,0:0:0:0:
451,13,163528,1,0,0:0:0:0:
512,208,163754,6,0,P|384:280|328:232,1,225,12|0,3:2|0:2,0:0:0:0:
208,112,164656,2,0,P|136:144|136:232,1,150,8|0,3:2|3:0,3:3:0:0:
184,320,165333,2,0,P|256:336|312:272,1,150,0|0,3:0|0:2,0:0:0:0:
368,96,166009,6,0,L|392:8,1,75
360,176,166460,2,0,L|392:264,1,75
422,331,166912,5,2,3:1:0:0:
266,175,167137,1,0,3:0:0:0:
432,219,167363,5,8,3:2:0:0:
213,122,167588,2,0,P|104:138|96:263,1,225,0|8,3:0|0:2,0:0:0:0:
342,262,168716,1,0,3:0:0:0:
328,368,168942,2,0,P|240:360|184:240,1,225,0|0,3:0|0:2,0:0:0:0:
408,296,170069,6,0,P|352:272|336:256,1,75,10|0,0:2|0:0,0:0:0:0:
248,192,170521,1,0,3:0:0:0:
408,112,170746,1,0,3:0:0:0:
408,296,170972,6,0,P|368:224|472:232,1,225,12|0,3:2|0:2,0:0:0:0:
288,304,171874,2,0,B|200:312|248:248|120:280,1,150,8|0,3:2|3:0,3:3:0:0:
32,264,172551,2,0,P|8:200|80:144,1,150
232,96,173227,6,2,L|336:64,1,75
368,224,173678,2,2,L|264:256,1,75
432,176,174130,5,0,3:1:0:0:
264,176,174355,1,0,3:0:0:0:
408,296,174581,1,12,3:2:0:0:
512,200,174806,2,0,P|504:136|432:96,1,150
303,73,175483,2,0,P|320:16|336:72,1,150
264,176,176159,2,0,P|152:216|40:224,1,225,0|2,3:0|0:2,0:0:0:0:
368,224,177287,2,0,P|296:264|224:288,1,150,8|0,3:2|0:2,0:0:0:0:
8,256,178190,5,12,3:2:0:0:
128,336,178415,1,0,0:0:0:0:
88,192,178641,2,0,P|80:136|120:48,1,150,0|8,0:2|0:2,0:0:0:0:
0,176,179543,1,0,3:0:0:0:
176,136,179994,2,0,P|240:120|328:152,1,150
432,240,180897,2,0,B|448:304|400:336|400:336|336:328,1,150
160,312,181799,6,0,P|88:296|40:224,1,150,12|0,0:2|0:0,0:0:0:0:
288,296,182701,2,0,P|233:246|228:159,1,150,12|0,0:2|0:0,0:0:0:0:
440,304,183603,2,0,P|417:233|456:156,2,150,12|0|0,0:2|0:0|0:0,0:0:0:0:
241,314,185408,5,0,0:0:0:0:
157,265,185633,1,0,0:0:0:0:
157,169,185859,1,0,0:0:0:0:
241,120,186084,1,0,0:0:0:0:
325,169,186310,2,0,P|336:256|312:280,1,112.500004291535
241,314,186987,2,0,P|176:296|160:240,2,112.500004291535,0|0|0,3:0|3:0|3:0,3:3:0:0:
448,224,188566,5,2,3:3:0:0:
448,224,188791,2,0,P|408:168|352:168,1,112.500004291535,0|0,3:0|3:0,3:3:0:0:
224,248,189694,2,0,P|184:272|120:264,2,112.500004291535,0|0|0,3:0|3:0|3:0,3:3:0:0:
288,168,190821,1,2,3:3:0:0:
424,208,191272,2,0,P|456:264|352:360,1,225.000008583069,2|2,3:0|0:3,0:0:0:0:
184,320,192626,5,0,0:0:0:0:
118,254,192851,1,0,0:0:0:0:
142,163,193077,1,0,0:0:0:0:
231,140,193303,1,0,0:0:0:0:
297,205,193528,2,0,P|313:261|281:301,1,112.500004291535
384,288,194205,2,0,P|440:240|448:200,2,112.500004291535,0|0|0,3:0|3:0|3:0,3:3:0:0:
144,208,195784,5,2,3:0:0:0:
144,208,196009,2,0,P|136:152|192:112,1,112.500004291535
280,192,196912,2,0,L|194:291,1,112.500004291535,0|0,3:0|3:0,3:3:0:0:
328,128,197814,1,0,3:0:0:0:
384,192,198039,2,0,P|384:272|160:336,1,337.500012874604,2|2,3:0|2:2,3:3:0:0:
88,248,199618,2,2,L|40:240,2,28.1250010728836,2|2|6,0:2|0:2|0:1,0:0:0:0:
224,304,200069,5,0,0:0:0:0:
384,256,200295,1,0,0:0:0:0:
251,222,200521,1,0,0:0:0:0:
384,256,200746,2,0,P|440:208|440:184,1,84.3750032186509
440,176,201197,1,0,0:0:0:0:
424,56,201423,2,0,P|400:40|304:40,1,112.500004291535
232,88,202100,1,0,0:0:0:0:
352,128,202325,2,0,P|344:152|320:176,1,56.2500021457673
160,160,203002,5,2,3:2:0:0:
96,224,203227,2,0,P|72:184|88:104,1,112.500004291535,0|0,3:0|3:0,3:3:0:0:
240,224,204130,2,0,P|248:168|304:112,1,112.500004291535,0|0,3:0|3:0,3:3:0:0:
272,320,205032,1,0,3:0:0:0:
136,264,205257,2,0,P|112:240|144:160,1,112.500004291535,2|8,3:1|0:2,3:3:0:0:
320,128,206160,2,0,P|344:152|312:232,1,112.500004291535,2|8,3:1|0:2,3:3:0:0:
96,240,207062,5,2,0:1:0:0:
178,163,207287,1,0,0:0:0:0:
133,330,207513,1,0,0:0:0:0:
276,248,207739,1,0,0:0:0:0:
96,240,207964,2,0,P|52:228|20:180,1,84.3750032186509
20,156,208415,1,0,0:0:0:0:
156,140,208641,2,0,P|212:188|220:236,1,112.500004291535
96,240,209318,1,0,0:0:0:0:
200,312,209543,2,0,P|240:320|264:312,1,56.2500021457673
384,272,209994,6,0,L|448:264,2,56.2500021457673,0|8|0,3:0|3:2|3:0,3:3:0:0:
312,216,210671,1,0,0:0:0:0:
224,248,210897,2,0,B|176:264|176:264|136:216,1,112.500004291535
120,352,211799,2,0,P|150:366|230:328,1,112.500004291535,0|0,3:0|3:0,3:3:0:0:
256,248,212475,6,0,P|296:144|464:224,1,337.500012874604,2|2,3:1|2:1,3:3:0:0:
424,304,214054,2,0,P|392:328|168:280,1,281.250010728836,0|0,3:0|2:0,3:3:0:0:
72,136,215633,6,0,P|64:64|192:80,1,225.000008583069,2|8,3:3|0:2,0:0:0:0:
272,176,216761,1,0,3:0:0:0:
360,88,216987,1,2,3:3:0:0:
232,272,217663,6,0,L|192:296,2,28.1250010728836
351,201,218114,1,0,0:0:0:0:
284,84,218339,1,0,0:0:0:0:
167,151,218566,1,0,0:0:0:0:
288,304,221047,6,0,L|360:368,1,67.4999979400635,2|0,0:1|0:0,0:0:0:0:
344,224,221498,2,0,L|376:320,1,75,2|0,0:1|0:0,0:0:0:0:
424,160,221949,2,0,L|408:264,1,82.5000025177003,2|0,0:1|0:0,0:0:0:0:
512,152,222400,2,0,L|456:248,1,89.9999972534181,2|0,0:1|0:0,0:0:0:0:
367,295,222851,5,0,3:0:0:0:
424,160,223077,1,0,3:0:0:0:
256,168,223303,2,0,P|200:184|128:264,1,150,6|0,0:1|0:2,0:0:0:0:
264,320,223979,1,0,3:0:0:0:
152,344,224205,2,0,P|88:320|32:240,1,150,8|0,3:2|3:0,0:0:0:0:
40,104,224881,2,0,P|88:64|192:88,1,150,0|0,3:0|0:0,0:0:0:0:
288,168,225558,6,0,L|344:232,1,75
456,344,226009,2,0,L|424:264,1,75
360,64,226460,5,0,3:1:0:0:
296,232,226686,1,0,3:0:0:0:
496,208,226912,1,8,3:2:0:0:
360,64,227137,2,0,P|272:32|144:104,1,225,0|8,3:0|0:2,0:0:0:0:
296,216,228265,1,0,3:0:0:0:
220,281,228491,2,0,B|116:314|79:261|79:261|154:229,1,225
312,120,229617,6,0,P|344:120|384:160,1,75
440,256,230069,1,0,0:0:0:0:
245,308,230295,1,0,0:0:0:0:
312,120,230521,6,0,P|368:88|520:152,1,225,4|0,3:2|3:0,0:0:0:0:
344,200,231423,2,0,P|440:176|464:208,1,150,8|0,3:2|3:2,0:0:0:0:
448,352,232100,2,0,P|384:376|312:320,1,150,0|0,3:0|0:0,0:0:0:0:
248,136,232776,6,0,L|232:56,1,75
344,200,233227,2,0,L|368:280,1,75
352,113,233678,5,0,3:0:0:0:
273,292,233904,1,0,3:0:0:0:
437,198,234129,1,8,3:2:0:0:
192,264,234355,2,0,P|104:240|64:112,1,225,0|8,3:0|3:2,0:0:0:0:
360,136,235483,1,0,3:0:0:0:
272,48,235709,2,0,P|200:48|144:192,1,225,0|4,3:0|0:2,0:0:0:0:
424,88,236836,2,0,L|336:144,1,75,8|0,0:2|0:0,0:0:0:0:
160,240,237287,1,0,3:0:0:0:
384,200,237513,1,0,3:0:0:0:
160,136,237739,6,0,P|88:168|136:344,1,300,4|8,3:1|3:2,0:0:0:0:
384,200,239092,1,0,3:0:0:0:
264,288,239318,2,0,P|176:280|136:232,1,150,0|0,3:0|0:0,0:0:0:0:
88,64,239994,6,0,B|120:32|120:32|160:24,1,75
240,144,240445,2,0,B|192:144|192:144|168:112,1,75
88,64,240897,5,0,3:0:0:0:
152,216,241122,1,0,3:0:0:0:
208,48,241348,1,8,3:2:0:0:
264,216,241573,2,0,P|344:224|392:152,1,150,0|0,3:0|0:0,0:0:0:0:
272,8,242250,2,0,L|312:152,1,150,8|0,3:2|3:0,0:0:0:0:
352,296,242927,2,0,P|240:288|176:200,1,225,8|4,3:3|0:2,0:0:0:0:
128,384,244054,2,0,L|96:224,1,150,8|8,3:2|0:2,0:0:0:0:
64,16,244957,5,12,0:2:0:0:
136,88,245182,1,0,0:0:0:0:
224,56,245408,2,0,P|272:32|376:48,1,150,0|8,0:0|0:2,0:0:0:0:
304,152,246310,5,0,3:0:0:0:
336,280,246761,2,0,P|416:272|456:216,1,150,8|0,3:2|0:0,0:0:0:0:
416,80,247663,1,8,3:2:0:0:
272,32,248115,1,4,3:3:0:0:
123,51,248566,6,0,P|120:104|192:176,1,150
16,152,249468,2,0,P|30:202|123:245,1,150
8,296,250370,2,0,P|39:338|140:346,1,150
336,232,251272,1,8,0:3:0:0:
336,232,251724,5,0,3:0:0:0:
192,320,251949,1,0,3:0:0:0:
88,192,252175,2,0,P|64:136|232:80,1,300,6|8,0:1|0:2,0:0:0:0:
40,8,253528,1,0,3:0:0:0:
152,128,253754,2,0,L|256:240,1,150,0|0,3:0|0:0,0:0:0:0:
416,368,254430,6,0,P|480:344|488:312,1,75
360,296,254881,2,0,B|320:288|320:288|304:240,1,75
320,104,255333,5,0,3:0:0:0:
200,216,255558,1,0,3:0:0:0:
424,232,255784,1,8,3:2:0:0:
320,104,256009,2,0,P|216:48|96:32,1,225,0|8,3:0|0:2,0:0:0:0:
264,160,257137,1,0,3:0:0:0:
96,168,257363,2,0,P|64:248|184:304,1,225,0|0,3:0|0:2,0:0:0:0:
400,192,258491,6,0,P|436:163|456:120,1,75
320,216,258942,1,0,0:0:0:0:
412,56,259167,1,0,0:0:0:0:
240,152,259393,6,0,P|208:200|368:344,1,300,12|8,0:2|0:2,0:0:0:0:
464,176,260746,1,0,3:0:0:0:
328,280,260972,2,0,P|280:232|344:200,1,150,0|0,3:0|0:0,0:0:0:0:
464,176,261648,6,0,P|504:152|512:120,1,75
412,56,262099,2,0,P|372:80|364:112,1,75
360,304,262551,5,0,3:0:0:0:
296,144,262776,1,8,3:2:0:0:
240,344,263002,1,0,0:0:0:0:
448,272,263227,2,0,P|480:240|408:104,1,225,0|8,3:0|0:2,0:0:0:0:
128,208,264355,1,0,3:0:0:0:
192,144,264581,2,0,P|272:144|416:200,1,225,0|4,3:0|0:2,0:0:0:0:
248,224,265709,6,0,P|325:243|364:266,1,93.75,8|0,0:2|0:0,0:0:0:0:
456,336,266160,1,8,3:3:0:0:
504,112,266385,1,12,3:3:0:0:
337,249,266611,6,0,P|321:113|425:169,1,300,4|8,3:1|3:2,0:0:0:0:
408,280,267964,1,0,3:0:0:0:
352,176,268190,2,0,P|280:112|216:104,1,150,0|0,3:0|0:0,0:0:0:0:
93,118,268866,6,0,P|69:150|69:206,1,75
112,320,269318,2,0,P|136:288|136:232,1,75
160,88,269769,5,0,3:0:0:0:
160,88,269994,1,0,3:0:0:0:
64,184,270220,2,0,L|0:248,1,75,8|0,3:2|3:0,3:3:0:0:
280,304,270897,2,0,L|360:352,1,75,0|8,3:0|3:2,3:3:0:0:
120,192,271573,1,0,3:0:0:0:
240,160,271799,6,0,P|328:184|400:304,1,225,8|4,3:3|0:2,0:0:0:0:
168,192,272927,2,0,L|216:336,1,150,8|0,3:2|0:0,0:0:0:0:
352,128,273829,1,12,0:2:0:0:
272,256,274054,1,0,0:0:0:0:
112,280,274280,2,0,P|56:232|64:152,1,150,0|8,0:0|0:2,0:0:0:0:
192,248,275182,5,0,3:0:0:0:
352,320,275633,2,0,P|408:304|392:224,1,150,10|0,3:2|3:0,3:3:0:0:
216,128,276536,2,0,P|216:69|298:64,1,150,10|0,3:2|3:0,3:3:0:0:
168,328,277438,6,0,P|88:336|24:296,1,150,12|0,0:2|0:0,0:0:0:0:
272,312,278340,2,0,P|209:261|192:187,1,150,12|0,0:2|0:0,0:0:0:0:
376,352,279242,2,0,P|368:272|416:208,1,150,12|0,0:2|0:0,0:0:0:0:
488,104,280145,2,0,P|480:56|384:48,1,150,8|2,0:2|0:2,0:0:0:0:
288,224,281047,6,0,P|224:240|176:224,1,112.500004291535,4|0,0:2|0:0,0:0:0:0:
304,304,281949,1,0,0:0:0:0:
232,152,282400,1,2,0:2:0:0:
384,232,282851,5,0,0:0:0:0:
424,160,283077,1,0,0:0:0:0:
400,80,283303,1,2,0:1:0:0:
320,64,283528,1,0,0:0:0:0:
256,120,283754,1,0,0:0:0:0:
192,256,284205,6,0,P|136:288|72:288,1,112.500004291535,2|0,0:2|0:0,0:0:0:0:
248,336,285107,1,0,0:0:0:0:
161,133,285558,1,2,0:0:0:0:
306,272,286009,5,2,0:1:0:0:
352,202,286235,1,0,0:0:0:0:
319,121,286460,1,0,0:0:0:0:
236,89,286686,1,0,0:0:0:0:
161,133,286912,1,0,0:0:0:0:
96,272,287363,6,0,P|24:248|0:200,1,112.500004291535,2|0,0:0|0:0,0:0:0:0:
0,336,288265,1,0,0:0:0:0:
80,112,288716,1,2,0:0:0:0:
195,268,289167,5,0,0:0:0:0:
277,286,289393,1,0,0:0:0:0:
343,234,289618,1,0,0:0:0:0:
343,149,289844,1,0,0:0:0:0:
277,97,290069,1,0,0:0:0:0:
343,234,290520,6,0,P|392:280|456:288,1,112.500004291535,2|0,0:0|0:0,0:0:0:0:
320,328,291423,1,0,0:0:0:0:
416,160,291874,2,0,P|408:96|368:64,1,112.500004291535,2|2,0:0|0:0,0:0:0:0:
232,80,292551,5,0,0:0:0:0:
248,208,292776,2,0,L|264:272,1,56.2500021457673,2|0,0:1|0:0,0:0:0:0:
312,88,293227,2,0,L|336:24,1,56.2500021457673,0|0,0:1|0:0,0:0:0:0:
416,160,293678,6,0,P|440:200|456:272,1,112.500004291535,2|0,0:0|0:0,0:0:0:0:
488,112,294581,1,0,0:0:0:0:
376,296,295032,1,2,0:0:0:0:
334,134,295483,5,0,0:0:0:0:
259,94,295708,1,0,0:0:0:0:
182,128,295934,1,0,0:0:0:0:
160,210,296160,1,0,0:0:0:0:
210,277,296385,1,0,0:0:0:0:
376,272,296836,6,0,P|424:240|456:192,1,112.500004291535,2|0,0:0|0:0,0:0:0:0:
456,328,297739,1,0,0:0:0:0:
352,168,298190,1,2,0:0:0:0:
264,280,298641,5,0,0:0:0:0:
187,246,298866,1,0,0:0:0:0:
165,165,299092,1,0,0:0:0:0:
215,97,299317,1,0,0:0:0:0:
299,94,299543,1,0,0:0:0:0:
432,200,299994,6,0,P|440:256|400:320,1,112.500004291535
504,152,300896,1,0,0:0:0:0:
336,240,301348,1,2,0:0:0:0:
424,120,301799,5,0,0:0:0:0:
407,39,302024,1,0,0:0:0:0:
339,0,302250,1,2,0:1:0:0:
263,27,302475,1,0,0:0:0:0:
238,104,302701,1,0,0:0:0:0:
256,248,303156,6,0,P|304:280|392:232,1,150,2|0,0:0|0:0,0:0:0:0:
240,336,304211,1,0,0:0:0:0:
256,192,305044,12,0,308933,0:0:0:0:
