osu file format v14

[General]
AudioFilename: audio.mp3
AudioLeadIn: 0
PreviewTime: 54347
Countdown: 0
SampleSet: Soft
StackLeniency: 0.7
Mode: 0
LetterboxInBreaks: 0
WidescreenStoryboard: 0

[Editor]
DistanceSpacing: 0.9
BeatDivisor: 4
GridSize: 16
TimelineZoom: 2

[Metadata]
Title:Panorama Blue
TitleUnicode:パノラマブルー
Artist:Rita
ArtistUnicode:Rita
Creator:Shunao
Version:Insane
Source:恋咲く都に愛の約束を ~Annaffiare~
Tags:ShogunMoon Koi saku Miyako ni Ai no Hanataba wo ~Annaffiare~ op visual novel eroge Hearts
BeatmapID:1507609
BeatmapSetID:713347

[Difficulty]
HPDrainRate:6
CircleSize:4
OverallDifficulty:7
ApproachRate:8.2
SliderMultiplier:1.8
SliderTickRate:1

[Events]
//Background and Video events
0,0,"insane.jpg",0,0
//Break Periods
//Storyboard Layer 0 (Background)
//Storyboard Layer 1 (Fail)
//Storyboard Layer 2 (Pass)
//Storyboard Layer 3 (Foreground)
//Storyboard Sound Samples

[TimingPoints]
535,375,4,2,2,35,1,0
535,-166.666666666667,4,2,2,35,0,0
5222,-133.333333333333,4,2,2,55,0,0
10847,-111.111111111111,4,2,2,60,0,0
15910,-111.111111111111,4,2,4,65,0,0
16285,-100,4,2,4,65,0,0
17035,-100,4,2,2,50,0,0
41035,-125,4,2,2,40,0,0
47035,-125,4,2,2,50,0,0
50035,-100,4,2,2,60,0,0
53222,-100,4,2,4,60,0,0
53785,-100,4,2,4,65,0,0
54535,-76.9230769230769,4,2,10,70,0,1
75535,-100,4,2,10,70,0,0
84535,-100,4,2,2,70,0,0
87347,-100,4,2,2,30,0,0

[Colours]
Combo1 : 219,36,36
Combo2 : 129,97,139
Combo3 : 236,106,83
Combo4 : 214,171,171

[HitObjects]
304,146,1660,6,0,L|233:139,1,53.9999983520508
166,264,2035,2,0,L|287:253,1,107.999996704102,2|0,0:0|0:0,0:0:0:0:
417,179,2597,1,2,0:0:0:0:
417,179,2972,1,0,0:0:0:0:
417,179,3347,6,0,P|416:114|391:64,1,107.999996704102,2|2,0:0|0:0,0:0:0:0:
304,146,3910,1,0,0:0:0:0:
224,52,4097,1,2,0:0:0:0:
170,183,4285,2,0,L|166:138,1,26.9999991760254
94,94,4472,2,0,L|87:140,1,26.9999991760254,2|0,0:0|0:0,0:0:0:0:
77,210,4660,1,2,0:0:0:0:
269,230,4847,5,6,0:0:0:0:
398,52,5222,1,0,0:0:0:0:
465,172,5410,2,0,L|475:88,1,67.5000025749208
341,130,5785,2,0,L|349:210,1,67.5000025749208,0|2,0:0|0:0,0:0:0:0:
410,336,6160,1,0,0:0:0:0:
512,246,6347,1,2,0:0:0:0:
512,227,7285,1,0,0:0:0:0:
413,321,7472,2,0,L|333:314,1,67.5000025749208,2|0,0:0|0:0,0:0:0:0:
209,261,7847,5,2,0:0:0:0:
134,47,8222,1,0,0:0:0:0:
78,173,8410,2,0,P|115:162|157:159,1,67.5000025749208
291,120,8785,2,0,P|250:117|215:103,1,67.5000025749208,0|2,0:0|0:0,0:0:0:0:
111,24,9160,1,0,0:0:0:0:
78,173,9347,6,0,P|173:209|172:310,1,202.500007724762,2|0,0:0|0:0,0:0:0:0:
103,264,10097,1,2,0:0:0:0:
103,264,10472,2,0,L|17:255,1,67.5000025749208,2|0,0:0|0:0,0:0:0:0:
159,103,10847,6,0,L|332:90,1,161.999995056153,6|0,0:0|0:0,0:0:0:0:
415,220,11410,2,0,L|324:212,1,80.9999975280763,8|0,0:0|0:0,0:0:0:0:
301,191,11691,1,8,0:0:0:0:
301,191,11785,2,0,L|204:198,1,80.9999975280763,8|0,0:0|0:0,0:0:0:0:
132,322,12160,2,0,L|223:331,1,80.9999975280763,8|0,0:0|0:0,0:0:0:0:
369,293,12535,5,8,0:0:0:0:
458,154,12722,2,0,P|454:196|446:247,1,80.9999975280763,0|8,0:0|0:0,0:0:0:0:
301,191,13097,2,0,P|295:147|291:98,1,80.9999975280763,0|8,0:0|0:0,0:0:0:0:
427,22,13472,1,8,0:0:0:0:
411,23,13847,6,0,B|326:-1|337:56|235:28,1,161.999995056153,12|0,0:0|0:0,0:0:0:0:
178,189,14410,2,0,P|222:205|272:200,1,80.9999975280763,8|0,0:0|0:0,0:0:0:0:
301,191,14691,1,8,0:0:0:0:
301,191,14785,2,0,P|344:176|394:180,1,80.9999975280763,8|0,0:0|0:0,0:0:0:0:
290,309,15160,2,0,P|240:306|196:289,1,80.9999975280763,8|0,0:0|0:0,0:0:0:0:
60,195,15535,6,0,P|56:172|49:144,3,40.4999987640381,8|8|8|8,0:0|0:0|0:0|0:0,0:0:0:0:
39,121,15910,2,0,P|44:102|53:77,3,40.4999987640381,8|8|8|8,0:0|0:0|0:0|0:0,0:0:0:0:
71,46,16285,1,2,0:0:0:0:
91,37,16378,1,2,0:0:0:0:
113,35,16472,1,2,0:0:0:0:
135,38,16566,1,2,0:0:0:0:
163,52,16660,1,2,0:0:0:0:
201,74,16753,1,2,0:0:0:0:
246,76,16847,1,2,0:0:0:0:
287,59,16941,1,2,0:0:0:0:
327,38,17035,6,0,P|373:30|435:34,1,90,4|0,0:0|0:0,0:0:0:0:
497,152,17410,1,8,0:0:0:0:
365,209,17597,2,0,L|358:111,1,90,0|8,0:0|0:0,0:0:0:0:
229,193,17972,2,0,L|222:293,1,90,0|8,0:0|0:0,0:0:0:0:
96,356,18347,1,0,0:0:0:0:
14,234,18535,6,0,P|58:231|105:208,1,90,8|0,0:0|0:0,0:0:0:0:
204,116,18910,1,8,0:0:0:0:
322,199,19097,2,0,P|316:245|311:299,1,90,0|8,0:0|0:0,0:0:0:0:
434,371,19472,1,0,0:0:0:0:
414,226,19660,1,8,0:0:0:0:
303,320,19847,1,0,0:0:0:0:
173,218,20035,6,0,L|181:327,1,90,8|0,0:0|0:0,0:0:0:0:
45,248,20410,1,8,0:0:0:0:
119,125,20597,2,0,P|158:108|222:128,1,90,0|8,0:0|0:0,0:0:0:0:
322,199,20972,2,0,L|330:103,1,90,0|8,0:0|0:0,0:0:0:0:
454,34,21347,1,0,0:0:0:0:
497,198,21535,6,0,P|454:188|399:201,1,90,8|0,0:0|0:0,0:0:0:0:
297,277,21910,1,8,0:0:0:0:
196,205,22097,2,0,L|204:105,1,90,0|8,0:0|0:0,0:0:0:0:
79,21,22472,1,0,0:0:0:0:
89,161,22660,1,8,0:0:0:0:
223,72,22847,1,8,0:0:0:0:
66,119,23035,6,0,P|71:162|75:212,1,90,8|0,0:0|0:0,0:0:0:0:
164,323,23410,1,8,0:0:0:0:
269,224,23597,2,0,P|222:221|175:231,1,90,0|8,0:0|0:0,0:0:0:0:
275,336,23972,2,0,P|321:349|379:345,1,90,0|8,0:0|0:0,0:0:0:0:
499,293,24347,1,0,0:0:0:0:
392,170,24535,6,0,L|398:271,1,90,8|0,0:0|0:0,0:0:0:0:
512,169,24910,1,8,0:0:0:0:
417,62,25097,2,0,P|370:48|314:50,1,90,0|8,0:0|0:0,0:0:0:0:
222,143,25472,2,0,P|266:141|309:128,1,90,0|8,0:0|0:0,0:0:0:0:
193,39,25847,1,0,0:0:0:0:
90,152,26035,6,0,P|108:233|124:344,1,180,8|8,0:0|0:0,0:0:0:0:
246,241,26597,1,2,0:0:0:0:
206,362,26785,1,10,0:0:0:0:
178,181,26972,1,2,0:0:0:0:
308,302,27160,1,10,0:0:0:0:
122,328,27347,1,2,0:0:0:0:
280,210,27535,6,0,P|354:217|402:314,1,180,10|8,0:0|0:0,0:0:0:0:
492,191,28097,2,0,L|501:98,1,90,2|8,0:0|0:0,0:0:0:0:
371,37,28472,2,0,L|380:133,1,90,2|8,0:0|0:0,0:0:0:0:
255,49,28847,1,0,0:0:0:0:
192,219,29035,6,0,P|233:207|294:213,1,90,12|0,0:0|0:0,0:0:0:0:
384,310,29410,1,8,0:0:0:0:
256,373,29597,2,0,L|243:261,1,90,0|8,0:0|0:0,0:0:0:0:
159,170,29972,2,0,L|148:272,1,90,0|8,0:0|0:0,0:0:0:0:
31,177,30347,1,0,0:0:0:0:
89,22,30535,6,0,L|101:118,1,90,8|0,0:0|0:0,0:0:0:0:
209,13,30910,2,0,L|198:113,1,90,8|0,0:0|0:0,0:0:0:0:
297,214,31285,1,8,0:0:0:0:
337,78,31472,1,0,0:0:0:0:
203,195,31660,1,8,0:0:0:0:
387,232,31847,1,0,0:0:0:0:
232,358,32035,6,0,P|218:322|202:258,1,90,8|0,0:0|0:0,0:0:0:0:
274,142,32410,1,8,0:0:0:0:
131,114,32597,2,0,P|117:156|109:201,1,90,0|8,0:0|0:0,0:0:0:0:
249,156,32972,2,0,P|246:116|230:60,1,90,0|8,0:0|0:0,0:0:0:0:
98,15,33347,1,0,0:0:0:0:
25,161,33535,6,0,L|33:259,1,90,8|0,0:0|0:0,0:0:0:0:
123,362,33910,1,8,0:0:0:0:
211,243,34097,2,0,P|168:238|118:263,1,90,0|8,0:0|0:0,0:0:0:0:
285,362,34472,1,0,0:0:0:0:
138,344,34660,1,8,0:0:0:0:
293,266,34847,1,8,0:0:0:0:
468,332,35035,6,0,L|366:320,1,90,8|0,0:0|0:0,0:0:0:0:
256,239,35410,1,8,0:0:0:0:
362,132,35597,2,0,P|371:186|386:224,1,90,0|8,0:0|0:0,0:0:0:0:
512,143,35972,1,0,0:0:0:0:
345,47,36160,1,8,0:0:0:0:
512,24,36347,1,0,0:0:0:0:
323,35,36535,6,0,P|276:37|226:45,1,90,8|0,0:0|0:0,0:0:0:0:
68,62,36910,1,8,0:0:0:0:
119,202,37097,2,0,P|128:250|132:310,1,90,0|8,0:0|0:0,0:0:0:0:
247,375,37472,1,0,0:0:0:0:
222,207,37660,1,8,0:0:0:0:
138,368,37847,1,0,0:0:0:0:
320,308,38035,6,0,P|364:314|412:332,1,90,8|0,0:0|0:0,0:0:0:0:
476,218,38410,2,0,P|432:232|376:225,1,90,8|0,0:0|0:0,0:0:0:0:
296,135,38785,1,8,0:0:0:0:
422,54,38972,1,0,0:0:0:0:
294,37,39160,1,8,0:0:0:0:
424,152,39347,1,0,0:0:0:0:
291,236,39535,6,0,P|277:283|263:342,1,90,8|0,0:0|0:0,0:0:0:0:
118,241,39910,1,8,0:0:0:0:
258,152,40097,1,0,0:0:0:0:
176,313,40285,1,8,0:0:0:0:
91,170,40472,1,8,0:0:0:0:
208,238,40660,1,8,0:0:0:0:
156,62,40847,1,8,0:0:0:0:
14,181,41035,6,0,P|76:178|128:253,1,144,4|0,0:0|0:0,0:0:0:0:
170,351,41597,2,0,L|316:343,1,144,2|0,0:0|0:0,0:0:0:0:
408,264,42160,1,0,0:0:0:0:
328,170,42347,2,0,P|312:239|304:313,1,144
199,249,42910,2,0,P|192:212|180:168,1,72,2|0,0:0|0:0,0:0:0:0:
82,109,43285,2,0,P|73:145|66:193,1,72,2|8,0:0|0:0,0:0:0:0:
75,306,43660,1,2,0:0:0:0:
75,306,43847,1,0,0:0:0:0:
199,249,44035,6,0,P|267:233|336:289,1,144,10|0,0:0|0:0,0:0:0:0:
446,248,44597,2,0,L|438:329,1,72,2|0,0:0|0:0,0:0:0:0:
326,270,44972,2,0,L|334:354,1,72
201,303,45347,2,0,B|125:277|135:328|46:298,1,144,8|0,0:0|0:0,0:0:0:0:
59,302,46097,2,0,P|36:237|79:168,1,144,2|0,0:0|0:0,0:0:0:0:
195,125,46660,1,8,0:0:0:0:
122,242,46847,1,0,0:0:0:0:
42,102,47035,6,0,P|48:50|58:13,1,72,8|0,0:0|0:0,0:0:0:0:
195,125,47410,2,0,P|202:160|205:196,1,72,8|0,0:0|0:0,0:0:0:0:
356,111,47785,2,0,P|362:59|372:22,1,72,8|0,0:0|0:0,0:0:0:0:
463,155,48160,1,0,0:0:0:0:
463,155,48347,1,0,0:0:0:0:
275,101,48535,5,4,0:0:0:0:
328,211,48722,2,0,L|322:298,1,72
213,338,49097,2,0,L|208:259,1,72,8|0,0:0|0:0,0:0:0:0:
95,187,49472,1,0,0:0:0:0:
206,134,49660,1,0,0:0:0:0:
124,278,49847,1,0,0:0:0:0:
2,144,50035,6,0,P|85:154|137:59,1,180,4|0,0:0|0:0,0:0:0:0:
290,45,50597,2,0,P|261:105|248:223,1,180
396,241,51160,2,0,P|392:195|374:147,1,90
200,50,51535,6,0,L|305:43,1,90,8|0,0:0|0:0,0:0:0:0:
467,160,51910,2,0,L|362:152,1,90,8|0,0:0|0:0,0:0:0:0:
199,260,52285,2,0,L|288:253,1,90,8|0,0:0|0:0,0:0:0:0:
138,108,52660,2,0,L|33:100,1,90,8|0,0:0|0:0,0:0:0:0:
112,273,53035,5,0,0:0:0:0:
202,169,53222,1,8,0:0:0:0:
25,187,53410,2,0,L|30:235,1,45,8|8,0:0|0:0,0:0:0:0:
112,273,53597,2,0,L|120:218,1,45,8|8,0:0|0:0,0:0:0:0:
202,169,53785,5,2,0:0:0:0:
230,155,53878,1,2,0:0:0:0:
261,152,53972,1,2,0:0:0:0:
289,165,54066,1,2,0:0:0:0:
315,182,54160,1,2,0:0:0:0:
343,193,54253,1,2,0:0:0:0:
374,193,54347,1,2,0:0:0:0:
404,184,54441,1,2,0:0:0:0:
436,165,54535,6,0,L|421:36,1,116.999994644165,4|0,3:0|0:0,0:0:0:70:drum-hitfinish10.wav
272,35,54910,2,0,L|258:173,1,116.999994644165,2|0,0:0|0:0,0:0:0:0:
163,279,55285,2,0,L|151:154,1,116.999994644165,2|0,0:0|0:0,0:0:0:0:
40,96,55660,1,2,0:0:0:0:
28,250,55847,1,0,0:0:0:0:
152,163,56035,6,0,P|201:139|273:161,1,116.999994644165,2|0,0:0|0:0,0:0:0:0:
401,229,56410,1,2,0:0:0:0:
501,126,56597,2,0,L|486:0,1,116.999994644165,0|2,0:0|0:0,0:0:0:0:
338,89,56972,2,0,L|323:213,1,116.999994644165,0|2,0:0|0:0,0:0:0:0:
229,335,57347,1,8,0:0:0:0:
229,335,57441,1,8,0:0:0:0:
229,335,57535,6,0,P|179:308|99:322,1,116.999994644165,8|0,0:0|0:0,0:0:0:0:
12,200,57910,1,2,0:0:0:0:
144,80,58097,2,0,L|151:202,1,116.999994644165,0|2,0:0|0:0,0:0:0:0:
281,98,58472,2,0,L|274:218,1,116.999994644165,0|2,0:0|0:0,0:0:0:0:
238,354,58847,1,0,0:0:0:0:
355,256,59035,1,2,0:0:0:0:
202,273,59222,1,0,0:0:0:0:
339,341,59410,1,2,0:0:0:0:
378,174,59597,1,0,0:0:0:0:
215,183,59785,6,0,L|210:123,1,58.4999973220826,8|8,0:0|0:0,0:0:0:0:
302,135,59972,2,0,L|307:75,1,58.4999973220826,8|8,0:0|0:0,0:0:0:0:
375,34,60160,1,8,0:0:0:0:
410,23,60253,1,8,0:0:0:0:
445,36,60347,1,8,0:0:0:0:
463,69,60441,1,8,0:0:0:0:
464,106,60535,6,0,L|453:227,1,116.999994644165,2|0,0:0|0:0,0:0:0:0:
340,311,60910,1,2,0:0:0:0:
217,227,61097,2,0,P|164:204|106:215,1,116.999994644165,0|2,0:0|0:0,0:0:0:0:
153,363,61472,2,0,L|273:353,1,116.999994644165,0|2,0:0|0:0,0:0:0:0:
384,242,61847,1,0,0:0:0:0:
255,162,62035,5,2,0:0:0:0:
357,51,62222,2,0,P|349:100|346:182,1,116.999994644165,0|2,0:0|0:0,0:0:0:0:
210,222,62597,1,8,0:0:0:0:
210,222,62691,1,8,0:0:0:0:
210,222,62785,2,0,P|205:160|192:97,1,116.999994644165,8|0,0:0|0:0,0:0:0:0:
75,23,63160,1,2,0:0:0:0:
14,171,63347,6,0,P|6:225|2:301,1,116.999994644165,0|2,0:0|0:0,0:0:0:0:
125,368,63722,1,0,0:0:0:0:
261,291,63910,2,0,P|312:294|361:335,1,116.999994644165,2|0,0:0|0:0,0:0:0:0:
365,177,64285,1,2,0:0:0:0:
216,215,64472,1,0,0:0:0:0:
283,378,64660,2,0,L|413:368,1,116.999994644165,2|0,0:0|0:0,0:0:0:0:
512,251,65035,5,6,0:0:0:0:
365,177,65222,1,0,0:0:0:0:
424,291,65410,1,2,0:0:0:0:
429,116,65597,1,2,0:0:0:0:
270,149,65785,1,0,0:0:0:0:
441,208,65972,1,2,0:0:0:0:
331,73,66160,1,10,0:0:0:0:
298,53,66253,1,2,0:0:0:0:
260,47,66347,1,2,0:0:0:0:
224,60,66441,1,2,0:0:0:0:
190,77,66535,6,0,P|138:82|75:54,1,116.999994644165,4|0,0:0|0:0,0:0:0:0:
109,213,66910,2,0,L|123:329,1,116.999994644165,2|0,0:0|0:0,0:0:0:0:
222,203,67285,2,0,L|210:334,1,116.999994644165,2|0,0:0|0:0,0:0:0:0:
73,379,67660,1,2,0:0:0:0:
222,346,67847,1,0,0:0:0:0:
114,250,68035,6,0,P|63:236|-1:229,1,116.999994644165,2|0,0:0|0:0,0:0:0:0:
97,109,68410,1,2,0:0:0:0:
222,203,68597,2,0,P|275:191|358:182,1,116.999994644165,0|2,0:0|0:0,0:0:0:0:
407,55,68972,2,0,P|349:48|284:29,1,116.999994644165,0|2,0:0|0:0,0:0:0:0:
155,61,69347,1,8,0:0:0:0:
155,61,69441,1,8,0:0:0:0:
155,61,69535,6,0,L|143:181,1,116.999994644165,8|0,0:0|0:0,0:0:0:0:
207,305,69910,1,2,0:0:0:0:
318,206,70097,2,0,L|331:340,1,116.999994644165,0|2,0:0|0:0,0:0:0:0:
181,277,70472,2,0,P|129:271|69:298,1,116.999994644165,0|2,0:0|0:0,0:0:0:0:
29,151,70847,1,0,0:0:0:0:
155,61,71035,6,0,P|161:115|183:176,1,116.999994644165,2|0,0:0|0:0,0:0:0:0:
300,256,71410,1,2,0:0:0:0:
325,107,71597,1,0,0:0:0:0:
406,234,71785,2,0,L|399:301,1,58.4999973220826,8|8,0:0|0:0,0:0:0:0:
304,314,71972,2,0,L|299:248,1,58.4999973220826,8|8,0:0|0:0,0:0:0:0:
262,176,72160,1,8,0:0:0:0:
236,148,72253,1,8,0:0:0:0:
199,137,72347,1,8,0:0:0:0:
161,144,72441,1,8,0:0:0:0:
133,169,72535,6,0,B|112:202|112:202|125:290,1,116.999994644165,4|0,0:0|0:0,0:0:0:0:
246,358,72910,1,2,0:0:0:0:
379,282,73097,2,0,P|324:261|266:248,1,116.999994644165,0|2,0:0|0:0,0:0:0:0:
219,108,73472,2,0,P|275:98|345:68,1,116.999994644165,0|2,0:0|0:0,0:0:0:0:
479,59,73847,1,8,0:0:0:0:
479,59,73941,1,8,0:0:0:0:
479,59,74035,6,0,L|469:185,1,116.999994644165,12|0,0:0|0:0,0:0:0:0:
332,231,74410,2,0,P|277:242|221:216,1,116.999994644165,2|0,0:0|0:0,0:0:0:0:
139,102,74785,1,2,0:0:0:0:
106,82,74879,1,2,0:0:0:0:
68,82,74973,1,2,0:0:0:0:
33,98,75067,1,2,0:0:0:0:
15,131,75160,1,6,0:0:0:0:
24,278,75347,1,0,0:0:0:0:
139,102,75535,5,4,3:0:0:0:
122,268,75722,1,0,0:0:0:0:
289,228,75910,2,0,P|330:234|382:256,1,90,2|0,0:0|0:0,0:0:0:0:
453,136,76285,1,2,0:0:0:0:
321,107,76472,2,0,P|293:69|282:24,1,90,0|2,0:0|0:0,0:0:0:0:
106,82,76847,6,0,P|134:163|68:228,1,180
22,354,77410,2,0,L|115:346,1,90,2|0,0:0|0:0,0:0:0:0:
246,311,77785,2,0,L|240:247,1,45,8|8,0:0|0:0,0:0:0:0:
264,183,77972,2,0,L|270:124,1,45,8|8,0:0|0:0,0:0:0:0:
317,74,78160,1,8,0:0:0:0:
343,58,78253,1,8,0:0:0:0:
374,54,78347,1,8,0:0:0:0:
403,64,78441,1,8,0:0:0:0:
423,88,78535,5,4,0:0:0:0:
494,204,78722,1,0,0:0:0:0:
369,308,78910,2,0,L|359:207,1,90,2|0,0:0|0:0,0:0:0:0:
292,101,79285,1,2,0:0:0:0:
176,167,79472,2,0,P|130:171|79:143,1,90,0|2,0:0|0:0,0:0:0:0:
236,39,79847,6,0,B|271:90|271:90|256:213,1,180
194,337,80410,1,2,0:0:0:0:
77,267,80597,1,8,0:0:0:0:
77,267,80691,1,8,0:0:0:0:
77,267,80785,2,0,L|67:172,1,90,8|0,0:0|0:0,0:0:0:0:
128,47,81160,1,2,0:0:0:0:
212,185,81347,1,0,0:0:0:0:
286,28,81535,5,4,0:0:0:0:
147,69,81722,1,0,0:0:0:0:
248,172,81910,2,0,P|293:172|337:193,1,90,2|0,0:0|0:0,0:0:0:0:
421,307,82285,1,2,0:0:0:0:
287,354,82472,2,0,L|275:244,1,90,0|2,0:0|0:0,0:0:0:0:
231,85,82847,1,4,0:0:0:0:
231,85,83410,6,0,P|147:77|90:157,2,180,2|2|2,0:0|0:0|0:0,0:0:0:0:
480,239,84535,5,2,0:0:0:0:
256,192,84628,12,0,87347,0:0:0:0:
