osu file format v14

[General]
AudioFilename: audio.mp3
AudioLeadIn: 0
PreviewTime: 54347
Countdown: 0
SampleSet: Soft
StackLeniency: 0.7
Mode: 0
LetterboxInBreaks: 0
WidescreenStoryboard: 0

[Editor]
DistanceSpacing: 1
BeatDivisor: 4
GridSize: 32
TimelineZoom: 1.1

[Metadata]
Title:Panorama Blue
TitleUnicode:パノラマブルー
Artist:Rita
ArtistUnicode:Rita
Creator:Shunao
Version:Easy
Source:恋咲く都に愛の約束を ~Annaffiare~
Tags:ShogunMoon Koi saku Miyako ni Ai no Hanataba wo ~Annaffiare~ op visual novel eroge Hearts
BeatmapID:1507607
BeatmapSetID:713347

[Difficulty]
HPDrainRate:2
CircleSize:3
OverallDifficulty:2
ApproachRate:3
SliderMultiplier:0.9
SliderTickRate:1

[Events]
//Background and Video events
0,0,"easy.jpg",0,0
//Break Periods
//Storyboard Layer 0 (Background)
//Storyboard Layer 1 (Fail)
//Storyboard Layer 2 (Pass)
//Storyboard Layer 3 (Foreground)
//Storyboard Sound Samples

[TimingPoints]
535,375,4,2,2,35,1,0
5222,-100,4,2,2,55,0,0
10847,-100,4,2,2,60,0,0
15910,-100,4,2,4,65,0,0
17035,-100,4,2,2,50,0,0
41035,-100,4,2,2,40,0,0
47035,-100,4,2,2,50,0,0
50035,-100,4,2,2,60,0,0
53222,-100,4,2,4,60,0,0
53785,-100,4,2,4,65,0,0
54535,-100,4,2,10,70,0,1
75535,-100,4,2,10,70,0,0
84535,-100,4,2,2,70,0,0
87347,-100,4,2,2,30,0,0

[Colours]
Combo1 : 254,122,168
Combo2 : 255,170,213
Combo3 : 94,166,255
Combo4 : 175,134,103

[HitObjects]
148,90,2035,6,0,P|200:55|276:83,1,135,2|2,0:0|0:0,0:0:0:0:
342,119,2972,1,0,0:0:0:0:
414,172,3347,2,0,P|389:258|374:360,1,180,2|2,0:0|0:0,0:0:0:0:
285,357,4472,1,2,0:0:0:0:
198,332,4847,6,0,B|126:314|132:361|46:335,1,135,6|0,0:0|0:0,0:0:0:0:
21,261,5785,2,0,L|13:108,1,135,0|2,0:0|0:0,0:0:0:0:
269,39,7472,5,2,0:0:0:0:
350,77,7847,2,0,L|338:231,1,135,2|0,0:0|0:0,0:0:0:0:
398,279,8785,1,0,0:0:0:0:
269,349,9347,6,0,P|184:354|135:268,1,180,2|2,0:0|0:0,0:0:0:0:
129,192,10472,1,2,0:0:0:0:
184,121,10847,2,0,B|255:99|246:148|330:127,1,135,6|8,0:0|0:0,0:0:0:0:
404,116,11785,2,0,L|411:211,1,90,8|8,0:0|0:0,0:0:0:0:
355,276,12535,6,0,P|422:266|485:331,1,135,8|0,0:0|0:0,0:0:0:0:
399,354,13472,1,8,0:0:0:0:
311,375,13847,2,0,L|168:364,1,135,12|8,0:0|0:0,0:0:0:0:
129,287,14785,2,0,L|21:297,1,90,8|8,0:0|0:0,0:0:0:0:
3,212,15535,6,0,P|0:161|46:78,1,135,8|8,0:0|0:0,0:0:0:0:
258,123,17035,6,0,L|266:229,1,90,4|8,0:0|0:0,0:0:0:0:
272,303,17785,2,0,P|315:286|374:299,1,90,8|8,0:0|0:0,0:0:0:0:
439,252,18535,2,0,P|444:186|474:101,2,135,8|0|8,0:0|0:0|0:0,0:0:0:0:
357,291,20035,6,0,L|206:282,1,135,8|0,0:0|0:0,0:0:0:0:
148,231,20972,1,0,0:0:0:0:
97,105,21535,2,0,P|150:92|231:127,2,135,8|0|8,0:0|0:0|0:0,0:0:0:0:
52,183,23035,6,0,L|59:287,1,90,8|8,0:0|0:0,0:0:0:0:
148,268,23785,2,0,L|156:163,1,90,8|8,0:0|0:0,0:0:0:0:
226,123,24535,2,0,P|281:88|360:112,2,135,8|0|8,0:0|0:0|0:0,0:0:0:0:
298,176,26035,6,0,L|308:332,1,135,8|2,0:0|0:0,0:0:0:0:
444,328,27160,1,10,0:0:0:0:
464,241,27535,2,0,P|476:178|511:111,2,135,10|2|8,0:0|0:0|0:0,0:0:0:0:
444,328,29035,6,0,P|382:353|315:345,2,135,12|0|8,0:0|0:0|0:0,0:0:0:0:
464,241,30535,2,0,L|449:132,1,90,8|8,0:0|0:0,0:0:0:0:
390,85,31285,2,0,P|344:72|293:76,1,90,8|8,0:0|0:0,0:0:0:0:
220,111,32035,6,0,L|79:91,2,135,8|0|8,0:0|0:0|0:0,0:0:0:0:
274,182,33535,2,0,P|281:236|301:283,1,90,8|8,0:0|0:0,0:0:0:0:
229,332,34285,2,0,P|180:334|138:349,1,90,8|8,0:0|0:0,0:0:0:0:
55,321,35035,6,0,B|46:276|46:276|74:179,2,135,8|0|8,0:0|0:0|0:0,0:0:0:0:
141,347,36535,2,0,P|211:334|283:369,2,135,8|0|8,0:0|0:0|0:0,0:0:0:0:
55,321,38035,6,0,B|28:227|91:239|59:133,1,180,8|8,0:0|0:0,0:0:0:0:
25,63,39160,1,8,0:0:0:0:
105,23,39535,2,0,P|150:27|195:57,1,90,8|8,0:0|0:0,0:0:0:0:
255,109,40285,1,8,0:0:0:0:
269,197,40660,1,8,0:0:0:0:
323,268,41035,6,0,P|389:291|459:257,2,135,4|2|0,0:0|0:0|0:0,0:0:0:0:
103,219,43097,2,0,L|108:320,1,90,0|8,0:0|0:0,0:0:0:0:
231,362,44035,6,0,L|240:212,1,135,10|2,0:0|0:0,0:0:0:0:
270,143,44972,1,0,0:0:0:0:
207,78,45347,2,0,P|120:83|64:169,1,180,8|2,0:0|0:0,0:0:0:0:
102,282,46660,1,8,0:0:0:0:
190,300,47035,6,0,L|294:293,1,90,8|8,0:0|0:0,0:0:0:0:
360,333,47785,1,8,0:0:0:0:
467,188,48535,2,0,B|478:137|478:137|458:36,2,135,4|8|0,0:0|0:0|0:0,0:0:0:0:
389,233,50035,6,0,P|327:210|259:228,2,135,4|0|0,0:0|0:0|0:0,0:0:0:0:
468,275,51535,2,0,L|461:374,1,90,8|8,0:0|0:0,0:0:0:0:
371,364,52285,2,0,P|327:346|281:353,1,90,8|8,0:0|0:0,0:0:0:0:
196,365,53035,6,0,L|87:350,2,90,0|8|2,0:0|0:0|0:0,0:0:0:0:
285,351,54160,1,2,0:0:0:0:
355,295,54535,6,0,B|392:205|330:213|363:112,1,180,4|2,3:0|0:0,0:0:0:70:drum-hitfinish10.wav
331,33,55660,1,2,0:0:0:0:
244,59,56035,2,0,P|198:69|150:55,1,90,2|2,0:0|0:0,0:0:0:0:
67,51,56785,2,0,L|72:151,1,90,2|2,0:0|0:0,0:0:0:0:
28,220,57535,6,0,P|83:180|158:188,2,135,8|0|2,0:0|0:0|0:0,0:0:0:0:
39,309,59035,2,0,L|136:318,1,90,2|2,0:0|0:0,0:0:0:0:
214,343,59785,1,8,0:0:0:0:
298,313,60160,1,8,0:0:0:0:
329,228,60535,6,0,P|324:167|305:92,2,135,2|0|2,0:0|0:0|0:0,0:0:0:0:
391,293,62035,2,0,P|432:306|485:293,1,90,2|2,0:0|0:0,0:0:0:0:
508,212,62785,2,0,L|500:108,1,90,8|2,0:0|0:0,0:0:0:0:
436,59,63535,6,0,P|375:27|300:43,2,135,2|0|2,0:0|0:0|0:0,0:0:0:0:
501,122,65035,2,0,L|493:227,1,90,6|2,0:0|0:0,0:0:0:0:
424,269,65785,1,0,0:0:0:0:
334,260,66160,1,10,0:0:0:0:
265,201,66535,6,0,B|173:179|183:239|81:208,1,180,4|2,0:0|0:0,0:0:0:0:
38,135,67660,1,2,0:0:0:0:
92,63,68035,2,0,P|134:54|184:67,1,90,2|2,0:0|0:0,0:0:0:0:
256,111,68785,2,0,L|266:221,1,90,2|2,0:0|0:0,0:0:0:0:
277,289,69535,6,0,P|330:277|402:353,2,135,8|0|2,0:0|0:0|0:0,0:0:0:0:
206,344,71035,2,0,L|101:339,1,90,2|2,0:0|0:0,0:0:0:0:
31,308,71785,1,8,0:0:0:0:
7,221,72160,1,8,0:0:0:0:
64,151,72535,6,0,B|68:97|68:97|39:22,2,135,4|0|2,0:0|0:0|0:0,0:0:0:0:
131,210,74035,2,0,L|231:202,1,90,12|2,0:0|0:0,0:0:0:0:
298,248,74785,2,0,L|396:256,1,90,2|6,0:0|0:0,0:0:0:0:
447,187,75535,6,0,P|452:140|471:86,1,90,4|2,3:0|0:0,0:0:0:0:
407,29,76285,1,2,0:0:0:0:
297,107,76847,2,0,P|228:124|155:87,1,135,0|2,0:0|0:0,0:0:0:0:
81,84,77785,2,0,L|86:196,1,90,8|8,0:0|0:0,0:0:0:0:
89,265,78535,6,0,P|133:268|174:300,1,90,4|2,0:0|0:0,0:0:0:0:
230,360,79285,1,2,0:0:0:0:
356,314,79847,2,0,P|373:231|365:160,1,135,0|2,0:0|0:0,0:0:0:0:
295,129,80785,2,0,L|304:25,1,90,8|2,0:0|0:0,0:0:0:0:
214,23,81535,6,0,L|204:119,1,90,4|2,0:0|0:0,0:0:0:0:
140,175,82285,1,2,0:0:0:0:
87,299,82847,2,0,B|171:332|236:270|236:270|298:336|392:298,1,315,4|2,0:0|0:0,0:0:0:0:
462,276,84535,5,2,0:0:0:0:
256,192,84628,12,0,87347,0:0:0:0:
