osu file format v14

[General]
AudioFilename: audio.mp3
AudioLeadIn: 0
PreviewTime: 54347
Countdown: 0
SampleSet: Soft
StackLeniency: 0.7
Mode: 0
LetterboxInBreaks: 0
WidescreenStoryboard: 0

[Editor]
DistanceSpacing: 1
BeatDivisor: 4
GridSize: 16
TimelineZoom: 1.4

[Metadata]
Title:Panorama Blue
TitleUnicode:パノラマブルー
Artist:Rita
ArtistUnicode:Rita
Creator:Shunao
Version:Normal
Source:恋咲く都に愛の約束を ~Annaffiare~
Tags:ShogunMoon Koi saku Miyako ni Ai no Hanataba wo ~Annaffiare~ op visual novel eroge Hearts
BeatmapID:1507611
BeatmapSetID:713347

[Difficulty]
HPDrainRate:4
CircleSize:3.3
OverallDifficulty:4
ApproachRate:5
SliderMultiplier:1
SliderTickRate:1

[Events]
//Background and Video events
0,0,"normal.jpg",0,0
//Break Periods
//Storyboard Layer 0 (Background)
//Storyboard Layer 1 (Fail)
//Storyboard Layer 2 (Pass)
//Storyboard Layer 3 (Foreground)
//Storyboard Sound Samples

[TimingPoints]
535,375,4,2,2,35,1,0
5222,-100,4,2,2,55,0,0
10847,-100,4,2,2,60,0,0
15910,-100,4,2,4,65,0,0
17035,-100,4,2,2,50,0,0
41035,-100,4,2,2,40,0,0
47035,-100,4,2,2,50,0,0
50035,-100,4,2,2,60,0,0
53222,-100,4,2,4,60,0,0
53785,-100,4,2,4,65,0,0
54535,-100,4,2,10,70,0,1
75535,-100,4,2,10,70,0,0
84535,-100,4,2,2,70,0,0
87347,-100,4,2,2,30,0,0

[Colours]
Combo1 : 200,160,121
Combo2 : 170,85,255
Combo3 : 0,193,49
Combo4 : 255,117,117

[HitObjects]
95,39,1660,6,0,L|101:89,1,50,0|0,0:0|0:0,0:0:0:0:
146,109,2035,2,0,L|129:223,1,100,2|0,0:0|0:0,0:0:0:0:
157,250,2597,1,2,0:0:0:0:
248,289,2972,1,0,0:0:0:0:
330,232,3347,6,0,P|381:218|435:239,1,100,2|2,0:0|0:0,0:0:0:0:
462,265,3910,1,0,0:0:0:0:
462,265,4097,1,2,0:0:0:0:
415,353,4472,2,0,L|350:358,1,50,2|2,0:0|0:0,0:0:0:0:
317,373,4847,6,0,L|166:360,1,150,6|0,0:0|0:0,0:0:0:0:
83,305,5785,2,0,P|70:259|88:207,1,100,0|0,0:0|0:0,0:0:0:0:
117,172,6347,1,2,0:0:0:0:
393,56,7472,6,0,L|455:53,1,50,2|0,0:0|0:0,0:0:0:0:
488,75,7847,2,0,B|518:152|470:147|500:231,1,150,2|0,0:0|0:0,0:0:0:0:
442,306,8785,2,0,P|392:304|343:324,1,100,0|0,0:0|0:0,0:0:0:0:
303,348,9347,6,0,B|240:355|240:355|207:341|207:341|144:349,1,150,2|0,0:0|0:0,0:0:0:0:
107,354,10097,1,2,0:0:0:0:
50,271,10472,1,2,0:0:0:0:
63,171,10847,6,0,P|113:122|193:125,1,150,6|8,0:0|0:0,0:0:0:0:
275,173,11785,2,0,L|388:165,1,100,8|8,0:0|0:0,0:0:0:0:
469,134,12535,1,8,0:0:0:0:
469,134,12722,2,0,P|455:87|415:53,1,100,0|0,0:0|0:0,0:0:0:0:
321,27,13472,1,8,0:0:0:0:
255,102,13847,6,0,P|237:168|232:261,1,150,12|8,0:0|0:0,0:0:0:0:
219,350,14785,2,0,P|173:333|112:334,1,100,8|8,0:0|0:0,0:0:0:0:
32,288,15535,6,0,B|13:241|13:241|38:137,1,150,8|8,0:0|0:0,0:0:0:0:
109,76,16472,2,0,L|97:27,2,50,2|2|2,0:0|0:0|0:0,0:0:0:0:
152,101,17035,6,0,P|197:93|251:111,1,100,4|8,0:0|0:0,0:0:0:0:
293,130,17597,2,0,L|284:233,1,100,0|0,0:0|0:0,0:0:0:0:
282,279,18160,1,8,0:0:0:0:
334,363,18535,2,0,P|386:348|447:359,1,100,8|8,0:0|0:0,0:0:0:0:
480,358,19097,2,0,L|490:240,1,100,0|0,0:0|0:0,0:0:0:0:
495,208,19660,1,8,0:0:0:0:
458,114,20035,6,0,P|410:98|353:113,1,100,8|8,0:0|0:0,0:0:0:0:
318,129,20597,2,0,P|270:140|216:125,1,100,0|0,0:0|0:0,0:0:0:0:
178,101,21160,1,8,0:0:0:0:
98,161,21535,2,0,L|105:272,1,100,8|8,0:0|0:0,0:0:0:0:
111,310,22097,2,0,P|162:306|206:335,1,100,0|0,0:0|0:0,0:0:0:0:
238,365,22660,2,0,L|293:361,1,50,8|8,0:0|0:0,0:0:0:0:
330,334,23035,6,0,P|338:283|340:226,1,100,8|8,0:0|0:0,0:0:0:0:
325,186,23597,2,0,P|378:198|426:179,1,100,0|0,0:0|0:0,0:0:0:0:
456,149,24160,1,8,0:0:0:0:
417,56,24535,2,0,P|369:43|322:58,1,100,8|8,0:0|0:0,0:0:0:0:
278,82,25097,2,0,L|170:75,1,100,0|0,0:0|0:0,0:0:0:0:
134,51,25660,1,8,0:0:0:0:
40,85,26035,6,0,P|18:125|30:188,1,100,8|8,0:0|0:0,0:0:0:0:
51,218,26597,1,2,0:0:0:0:
51,218,26785,2,0,L|153:211,1,100,10|10,0:0|0:0,0:0:0:0:
188,178,27347,1,2,0:0:0:0:
188,178,27535,2,0,L|293:186,1,100,10|8,0:0|0:0,0:0:0:0:
325,218,28097,2,0,P|342:268|321:327,1,100,2|2,0:0|0:0,0:0:0:0:
304,355,28660,1,8,0:0:0:0:
205,369,29035,6,0,B|96:360,1,100,12|8,0:0|0:0,0:0:0:0:
57,347,29597,2,0,P|54:320|50:289,1,50,0|8,0:0|0:0,0:0:0:0:
25,254,29972,1,0,0:0:0:0:
32,154,30347,2,0,B|112:135|104:184|185:167,1,150,0|8,0:0|0:0,0:0:0:0:
255,104,31285,2,0,L|312:110,1,50,8|0,0:0|0:0,0:0:0:0:
345,138,31660,2,0,L|395:132,1,50,8|0,0:0|0:0,0:0:0:0:
444,135,32035,6,0,B|464:172|464:172|452:249,1,100,8|8,0:0|0:0,0:0:0:0:
427,271,32597,2,0,L|434:333,1,50,0|8,0:0|0:0,0:0:0:0:
409,365,32972,1,0,0:0:0:0:
318,322,33347,2,0,P|256:293|171:319,1,150,0|8,0:0|0:0,0:0:0:0:
132,327,34097,2,0,L|123:218,1,100,0|0,0:0|0:0,0:0:0:0:
86,193,34660,2,0,L|91:129,1,50,8|8,0:0|0:0,0:0:0:0:
101,94,35035,6,0,P|149:75|209:88,1,100,8|8,0:0|0:0,0:0:0:0:
237,108,35597,2,0,L|292:103,1,50,0|8,0:0|0:0,0:0:0:0:
371,50,36160,1,8,0:0:0:0:
451,109,36535,2,0,P|470:156|449:218,1,100,8|8,0:0|0:0,0:0:0:0:
423,237,37097,2,0,L|362:231,1,50,0|8,0:0|0:0,0:0:0:0:
278,199,37660,1,8,0:0:0:0:
187,241,38035,6,0,P|172:289|188:348,1,100,8|8,0:0|0:0,0:0:0:0:
219,369,38597,1,0,0:0:0:0:
219,369,38785,2,0,L|331:361,1,100,8|8,0:0|0:0,0:0:0:0:
409,320,39535,2,0,P|419:273|400:218,1,100,8|8,0:0|0:0,0:0:0:0:
339,147,40285,1,8,0:0:0:0:
240,127,40660,1,8,0:0:0:0:
154,179,41035,6,0,P|86:189|14:129,2,150,4|2|0,0:0|0:0|0:0,0:0:0:0:
200,161,42347,2,0,L|211:276,1,100,0|0,0:0|0:0,0:0:0:0:
239,301,42910,2,0,P|292:302|336:326,1,100,2|2,0:0|0:0,0:0:0:0:
375,350,43472,1,8,0:0:0:0:
504,274,44035,6,0,L|513:108,1,150,10|2,0:0|0:0,0:0:0:0:
445,49,44972,1,0,0:0:0:0:
346,34,45347,2,0,P|272:36|217:94,1,150,8|0,0:0|0:0,0:0:0:0:
222,136,46097,2,0,L|232:250,1,100,2|0,0:0|0:0,0:0:0:0:
194,270,46660,1,8,0:0:0:0:
265,339,47035,6,0,P|318:346|368:318,2,100,8|8|8,0:0|0:0|0:0,0:0:0:0:
67,308,48535,2,0,L|55:154,1,150,4|8,0:0|0:0,0:0:0:0:
128,90,49472,2,0,L|122:27,2,50,0|0|0,0:0|0:0|0:0,0:0:0:0:
164,124,50035,6,0,P|203:136|261:117,1,100,4|0,0:0|0:0,0:0:0:0:
303,99,50597,2,0,L|294:208,1,100,0|0,0:0|0:0,0:0:0:0:
333,230,51160,1,0,0:0:0:0:
426,265,51535,6,0,L|435:367,2,100,8|8|8,0:0|0:0|0:0,0:0:0:0:
488,186,52660,1,8,0:0:0:0:
452,92,53035,2,0,L|458:36,2,50,0|8|8,0:0|0:0|0:0,0:0:0:0:
409,117,53597,1,8,0:0:0:0:
409,117,53785,2,0,P|363:97|306:103,1,100,2|2,0:0|0:0,0:0:0:0:
222,141,54535,6,0,L|212:257,1,100,4|2,3:0|0:0,0:0:0:70:drum-hitfinish10.wav
174,332,55285,2,0,P|124:345|77:336,1,100,2|2,0:0|0:0,0:0:0:0:
15,257,56035,2,0,L|7:152,1,100,2|2,0:0|0:0,0:0:0:0:
31,113,56597,1,0,0:0:0:0:
107,48,56972,1,0,0:0:0:0:
204,70,57347,1,8,0:0:0:0:
204,70,57535,6,0,L|320:79,1,100,8|2,0:0|0:0,0:0:0:0:
351,90,58097,2,0,P|335:139|353:191,1,100,0|0,0:0|0:0,0:0:0:0:
389,212,58660,1,2,0:0:0:0:
484,240,59035,2,0,L|477:353,1,100,2|2,0:0|0:0,0:0:0:0:
385,377,59785,1,8,0:0:0:0:
293,335,60160,1,8,0:0:0:0:
308,238,60535,6,0,P|262:211|206:222,1,100,2|2,0:0|0:0,0:0:0:0:
177,245,61097,2,0,L|184:354,1,100,0|0,0:0|0:0,0:0:0:0:
85,366,61847,2,0,P|35:358|-5:312,1,100,0|0,0:0|0:0,0:0:0:0:
8,275,62410,1,2,0:0:0:0:
8,275,62597,2,0,L|20:121,1,150,8|2,0:0|0:0,0:0:0:0:
15,75,63347,6,0,P|59:54|117:71,1,100,0|0,0:0|0:0,0:0:0:0:
154,80,63910,1,2,0:0:0:0:
154,80,64097,2,0,P|201:92|249:76,1,100,0|0,0:0|0:0,0:0:0:0:
279,36,64660,1,2,0:0:0:0:
356,99,65035,2,0,L|351:159,1,50,6|0,0:0|0:0,0:0:0:0:
324,191,65410,2,0,L|331:254,1,50,2|2,0:0|0:0,0:0:0:0:
369,271,65785,1,0,0:0:0:0:
459,228,66160,2,0,L|465:171,1,50,10|2,0:0|0:0,0:0:0:0:
506,151,66535,6,0,L|500:46,1,100,4|2,0:0|0:0,0:0:0:0:
402,30,67285,2,0,P|354:23|301:44,1,100,2|2,0:0|0:0,0:0:0:0:
244,118,68035,2,0,L|238:229,1,100,2|2,0:0|0:0,0:0:0:0:
244,267,68597,1,0,0:0:0:0:
181,345,68972,1,0,0:0:0:0:
81,351,69347,1,8,0:0:0:0:
81,351,69535,6,0,L|75:247,1,100,8|2,0:0|0:0,0:0:0:0:
44,211,70097,2,0,L|51:100,1,100,0|0,0:0|0:0,0:0:0:0:
29,65,70660,1,2,0:0:0:0:
124,37,71035,2,0,P|171:40|221:83,1,100,2|2,0:0|0:0,0:0:0:0:
261,157,71785,1,8,0:0:0:0:
355,190,72160,1,8,0:0:0:0:
448,155,72535,6,0,P|457:110|441:58,1,100,4|2,0:0|0:0,0:0:0:0:
405,25,73097,2,0,L|303:32,1,100,0|0,0:0|0:0,0:0:0:0:
228,96,73847,2,0,L|69:86,1,150,8|2,0:0|0:0,0:0:0:0:
42,122,74597,2,0,P|15:162|8:212,1,100,0|2,0:0|0:0,0:0:0:0:
18,261,75160,1,6,0:0:0:0:
102,314,75535,6,0,L|164:311,1,50,4|0,3:0|0:0,0:0:0:0:
191,342,75910,1,2,0:0:0:0:
266,274,76285,2,0,L|271:209,1,50,2|0,0:0|0:0,0:0:0:0:
278,124,76847,2,0,P|337:86|419:103,1,150,0|2,0:0|0:0,0:0:0:0:
450,130,77597,1,0,0:0:0:0:
468,221,77972,1,8,0:0:0:0:
428,312,78347,1,8,0:0:0:0:
428,312,78535,6,0,L|370:308,1,50,4|0,0:0|0:0,0:0:0:0:
338,338,78910,1,2,0:0:0:0:
239,350,79285,2,0,L|177:354,1,50,2|0,0:0|0:0,0:0:0:0:
92,326,79847,2,0,P|56:277|82:182,1,150,0|2,0:0|0:0,0:0:0:0:
137,30,81160,2,0,P|162:28|198:33,1,50,2|0,0:0|0:0,0:0:0:0:
229,55,81535,6,0,P|256:59|294:52,1,50,4|0,0:0|0:0,0:0:0:0:
325,40,81910,1,2,0:0:0:0:
408,94,82285,2,0,L|403:162,1,50,2|0,0:0|0:0,0:0:0:0:
450,232,82847,1,4,0:0:0:0:
327,318,83410,6,0,P|275:331|222:314,2,100,2|2|2,0:0|0:0|0:0,0:0:0:0:
278,230,84535,5,2,0:0:0:0:
256,192,84628,12,0,87347,0:0:0:0:
