osu file format v14

[General]
AudioFilename: audio.mp3
AudioLeadIn: 0
PreviewTime: 54347
Countdown: 0
SampleSet: Soft
StackLeniency: 0.7
Mode: 0
LetterboxInBreaks: 0
WidescreenStoryboard: 0

[Editor]
DistanceSpacing: 1.3
BeatDivisor: 4
GridSize: 16
TimelineZoom: 2

[Metadata]
Title:Panorama Blue
TitleUnicode:パノラマブルー
Artist:Rita
ArtistUnicode:Rita
Creator:Shunao
Version:Hard
Source:恋咲く都に愛の約束を ~Annaffiare~
Tags:ShogunMoon Koi saku Miyako ni Ai no Hanataba wo ~Annaffiare~ op visual novel eroge Hearts
BeatmapID:1507608
BeatmapSetID:713347

[Difficulty]
HPDrainRate:5
CircleSize:3.7
OverallDifficulty:5
ApproachRate:7
SliderMultiplier:1.4
SliderTickRate:1

[Events]
//Background and Video events
0,0,"hard.jpg",0,0
//Break Periods
//Storyboard Layer 0 (Background)
//Storyboard Layer 1 (Fail)
//Storyboard Layer 2 (Pass)
//Storyboard Layer 3 (Foreground)
//Storyboard Sound Samples

[TimingPoints]
535,375,4,2,2,35,1,0
5222,-100,4,2,2,55,0,0
10847,-100,4,2,2,60,0,0
15910,-100,4,2,4,65,0,0
17035,-100,4,2,2,50,0,0
41035,-125,4,2,2,40,0,0
47035,-125,4,2,2,50,0,0
50035,-100,4,2,2,60,0,0
53222,-100,4,2,4,60,0,0
53785,-100,4,2,4,65,0,0
54535,-86.9565217391304,4,2,10,70,0,1
75535,-100,4,2,10,70,0,0
84535,-100,4,2,2,70,0,0
87347,-100,4,2,2,30,0,0

[Colours]
Combo1 : 0,128,192
Combo2 : 255,239,128
Combo3 : 235,103,254

[HitObjects]
37,102,1660,6,0,L|118:96,1,70,0|0,0:0|0:0,0:0:0:0:
184,48,2035,2,0,L|340:57,1,140,2|0,0:0|0:0,0:0:0:0:
401,103,2597,1,2,0:0:0:0:
468,272,2972,1,0,0:0:0:0:
305,353,3347,6,0,P|245:361|186:304,1,140,2|2,0:0|0:0,0:0:0:0:
169,221,3910,1,0,0:0:0:0:
169,221,4097,1,2,0:0:0:0:
319,118,4472,2,0,P|323:157|328:198,1,70,2|2,0:0|0:0,0:0:0:0:
258,268,4847,6,0,P|192:274|152:335,1,140,6|0,0:0|0:0,0:0:0:0:
69,368,5410,2,0,P|32:358|-5:355,1,70,0|0,0:0|0:0,0:0:0:0:
5,263,5785,2,0,P|49:261|76:247,1,70,0|2,0:0|0:0,0:0:0:0:
115,169,6160,1,0,0:0:0:0:
115,169,6347,1,2,0:0:0:0:
115,169,7472,2,0,L|196:162,1,70,2|0,0:0|0:0,0:0:0:0:
268,99,7847,6,0,P|328:71|408:97,1,140,2|0,0:0|0:0,0:0:0:0:
478,128,8410,2,0,L|484:43,1,70,0|0,0:0|0:0,0:0:0:0:
396,88,8785,2,0,L|403:181,1,70,0|2,0:0|0:0,0:0:0:0:
344,229,9160,1,0,0:0:0:0:
387,310,9347,5,2,0:0:0:0:
387,310,9910,2,0,L|380:388,1,70,0|2,0:0|0:0,0:0:0:0:
199,369,10472,1,2,0:0:0:0:
145,195,10847,6,0,P|183:157|270:162,1,140,6|0,0:0|0:0,0:0:0:0:
355,171,11410,2,0,B|361:94,1,70,8|0,0:0|0:0,0:0:0:0:
446,71,11785,2,0,L|452:145,1,70,8|0,0:0|0:0,0:0:0:0:
506,213,12160,2,0,L|500:287,1,70,8|0,0:0|0:0,0:0:0:0:
439,350,12535,5,8,0:0:0:0:
439,350,12722,2,0,P|403:343|366:351,1,70,0|8,0:0|0:0,0:0:0:0:
280,361,13097,2,0,P|245:367|212:361,1,70,0|8,0:0|0:0,0:0:0:0:
141,302,13472,1,8,0:0:0:0:
257,162,13847,6,0,L|269:13,1,140,12|0,0:0|0:0,0:0:0:0:
177,25,14410,2,0,P|138:28|103:52,1,70,8|0,0:0|0:0,0:0:0:0:
48,108,14785,2,0,L|55:192,1,70,8|0,0:0|0:0,0:0:0:0:
99,257,15160,2,0,P|142:247|181:258,1,70,8|0,0:0|0:0,0:0:0:0:
262,296,15535,6,0,B|335:318|330:272|409:294,1,140,8|8,0:0|0:0,0:0:0:0:
489,306,16097,1,8,0:0:0:0:
501,215,16285,2,0,L|496:164,3,35,2|2|2|2,0:0|0:0|0:0|0:0,0:0:0:0:
463,149,16660,2,0,L|468:102,3,35,2|2|2|2,0:0|0:0|0:0|0:0,0:0:0:0:
466,68,17035,6,0,P|414:34|330:69,1,140,4|8,0:0|0:0,0:0:0:0:
265,100,17597,2,0,L|273:183,1,70,0|8,0:0|0:0,0:0:0:0:
342,227,17972,2,0,L|333:305,1,70,0|8,0:0|0:0,0:0:0:0:
276,367,18347,1,0,0:0:0:0:
184,356,18535,6,0,B|113:336|117:385|43:354,1,140,8|8,0:0|0:0,0:0:0:0:
0,277,19097,2,0,P|5:209|57:147,1,140,0|0,0:0|0:0,0:0:0:0:
127,108,19660,1,8,0:0:0:0:
127,108,19847,1,0,0:0:0:0:
203,58,20035,6,0,B|249:56|249:56|285:72|285:72|340:69,1,140,8|8,0:0|0:0,0:0:0:0:
430,75,20597,2,0,L|439:155,1,70,0|8,0:0|0:0,0:0:0:0:
439,235,20972,2,0,P|407:234|368:244,1,70,0|8,0:0|0:0,0:0:0:0:
291,289,21347,1,0,0:0:0:0:
201,270,21535,6,0,B|186:225|186:225|210:130,1,140,8|8,0:0|0:0,0:0:0:0:
171,52,22097,2,0,P|110:43|48:101,1,140,0|0,0:0|0:0,0:0:0:0:
21,176,22660,1,8,0:0:0:0:
21,176,22847,1,8,0:0:0:0:
93,230,23035,6,0,L|106:371,1,140,8|8,0:0|0:0,0:0:0:0:
196,370,23597,2,0,P|231:367|274:374,1,70,0|8,0:0|0:0,0:0:0:0:
344,326,23972,2,0,P|378:330|413:327,1,70,0|8,0:0|0:0,0:0:0:0:
494,286,24347,1,0,0:0:0:0:
473,197,24535,6,0,B|399:182|402:223|334:203,1,140,8|8,0:0|0:0,0:0:0:0:
254,163,25097,2,0,P|245:103|304:44,1,140,0|0,0:0|0:0,0:0:0:0:
380,15,25660,1,8,0:0:0:0:
380,15,25847,1,0,0:0:0:0:
458,64,26035,6,0,B|482:102|482:102|471:206,1,140,8|8,0:0|0:0,0:0:0:0:
427,276,26597,1,2,0:0:0:0:
371,348,26785,2,0,L|291:340,1,70,10|2,0:0|0:0,0:0:0:0:
213,365,27160,1,10,0:0:0:0:
213,365,27347,1,2,0:0:0:0:
128,330,27535,6,0,P|104:268|147:197,1,140,10|8,0:0|0:0,0:0:0:0:
213,160,28097,2,0,P|147:166|92:117,1,140,2|2,0:0|0:0,0:0:0:0:
56,36,28660,1,8,0:0:0:0:
56,36,28847,1,0,0:0:0:0:
161,27,29035,6,0,B|231:7|227:60|302:37,1,140,12|8,0:0|0:0,0:0:0:0:
386,28,29597,1,0,0:0:0:0:
386,28,29785,1,8,0:0:0:0:
437,102,29972,2,0,L|432:184,1,70,0|8,0:0|0:0,0:0:0:0:
364,231,30347,6,0,P|427:209|488:260,1,140,0|0,0:0|0:0,0:0:0:0:
487,338,30910,1,8,0:0:0:0:
400,366,31097,2,0,L|325:361,2,70,0|8|0,0:0|0:0|0:0,0:0:0:0:
487,338,31660,1,8,0:0:0:0:
487,338,31847,1,0,0:0:0:0:
483,247,32035,6,0,P|488:182|500:105,1,140,8|8,0:0|0:0,0:0:0:0:
431,47,32597,1,0,0:0:0:0:
431,47,32785,1,8,0:0:0:0:
348,84,32972,2,0,P|309:90|266:80,1,70,0|8,0:0|0:0,0:0:0:0:
175,66,33347,6,0,B|154:106|154:106|169:211,1,140,0|0,0:0|0:0,0:0:0:0:
194,287,33910,1,8,0:0:0:0:
245,361,34097,2,0,P|191:324|101:339,1,140,0|0,0:0|0:0,0:0:0:0:
38,370,34660,1,8,0:0:0:0:
38,370,34847,1,8,0:0:0:0:
5,284,35035,6,0,P|9:221|21:144,1,140,8|8,0:0|0:0,0:0:0:0:
64,64,35597,1,0,0:0:0:0:
143,19,35785,2,0,L|218:27,1,70,8|0,0:0|0:0,0:0:0:0:
278,89,36160,1,8,0:0:0:0:
368,94,36347,6,0,P|308:111|276:189,1,140,0|0,0:0|0:0,0:0:0:0:
282,267,36910,1,8,0:0:0:0:
340,336,37097,2,0,L|421:328,1,70,0|8,0:0|0:0,0:0:0:0:
486,280,37472,1,0,0:0:0:0:
486,280,37660,1,8,0:0:0:0:
500,190,37847,6,0,P|471:126|392:90,1,140,0|0,0:0|0:0,0:0:0:0:
321,104,38410,1,8,0:0:0:0:
244,153,38597,2,0,L|159:145,2,70,0|8|0,0:0|0:0|0:0,0:0:0:0:
291,230,39160,1,8,0:0:0:0:
291,230,39347,1,0,0:0:0:0:
262,316,39535,6,0,L|119:327,1,140,8|8,0:0|0:0,0:0:0:0:
34,306,40097,2,0,P|29:272|34:234,1,70,0|8,0:0|0:0,0:0:0:0:
53,147,40472,1,8,0:0:0:0:
120,86,40660,1,8,0:0:0:0:
209,102,40847,1,8,0:0:0:0:
265,192,41035,6,0,B|326:205|324:175|387:190,1,112,4|0,0:0|0:0,0:0:0:0:
459,190,41597,2,0,P|466:149|408:40,1,168,2|0,0:0|0:0,0:0:0:0:
326,31,42347,6,0,L|198:23,1,112,0|0,0:0|0:0,0:0:0:0:
139,62,42910,2,0,P|133:97|141:133,1,56,2|0,0:0|0:0,0:0:0:0:
188,182,43285,2,0,P|195:217|186:254,1,56,2|8,0:0|0:0,0:0:0:0:
150,309,43660,1,2,0:0:0:0:
150,309,43847,1,0,0:0:0:0:
215,361,44035,6,0,P|264:342|342:363,1,112,10|0,0:0|0:0,0:0:0:0:
377,288,44597,2,0,P|367:233|387:181,1,112,2|0,0:0|0:0,0:0:0:0:
441,117,45160,1,0,0:0:0:0:
374,66,45347,6,0,B|321:49|321:49|258:66,1,112,8|0,0:0|0:0,0:0:0:0:
138,172,46097,2,0,P|125:136|116:54,1,112,2|0,0:0|0:0,0:0:0:0:
42,20,46660,1,8,0:0:0:0:
42,20,46847,1,0,0:0:0:0:
2,119,47035,6,0,P|11:151|18:184,1,56,8|0,0:0|0:0,0:0:0:0:
53,248,47410,2,0,P|46:279|37:320,1,56,8|0,0:0|0:0,0:0:0:0:
80,377,47785,1,8,0:0:0:0:
247,373,48160,2,0,P|257:346|267:300,1,56,0|0,0:0|0:0,0:0:0:0:
313,225,48535,6,0,P|299:195|290:156,1,56,4|0,0:0|0:0,0:0:0:0:
275,90,48910,1,0,0:0:0:0:
334,31,49097,2,0,P|365:23|407:21,1,56,8|0,0:0|0:0,0:0:0:0:
459,65,49472,1,0,0:0:0:0:
512,129,49660,1,0,0:0:0:0:
487,209,49847,1,0,0:0:0:0:
434,292,50035,6,0,B|392:284|392:284|341:299|341:299|294:289,1,140,4|0,0:0|0:0,0:0:0:0:
213,256,50597,2,0,P|249:199|219:125,1,140,0|0,0:0|0:0,0:0:0:0:
79,29,51347,1,0,0:0:0:0:
56,132,51535,6,0,L|62:208,1,70,8|0,0:0|0:0,0:0:0:0:
122,270,51910,2,0,L|115:355,1,70,8|0,0:0|0:0,0:0:0:0:
202,370,52285,2,0,P|240:364|276:371,1,70,8|0,0:0|0:0,0:0:0:0:
356,336,52660,2,0,P|391:343|427:336,1,70,8|0,0:0|0:0,0:0:0:0:
487,271,53035,5,0,0:0:0:0:
509,182,53222,1,8,0:0:0:0:
444,117,53410,6,0,L|402:110,3,35,8|8|8|8,0:0|0:0|0:0|0:0,0:0:0:0:
373,82,53785,2,0,L|336:88,3,35,2|2|2|2,0:0|0:0|0:0|0:0,0:0:0:0:
296,105,54160,2,0,L|258:99,3,35,2|2|2|2,0:0|0:0|0:0|0:0,0:0:0:0:
218,129,54535,6,0,P|206:169|219:216,1,80.5000015354157,4|0,3:0|0:0,0:0:0:70:drum-hitfinish10.wav
286,268,54910,2,0,P|295:309|286:348,1,80.5000015354157,2|0,0:0|0:0,0:0:0:0:
193,373,55285,2,0,L|100:362,1,80.5000015354157,2|0,0:0|0:0,0:0:0:0:
16,356,55660,1,2,0:0:0:0:
7,260,55847,1,0,0:0:0:0:
81,198,56035,6,0,B|68:101,2,80.5000015354157,2|0|2,0:0|0:0|0:0,0:0:0:0:
165,150,56597,2,0,L|175:67,1,80.5000015354157,0|2,0:0|0:0,0:0:0:0:
262,29,56972,2,0,L|269:133,1,80.5000015354157,0|2,0:0|0:0,0:0:0:0:
354,151,57347,1,8,0:0:0:0:
354,151,57441,1,8,0:0:0:0:
354,151,57535,6,0,P|397:145|475:232,1,161.000003070831,8|2,0:0|0:0,0:0:0:0:
461,317,58097,2,0,B|382:346|385:285|299:317,1,161.000003070831,0|0,0:0|0:0,0:0:0:0:
210,337,58660,1,2,0:0:0:0:
116,358,58847,1,0,0:0:0:0:
30,312,59035,6,0,L|23:231,1,80.5000015354157,2|0,0:0|0:0,0:0:0:0:
66,144,59410,2,0,L|73:63,1,80.5000015354157,2|0,0:0|0:0,0:0:0:0:
166,37,59785,2,0,P|190:32|214:37,3,40.2500007677078,8|8|8|8,0:0|0:0|0:0|0:0,0:0:0:0:
246,59,60160,2,0,P|271:63|295:59,3,40.2500007677078,8|8|8|8,0:0|0:0|0:0|0:0,0:0:0:0:
326,35,60535,6,0,P|397:35|430:117,1,161.000003070831,2|2,0:0|0:0,0:0:0:0:
415,204,61097,2,0,L|408:300,1,80.5000015354157,0|2,0:0|0:0,0:0:0:0:
317,316,61472,2,0,L|310:228,1,80.5000015354157,0|2,0:0|0:0,0:0:0:0:
227,185,61847,1,0,0:0:0:0:
140,227,62035,6,0,P|98:234|50:217,1,80.5000015354157,2|0,0:0|0:0,0:0:0:0:
6,144,62410,1,2,0:0:0:0:
74,76,62597,1,8,0:0:0:0:
74,76,62691,1,8,0:0:0:0:
74,76,62785,2,0,B|106:117|106:117|101:245,1,161.000003070831,8|2,0:0|0:0,0:0:0:0:
107,322,63347,1,0,0:0:0:0:
107,322,63441,1,0,0:0:0:0:
107,322,63535,6,0,P|145:308|193:313,1,80.5000015354157,2|0,0:0|0:0,0:0:0:0:
251,240,63910,2,0,P|254:198|274:153,1,80.5000015354157,2|0,0:0|0:0,0:0:0:0:
346,105,64285,1,2,0:0:0:0:
416,170,64472,2,0,P|430:207|432:247,1,80.5000015354157,0|2,0:0|0:0,0:0:0:0:
343,286,64847,1,0,0:0:0:0:
225,315,65035,6,0,L|122:304,1,80.5000015354157,6|0,0:0|0:0,0:0:0:0:
48,312,65410,1,2,0:0:0:0:
31,216,65597,1,2,0:0:0:0:
96,144,65785,2,0,L|191:133,1,80.5000015354157,0|2,0:0|0:0,0:0:0:0:
217,47,66160,1,10,0:0:0:0:
127,11,66347,1,2,0:0:0:0:
20,47,66535,6,0,P|13:85|-2:128,1,80.5000015354157,4|0,0:0|0:0,0:0:0:0:
31,216,66910,2,0,P|37:259|53:310,1,80.5000015354157,2|0,0:0|0:0,0:0:0:0:
127,348,67285,2,0,P|166:339|216:347,1,80.5000015354157,2|0,0:0|0:0,0:0:0:0:
300,365,67660,1,2,0:0:0:0:
394,348,67847,1,0,0:0:0:0:
438,262,68035,6,0,P|478:250|528:246,2,80.5000015354157,2|0|2,0:0|0:0|0:0,0:0:0:0:
367,195,68597,2,0,P|325:204|281:193,1,80.5000015354157,0|2,0:0|0:0,0:0:0:0:
223,125,68972,2,0,P|181:115|138:126,1,80.5000015354157,0|2,0:0|0:0,0:0:0:0:
56,162,69347,1,8,0:0:0:0:
56,162,69441,1,8,0:0:0:0:
56,162,69535,6,0,P|77:244|88:324,1,161.000003070831,8|2,0:0|0:0,0:0:0:0:
177,355,70097,2,0,P|259:350|310:283,1,161.000003070831,0|0,0:0|0:0,0:0:0:0:
333,201,70660,1,2,0:0:0:0:
253,146,70847,1,0,0:0:0:0:
193,69,71035,6,0,P|230:56|285:49,1,80.5000015354157,2|0,0:0|0:0,0:0:0:0:
364,71,71410,2,0,P|406:66|450:51,1,80.5000015354157,2|0,0:0|0:0,0:0:0:0:
494,136,71785,2,0,P|502:164|506:189,3,40.2500007677078,8|8|8|8,0:0|0:0|0:0|0:0,0:0:0:0:
487,220,72160,2,0,P|481:239|476:258,3,40.2500007677078,8|8|8|8,0:0|0:0|0:0|0:0,0:0:0:0:
442,293,72535,6,0,P|395:288|332:377,1,161.000003070831,4|2,0:0|0:0,0:0:0:0:
234,368,73097,2,0,L|149:362,1,80.5000015354157,0|2,0:0|0:0,0:0:0:0:
131,268,73472,2,0,L|42:273,1,80.5000015354157,0|2,0:0|0:0,0:0:0:0:
7,185,73847,1,8,0:0:0:0:
7,185,73941,1,8,0:0:0:0:
7,185,74035,6,0,P|18:150|29:88,1,80.5000015354157,12|0,0:0|0:0,0:0:0:0:
78,25,74410,1,2,0:0:0:0:
162,71,74597,2,0,P|204:81|250:68,1,80.5000015354157,0|2,0:0|0:0,0:0:0:0:
329,34,74972,1,2,0:0:0:0:
329,34,75066,1,2,0:0:0:0:
329,34,75160,2,0,P|366:25|412:40,1,80.5000015354157,6|0,0:0|0:0,0:0:0:0:
487,102,75535,6,0,L|480:185,1,70,4|0,3:0|0:0,0:0:0:0:
473,262,75910,1,2,0:0:0:0:
473,262,76097,2,0,P|439:253|405:261,1,70,0|2,0:0|0:0,0:0:0:0:
325,304,76472,2,0,P|317:269|303:220,1,70,0|2,0:0|0:0,0:0:0:0:
259,144,76847,6,0,B|152:109|161:187|45:151,1,210,0|2,0:0|0:0,0:0:0:0:
12,73,77597,1,0,0:0:0:0:
90,25,77785,2,0,L|135:29,3,35,8|8|8|8,0:0|0:0|0:0|0:0,0:0:0:0:
166,46,78160,2,0,L|216:42,3,35,8|8|8|8,0:0|0:0|0:0|0:0,0:0:0:0:
243,26,78535,6,0,L|327:34,1,70,4|0,0:0|0:0,0:0:0:0:
368,104,78910,1,2,0:0:0:0:
368,105,79097,2,0,P|360:138|364:173,1,70,0|2,0:0|0:0,0:0:0:0:
411,251,79472,2,0,P|418:291|405:332,1,70,0|2,0:0|0:0,0:0:0:0:
310,349,79847,6,0,P|216:350|166:243,1,210,0|2,0:0|0:0,0:0:0:0:
190,170,80597,1,8,0:0:0:0:
132,98,80785,2,0,P|93:100|52:115,1,70,8|0,0:0|0:0,0:0:0:0:
3,177,81160,1,2,0:0:0:0:
3,177,81347,1,0,0:0:0:0:
63,265,81535,6,0,L|56:352,1,70,4|0,0:0|0:0,0:0:0:0:
148,336,81910,1,2,0:0:0:0:
148,336,82097,2,0,L|154:266,1,70,0|2,0:0|0:0,0:0:0:0:
191,183,82472,1,0,0:0:0:0:
278,158,82660,1,2,0:0:0:0:
362,223,82847,6,0,P|440:215|479:97,1,210,4|2,0:0|0:0,0:0:0:0:
312,33,83785,2,0,B|261:26|261:26|221:37|221:37|160:28,1,140,2|2,0:0|0:0,0:0:0:0:
36,148,84535,5,2,0:0:0:0:
256,192,84628,12,0,87347,0:0:0:0:
