osu file format v14

[General]
AudioFilename: audio.mp3
AudioLeadIn: 0
PreviewTime: 76114
Countdown: 0
SampleSet: Soft
StackLeniency: 0.4
Mode: 0
LetterboxInBreaks: 0
WidescreenStoryboard: 0

[Editor]
Bookmarks: 7530,13313,21987,33554,39337,42228,65361,76927,88493,97168,108734,120301,131867,143433,155000,163674,175240,178132,186807,198373,207048,212831,218072,224397,233072,238855,241901,248220
DistanceSpacing: 1
BeatDivisor: 8
GridSize: 32
TimelineZoom: 2.3

[Metadata]
Title:MANA -Ano Hi, Mitsuketa Kirameki wa-
TitleUnicode:MANA-あの日,見つけた煌めきは-
Artist:Rita
ArtistUnicode:Rita
Creator:Lasse
Version:Desire
Source:
Tags:Duca 東タカゴー Takago Azuma Japanese Pop
BeatmapID:2239462
BeatmapSetID:1069833

[Difficulty]
HPDrainRate:6
CircleSize:4
OverallDifficulty:8.2
ApproachRate:8.6
SliderMultiplier:3.59999990463257
SliderTickRate:1

[Events]
//Background and Video events
0,0,"1.jpg",0,0
//Break Periods
2,213030,217413
//Storyboard Layer 0 (Background)
//Storyboard Layer 1 (Fail)
//Storyboard Layer 2 (Pass)
//Storyboard Layer 3 (Foreground)
//Storyboard Layer 4 (Overlay)
//Storyboard Sound Samples

[TimingPoints]
1747,722.89156626506,4,2,1,36,1,0
1747,-156.25,4,2,1,36,0,0
7530,-133.333333333333,4,2,2,40,0,0
9518,-133.333333333333,4,2,2,42,0,0
9608,-133.333333333333,4,2,2,44,0,0
9698,-133.333333333333,4,2,2,46,0,0
9879,-133.333333333333,4,2,2,48,0,0
10060,-133.333333333333,4,2,2,50,0,0
10240,-133.333333333333,4,2,2,52,0,0
10421,-90.9090909090909,4,1,1,64,0,0
10692,-90.9090909090909,4,1,1,46,0,0
10783,-90.9090909090909,4,1,1,64,0,0
11686,-83.3333333333333,4,1,1,66,0,0
11957,-83.3333333333333,4,1,1,46,0,0
12048,-83.3333333333333,4,1,1,66,0,0
12590,-83.3333333333333,4,3,2,64,0,0
12951,-83.3333333333333,4,3,2,62,0,0
13313,-111.111111111111,4,1,1,60,0,0
16204,-99.9999999999999,4,1,1,62,0,0
19096,-111.111111111111,4,1,1,64,0,0
21084,-111.111111111111,4,1,1,55,0,0
21265,-200,4,1,1,55,0,0
21807,-200,4,2,1,40,0,0
21987,-111.111111111111,4,1,1,58,0,0
24066,-111.111111111111,4,1,1,48,0,0
24156,-111.111111111111,4,1,1,58,0,0
31656,-111.111111111111,4,1,1,48,0,0
31746,-111.111111111111,4,1,1,58,0,0
39337,-111.111111111111,4,1,1,60,0,0
39698,-111.111111111111,4,1,1,62,0,0
40060,-111.111111111111,4,1,1,64,0,0
40602,-111.111111111111,4,1,1,66,0,0
40963,-111.111111111111,4,1,3,64,0,0
41144,-111.111111111111,4,1,1,62,0,0
42228,-200,4,2,1,34,0,0
62289,-181.818181818182,4,2,1,36,0,0
63554,-200,4,2,1,34,0,0
63915,-181.818181818182,4,2,1,36,0,0
64277,-181.818181818182,4,2,1,30,0,0
64548,-181.818181818182,4,2,1,34,0,0
64638,-166.666666666667,4,2,1,40,0,0
65361,-121.951219512195,4,2,1,55,0,0
71144,-111.111111111111,4,2,1,58,0,0
72590,-111.111111111111,4,2,1,60,0,0
73132,-111.111111111111,4,2,1,62,0,0
74036,-133.333333333333,4,2,1,66,0,0
75301,-133.333333333333,4,2,1,62,0,0
75481,-133.333333333333,4,2,1,64,0,0
75843,-133.333333333333,4,2,1,60,0,0
76024,-133.333333333333,4,2,1,56,0,0
76204,-133.333333333333,4,3,1,64,0,0
76927,-100,4,1,1,65,0,1
88493,-100,4,1,1,65,0,1
91385,-83.3333333333333,4,1,1,70,0,1
92921,-83.3333333333333,4,1,1,50,0,1
93012,-83.3333333333333,4,1,1,70,0,1
94277,-100,4,1,1,65,0,1
95722,-100,4,1,1,70,0,1
95903,-100,4,1,1,70,0,0
96265,-100,4,2,2,50,0,0
97168,-166.666666666667,4,2,2,38,0,0
108012,-166.666666666667,4,2,2,45,0,0
108734,-133.333333333333,4,2,1,50,0,0
128975,-125,4,2,1,55,0,0
130421,-125,4,2,2,55,0,0
131867,-117.647058823529,4,2,1,58,0,0
137650,-107.52688172043,4,2,1,60,0,0
139096,-107.52688172043,4,2,1,62,0,0
139819,-107.52688172043,4,2,2,64,0,0
140542,-133.333333333333,4,2,1,68,0,0
141987,-133.333333333333,4,2,1,64,0,0
142710,-133.333333333333,4,3,2,66,0,0
143433,-90.9090909090909,4,1,1,68,0,1
155000,-90.9090909090909,4,1,1,68,0,1
157891,-76.9230769230769,4,1,1,72,0,1
159427,-76.9230769230769,4,1,1,50,0,1
159518,-76.9230769230769,4,1,1,72,0,1
160783,-90.9090909090909,4,1,1,68,0,1
162228,-133.333333333333,4,1,1,72,0,1
162319,-133.333333333333,4,2,1,5,0,1
162409,-133.333333333333,4,1,1,70,0,1
162454,-133.333333333333,4,2,2,60,0,1
162861,-133.333333333333,4,2,1,30,0,1
162951,-133.333333333333,4,3,2,64,0,1
163132,-133.333333333333,4,3,2,62,0,1
163313,-133.333333333333,4,3,2,60,0,1
163493,-133.333333333333,4,3,2,58,0,1
163674,-100,4,3,3,62,0,0
163765,-100,4,3,1,62,0,0
175240,-90.9090909090909,4,3,3,64,0,0
175331,-90.9090909090909,4,3,1,64,0,0
177771,-90.9090909090909,4,3,3,64,0,0
178132,-90.9090909090909,4,3,3,66,0,0
178222,-90.9090909090909,4,3,1,66,0,0
180662,-90.9090909090909,4,3,3,66,0,0
181024,-83.3333333333333,4,3,3,68,0,0
181114,-83.3333333333333,4,3,1,68,0,0
185361,-76.9230769230769,4,3,1,70,0,0
186084,-71.4285714285714,4,3,1,72,0,0
186807,-100,4,1,1,60,0,0
190692,-100,4,1,1,45,0,0
190783,-100,4,1,1,60,0,0
198373,-90.9090909090909,4,1,1,60,0,0
200451,-90.9090909090909,4,1,1,45,0,0
200542,-90.9090909090909,4,1,1,60,0,0
201265,-76.9230769230769,4,1,1,65,0,0
201536,-76.9230769230769,4,1,1,50,0,0
201626,-76.9230769230769,4,1,1,60,0,0
201807,-76.9230769230769,4,1,3,65,0,0
202078,-76.9230769230769,4,1,1,50,0,0
202168,-76.9230769230769,4,1,1,60,0,0
202530,-76.9230769230769,4,1,1,65,0,0
202801,-76.9230769230769,4,1,1,50,0,0
202891,-76.9230769230769,4,1,1,60,0,0
204156,-90.9090909090909,4,1,1,62,0,0
205602,-90.9090909090909,4,1,1,64,0,0
206686,-90.9090909090909,4,1,4,64,0,0
206867,-90.9090909090909,4,1,1,64,0,0
207048,-83.3333333333333,4,1,1,66,0,0
209939,-100,4,1,1,68,0,0
210481,-71.4285714285714,4,1,3,70,0,0
210753,-71.4285714285714,4,1,3,44,0,0
210843,-71.4285714285714,4,1,3,60,0,0
211204,-100,4,2,1,54,0,0
211385,-100,4,2,1,56,0,0
211430,-100,4,2,2,40,0,0
211746,-100,4,2,3,35,0,0
212108,-100,4,2,1,30,0,0
212469,-100,4,2,2,25,0,0
212831,-100,4,2,4,35,0,0
218072,-100,4,2,3,40,0,0
218614,-166.666666666667,4,2,3,44,0,0
220421,-133.333333333333,4,2,1,46,0,0
220692,-133.333333333333,4,2,1,20,0,0
220783,-133.333333333333,4,2,2,50,0,0
220963,-133.333333333333,4,2,1,50,0,0
221506,-66.6666666666667,4,1,1,75,0,1
221777,-66.6666666666667,4,1,1,50,0,1
221867,-66.6666666666667,4,1,1,70,0,1
222048,-66.6666666666667,4,1,3,75,0,1
222319,-66.6666666666667,4,1,1,50,0,1
222409,-66.6666666666667,4,1,1,70,0,1
222771,-66.6666666666667,4,1,1,75,0,1
223042,-66.6666666666667,4,1,1,50,0,1
223132,-66.6666666666667,4,1,1,70,0,1
224307,-66.6666666666667,4,1,1,70,0,0
224397,-76.9230769230769,4,1,1,70,0,1
227289,-71.4285714285714,4,1,1,74,0,1
229096,-71.4285714285714,4,1,4,74,0,1
229277,-71.4285714285714,4,1,1,74,0,1
229819,-71.4285714285714,4,1,4,74,0,1
230180,-66.6666666666667,4,1,1,70,0,1
230451,-66.6666666666667,4,1,1,50,0,1
230542,-66.6666666666667,4,1,1,70,0,1
231626,-66.6666666666667,4,1,1,74,0,1
231807,-100,4,1,1,74,0,0
233072,-166.666666666667,4,2,1,38,0,0
237951,736.196319018405,4,2,1,38,1,0
237951,-166.666666666667,4,2,1,38,0,0
238871,718.562874251497,4,2,1,38,1,0
238871,-181.818181818182,4,2,1,34,0,0
239589,701.754385964912,4,2,1,28,1,0
239589,-181.818181818182,4,2,1,28,0,0
239765,731.707317073171,4,2,1,30,1,0
239765,-181.818181818182,4,2,1,30,0,0
240130,-181.818181818182,4,2,1,26,0,0
240313,750,4,2,1,28,1,0
240313,-200,4,2,1,28,0,0
240688,833.333333333333,4,2,1,20,1,0
241096,833.333333333333,4,2,1,24,1,0
241096,-200,4,2,1,24,0,0
241512,779.220779220779,4,2,1,20,1,0
241901,882.352941176471,4,2,1,22,1,0
241901,-222.222222222222,4,2,1,22,0,0
242342,-222.222222222222,4,2,1,16,0,0
242783,895.522388059701,4,2,1,20,1,0
242783,-250,4,2,1,20,0,0
243006,-250,4,2,1,18,0,0
243230,1500,4,2,1,16,1,0
243605,2307.69230769231,4,2,1,18,1,0
243605,-142.857142857143,4,2,1,18,0,0
244181,-142.857142857143,4,2,1,5,0,0
248220,-142.857142857143,4,2,4,5,0,0

[Colours]
Combo1 : 250,190,230
Combo2 : 130,190,230
Combo3 : 255,170,170
Combo4 : 180,180,255

[HitObjects]
89,13,1747,6,0,P|76:70|74:146,1,115.199996948242,2|0,0:2|0:2,0:0:0:0:
185,241,2469,2,0,P|238:228|305:222,1,115.199996948242,2|0,3:2|0:2,0:0:0:0:
378,233,3012,2,0,P|431:246|498:252,2,115.199996948242,2|0|0,0:2|0:2|0:2,0:0:0:0:
344,160,3915,2,0,P|328:107|300:46,1,115.199996948242,2|0,3:2|0:2,0:0:0:0:
137,11,4638,6,0,P|120:66|96:118,1,115.199996948242,2|0,0:2|0:2,0:0:0:0:
0,102,5180,1,0,0:2:0:0:
0,102,5361,2,0,P|16:157|40:209,1,115.199996948242,2|0,3:2|0:2,0:0:0:0:
40,209,6084,5,2,0:2:0:0:
146,308,6445,1,2,0:2:0:0:
123,314,6626,1,2,0:2:0:0:
247,223,6987,2,0,L|171:203,1,57.5999984741211,2|0,0:2|0:2,0:0:0:0:
191,208,7530,6,0,P|181:141|202:63,2,135.000001573563,2|0|0,0:2|0:2|0:2,0:0:0:0:
266,289,8433,1,2,0:2:0:0:
320,228,8614,1,2,0:2:0:0:
393,295,8795,2,0,P|403:228|382:150,1,135.000001573563,2|0,0:2|0:2,0:0:0:0:
305,66,9337,2,0,P|338:69|372:66,1,67.5000007867814,2|0,0:2|3:2,0:0:0:0:
372,66,9608,1,0,3:2:0:0:
372,66,9698,5,8,3:2:0:0:
443,7,9879,1,8,3:1:0:0:
388,163,10060,1,4,3:3:0:0:
459,104,10240,1,4,3:3:0:0:
511,227,10421,6,2,P|504:285|506:390,1,148.500000597954,6|0,1:1|0:2,0:1:0:0:
504,374,10783,1,8,1:2:0:0:
362,290,10963,6,2,P|364:215|350:88,1,198.000000797272,2|0,1:1|1:2,0:1:0:0:
318,22,11506,1,8,0:2:0:0:
208,169,11686,6,2,P|191:233|184:351,1,161.999990764618,6|0,0:1|0:2,0:1:0:0:
182,328,12048,1,2,1:1:0:0:
264,375,12228,1,10,3:2:0:0:
312,293,12409,1,10,1:3:0:0:
354,220,12590,5,10,0:2:0:0:
208,169,12771,1,8,0:2:0:0:
291,56,12951,1,10,0:3:0:0:
437,107,13132,1,4,0:3:0:0:
303,145,13313,6,0,L|138:124,2,161.999990764618,6|0|8,0:2|0:2|0:2,0:0:0:0:
429,236,14216,1,2,0:2:0:0:
322,280,14397,1,8,0:1:0:0:
474,357,14578,2,0,L|357:335,1,80.9999953823091,2|0,0:3|0:2,0:0:0:0:
243,358,14939,5,2,0:2:0:0:
249,223,15120,1,2,0:3:0:0:
267,94,15301,1,2,0:3:0:0:
267,94,15391,1,0,0:3:0:0:
267,93,15481,2,0,P|269:53|262:13,1,80.9999953823091,10|0,0:2|0:2,0:0:0:0:
136,192,15843,2,0,P|133:232|140:272,1,80.9999953823091,2|0,0:3|0:2,0:0:0:0:
254,373,16204,6,0,B|330:366|330:366|352:375|352:375|438:367,1,179.999995231629,10|0,0:1|0:2,0:0:0:0:
512,359,16746,1,0,0:2:0:0:
359,285,16927,2,0,B|373:242|373:242|355:200,1,89.9999976158143,10|0,0:1|0:2,0:0:0:0:
295,128,17289,5,2,0:2:0:0:
254,279,17469,1,10,0:1:0:0:
254,279,17560,1,8,0:3:0:0:
254,279,17650,1,8,0:3:0:0:
103,238,17831,1,8,0:3:0:0:
144,87,18012,1,4,0:3:0:0:
144,87,18373,5,10,0:1:0:0:
194,201,18554,1,8,0:3:0:0:
295,128,18734,1,6,0:3:0:0:
245,14,18915,1,4,0:3:0:0:
127,103,19096,6,0,P|36:60|45:9,1,161.999990764618,6|0,0:1|0:2,0:0:0:0:
295,128,19638,2,0,L|380:110,1,80.9999953823091,2|0,0:1|0:2,0:0:0:0:
202,276,20000,1,2,0:1:0:0:
202,276,20090,1,0,0:2:0:0:
202,276,20180,2,0,B|212:235|212:235|184:181,1,80.9999953823091,0|0,0:2|0:2,0:0:0:0:
127,103,20542,5,8,0:1:0:0:
49,355,20722,1,8,0:1:0:0:
0,164,21084,5,8,1:3:0:0:
0,164,21174,1,8,1:3:0:0:
0,164,21265,2,2,B|25:165|43:157|43:157|60:171|60:171|80:174|80:174|93:195|129:211,1,134.999996423721,14|0,0:2|0:2,0:1:0:0:
272,165,21987,6,0,P|271:92|295:-22,2,161.999990764618,6|0|8,0:2|0:2|0:2,0:0:0:0:
398,269,22891,1,2,0:2:0:0:
389,171,23072,1,2,0:3:0:0:
445,94,23253,1,2,0:2:0:0:
445,94,23343,1,0,0:2:0:0:
445,94,23433,2,0,P|468:128|513:148,1,80.9999953823091,0|0,0:2|0:2,0:0:0:0:
377,20,23795,2,0,P|316:21|253:67,1,121.499993073464,2|0,0:2|0:2,0:0:0:0:
255,71,24156,2,0,P|261:132|179:214,1,161.999990764618,8|0,0:2|0:2,0:0:0:0:
0,19,24879,6,0,L|96:10,1,80.9999953823091,2|0,0:2|0:2,0:0:0:0:
146,70,25240,2,0,P|140:131|222:213,2,161.999990764618,2|8|0,0:2|0:2|0:2,0:0:0:0:
210,10,26144,1,0,0:2:0:0:
90,127,26325,6,0,P|44:109|-10:96,1,80.9999953823091,2|0,0:3|0:2,0:0:0:0:
222,223,26686,2,0,P|260:211|298:196,1,80.9999953823091,2|8,0:3|0:3,0:0:0:0:
308,189,26957,1,8,0:3:0:0:
316,179,27048,2,0,P|319:136|327:84,1,80.9999953823091,10|0,0:2|0:2,0:0:0:0:
512,264,27409,2,0,P|509:221|501:169,1,80.9999953823091,2|0,0:2|0:2,0:0:0:0:
458,106,27771,5,2,0:2:0:0:
383,242,27951,1,2,0:3:0:0:
316,179,28132,2,0,P|309:108|277:12,1,161.999990764618,2|8,0:2|0:2,0:0:0:0:
86,104,28674,5,2,0:2:0:0:
171,72,28855,1,2,0:3:0:0:
101,15,29036,1,2,0:2:0:0:
101,15,29126,1,0,0:2:0:0:
101,15,29216,2,0,P|59:25|4:32,1,80.9999953823091,0|0,0:2|0:2,0:0:0:0:
156,161,29578,2,0,P|196:166|235:176,1,80.9999953823091,2|0,0:2|0:2,0:0:0:0:
87,340,29939,2,0,P|22:299|23:220,1,161.999990764618,10|0,0:2|0:2,0:0:0:0:
22,220,30481,1,0,0:2:0:0:
156,161,30662,5,10,0:3:0:0:
187,272,30843,1,8,0:2:0:0:
298,241,31024,1,10,0:3:0:0:
267,130,31204,1,4,0:3:0:0:
267,130,31295,1,4,0:3:0:0:
267,130,31385,2,0,P|251:95|273:11,1,121.499993073464,8|0,0:2|0:2,0:0:0:0:
281,9,31746,6,0,L|384:24,1,80.9999953823091,2|0,0:3|0:2,0:0:0:0:
177,127,32108,2,0,L|72:113,1,80.9999953823091,2|0,0:2|0:2,0:0:0:0:
297,250,32469,2,0,L|400:265,1,80.9999953823091,2|8,0:3|0:3,0:0:0:0:
384,271,32740,1,8,0:3:0:0:
392,280,32831,5,10,0:2:0:0:
509,172,33012,1,8,0:3:0:0:
437,28,33192,1,6,0:3:0:0:
321,136,33373,1,4,0:3:0:0:
182,31,33554,6,0,L|350:20,2,161.999990764618,6|0|8,0:2|0:2|0:2,0:0:0:0:
59,110,34457,1,2,0:2:0:0:
83,0,34638,1,2,0:3:0:0:
183,131,34819,1,2,0:2:0:0:
183,131,34909,1,0,0:2:0:0:
183,131,35000,2,0,P|196:169|197:209,1,80.9999953823091,0|0,0:2|0:2,0:0:0:0:
44,372,35361,2,0,P|30:333|29:293,1,80.9999953823091,2|0,0:2|0:2,0:0:0:0:
42,191,35722,5,10,0:2:0:0:
184,311,35903,1,8,0:3:0:0:
197,209,36084,1,6,0:3:0:0:
29,293,36265,1,4,0:3:0:0:
200,326,36445,6,0,P|245:317|299:313,1,80.9999953823091,2|0,0:2|0:2,0:0:0:0:
117,187,36807,2,0,P|76:182|37:174,1,80.9999953823091,2|8,0:2|0:3,0:0:0:0:
25,170,37078,1,8,0:3:0:0:
13,162,37168,2,0,P|12:82|76:29,1,161.999990764618,10|0,0:2|0:2,0:0:0:0:
185,18,37710,5,2,0:2:0:0:
185,18,37801,1,0,0:2:0:0:
185,18,37891,1,0,0:2:0:0:
231,154,38072,1,8,0:2:0:0:
326,47,38253,1,8,0:3:0:0:
393,354,38614,1,10,0:2:0:0:
512,3,38975,1,2,0:3:0:0:
512,3,39337,5,6,0:2:0:0:
487,123,39518,1,8,0:2:0:0:
397,56,39698,5,10,0:3:0:0:
447,232,39879,1,4,0:3:0:0:
354,153,40060,5,10,0:2:0:0:
339,336,40240,1,8,0:3:0:0:
339,336,40331,1,8,0:3:0:0:
339,336,40421,1,4,0:3:0:0:
265,117,40602,5,14,0:1:0:0:
265,117,40963,5,6,0:1:0:0:
212,384,41144,1,14,0:2:0:0:
0,330,42228,6,0,L|90:322,1,89.9999976158143,2|0,0:2|0:2,0:0:0:0:
144,274,42771,2,0,P|151:254|144:220,1,44.9999988079071,2|0,0:2|3:2,0:0:0:0:
121,164,43132,1,0,0:2:0:0:
121,164,43313,2,0,P|92:113|150:9,1,179.999995231629,2|0,0:2|0:2,0:0:0:0:
275,100,44397,2,0,L|185:94,1,89.9999976158143,2|0,3:2|0:2,0:0:0:0:
305,179,45120,6,0,P|296:219|314:278,1,89.9999976158143,2|0,0:2|0:2,0:0:0:0:
359,329,45662,1,2,0:2:0:0:
359,329,45843,2,0,L|454:323,1,89.9999976158143,0|0,3:2|0:2,0:0:0:0:
306,265,46566,2,0,L|211:271,2,89.9999976158143,2|0|0,0:2|0:2|3:2,0:0:0:0:
367,222,47469,2,0,P|374:196|353:157,1,44.9999988079071,2|0,0:2|0:2,0:0:0:0:
321,106,47831,5,0,0:2:0:0:
321,106,48012,2,0,L|213:88,1,89.9999976158143,2|0,0:2|0:2,0:0:0:0:
163,24,48554,2,0,L|218:15,1,44.9999988079071,2|0,0:2|3:2,0:0:0:0:
151,105,48915,1,0,0:2:0:0:
151,105,49096,2,0,P|145:159|30:170,1,179.999995231629,2|0,0:2|0:2,0:0:0:0:
38,178,50180,1,2,3:2:0:0:
0,43,50722,5,0,0:2:0:0:
0,43,50903,2,0,L|103:34,1,89.9999976158143,2|0,0:2|0:2,0:0:0:0:
159,63,51445,2,0,P|164:42|161:4,1,44.9999988079071,2|0,0:2|3:2,0:0:0:0:
102,110,51807,1,0,0:2:0:0:
102,110,51987,2,0,P|89:165|102:223,1,89.9999976158143,2|0,0:2|0:2,0:0:0:0:
131,268,52530,1,0,0:2:0:0:
131,268,52710,2,0,L|231:284,1,89.9999976158143,2|0,0:2|3:2,0:0:0:0:
291,325,53253,2,0,L|299:273,1,44.9999988079071,2|0,0:2|0:2,0:0:0:0:
383,343,53614,5,0,0:2:0:0:
383,343,53795,2,0,L|374:240,1,89.9999976158143,2|0,0:2|0:2,0:0:0:0:
325,184,54337,2,0,L|259:174,1,44.9999988079071,2|0,0:2|3:2,0:0:0:0:
386,132,54698,1,0,0:2:0:0:
386,132,54879,1,2,0:2:0:0:
386,132,55421,2,0,P|408:127|433:112,1,44.9999988079071,2|0,0:2|0:2,0:0:0:0:
353,62,55783,2,0,P|359:40|359:11,1,44.9999988079071,2|0,0:2|3:2,0:0:0:0:
275,55,56144,2,0,P|259:38|234:24,1,44.9999988079071,2|0,0:2|0:2,0:0:0:0:
85,78,56686,6,0,P|70:118|71:175,1,89.9999976158143,2|0,0:2|0:2,0:0:0:0:
119,225,57228,2,0,L|172:238,1,44.9999988079071,2|0,0:2|3:2,0:0:0:0:
121,323,57590,1,0,0:2:0:0:
121,323,57771,2,0,L|219:311,1,89.9999976158143,2|0,0:2|0:2,0:0:0:0:
383,374,58493,2,0,L|293:363,1,89.9999976158143,2|0,0:2|3:2,0:0:0:0:
448,290,59216,5,0,0:2:0:0:
448,290,59578,2,0,P|462:247|456:191,2,89.9999976158143,2|0|0,0:2|0:2|3:2,0:0:0:0:
331,214,60662,1,0,0:2:0:0:
331,214,60843,2,0,P|317:171|336:85,1,134.999996423721,2|0,0:2|0:2,0:0:0:0:
202,18,61746,2,0,P|245:20|300:-2,1,89.9999976158143,2|0,3:2|0:2,0:0:0:0:
201,100,62289,5,0,0:2:0:0:
201,100,62469,2,0,P|169:154|179:296,1,198.000000797272,2|0,0:2|3:2,0:0:0:0:
173,285,63554,2,0,L|239:292,1,44.9999988079071,2|0,0:2|0:2,0:0:0:0:
177,376,63915,2,0,L|284:358,1,99.0000003986359,2|0,0:2|0:2,0:0:0:0:
412,370,64548,5,2,0:2:0:0:
412,370,64638,2,2,B|440:387|440:387|425:323|425:323|448:231,1,161.999990764618,2|0,0:2|0:2,0:1:0:0:
484,154,65361,6,0,P|503:81|462:-9,2,147.599998342133,6|0|8,1:2|1:2|0:2,0:0:0:0:
511,282,66445,2,0,L|425:256,1,73.7999991710663,2|0,0:3|0:2,0:0:0:0:
337,174,66807,2,0,L|493:152,2,147.599998342133,2|0|8,1:2|1:2|0:2,0:0:0:0:
282,232,67891,1,2,0:3:0:0:
282,232,68072,1,2,0:3:0:0:
203,157,68253,6,0,P|223:87|193:22,1,147.599998342133,2|0,1:2|1:2,0:0:0:0:
63,125,68975,2,0,P|43:194|73:259,1,147.599998342133,8|2,0:2|2:2,0:0:0:0:
22,333,69518,1,2,2:3:0:0:
99,374,69698,2,0,L|258:358,1,147.599998342133,2|0,1:2|1:2,0:0:0:0:
331,380,70240,2,0,L|338:287,1,73.7999991710663,2|8,0:2|0:2,0:0:0:0:
388,248,70783,1,2,0:3:0:0:
388,248,70963,1,2,0:3:0:0:
314,149,71144,6,0,B|227:119|240:187|157:158,2,161.999990764618,6|0|8,1:2|1:2|0:2,0:0:0:0:
388,248,72228,2,0,P|421:274|482:281,1,80.9999953823091,2|8,0:2|2:2,0:0:0:0:
350,124,72590,5,10,3:3:0:0:
275,247,72771,1,8,3:2:0:0:
204,120,72951,1,4,3:3:0:0:
278,169,73132,5,8,3:3:0:0:
278,169,73222,1,8,3:3:0:0:
278,169,73313,1,10,3:2:0:0:
201,29,73493,1,8,3:2:0:0:
75,85,73674,1,10,3:3:0:0:
152,225,73855,1,8,3:3:0:0:
287,259,74036,6,0,P|351:247|431:243,1,135.000001573563,2|0,1:1|0:2,0:1:0:0:
260,93,74578,2,0,L|176:73,2,67.5000007867814,2|0|0,1:1|0:2|0:2,0:0:0:0:
443,61,75120,2,0,P|453:26|479:-13,1,67.5000007867814,2|0,1:1|0:2,0:0:0:0:
512,194,75481,5,10,1:3:0:0:
383,159,75662,1,8,0:2:0:0:
421,306,75843,2,0,P|455:288|502:276,1,67.5000007867814,2|0,0:3|0:3,0:0:0:0:
375,140,76204,5,10,3:2:0:0:
282,312,76385,1,8,3:3:0:0:
109,220,76566,1,6,3:3:0:0:
202,47,76746,1,4,3:3:0:0:
296,128,76927,6,0,B|375:172|375:172|463:125,2,179.999995231629,6|0|8,0:2|0:3|0:2,0:0:0:0:
202,47,77831,5,2,0:2:0:0:
109,220,78012,1,2,0:3:0:0:
95,101,78192,1,2,0:3:0:0:
95,101,78283,1,0,0:2:0:0:
95,101,78373,1,0,0:2:0:0:
233,238,78554,5,2,0:2:0:0:
109,220,78734,1,2,0:3:0:0:
189,355,78915,1,2,0:3:0:0:
189,355,79096,2,0,P|281:348|401:349,1,179.999995231629,10|0,0:2|0:2,0:0:0:0:
447,368,79638,1,0,0:2:0:0:
310,212,79819,6,0,P|357:224|427:228,1,89.9999976158143,2|0,0:2|0:2,0:0:0:0:
311,114,80180,1,2,0:2:0:0:
230,267,80361,2,0,P|222:212|201:170,1,89.9999976158143,2|8,0:3|0:2,0:0:0:0:
320,98,80722,1,2,0:3:0:0:
398,228,80903,2,0,P|380:269|375:314,1,89.9999976158143,2|0,0:2|0:2,0:0:0:0:
197,166,81265,5,2,0:3:0:0:
311,114,81445,1,8,0:3:0:0:
267,8,81626,1,4,0:3:0:0:
153,60,81807,1,8,0:3:0:0:
153,60,81897,1,8,0:3:0:0:
153,60,81987,2,0,P|108:57|46:43,1,89.9999976158143,10|0,0:2|0:2,0:0:0:0:
311,114,82349,2,0,P|356:117|418:131,1,89.9999976158143,2|0,0:3|0:2,0:0:0:0:
187,209,82710,6,0,P|178:294|94:316,1,179.999995231629,2|0,0:2|0:2,0:0:0:0:
0,200,83253,2,0,B|41:218|41:218|81:198,1,89.9999976158143,2|8,0:3|0:2,0:0:0:0:
166,86,83614,5,2,0:2:0:0:
60,34,83795,1,2,0:3:0:0:
179,97,83975,1,2,0:3:0:0:
192,108,84066,1,0,0:3:0:0:
205,119,84156,2,0,P|247:132|292:129,1,89.9999976158143,0|0,0:2|0:2,0:0:0:0:
82,198,84518,2,0,P|41:196|-8:211,1,89.9999976158143,2|0,0:3|0:2,0:0:0:0:
181,351,84879,5,10,0:2:0:0:
219,253,85060,1,8,0:3:0:0:
191,365,85240,1,2,0:3:0:0:
229,267,85421,1,4,0:3:0:0:
345,358,85602,6,0,L|435:351,1,89.9999976158143,2|0,0:2|0:2,0:0:0:0:
309,180,85963,1,2,0:2:0:0:
229,267,86144,1,2,0:3:0:0:
219,253,86234,1,0,0:2:0:0:
209,237,86325,2,0,P|196:201|206:135,1,89.9999976158143,8|0,0:2|0:2,0:0:0:0:
380,11,86686,2,0,P|393:53|389:97,1,89.9999976158143,2|0,0:3|0:2,0:0:0:0:
309,180,87048,5,2,0:3:0:0:
209,134,87228,1,8,0:3:0:0:
95,140,87409,1,4,0:3:0:0:
166,25,87590,5,8,0:3:0:0:
166,25,87680,1,8,0:3:0:0:
166,25,87771,1,10,0:2:0:0:
217,150,87951,1,2,0:2:0:0:
317,61,88132,1,10,3:3:0:0:
342,85,88222,1,8,3:3:0:0:
376,73,88313,1,8,3:3:0:0:
409,86,88403,1,8,3:3:0:0:
444,78,88493,6,0,B|468:45|468:45|447:-9,1,89.9999976158143,6|0,0:2|0:2,0:0:0:0:
327,160,88855,2,0,B|298:207|312:247|326:246|338:294|306:340,1,179.999995231629,2|8,0:2|0:2,0:0:0:0:
150,384,89397,5,2,0:2:0:0:
133,254,89578,1,2,0:3:0:0:
29,334,89759,1,2,0:3:0:0:
29,334,89849,1,0,0:2:0:0:
29,334,89939,1,0,0:2:0:0:
62,160,90120,5,2,0:2:0:0:
133,254,90301,1,2,0:3:0:0:
179,146,90481,1,2,0:3:0:0:
179,146,90572,1,0,0:2:0:0:
179,146,90662,2,0,P|186:100|173:41,1,89.9999976158143,8|0,0:2|0:2,0:0:0:0:
111,0,91024,5,10,0:3:0:0:
62,160,91204,1,4,0:3:0:0:
234,256,91385,6,0,L|354:233,1,107.999993843079,6|8,0:1|0:2,0:0:0:0:
503,122,91746,2,0,P|508:60|475:11,1,107.999993843079,2|8,0:1|0:3,0:0:0:0:
471,15,92018,1,8,0:3:0:0:
454,13,92108,2,0,B|403:42|403:42|343:27,1,107.999993843079,10|0,0:1|0:2,0:0:0:0:
283,0,92469,1,2,0:3:0:0:
415,144,92650,6,0,B|360:130|360:130|323:142|323:142|242:124,1,161.999990764618,6|0,0:1|0:2,0:0:0:0:
258,127,93012,1,8,0:3:0:0:
183,25,93192,1,10,0:3:0:0:
114,196,93373,1,4,0:3:0:0:
75,85,93554,5,10,0:1:0:0:
205,236,93734,1,8,0:3:0:0:
70,100,93915,1,10,0:3:0:0:
200,251,94096,1,4,0:3:0:0:
96,361,94277,6,0,P|75:275|114:195,1,179.999995231629,6|0,0:1|0:2,0:0:0:0:
254,37,94819,2,0,B|214:58|214:58|171:43,1,89.9999976158143,2|8,0:1|0:2,0:0:0:0:
351,203,95180,1,2,0:1:0:0:
351,203,95271,1,0,0:2:0:0:
351,203,95361,2,0,B|336:161|336:161|357:121,1,89.9999976158143,0|0,0:2|0:2,0:0:0:0:
437,36,95722,5,10,0:1:0:0:
512,274,95903,1,10,0:1:0:0:
499,130,96265,5,0,3:2:0:0:
499,130,96355,1,0,3:2:0:0:
499,130,96445,1,8,3:2:0:0:
428,160,96626,1,8,3:3:0:0:
366,113,96807,1,4,3:3:0:0:
229,285,97168,6,0,L|350:271,1,107.999993843079,6|0,1:2|0:2,0:0:0:0:
279,200,97710,2,0,P|278:171|259:138,1,53.9999969215394,2|0,0:2|3:2,0:0:0:0:
153,34,98433,1,0,0:2:0:0:
153,34,98614,2,0,L|138:147,1,107.999993843079,2|0,0:2|0:2,0:0:0:0:
38,252,99337,2,0,L|23:144,1,107.999993843079,0|0,3:2|0:2,0:0:0:0:
23,145,100060,6,0,B|148:115|100:209|225:182,1,215.999987686158,2|0,0:2|3:2,0:0:0:0:
317,50,101144,2,0,L|251:38,1,53.9999969215394,2|0,0:2|0:2,0:0:0:0:
329,129,101506,2,0,P|315:151|314:242,1,107.999993843079,2|0,0:2|0:2,0:0:0:0:
357,289,102048,2,0,L|440:277,1,53.9999969215394,2|0,0:2|3:2,0:0:0:0:
448,346,102409,2,0,L|531:334,1,53.9999969215394,2|0,0:2|0:2,0:0:0:0:
501,338,102951,6,0,P|520:288|513:235,1,107.999993843079,2|0,0:2|0:2,0:0:0:0:
472,171,103493,1,2,0:2:0:0:
397,182,103674,2,0,P|363:179|321:159,1,53.9999969215394,0|0,3:2|0:2,0:0:0:0:
300,110,104036,2,0,L|291:33,1,53.9999969215394,0|0,0:2|0:2,0:0:0:0:
209,107,104397,2,0,L|224:-18,1,107.999993843079,2|0,0:2|0:2,0:0:0:0:
344,172,105120,2,0,L|329:297,1,107.999993843079,0|0,3:2|0:2,0:0:0:0:
331,279,105843,6,0,P|289:249|216:258,1,107.999993843079,2|0,0:2|0:2,0:0:0:0:
182,304,106385,2,0,L|173:361,1,53.9999969215394,2|0,0:2|3:2,0:0:0:0:
98,372,106746,2,0,L|89:318,1,53.9999969215394,2|0,0:2|0:2,0:0:0:0:
62,248,107108,1,0,0:2:0:0:
62,248,107289,2,0,B|12:268|12:268|-21:208,1,107.999993843079,2|0,0:2|0:2,0:0:0:0:
134,68,108012,5,8,0:2:0:0:
227,156,108192,1,8,0:3:0:0:
256,32,108373,1,4,0:3:0:0:
485,128,108734,6,0,L|320:115,1,135.000001573563,6|0,1:2|1:2,0:0:0:0:
440,219,109277,2,0,P|432:248|443:287,1,67.5000007867814,2|8,0:2|0:2,0:0:0:0:
441,283,109638,1,2,0:3:0:0:
349,345,109819,2,0,P|357:312|349:280,1,67.5000007867814,2|0,0:2|3:2,0:0:0:0:
349,280,110090,1,0,3:2:0:0:
349,280,110180,1,0,1:2:0:0:
286,222,110361,1,0,3:2:0:0:
208,309,110542,1,0,1:2:0:0:
71,196,110903,2,0,L|205:185,1,135.000001573563,10|0,0:2|0:2,0:0:0:0:
205,184,111626,6,0,P|223:107|174:49,1,135.000001573563,2|0,1:2|1:2,0:0:0:0:
195,62,112168,1,2,0:2:0:0:
340,8,112349,2,0,P|322:85|371:143,1,135.000001573563,8|0,0:2|0:2,0:0:0:0:
506,314,113072,2,0,L|514:229,1,67.5000007867814,0|0,1:2|3:2,0:0:0:0:
485,170,113433,2,0,P|429:163|397:241,1,135.000001573563,0|8,1:2|0:2,0:0:0:0:
438,305,113975,2,0,L|505:313,1,67.5000007867814,2|0,3:3|0:2,0:0:0:0:
392,223,114337,5,2,0:2:0:0:
328,261,114518,2,0,B|283:252|283:252|252:267|252:267|193:256,1,135.000001573563,2|0,1:2|1:2,0:0:0:0:
134,177,115060,2,0,P|146:151|136:99,1,67.5000007867814,2|8,0:2|0:2,0:0:0:0:
143,112,115421,1,2,0:3:0:0:
199,257,115602,2,0,P|195:290|208:321,1,67.5000007867814,2|0,0:2|3:2,0:0:0:0:
208,321,115873,1,0,3:2:0:0:
208,321,115963,1,0,1:2:0:0:
286,381,116144,1,0,3:2:0:0:
360,333,116325,2,0,P|380:271|354:186,2,135.000001573563,0|8|0,1:2|0:2|0:2,0:0:0:0:
286,381,117228,5,2,0:2:0:0:
227,330,117409,2,0,P|169:301|99:304,1,135.000001573563,2|0,1:2|1:2,0:0:0:0:
0,225,117951,2,0,L|66:211,1,67.5000007867814,2|8,0:2|0:2,0:0:0:0:
164,125,118313,1,2,0:2:0:0:
164,125,118493,2,0,P|100:131|36:97,1,135.000001573563,2|0,0:3|1:2,0:0:0:0:
38,99,119036,1,2,0:3:0:0:
120,25,119216,2,0,B|167:24|167:24|185:36|185:36|259:35,1,135.000001573563,2|8,1:2|0:2,0:0:0:0:
350,64,119759,2,0,B|338:33|338:33|356:-9,1,67.5000007867814,2|0,3:3|0:2,0:0:0:0:
452,136,120120,5,2,0:2:0:0:
381,167,120301,2,0,P|351:153|243:143,1,135.000001573563,2|0,1:2|1:2,0:0:0:0:
340,239,120843,2,0,P|307:253|284:280,1,67.5000007867814,2|8,0:2|0:2,0:0:0:0:
286,276,121204,1,2,0:3:0:0:
343,360,121385,2,0,L|423:351,1,67.5000007867814,2|0,0:2|3:2,0:0:0:0:
410,352,121656,1,0,3:2:0:0:
410,352,121746,1,0,1:2:0:0:
485,293,121927,1,0,3:2:0:0:
511,384,122108,1,0,1:2:0:0:
340,239,122469,2,0,L|358:92,1,135.000001573563,10|0,0:2|0:2,0:0:0:0:
356,105,123192,6,0,B|284:75|297:133|226:109,1,135.000001573563,2|0,1:2|1:2,0:0:0:0:
145,23,123734,2,0,L|211:11,1,67.5000007867814,2|8,0:2|0:2,0:0:0:0:
211,10,124096,1,2,0:3:0:0:
128,103,124277,2,0,P|141:153|87:219,1,135.000001573563,2|0,0:2|1:2,0:0:0:0:
257,383,125000,2,0,P|244:333|298:267,1,135.000001573563,2|8,1:2|0:2,0:0:0:0:
367,208,125542,2,0,L|384:280,1,67.5000007867814,2|0,3:3|0:2,0:0:0:0:
467,339,125903,5,2,0:2:0:0:
499,272,126084,2,0,L|505:116,1,135.000001573563,2|0,1:2|1:2,0:0:0:0:
422,0,126807,2,0,P|419:32|406:67,1,67.5000007867814,8|0,0:2|0:2,0:0:0:0:
339,126,127168,1,2,0:2:0:0:
264,33,127349,1,0,3:2:0:0:
264,33,127439,1,0,3:2:0:0:
264,33,127530,2,0,L|358:19,1,67.5000007867814,0|0,1:2|3:2,0:0:0:0:
205,108,127891,2,0,L|358:128,1,135.000001573563,2|8,1:2|0:2,0:0:0:0:
338,125,128614,1,2,0:2:0:0:
368,197,128795,1,2,0:2:0:0:
499,141,128975,6,0,P|512:56|462:0,1,143.999996185303,2|0,1:2|1:2,0:0:0:0:
249,240,129698,2,0,P|236:325|286:381,1,143.999996185303,12|0,0:2|3:2,0:0:0:0:
267,369,130240,1,0,3:2:0:0:
159,242,130421,5,2,1:2:0:0:
55,353,130602,1,8,3:2:0:0:
10,207,130783,1,10,3:3:0:0:
10,207,131144,5,10,0:2:0:0:
74,267,131325,1,8,0:2:0:0:
159,242,131506,1,8,0:3:0:0:
95,182,131686,1,4,0:3:0:0:
243,132,131867,6,0,P|284:83|254:-10,2,152.999998865128,6|0|8,1:2|1:2|0:2,0:0:0:0:
95,182,132951,2,0,L|17:172,1,76.4999994325638,2|0,0:3|0:2,0:0:0:0:
102,270,133313,1,2,1:2:0:0:
182,226,133493,1,0,3:2:0:0:
233,302,133674,2,0,B|299:339|299:339|379:312,1,152.999998865128,2|8,1:2|0:2,0:0:0:0:
372,314,134397,1,2,0:3:0:0:
408,381,134578,1,2,0:3:0:0:
496,324,134759,6,0,P|523:255|499:184,1,152.999998865128,2|0,1:2|1:2,0:0:0:0:
305,17,135481,2,0,P|280:88|308:157,1,152.999998865128,8|0,0:2|0:2,0:0:0:0:
252,231,136024,1,2,0:3:0:0:
324,286,136204,2,0,L|422:274,1,76.4999994325638,2|0,1:2|0:2,0:0:0:0:
252,231,136566,1,2,3:2:0:0:
182,290,136746,1,2,3:2:0:0:
182,290,136837,1,0,3:2:0:0:
182,290,136927,2,0,P|165:255|163:218,1,76.4999994325638,8|0,0:2|0:2,0:0:0:0:
288,84,137289,2,0,P|305:119|308:157,1,76.4999994325638,2|0,0:2|0:2,0:0:0:0:
169,301,137650,6,0,P|115:283|-9:290,2,167.400000801773,6|0|8,1:2|1:2|0:2,0:0:0:0:
390,384,138734,1,2,0:2:0:0:
375,302,138915,1,8,0:2:0:0:
457,198,139096,5,10,3:3:0:0:
453,330,139277,1,8,3:2:0:0:
378,220,139457,1,6,3:3:0:0:
378,220,139819,5,8,3:2:0:0:
503,264,140000,1,8,3:2:0:0:
495,114,140180,1,8,3:3:0:0:
370,70,140361,1,4,3:3:0:0:
272,120,140542,6,0,P|214:118|140:79,1,135.000001573563,2|0,1:1|0:2,0:0:0:0:
370,70,141084,2,0,P|382:32|405:4,2,67.5000007867814,2|0|0,1:2|0:2|0:2,0:0:0:0:
426,257,141626,2,0,P|453:276|507:284,1,67.5000007867814,2|0,1:1|0:2,0:0:0:0:
295,161,141987,6,0,L|217:153,1,67.5000007867814,8|2,3:3|1:3,0:0:0:0:
201,151,142259,1,2,3:2:0:0:
176,148,142349,1,2,3:2:0:0:
151,146,142439,1,2,3:2:0:0:
126,143,142530,1,10,3:3:0:0:
51,59,142710,5,10,3:2:0:0:
109,243,142891,1,8,3:3:0:0:
296,182,143072,1,6,3:3:0:0:
231,0,143253,1,4,3:3:0:0:
375,91,143433,6,0,P|466:97|507:-11,2,198.000000797272,6|0|8,0:2|0:2|0:2,0:0:0:0:
231,0,144337,5,2,0:2:0:0:
173,164,144518,1,2,0:3:0:0:
120,53,144698,1,2,0:3:0:0:
120,53,144789,1,0,0:2:0:0:
120,53,144879,1,0,0:2:0:0:
202,82,145060,5,2,0:2:0:0:
91,135,145240,1,2,0:3:0:0:
202,248,145421,1,2,0:3:0:0:
202,248,145512,1,0,0:2:0:0:
202,248,145602,2,0,P|304:227|402:226,1,198.000000797272,8|0,0:2|0:2,0:0:0:0:
473,248,146144,1,0,0:2:0:0:
332,103,146325,6,0,P|334:57|315:5,1,99.0000003986359,2|0,0:2|0:2,0:0:0:0:
210,138,146686,1,2,0:2:0:0:
129,38,146867,2,0,L|233:22,1,99.0000003986359,2|8,0:3|0:2,0:0:0:0:
197,153,147228,5,2,0:2:0:0:
101,126,147409,1,2,0:3:0:0:
36,201,147590,1,2,0:3:0:0:
131,227,147771,6,0,P|154:271|149:320,1,99.0000003986359,2|0,0:2|0:2,0:0:0:0:
18,384,148132,1,2,0:3:0:0:
18,384,148222,2,0,P|-5:340|0:291,1,99.0000003986359,8|0,0:2|0:2,0:0:0:0:
11,276,148493,1,10,0:2:0:0:
149,318,148674,1,8,0:2:0:0:
191,180,148855,1,8,0:3:0:0:
53,138,149036,1,4,0:3:0:0:
200,197,149216,6,0,P|284:169|280:60,1,198.000000797272,2|0,0:2|0:2,0:0:0:0:
116,0,149759,2,0,L|137:129,1,99.0000003986359,2|8,0:3|0:2,0:0:0:0:
45,53,150120,5,2,0:2:0:0:
199,18,150301,1,2,0:3:0:0:
344,99,150481,1,2,0:3:0:0:
344,99,150572,1,0,0:2:0:0:
344,99,150662,2,0,P|400:102|444:84,1,99.0000003986359,0|0,0:2|0:2,0:0:0:0:
331,265,151024,2,0,P|305:215|268:185,1,99.0000003986359,2|0,0:3|0:2,0:0:0:0:
4,254,151385,5,10,0:2:0:0:
37,136,151566,1,8,0:3:0:0:
141,188,151746,1,2,0:3:0:0:
108,306,151927,1,4,0:3:0:0:
223,373,152108,6,0,L|323:358,1,99.0000003986359,2|0,0:2|0:2,0:0:0:0:
448,376,152469,1,2,0:2:0:0:
391,259,152650,1,2,0:3:0:0:
391,259,152740,1,0,0:2:0:0:
391,259,152831,2,0,P|376:220|388:157,1,99.0000003986359,8|0,0:2|0:2,0:0:0:0:
262,0,153192,2,0,P|270:48|255:94,1,99.0000003986359,2|0,0:3|0:2,0:0:0:0:
130,148,153554,5,10,0:3:0:0:
150,9,153734,1,8,0:2:0:0:
254,94,153915,1,4,0:3:0:0:
86,71,154096,5,8,0:3:0:0:
86,71,154186,1,8,0:3:0:0:
86,71,154277,1,10,0:2:0:0:
236,13,154457,1,2,0:2:0:0:
210,165,154638,1,8,0:3:0:0:
221,202,154728,1,8,0:3:0:0:
249,229,154819,1,8,0:3:0:0:
287,236,154909,1,8,0:3:0:0:
326,228,155000,6,0,B|372:209|372:209|432:223,1,99.0000003986359,6|0,0:2|0:2,0:0:0:0:
305,354,155361,2,0,B|270:381|270:381|101:355,1,198.000000797272,2|8,0:2|0:2,0:0:0:0:
0,189,155903,5,2,0:2:0:0:
127,169,156084,1,2,0:3:0:0:
262,156,156265,1,2,0:3:0:0:
262,156,156355,1,0,0:2:0:0:
262,156,156445,1,0,0:2:0:0:
185,69,156626,5,2,0:2:0:0:
203,255,156807,1,2,0:3:0:0:
298,327,156987,1,2,0:3:0:0:
298,327,157078,1,0,0:2:0:0:
298,327,157168,2,0,P|352:304|408:304,1,99.0000003986359,8|0,0:2|0:2,0:0:0:0:
127,169,157530,5,10,0:3:0:0:
93,362,157710,1,4,0:3:0:0:
14,276,157891,6,0,P|27:219|12:163,1,116.999991544724,6|8,0:1|0:2,0:0:0:0:
225,9,158253,2,0,P|211:65|226:121,1,116.999991544724,2|8,0:1|0:3,0:0:0:0:
238,134,158524,1,8,0:3:0:0:
251,145,158614,2,0,B|296:139|296:139|315:145|315:145|381:135,1,116.999991544724,10|0,0:1|0:2,0:0:0:0:
450,120,158975,1,2,0:3:0:0:
341,239,159156,6,0,P|357:308|275:353,1,175.499987317086,6|0,0:1|0:2,0:0:0:0:
259,348,159518,1,8,0:3:0:0:
153,222,159698,1,10,0:3:0:0:
251,145,159879,1,4,0:3:0:0:
126,43,160060,5,10,0:1:0:0:
153,222,160240,1,8,0:3:0:0:
251,145,160421,5,10,0:3:0:0:
27,119,160602,1,4,0:3:0:0:
267,152,160783,6,0,L|477:127,1,198.000000797272,6|0,0:1|0:2,0:0:0:0:
352,274,161325,2,0,B|381:318|381:318|351:383,1,99.0000003986359,2|8,0:1|0:2,0:0:0:0:
167,223,161686,1,2,0:1:0:0:
167,223,161777,1,0,0:2:0:0:
167,223,161867,2,0,P|144:169|150:121,1,99.0000003986359,0|0,0:2|0:2,0:0:0:0:
350,3,162228,6,2,L|378:29,1,33.7500003933907,10|0,0:1|0:0,0:1:0:0:
401,62,162409,2,2,B|411:76|411:76|361:105|361:105|269:51,1,168.750001966953,10|0,0:1|0:2,0:1:0:0:
268,49,162951,5,10,0:2:0:0:
292,162,163132,5,8,0:3:0:0:
252,246,163313,5,4,0:3:0:0:
281,316,163493,5,4,0:3:0:0:
207,372,163674,5,14,3:2:0:0:
185,364,163765,1,0,0:2:0:0:
164,358,163855,1,0,0:2:0:0:
141,354,163945,1,0,0:2:0:0:
119,353,164036,2,0,P|86:366|49:368,3,44.9999988079071,10|0|0|0,3:3|0:2|0:2|0:2,0:0:0:0:
9,298,164397,5,10,0:2:0:0:
25,282,164487,1,0,0:2:0:0:
39,264,164578,1,0,0:2:0:0:
49,244,164668,1,0,0:2:0:0:
55,223,164759,2,0,L|42:165,1,44.9999988079071,2|0,0:3|0:2,0:0:0:0:
2,104,164939,2,0,L|11:61,1,44.9999988079071,2|0,0:3|0:2,0:0:0:0:
110,7,165120,5,10,0:3:0:0:
131,0,165210,1,0,0:2:0:0:
153,1,165301,1,0,0:2:0:0:
175,8,165391,1,0,0:2:0:0:
193,21,165481,1,8,0:3:0:0:
206,39,165572,1,0,0:2:0:0:
214,60,165662,1,0,0:2:0:0:
214,82,165753,1,0,0:2:0:0:
208,104,165843,1,10,0:2:0:0:
201,125,165933,1,0,0:2:0:0:
202,147,166024,1,0,0:2:0:0:
209,169,166114,1,0,0:2:0:0:
223,187,166204,1,0,0:2:0:0:
241,200,166295,1,0,0:2:0:0:
262,207,166385,1,0,0:2:0:0:
285,207,166475,1,0,0:2:0:0:
306,201,166566,6,0,L|367:184,3,44.9999988079071,10|0|0|0,0:3|0:2|0:2|0:2,0:0:0:0:
394,106,166927,2,0,L|440:110,3,44.9999988079071,10|0|0|0,0:3|0:2|0:2|0:2,0:0:0:0:
502,191,167289,5,10,0:2:0:0:
510,211,167379,1,0,0:2:0:0:
512,233,167469,1,0,0:2:0:0:
512,256,167560,1,0,0:2:0:0:
507,278,167650,1,0,0:2:0:0:
497,298,167740,1,0,0:2:0:0:
483,315,167831,1,0,0:2:0:0:
465,329,167921,1,0,0:2:0:0:
445,339,168012,6,0,L|386:330,1,44.9999988079071,10|0,0:3|0:2,0:0:0:0:
324,383,168192,2,0,L|265:374,1,44.9999988079071,2|0,0:3|0:2,0:0:0:0:
245,285,168373,2,0,P|254:251|249:222,1,44.9999988079071,10|0,0:3|0:2,0:0:0:0:
154,330,168554,2,0,P|146:351|145:373,1,44.9999988079071,2|0,0:3|0:2,0:0:0:0:
64,242,168734,6,0,L|20:228,1,44.9999988079071,10|0,0:2|0:2,0:0:0:0:
159,194,168915,2,0,L|203:180,1,44.9999988079071,8|0,0:3|0:2,0:0:0:0:
71,130,169096,2,0,L|27:116,1,44.9999988079071,6|0,0:3|0:2,0:0:0:0:
153,65,169277,2,0,L|197:51,1,44.9999988079071,4|0,0:3|0:3,0:0:0:0:
286,120,169457,5,10,0:3:0:0:
291,141,169548,1,0,0:2:0:0:
297,163,169638,1,0,0:2:0:0:
302,185,169728,1,0,0:2:0:0:
308,207,169819,2,0,L|302:266,3,44.9999988079071,8|0|0|0,0:3|0:3|0:3|0:3,0:0:0:0:
340,352,170180,5,10,0:2:0:0:
354,368,170271,1,0,0:2:0:0:
374,378,170361,1,0,0:2:0:0:
396,379,170451,1,0,0:2:0:0:
417,370,170542,2,0,L|432:317,3,44.9999988079071,2|0|0|0,0:3|0:2|0:2|0:2,0:0:0:0:
495,256,170903,2,0,L|480:203,3,44.9999988079071,10|0|0|0,0:3|0:2|0:2|0:2,0:0:0:0:
411,145,171265,6,0,L|421:95,1,44.9999988079071,10|0,0:3|0:2,0:0:0:0:
328,64,171445,1,2,0:3:0:0:
328,64,171536,1,2,0:3:0:0:
328,64,171626,2,0,L|319:19,1,44.9999988079071,8|0,0:2|0:2,0:0:0:0:
145,8,171807,6,0,L|193:0,1,44.9999988079071,10|0,0:3|0:2,0:0:0:0:
189,87,171987,2,0,L|234:104,1,44.9999988079071,6|0,0:3|0:2,0:0:0:0:
187,174,172168,2,0,L|217:211,1,44.9999988079071,6|0,0:3|0:2,0:0:0:0:
124,257,172349,6,0,L|131:305,3,44.9999988079071,10|0|0|0,0:3|0:2|0:2|0:2,0:0:0:0:
218,376,172710,2,0,L|226:328,3,44.9999988079071,8|0|0|0,0:3|0:2|0:2|0:2,0:0:0:0:
281,250,173072,5,10,0:2:0:0:
306,240,173162,1,0,0:2:0:0:
333,243,173253,1,0,0:2:0:0:
357,258,173343,1,0,0:2:0:0:
370,283,173433,1,0,0:2:0:0:
383,308,173524,1,0,0:2:0:0:
407,323,173614,1,0,0:2:0:0:
434,326,173704,1,0,0:2:0:0:
461,317,173795,6,0,L|469:272,1,44.9999988079071,10|0,0:3|0:2,0:0:0:0:
488,188,173975,2,0,L|496:143,1,44.9999988079071,10|0,0:2|0:2,0:0:0:0:
370,283,174156,6,0,L|378:238,1,44.9999988079071,6|0,0:3|0:2,0:0:0:0:
397,154,174337,2,0,L|405:109,1,44.9999988079071,4|0,0:3|0:2,0:0:0:0:
279,249,174518,6,0,L|287:204,1,44.9999988079071,10|0,0:2|0:2,0:0:0:0:
306,120,174698,2,0,L|314:75,1,44.9999988079071,8|0,0:1|0:2,0:0:0:0:
188,215,174879,6,0,L|196:170,1,44.9999988079071,6|0,0:3|0:2,0:0:0:0:
215,86,175060,2,0,L|223:41,1,44.9999988079071,4|0,0:3|0:2,0:0:0:0:
125,0,175240,5,14,0:2:0:0:
93,11,175331,1,0,0:2:0:0:
73,38,175421,1,0,0:2:0:0:
71,71,175512,1,0,0:2:0:0:
86,100,175602,1,8,0:3:0:0:
101,129,175692,1,0,0:2:0:0:
99,162,175783,1,0,0:2:0:0:
78,189,175873,1,0,0:2:0:0:
47,200,175963,2,0,L|0:188,3,49.500000199318,10|0|0|0,0:2|0:2|0:2|0:2,0:0:0:0:
87,293,176325,2,0,L|136:304,1,49.500000199318,2|0,0:2|0:2,0:0:0:0:
245,222,176506,6,0,P|242:197|249:173,3,49.500000199318,6|0|0|0,0:2|0:2|0:2|0:2,0:0:0:0:
334,127,176867,2,0,P|356:136|373:154,1,49.500000199318,2|0,0:3|0:2,0:0:0:0:
373,253,177048,2,0,P|353:267|329:272,3,49.500000199318,10|0|0|0,0:3|0:2|0:2|0:2,0:0:0:0:
241,132,177409,6,0,P|245:108|257:86,1,49.500000199318,10|0,0:2|0:2,0:0:0:0:
411,171,177590,2,0,P|429:186|442:208,1,49.500000199318,2|0,0:2|0:2,0:0:0:0:
292,297,177771,2,0,P|268:305|244:305,3,49.500000199318,10|0|0|0,0:2|0:2|0:2|0:2,0:0:0:0:
142,259,178132,5,14,0:2:0:0:
125,234,178222,1,0,0:2:0:0:
101,218,178313,1,0,0:2:0:0:
74,213,178403,1,0,0:2:0:0:
46,218,178493,1,8,0:3:0:0:
22,234,178584,1,0,0:2:0:0:
6,259,178674,1,0,0:2:0:0:
0,286,178765,1,0,0:2:0:0:
6,314,178855,1,8,0:2:0:0:
22,338,178945,1,0,0:2:0:0:
46,353,179036,1,0,0:2:0:0:
74,359,179126,1,0,0:2:0:0:
101,353,179216,1,0,0:2:0:0:
125,338,179307,1,0,0:2:0:0:
142,314,179397,1,0,0:2:0:0:
146,286,179487,1,0,0:2:0:0:
142,259,179578,6,0,L|133:210,3,49.500000199318,10|0|0|0,0:3|0:2|0:2|0:2,0:0:0:0:
18,204,179939,2,0,L|23:155,3,49.500000199318,8|0|0|0,0:3|0:2|0:2|0:2,0:0:0:0:
80,52,180301,6,0,L|146:42,1,49.500000199318,10|0,0:2|0:2,0:0:0:0:
175,125,180481,2,0,L|224:133,1,49.500000199318,10|0,0:2|0:2,0:0:0:0:
260,16,180662,2,0,L|326:6,1,49.500000199318,10|0,0:2|0:2,0:0:0:0:
344,148,180843,2,0,L|392:155,1,49.500000199318,10|0,0:2|0:2,0:0:0:0:
507,36,181024,5,14,0:2:0:0:
474,36,181114,1,0,0:2:0:0:
443,46,181204,1,0,0:2:0:0:
419,66,181295,1,0,0:2:0:0:
400,92,181385,1,8,0:3:0:0:
391,122,181475,1,0,0:2:0:0:
392,155,181566,1,0,0:2:0:0:
404,184,181656,1,0,0:2:0:0:
423,209,181746,1,8,0:2:0:0:
442,234,181837,1,0,0:2:0:0:
453,264,181927,1,0,0:2:0:0:
454,296,182018,1,0,0:2:0:0:
444,326,182108,1,0,0:2:0:0:
427,353,182198,1,0,0:2:0:0:
401,372,182289,1,0,0:2:0:0:
372,382,182379,1,0,0:2:0:0:
341,384,182469,6,0,L|274:372,3,53.9999969215394,10|0|0|0,0:3|0:2|0:2|0:2,0:0:0:0:
237,293,182831,2,0,L|304:281,3,53.9999969215394,8|0|0|0,0:3|0:2|0:2|0:2,0:0:0:0:
334,206,183192,2,0,L|267:194,3,53.9999969215394,8|0|0|0,0:2|0:2|0:2|0:2,0:0:0:0:
220,130,183554,5,2,0:2:0:0:
247,101,183644,1,2,0:2:0:0:
251,62,183734,1,2,0:2:0:0:
228,29,183825,1,2,0:2:0:0:
190,18,183915,6,0,L|117:9,3,53.9999969215394,10|0|0|0,0:3|0:2|0:2|0:2,0:0:0:0:
247,101,184277,2,0,L|320:110,3,53.9999969215394,8|0|0|0,0:3|0:2|0:2|0:2,0:0:0:0:
152,160,184638,1,8,0:2:0:0:
138,161,184728,1,0,0:2:0:0:
124,163,184819,1,0,0:2:0:0:
110,165,184909,1,0,0:2:0:0:
96,167,185000,2,0,L|40:156,3,53.9999969215394,8|0|0|0,0:3|0:2|0:2|0:2,0:0:0:0:
123,67,185361,6,0,P|124:37|136:11,1,58.499995772362,10|0,0:3|0:3,0:0:0:0:
246,101,185542,2,0,P|276:102|302:114,1,58.499995772362,8|0,0:2|0:2,0:0:0:0:
212,224,185722,2,0,P|211:254|199:280,1,58.499995772362,4|0,0:3|0:2,0:0:0:0:
89,190,185903,2,0,P|59:189|33:177,1,58.499995772362,4|0,0:3|0:2,0:0:0:0:
144,54,186084,6,0,P|154:23|177:-2,1,62.9999964084627,10|0,0:2|0:2,0:0:0:0:
259,122,186265,2,0,P|290:132|316:155,1,62.9999964084627,4|0,0:3|0:2,0:0:0:0:
191,237,186445,2,0,P|181:268|158:294,1,62.9999964084627,8|0,0:3|0:2,0:0:0:0:
76,169,186626,2,0,P|45:159|19:136,1,62.9999964084627,8|0,0:3|0:2,0:0:0:0:
166,46,186807,6,0,P|222:10|346:37,1,179.999995231629,6|0,0:2|0:2,0:0:0:0:
330,24,187349,1,0,0:2:0:0:
440,168,187530,2,0,P|470:87|425:9,1,179.999995231629,10|0,0:2|0:2,0:0:0:0:
321,160,188072,1,2,0:2:0:0:
401,257,188253,2,0,P|433:267|506:239,1,89.9999976158143,2|0,0:3|0:2,0:0:0:0:
311,144,188614,2,0,P|279:134|206:162,1,89.9999976158143,2|0,0:3|0:2,0:0:0:0:
53,217,188975,5,10,0:2:0:0:
140,255,189156,1,8,0:3:0:0:
129,160,189337,1,6,0:3:0:0:
61,314,189518,1,4,0:3:0:0:
184,356,189698,6,0,L|365:335,1,179.999995231629,2|0,0:2|0:2,0:0:0:0:
362,335,190240,1,0,0:2:0:0:
502,384,190421,2,0,B|467:327|467:327|493:264,1,134.999996423721,8|0,0:2|0:2,0:0:0:0:
504,253,190783,2,0,P|518:210|505:169,1,89.9999976158143,2|0,0:2|0:2,0:0:0:0:
369,12,191144,5,10,0:3:0:0:
321,121,191325,1,8,0:3:0:0:
321,121,191415,1,8,0:3:0:0:
321,121,191506,2,0,L|420:118,1,89.9999976158143,0|0,0:2|0:2,0:0:0:0:
266,22,191867,5,10,0:2:0:0:
142,157,192048,1,8,0:3:0:0:
155,44,192228,5,6,0:3:0:0:
246,205,192409,1,4,0:3:0:0:
94,270,192590,6,0,P|102:181|73:96,1,179.999995231629,2|0,0:2|0:2,0:0:0:0:
73,96,193132,1,0,0:2:0:0:
247,30,193313,2,0,B|202:42|202:42|160:23,1,89.9999976158143,8|0,0:2|0:2,0:0:0:0:
305,120,193674,5,2,0:2:0:0:
352,14,193855,1,8,0:2:0:0:
409,103,194036,5,10,0:3:0:0:
247,30,194216,1,8,0:3:0:0:
172,115,194397,6,0,P|183:149|162:206,1,89.9999976158143,2|0,0:3|0:2,0:0:0:0:
20,232,194759,2,0,P|-1:143|37:64,1,179.999995231629,10|0,0:2|0:2,0:0:0:0:
227,18,195301,5,2,0:3:0:0:
227,18,195391,1,0,0:2:0:0:
227,18,195481,2,0,B|308:51|308:51|405:14,1,179.999995231629,0|0,0:2|0:2,0:0:0:0:
394,18,196024,1,0,0:2:0:0:
512,117,196204,2,0,L|391:103,1,89.9999976158143,8|0,0:2|0:2,0:0:0:0:
297,184,196566,5,2,0:2:0:0:
427,253,196746,1,0,0:2:0:0:
427,253,196837,1,0,0:2:0:0:
427,253,196927,1,8,0:3:0:0:
422,106,197108,1,8,0:2:0:0:
297,184,197289,1,4,0:3:0:0:
255,108,197469,5,8,0:3:0:0:
255,108,197560,1,8,0:3:0:0:
255,108,197650,1,10,0:2:0:0:
208,258,197831,1,8,0:3:0:0:
57,212,198012,1,6,0:3:0:0:
103,61,198192,1,4,0:3:0:0:
255,108,198373,6,0,P|357:118|462:75,2,198.000000797272,6|0|8,0:2|0:2|0:2,0:0:0:0:
255,108,199457,1,2,0:3:0:0:
191,49,199638,1,2,0:3:0:0:
54,175,199819,6,0,L|164:168,1,99.0000003986359,2|0,0:2|0:2,0:0:0:0:
288,307,200180,2,0,L|140:290,1,148.500000597954,0|0,0:2|0:2,0:0:0:0:
129,300,200542,5,10,0:2:0:0:
166,162,200722,1,8,0:2:0:0:
298,316,200903,1,10,0:3:0:0:
280,173,201084,1,8,0:3:0:0:
391,289,201265,6,2,B|459:345|459:345|506:260,1,175.499987317086,6|0,0:1|0:2,0:1:0:0:
511,254,201626,1,10,0:2:0:0:
424,113,201807,6,2,L|234:81,1,175.499987317086,6|0,0:1|0:2,0:1:0:0:
233,80,202168,1,10,0:3:0:0:
131,0,202349,1,4,0:3:0:0:
17,129,202530,6,2,B|5:193|5:193|16:229|16:229|2:301,1,175.499987317086,6|0,0:1|0:2,0:1:0:0:
1,317,202891,1,2,0:3:0:0:
115,384,203072,1,10,0:2:0:0:
182,256,203253,1,8,0:3:0:0:
289,314,203433,5,10,0:2:0:0:
179,135,203614,1,8,0:2:0:0:
182,256,203795,5,10,0:3:0:0:
282,71,203975,1,8,0:3:0:0:
414,147,204156,5,2,0:1:0:0:
346,205,204337,2,0,L|232:195,1,99.0000003986359,2|0,0:1|0:2,0:0:0:0:
10,87,204698,5,2,0:1:0:0:
80,143,204879,2,0,L|194:133,1,99.0000003986359,10|0,0:1|0:2,0:0:0:0:
372,93,205240,6,0,P|386:43|357:-16,1,99.0000003986359,2|0,0:1|0:2,0:0:0:0:
178,134,205602,5,2,0:1:0:0:
287,243,205783,1,8,0:3:0:0:
322,164,205963,5,10,0:1:0:0:
141,211,206144,1,4,0:3:0:0:
172,294,206325,5,10,0:1:0:0:
298,78,206506,1,8,0:3:0:0:
215,44,206686,5,10,0:1:0:0:
262,328,206867,1,8,0:3:0:0:
372,266,207048,6,0,L|488:249,1,107.999993843079,6|0,0:2|0:2,0:0:0:0:
176,141,207409,2,0,L|60:124,1,107.999993843079,2|0,0:3|0:2,0:0:0:0:
363,25,207771,2,0,L|479:8,1,107.999993843079,10|0,0:2|0:2,0:0:0:0:
469,9,208132,5,2,0:3:0:0:
291,100,208313,2,0,P|267:53|272:0,1,107.999993843079,2|0,0:1|0:2,0:0:0:0:
272,0,208674,5,2,0:3:0:0:
471,132,208855,2,0,P|475:185|451:232,1,107.999993843079,2|0,0:1|0:2,0:0:0:0:
273,352,209216,5,10,0:1:0:0:
194,167,209397,1,8,0:3:0:0:
266,371,209578,1,6,0:3:0:0:
187,186,209759,1,4,0:3:0:0:
0,323,209939,6,2,L|199:301,1,179.999995231629,6|0,0:1|0:2,0:1:0:0:
408,239,210481,6,2,P|439:167|386:67,1,188.999989225388,6|0,0:1|0:2,0:1:0:0:
379,65,210843,1,8,0:3:0:0:
273,207,211024,1,8,0:3:0:0:
67,79,211204,5,2,3:2:0:0:
67,79,211295,1,2,3:2:0:0:
67,79,211385,2,2,B|113:87|141:138|141:138|175:117|193:75|157:71|198:22|246:17|246:17|249:111|360:247|514:164|541:76|413:-20|369:82,1,719.999980926514,6|4,1:1|0:2,2:1:0:0:
378,65,218072,5,8,0:2:0:0:
378,65,218614,2,0,L|348:299,1,215.999987686158,10|0,0:2|3:2,0:0:0:0:
256,368,219879,5,8,0:2:0:0:
63,264,220421,6,2,B|72:263|86:257|86:257|96:258|114:271|114:271|138:264|164:267,1,101.250001180172,2|0,3:2|0:2,0:2:0:0:
168,275,220783,1,10,0:2:0:0:
238,167,220963,1,8,0:3:0:0:
256,368,221144,1,6,0:3:0:0:
326,260,221325,1,4,0:3:0:0:
463,376,221506,6,2,P|493:278|468:179,1,202.500002360344,6|0,0:1|0:2,0:1:0:0:
458,167,221867,1,10,0:2:0:0:
369,1,222048,6,2,B|352:54|352:54|197:23,1,202.500002360344,6|0,0:1|0:2,0:1:0:0:
188,20,222409,1,10,0:3:0:0:
266,144,222590,1,8,0:3:0:0:
63,227,222771,6,2,P|40:129|70:34,1,202.500002360344,6|0,0:1|0:2,0:1:0:0:
85,21,223132,1,10,0:3:0:0:
266,144,223313,1,10,0:2:0:0:
63,227,223493,1,8,0:3:0:0:
138,291,223674,5,10,0:1:0:0:
214,64,223855,1,8,0:2:0:0:
348,193,224036,5,10,0:3:0:0:
336,238,224126,1,8,0:3:0:0:
360,278,224216,1,8,0:3:0:0:
337,319,224307,1,8,0:3:0:0:
368,355,224397,6,0,P|476:361|493:247,1,233.999983089448,6|0,0:1|0:2,0:0:0:0:
413,113,224939,2,0,B|364:142|364:142|291:108,1,116.999991544724,2|8,0:3|0:2,0:0:0:0:
168,0,225301,5,2,0:2:0:0:
128,135,225481,1,2,0:3:0:0:
38,39,225662,1,2,0:1:0:0:
38,39,225753,1,0,0:2:0:0:
38,39,225843,1,0,0:2:0:0:
261,105,226024,5,2,0:2:0:0:
110,257,226204,1,2,0:3:0:0:
324,318,226385,1,2,0:1:0:0:
324,318,226475,1,0,0:2:0:0:
324,318,226566,2,0,L|449:305,1,116.999991544724,8|0,0:2|0:2,0:0:0:0:
128,135,226927,5,10,0:3:0:0:
114,140,227018,1,8,0:3:0:0:
100,145,227108,1,8,0:3:0:0:
86,150,227198,1,8,0:3:0:0:
73,155,227289,6,0,P|46:99|59:38,1,125.999992816925,6|0,0:1|0:2,0:0:0:0:
337,201,227650,2,0,P|349:261|323:317,1,125.999992816925,2|8,0:1|0:3,0:0:0:0:
311,332,227921,1,8,0:3:0:0:
296,343,228012,2,0,B|246:338|246:338|232:345|232:345|162:338,1,125.999992816925,10|0,0:1|0:2,0:0:0:0:
88,384,228373,1,2,0:3:0:0:
0,241,228554,5,2,0:1:0:0:
18,238,228644,1,0,0:2:0:0:
36,235,228734,1,0,0:2:0:0:
152,120,228915,5,10,0:2:0:0:
32,109,229096,1,10,0:1:0:0:
222,21,229277,1,4,0:3:0:0:
202,233,229457,5,10,0:1:0:0:
102,10,229638,1,8,0:3:0:0:
272,131,229819,5,10,0:1:0:0:
32,109,230000,1,8,0:1:0:0:
285,145,230180,6,0,B|444:167|444:167|500:134,1,202.500002360344,6|0,0:1|0:2,0:0:0:0:
497,134,230542,1,2,0:2:0:0:
342,368,230722,2,0,B|369:306|369:306|347:242,1,135.000001573563,2|0,0:1|0:2,0:0:0:0:
169,59,231084,1,2,0:1:0:0:
169,59,231174,1,0,0:2:0:0:
169,59,231265,2,0,B|190:122|190:122|163:184,1,135.000001573563,0|0,0:2|0:2,0:0:0:0:
73,319,231626,5,10,0:1:0:0:
0,41,231807,1,12,0:1:0:0:
0,234,233072,6,0,L|121:220,1,107.999993843079,6|0,1:2|0:2,0:0:0:0:
168,173,233614,2,0,P|165:143|173:104,1,53.9999969215394,2|0,0:2|3:2,0:0:0:0:
313,16,234337,1,0,0:2:0:0:
313,16,234518,2,0,P|319:67|366:87,1,107.999993843079,2|0,0:2|0:2,0:0:0:0:
493,155,235240,2,0,P|486:206|439:226,1,107.999993843079,2|0,3:2|0:2,0:0:0:0:
439,226,235963,6,0,B|324:182|354:294|234:242,1,215.999987686158,2|0,0:2|3:2,0:0:0:0:
142,114,237048,2,0,P|149:89|148:55,1,53.9999969215394,2|0,0:2|0:2,0:0:0:0:
66,142,237409,2,0,P|34:184|32:237,1,107.999993843079,2|0,0:2|0:2,0:0:0:0:
73,306,237951,2,0,L|156:294,1,53.9999969215394,2|0,0:2|3:2,0:0:0:0:
164,363,238319,2,0,L|247:351,1,53.9999969215394,2|0,0:2|0:2,0:0:0:0:
217,355,238871,6,0,L|227:252,1,99.0000003986359,2|0,0:2|0:2,0:0:0:0:
187,160,239589,1,2,3:2:0:0:
187,160,239765,2,0,P|145:177|83:160,1,99.0000003986359,2|0,0:2|0:2,0:0:0:0:
44,109,240313,2,0,P|40:79|63:21,1,89.9999976158143,2|0,0:2|0:2,0:0:0:0:
187,160,241096,6,0,P|191:190|168:248,1,89.9999976158143,2|0,3:2|0:2,0:0:0:0:
8,325,241901,6,0,P|45:310|111:312,1,80.9999953823091,2|0,0:2|0:2,0:0:0:0:
255,371,242783,6,0,L|298:383,2,35.9999990463257,2|2|2,3:2|0:2|0:2,0:0:0:0:
180,319,243605,6,0,B|213:266|217:212|195:163|177:188|139:107|128:18|185:-22|252:-27|320:2|317:82|286:130|218:138|196:88|237:61,1,503.999971267701,2|4,0:2|0:2,0:0:0:0:
