osu file format v14

[General]
AudioFilename: audio.mp3
AudioLeadIn: 0
PreviewTime: 51285
Countdown: 0
SampleSet: Soft
StackLeniency: 0.7
Mode: 0
LetterboxInBreaks: 0
WidescreenStoryboard: 0

[Editor]
DistanceSpacing: 1
BeatDivisor: 4
GridSize: 32
TimelineZoom: 1.6

[Metadata]
Title:Little Busters! ~TV animation ver.~ (TV Size)
TitleUnicode:Little Busters! ~TV animation ver.~ (TV Size)
Artist:Rita
ArtistUnicode:Rita
Creator:Adinda
Version:Normal!
Source:Little Busters!
Tags:key visualarts pop jpop j-pop anime japanese opening op
BeatmapID:2682320
BeatmapSetID:1292131

[Difficulty]
HPDrainRate:4
CircleSize:3.6
OverallDifficulty:4
ApproachRate:5
SliderMultiplier:1.1
SliderTickRate:1

[Events]
//Background and Video events
0,0,"a.jpg",0,0
//Break Periods
//Storyboard Layer 0 (Background)
//Storyboard Layer 1 (Fail)
//Storyboard Layer 2 (Pass)
//Storyboard Layer 3 (Foreground)
//Storyboard Layer 4 (Overlay)
//Storyboard Sound Samples

[TimingPoints]
525,397.350993377483,4,2,1,50,1,0
6882,-111.111111111111,4,2,1,50,0,0
12246,-105.263157894737,4,2,1,65,0,0
13240,-100,4,2,1,75,0,0
25955,-111.111111111111,4,2,1,60,0,0
38670,-105.263157894737,4,2,1,65,0,0
45028,-111.111111111111,4,2,1,60,0,0
48207,-105.263157894737,4,2,1,65,0,0
50988,-100,4,2,1,70,0,0
51385,397.350993377483,6,2,1,80,1,1
51385,-90.9090909090909,6,2,1,80,0,1
53769,397.350993377483,4,2,1,80,1,1
53769,-90.9090909090909,4,2,1,80,0,1
63305,397.350993377483,6,2,1,80,1,1
63305,-90.9090909090909,6,2,1,80,0,1
65689,397.350993377483,4,2,1,80,1,1
65689,-90.9090909090909,4,2,1,80,0,1
75225,-90.9090909090909,4,2,1,85,0,1
81583,-100,4,2,1,75,0,0
87841,-100,4,2,1,5,0,0

[Colours]
Combo1 : 136,128,236
Combo2 : 56,158,188
Combo3 : 255,111,111

[HitObjects]
6,116,6882,6,0,B|42:119|42:119|59:128|59:128|119:151,1,98.9999969787598,12|8,0:1|0:1,0:0:0:0:
114,190,7478,1,2,3:0:0:0:
178,312,8074,1,8,0:1:0:0:
264,336,8472,1,8,0:1:0:0:
264,336,8670,2,0,P|297:324|375:343,1,98.9999969787598,2|2,0:0|0:0,0:0:0:0:
357,233,9465,2,0,L|350:175,1,49.4999984893799,2|8,3:0|0:1,0:0:0:0:
375,142,9862,1,8,0:0:0:0:
375,142,10061,5,8,0:1:0:0:
343,53,10458,1,8,0:1:0:0:
343,53,10657,1,2,3:0:0:0:
197,81,11253,1,8,0:1:0:0:
161,163,11650,2,0,L|152:227,1,49.4999984893799,8|10,0:1|0:1,0:0:0:0:
168,252,12048,1,8,0:0:0:0:
168,252,12246,1,14,0:1:0:0:
268,222,12644,2,0,L|374:212,1,104.499997209549,14|8,0:1|0:0,0:0:0:0:
410,252,13240,5,14,0:1:0:0:
350,344,13637,1,10,0:0:0:0:
350,344,13836,2,0,L|237:351,1,110,2|8,0:0|0:1,0:0:0:0:
185,360,14432,1,8,0:0:0:0:
98,292,14829,1,10,0:1:0:0:
98,292,15028,2,0,P|70:255|105:206,1,110,10|0,0:1|0:0,0:0:0:0:
93,152,15624,1,10,0:1:0:0:
93,152,15823,2,0,L|81:95,1,55,10|8,0:1|0:0,0:0:0:0:
168,30,16419,5,10,0:1:0:0:
239,113,16816,1,10,0:0:0:0:
239,113,17015,2,0,B|277:123|277:123|302:147|302:147|351:162,1,110,2|10,0:0|0:1,0:0:0:0:
353,209,17611,1,10,0:0:0:0:
353,209,17809,1,2,0:0:0:0:
398,309,18207,1,10,0:1:0:0:
475,231,18604,1,2,0:0:0:0:
432,129,19001,1,10,0:1:0:0:
432,129,19200,2,0,L|423:70,1,55,14|0,0:0|0:0,0:0:0:0:
385,35,19597,5,14,0:1:0:0:
284,79,19995,1,10,0:0:0:0:
284,79,20193,2,0,B|229:92|229:92|187:53,1,110,2|8,0:0|0:1,0:0:0:0:
154,12,20789,1,8,0:0:0:0:
88,100,21187,1,10,0:1:0:0:
88,100,21385,2,0,P|79:139|77:224,1,110,10|0,0:1|0:0,0:0:0:0:
61,262,21981,1,10,0:1:0:0:
61,262,22180,2,0,L|74:324,1,55,10|8,0:1|0:0,0:0:0:0:
168,261,22776,6,0,B|213:258|213:258|234:264|234:264|294:260,1,110,14|8,0:1|0:0,0:0:0:0:
311,218,23372,2,0,B|356:215|356:215|377:221|377:221|437:217,1,110,2|8,0:0|0:1,0:0:0:0:
474,221,23968,2,0,P|485:275|473:353,1,110,10|8,0:0|0:1,0:0:0:0:
376,367,24763,1,10,0:0:0:0:
376,367,24962,2,0,L|250:360,1,110,10|8,0:0|0:1,0:0:0:0:
212,372,25558,1,14,0:0:0:0:
124,325,25955,6,0,P|75:335|25:328,1,98.9999969787598,14|10,0:1|0:1,0:0:0:0:
36,279,26551,2,0,L|54:122,1,148.49999546814,2|10,0:0|0:1,0:0:0:0:
151,137,27544,1,10,0:1:0:0:
151,137,27743,2,0,B|150:188|150:188|163:242,1,98.9999969787598,2|2,0:0|0:0,0:0:0:0:
203,260,28339,1,10,0:1:0:0:
203,260,28538,1,2,0:0:0:0:
279,197,28935,1,2,0:0:0:0:
279,197,29134,6,0,B|290:150|290:150|289:99,1,98.9999969787598,10|10,0:1|0:1,0:0:0:0:
384,71,29928,1,10,0:1:0:0:
384,71,30127,1,2,0:0:0:0:
439,152,30524,1,2,0:0:0:0:
378,230,30922,2,0,P|349:263|471:300,1,247.4999924469,2|8,0:0|0:1,0:0:0:0:
479,259,32114,1,12,0:0:0:0:
479,259,32313,5,10,0:1:0:0:
478,160,32710,1,10,0:1:0:0:
478,160,32909,2,0,B|489:119|489:119|468:62|468:62|484:20,1,148.49999546814,2|10,0:0|0:1,0:0:0:0:
389,48,33902,1,10,0:1:0:0:
389,48,34101,2,0,B|350:66|350:66|282:51,1,98.9999969787599,2|2,0:0|0:0,0:0:0:0:
257,21,34697,1,10,0:1:0:0:
257,21,34895,1,2,0:0:0:0:
166,54,35293,5,2,0:0:0:0:
166,54,35491,2,0,P|176:102|165:162,1,98.9999969787599,10|10,0:1|0:1,0:0:0:0:
265,190,36286,1,10,0:1:0:0:
265,190,36485,2,0,P|255:238|266:298,1,98.9999969787599,2|2,0:1|0:1,0:0:0:0:
206,368,37279,2,0,L|40:370,1,148.49999546814,2|8,0:0|0:1,0:0:0:0:
25,276,38273,2,0,P|16:246|30:223,1,49.4999984893799,10|12,0:0|0:1,0:0:0:0:
76,206,38670,6,0,L|197:198,1,104.499997209549,14|14,0:1|0:0,0:0:0:0:
184,98,39465,1,10,0:1:0:0:
184,98,39664,2,0,B|130:114|130:114|92:72,1,104.499997209549,10|10,0:1|0:0,0:0:0:0:
95,25,40260,1,2,0:0:0:0:
203,12,40657,1,10,0:0:0:0:
307,41,41054,1,10,0:1:0:0:
307,41,41253,2,0,L|363:23,1,52.2499986047745,10|12,0:1|0:0,0:0:0:0:
346,128,41849,6,0,P|341:193|353:235,1,104.499997209549,14|14,0:1|0:0,0:0:0:0:
359,334,42644,1,10,0:1:0:0:
359,334,42842,2,0,L|467:311,1,104.499997209549,10|8,0:1|0:0,0:0:0:0:
499,276,43438,1,2,0:0:0:0:
439,189,43836,1,10,0:0:0:0:
489,97,44233,1,10,0:3:0:0:
489,97,44432,2,0,B|499:51|499:51|474:-7,1,104.499997209549,10|4,0:1|0:3,0:0:0:0:
435,26,45028,6,0,L|314:18,1,98.9999969787599,14|10,0:1|0:0,0:0:0:0:
286,17,45624,1,2,0:0:0:0:
188,30,46021,1,10,0:1:0:0:
94,62,46419,1,10,0:1:0:0:
94,62,46617,2,0,P|88:107|88:129,1,49.4999984893799,10|0,0:1|0:0,0:0:0:0:
41,130,47015,2,0,P|46:186|40:280,1,148.49999546814,10|8,0:0|0:1,0:0:0:0:
150,334,48008,5,2,0:0:0:0:
150,334,48207,2,0,B|186:331|186:331|196:334|196:334|232:330,1,78.3749979071618,14|2,0:1|0:0,0:0:0:0:
235,252,48803,1,2,0:0:0:0:
235,252,49002,2,0,B|199:249|199:249|189:252|189:252|153:248,1,78.3749979071618,10|2,0:1|0:0,0:0:0:0:
172,171,49597,1,10,0:3:0:0:
172,171,49796,2,0,P|162:132|183:72,1,104.499997209549,10|10,0:1|0:3,0:0:0:0:
233,85,50392,2,0,B|311:89|268:106|335:113,1,104.499997209549,10|8,0:1|0:1,0:0:0:0:
382,90,50988,1,12,0:0:0:0:
415,206,51385,5,14,0:1:0:0:
415,206,51583,2,0,P|408:262|427:329,1,121.000003692627,2|2,0:0|0:0,0:0:0:0:
380,365,52179,2,0,L|258:333,1,121.000003692627,10|10,0:1|0:0,0:0:0:0:
238,278,52775,1,10,0:1:0:0:
117,262,53173,1,10,0:1:0:0:
117,262,53371,2,0,L|93:324,1,60.5000018463135,10|0,0:0|0:0,0:0:0:0:
35,308,53769,6,0,P|9:265|42:195,1,121.000003692627,14|8,0:1|0:0,0:0:0:0:
69,155,54365,1,2,0:0:0:0:
69,155,54563,1,10,0:1:0:0:
187,182,54961,1,10,0:0:0:0:
187,182,55159,2,0,B|232:187|232:187|265:206|265:206|317:211,1,121.000003692627,2|10,0:0|0:1,0:0:0:0:
356,181,55755,2,0,L|430:171,1,60.5000018463135,10|2,0:0|0:0,0:0:0:0:
476,177,56153,1,14,0:1:0:0:
417,71,56550,2,0,L|343:61,1,60.5000018463135,10|8,0:0|0:0,0:0:0:0:
303,34,56947,6,0,B|252:31|252:31|224:40|224:40|172:32,2,121.000003692627,12|8|8,0:1|0:0|0:1,0:0:0:0:
319,92,57941,1,10,0:1:0:0:
319,92,58139,1,10,0:0:0:0:
227,171,58537,1,10,0:1:0:0:
227,171,58735,2,0,P|220:206|236:304,1,121.000003692627,2|8,0:0|0:1,0:0:0:0:
289,277,59331,2,0,B|322:251|358:249|358:249|402:279,1,121.000003692627,10|8,0:1|0:0,0:0:0:0:
398,335,59927,1,2,0:0:0:0:
398,335,60126,6,0,B|350:340|350:340|323:355|323:355|263:362,1,121.000003692627,14|8,0:1|0:0,0:0:0:0:
190,279,60921,2,0,L|185:218,1,60.5000018463135,10|10,0:1|0:0,0:0:0:0:
154,166,61318,1,10,0:0:0:0:
154,166,61517,2,0,P|186:143|155:80,1,121.000003692627,14|8,0:1|0:1,0:0:0:0:
114,36,62113,1,10,0:0:0:0:
114,36,62312,2,0,L|74:179,1,121.000003692627,2|8,0:0|0:0,0:0:0:0:
100,269,63106,5,10,0:0:0:0:
100,269,63305,2,0,B|137:270|137:270|146:275|146:275|199:279,1,90.7500027694703,14|2,0:1|0:0,0:0:0:0:
281,301,63901,1,2,0:0:0:0:
281,301,64099,2,0,P|318:288|405:308,1,121.000003692627,10|10,0:1|0:0,0:0:0:0:
450,329,64695,1,2,0:0:0:0:
465,208,65093,1,2,0:0:0:0:
465,208,65291,2,0,L|469:132,1,60.5000018463135,10|0,0:0|0:0,0:0:0:0:
423,106,65689,6,0,B|383:100|361:109|361:109|327:101|326:62,1,121.000003692627,14|8,0:1|0:0,0:0:0:0:
282,25,66285,1,2,0:0:0:0:
282,25,66483,1,10,0:1:0:0:
228,133,66881,1,10,0:0:0:0:
228,133,67079,2,0,L|237:257,1,121.000003692627,2|10,0:0|0:1,0:0:0:0:
295,269,67675,2,0,L|358:264,1,60.5000018463135,10|0,0:0|0:0,0:0:0:0:
414,277,68073,1,14,0:1:0:0:
316,348,68470,2,0,L|255:352,1,60.5000018463135,10|8,0:0|0:0,0:0:0:0:
195,344,68867,6,0,B|152:331|129:351|55:328,2,121.000003692627,12|8|8,0:1|0:0|0:1,0:0:0:0:
238,301,69861,1,10,0:1:0:0:
238,301,70059,1,10,0:0:0:0:
165,203,70457,1,10,0:1:0:0:
165,203,70655,2,0,P|151:159|161:83,1,121.000003692627,2|8,0:0|0:1,0:0:0:0:
219,98,71251,2,0,B|266:101|266:101|285:113|285:113|345:121,1,121.000003692627,10|8,0:1|0:0,0:0:0:0:
449,163,72046,6,0,L|459:37,1,121.000003692627,14|10,0:1|0:0,0:0:0:0:
398,39,72642,2,0,B|334:33|368:13|276:13,1,121.000003692627,2|10,0:0|0:1,0:0:0:0:
220,14,73238,2,0,L|144:-3,1,60.5000018463135,10|14,0:0|0:1,0:0:0:0:
107,30,73636,1,2,0:0:0:0:
55,139,74033,1,14,0:0:0:0:
55,139,74232,2,0,P|34:176|85:306,1,181.500005538941,10|0,0:3|0:3,0:0:0:0:
166,221,75225,6,0,L|167:89,1,121.000003692627,14|8,0:0|0:0,0:0:0:0:
293,86,76020,2,0,L|293:206,1,121.000003692627,10|8,0:0|0:0,0:0:0:0:
338,247,76616,1,10,0:1:0:0:
338,247,76814,2,0,P|382:222|440:258,1,121.000003692627,10|8,0:0|0:0,0:0:0:0:
399,369,77609,1,8,0:0:0:0:
282,333,78006,1,8,0:0:0:0:
164,360,78404,6,0,B|119:357|119:357|90:341|90:341|42:337,1,121.000003692627,14|8,0:0|0:0,0:0:0:0:
38,216,79198,2,0,L|168:194,1,121.000003692627,10|8,0:0|0:0,0:0:0:0:
160,135,79794,1,14,0:1:0:0:
160,135,79993,2,0,P|148:92|256:69,1,181.500005538941,10|8,0:0|0:1,0:0:0:0:
282,113,80788,2,0,P|270:164|311:303,1,181.500005538941,10|4,0:0|0:3,0:0:0:0:
317,339,81583,5,14,0:1:0:0:
393,259,81980,1,10,0:0:0:0:
393,259,82179,2,0,L|414:149,1,110,2|8,0:0|0:1,0:0:0:0:
443,104,82775,1,8,0:0:0:0:
337,73,83172,1,10,0:1:0:0:
337,73,83371,2,0,B|272:58|305:48|220:42,1,110,10|0,0:1|0:0,0:0:0:0:
176,43,83967,1,10,0:1:0:0:
176,43,84165,2,0,P|168:77|177:119,1,55,10|8,0:1|0:0,0:0:0:0:
216,199,84761,5,10,0:1:0:0:
148,286,85159,1,10,0:0:0:0:
148,286,85357,2,0,B|90:302|90:302|54:260,1,110,2|10,0:0|0:1,0:0:0:0:
34,214,85953,1,10,0:0:0:0:
34,214,86152,1,2,0:0:0:0:
64,108,86549,1,8,0:0:0:0:
169,110,86947,2,0,L|226:98,1,55,14|0,0:1|0:0,0:0:0:0:
263,61,87344,2,0,L|320:49,1,55,14|0,0:1|0:0,0:0:0:0:
359,84,87741,1,12,0:1:0:0:
256,192,87841,12,0,89927,0:0:0:0:
