osu file format v14

[General]
AudioFilename: audio.mp3
AudioLeadIn: 0
PreviewTime: 51285
Countdown: 0
SampleSet: Soft
StackLeniency: 0.7
Mode: 0
LetterboxInBreaks: 0
WidescreenStoryboard: 0

[Editor]
DistanceSpacing: 0.5
BeatDivisor: 4
GridSize: 32
TimelineZoom: 1.6

[Metadata]
Title:Little Busters! ~TV animation ver.~ (TV Size)
TitleUnicode:Little Busters! ~TV animation ver.~ (TV Size)
Artist:Rita
ArtistUnicode:Rita
Creator:Adinda
Version:Insane!
Source:Little Busters!
Tags:key visualarts pop jpop j-pop anime japanese opening op
BeatmapID:2681759
BeatmapSetID:1292131

[Difficulty]
HPDrainRate:6
CircleSize:4
OverallDifficulty:8
ApproachRate:9
SliderMultiplier:2
SliderTickRate:1

[Events]
//Background and Video events
0,0,"a.jpg",0,0
//Break Periods
//Storyboard Layer 0 (Background)
//Storyboard Layer 1 (Fail)
//Storyboard Layer 2 (Pass)
//Storyboard Layer 3 (Foreground)
//Storyboard Layer 4 (Overlay)
//Storyboard Sound Samples

[TimingPoints]
525,397.350993377483,4,2,1,50,1,0
6882,-181.818181818181,4,2,1,50,0,0
12246,-111.111111111111,4,2,1,65,0,0
13240,-100,4,2,1,75,0,0
25955,-153.846153846153,4,2,1,60,0,0
38174,-153.846153846153,4,2,1,5,0,0
38273,-153.846153846153,4,2,1,60,0,0
38670,-111.111111111111,4,2,1,65,0,0
45028,-125,4,2,1,60,0,0
48207,-111.111111111111,4,2,1,65,0,0
50789,-111.111111111111,4,2,1,70,0,0
51385,397.350993377483,6,2,1,80,1,1
51385,-90.9090909090909,6,2,1,80,0,1
53769,397.350993377483,4,2,1,80,1,1
53769,-90.9090909090909,4,2,1,80,0,1
56451,-90.9090909090909,4,2,1,5,0,1
56550,-90.9090909090909,4,2,1,80,0,1
63305,397.350993377483,6,2,1,80,1,1
64099,-90.9090909090909,6,2,1,80,0,1
65689,397.350993377483,4,2,1,80,1,1
65689,-90.9090909090909,4,2,1,80,0,1
68371,-90.9090909090909,4,2,1,5,0,1
68470,-90.9090909090909,4,2,1,80,0,1
72344,-90.9090909090909,4,2,1,5,0,1
72443,-90.9090909090909,4,2,1,80,0,1
75225,-90.9090909090909,4,2,1,85,0,1
81583,-100,4,2,1,75,0,0
86947,-83.3333333333333,4,2,1,75,0,0
87741,-83.3333333333333,4,2,1,75,0,0
87841,-83.3333333333333,4,2,1,5,0,0

[Colours]
Combo1 : 136,128,236
Combo2 : 56,158,188
Combo3 : 255,111,111

[HitObjects]
11,117,6882,5,12,0:1:0:0:
67,174,7081,1,2,0:0:0:0:
147,144,7279,1,8,0:1:0:0:
203,87,7478,1,2,3:0:0:0:
203,87,7577,1,0,3:0:0:0:
203,87,7677,2,0,P|194:57|206:29,1,55.0000016784668,8|0,0:1|0:0,0:0:0:0:
303,136,8074,5,8,0:1:0:0:
316,62,8273,1,2,0:0:0:0:
406,111,8472,1,8,0:1:0:0:
393,37,8671,1,2,0:0:0:0:
393,37,8869,1,8,0:1:0:0:
303,136,9068,6,0,L|269:189,1,55.0000016784668,2|8,0:0|0:1,0:0:0:0:
273,182,9366,1,0,3:0:0:0:
273,182,9465,1,2,3:0:0:0:
354,223,9664,1,8,0:1:0:0:
213,336,9862,5,8,0:0:0:0:
280,368,10061,5,8,0:1:0:0:
274,293,10260,1,2,0:0:0:0:
118,343,10458,1,8,0:1:0:0:
111,271,10657,1,2,3:0:0:0:
111,271,10756,1,0,3:0:0:0:
111,271,10856,2,0,P|130:252|119:219,1,55.0000016784668,8|0,0:1|0:0,0:0:0:0:
47,97,11253,1,8,0:1:0:0:
14,169,11452,1,2,0:0:0:0:
156,136,11650,5,8,0:1:0:0:
166,133,11716,1,8,0:1:0:0:
177,131,11782,1,8,0:1:0:0:
186,129,11849,2,0,L|192:94,1,27.5000008392334,10|8,0:1|0:0,0:0:0:0:
256,6,12048,1,8,0:0:0:0:
331,118,12246,6,0,B|330:163|330:163|352:210,1,89.9999972534181,14|0,0:1|0:0,0:0:0:0:
468,363,12644,2,0,B|407:355|407:355|367:312|367:312|294:298,1,179.999994506836,14|8,0:1|0:0,0:0:0:0:
243,374,13140,1,8,0:0:0:0:
243,374,13240,5,14,0:1:0:0:
153,255,13438,1,2,0:0:0:0:
81,344,13637,1,10,0:0:0:0:
308,300,13836,2,0,L|402:264,1,100,2|0,0:0|0:0,0:0:0:0:
401,264,14233,1,8,0:1:0:0:
331,118,14432,2,0,L|237:82,1,100,8|0,0:0|0:0,0:0:0:0:
177,9,14829,5,10,0:1:0:0:
177,9,15028,1,10,0:1:0:0:
58,94,15226,2,0,P|57:148|81:202,1,100,8|0,0:0|0:0,0:0:0:0:
48,327,15624,5,10,0:1:0:0:
48,327,15823,1,10,0:1:0:0:
167,242,16021,2,0,P|168:188|144:134,1,100,8|8,0:0|0:0,0:0:0:0:
151,145,16319,1,8,0:0:0:0:
151,145,16419,5,10,0:1:0:0:
275,257,16617,1,2,0:0:0:0:
334,73,16816,1,10,0:0:0:0:
454,182,17015,2,0,B|412:179|412:179|389:185|389:185|351:182,1,100,2|0,0:0|0:0,0:0:0:0:
142,365,17412,5,10,0:1:0:0:
167,242,17611,1,10,0:0:0:0:
133,339,17809,6,0,P|191:360|242:367,1,100,2|0,0:0|0:0,0:0:0:0:
151,145,18207,2,0,P|93:166|42:173,1,100,10|8,0:1|0:0,0:0:0:0:
215,10,18604,2,0,B|211:58|211:58|238:104,1,100,2|8,0:0|0:1,0:0:0:0:
262,118,18902,1,8,0:0:0:0:
262,118,19001,1,10,0:1:0:0:
430,45,19200,2,0,B|434:93|434:93|407:139,1,100,14|0,0:0|0:0,0:0:0:0:
474,205,19498,1,8,0:0:0:0:
474,205,19597,5,14,0:1:0:0:
333,194,19796,1,2,0:0:0:0:
485,105,19995,1,10,0:0:0:0:
312,288,20193,2,0,P|303:341|322:387,1,100,2|0,0:0|0:0,0:0:0:0:
320,384,20591,1,8,0:1:0:0:
210,281,20789,2,0,P|193:234|202:185,1,100,8|0,0:0|0:0,0:0:0:0:
262,118,21187,5,10,0:1:0:0:
262,118,21385,1,10,0:1:0:0:
88,78,21584,2,0,L|196:53,1,100,8|0,0:0|0:0,0:0:0:0:
28,225,21981,5,10,0:1:0:0:
28,225,22179,1,10,0:1:0:0:
202,185,22378,2,0,L|94:160,1,100,8|0,0:0|0:0,0:0:0:0:
254,108,22677,1,8,0:0:0:0:
265,119,22776,6,0,B|317:110|356:142|356:142|419:124|408:64,1,200,14|8,0:1|0:0,0:0:0:0:
202,185,23372,2,0,P|191:245|306:266,1,200,2|8,0:0|0:1,0:0:0:0:
507,371,23968,2,0,B|438:358|438:358|380:377|380:377|307:360,1,200,10|8,0:0|0:1,0:0:0:0:
116,200,24564,5,10,0:1:0:0:
188,344,24763,1,10,0:0:0:0:
202,185,24962,1,10,0:0:0:0:
91,368,25160,2,8,L|75:317,1,50,10|8,0:0|0:0,0:0:0:0:
13,262,25359,5,8,0:1:0:0:
13,255,25425,1,8,0:1:0:0:
14,248,25491,1,8,0:1:0:0:
15,240,25558,2,0,B|21:207|21:207|17:188|17:188|28:141,1,100,14|0,0:0|0:0,0:0:0:0:
93,16,25955,5,14,0:1:0:0:
139,73,26154,1,2,0:0:0:0:
174,10,26352,1,10,0:1:0:0:
221,74,26551,2,0,P|256:54|351:75,1,129.999994049073,2|0,0:0|0:0,0:0:0:0:
411,20,27147,5,10,0:1:0:0:
341,67,27346,1,2,0:0:0:0:
440,106,27544,1,10,0:1:0:0:
369,150,27743,2,0,L|356:213,1,64.9999970245363,2|8,0:0|0:1,0:0:0:0:
355,213,28140,1,2,0:0:0:0:
397,352,28339,5,10,0:1:0:0:
475,311,28538,2,0,B|492:266|445:218|445:218|423:254,1,129.999994049073,2|2,0:0|0:0,0:0:0:0:
285,268,29134,5,10,0:1:0:0:
355,213,29332,1,2,0:0:0:0:
213,196,29531,1,10,0:1:0:0:
285,268,29729,1,2,0:0:0:0:
291,142,29928,5,10,0:1:0:0:
291,142,30127,2,0,P|297:109|285:71,1,64.9999970245363,2|8,0:0|0:1,0:0:0:0:
200,21,30524,2,0,P|206:54|194:92,1,64.9999970245363,2|8,0:0|0:1,0:0:0:0:
59,185,30922,2,0,B|40:139|61:95|61:95|36:47,1,129.999994049073,2|0,0:0|0:0,0:0:0:0:
43,62,31518,1,8,0:1:0:0:
14,291,31915,5,8,0:1:0:0:
63,188,32114,1,12,0:0:0:0:
119,348,32313,5,10,0:1:0:0:
208,374,32511,1,2,0:0:0:0:
235,289,32710,1,10,0:1:0:0:
142,260,32909,2,0,B|229:244|183:278|284:257,1,129.999994049073,2|0,0:0|0:0,0:0:0:0:
326,327,33505,5,10,0:1:0:0:
270,259,33703,1,2,0:0:0:0:
356,235,33902,1,10,0:1:0:0:
305,159,34101,2,0,L|293:89,1,64.9999970245363,2|8,0:0|0:1,0:0:0:0:
396,24,34498,5,2,0:0:0:0:
398,115,34697,1,10,0:1:0:0:
480,161,34895,2,0,L|492:91,1,64.9999970245363,2|8,0:0|0:1,0:0:0:0:
305,159,35293,5,2,0:0:0:0:
356,239,35491,2,8,B|406:246|406:246|427:264|427:264|490:275,1,129.999994049073,10|10,0:1|0:1,0:1:0:0:
478,272,36087,1,2,0:0:0:0:
354,321,36286,1,10,0:1:0:0:
354,321,36485,2,0,P|316:335|294:361,1,64.9999970245363,2|8,0:0|0:1,0:0:0:0:
155,267,36882,6,0,P|178:288|209:298,1,64.9999970245363,2|8,0:0|0:1,0:0:0:0:
106,130,37279,2,0,P|93:176|14:198,1,129.999994049073,2|0,0:0|0:0,0:0:0:0:
153,52,37875,2,0,B|94:42|134:35|42:29,1,97.4999955368044,8|0,0:1|0:0,0:0:0:0:
19,54,38273,5,10,0:0:0:0:
22,200,38472,1,12,0:1:0:0:
241,139,38670,6,0,L|255:42,1,89.9999972534181,14|0,0:1|0:0,0:0:0:0:
369,259,39068,2,0,L|355:162,1,89.9999972534181,14|0,0:0|0:0,0:0:0:0:
395,22,39465,1,10,0:1:0:0:
395,22,39664,2,0,P|431:47|490:57,1,89.9999972534181,10|0,0:1|0:0,0:0:0:0:
356,169,40061,5,10,0:0:0:0:
436,197,40260,1,2,0:0:0:0:
410,116,40458,1,10,0:1:0:0:
390,255,40657,1,10,0:0:0:0:
242,217,40856,5,2,0:0:0:0:
356,169,41054,1,10,0:1:0:0:
197,133,41253,1,10,0:1:0:0:
115,309,41452,2,8,B|168:318|168:318|188:342|188:342|252:351,1,134.999995880127,12|8,0:0|0:0,0:0:0:0:
323,369,41849,6,0,B|326:320|326:320|314:277,1,89.9999972534181,14|0,0:1|0:0,0:0:0:0:
22,366,42246,2,0,B|19:317|19:317|31:274,1,89.9999972534181,14|0,0:0|0:0,0:0:0:0:
12,113,42644,1,10,0:1:0:0:
12,113,42842,2,0,P|61:134|109:144,1,89.9999972534181,10|0,0:1|0:0,0:0:0:0:
96,142,43240,1,8,0:0:0:0:
242,0,43438,5,2,0:0:0:0:
143,54,43637,1,10,0:1:0:0:
228,109,43836,1,10,0:0:0:0:
313,160,44034,1,2,0:0:0:0:
223,224,44233,1,10,0:3:0:0:
366,92,44432,5,10,0:1:0:0:
388,90,44531,1,8,0:0:0:0:
410,88,44630,1,8,0:0:0:0:
433,86,44730,1,8,0:0:0:0:
455,84,44829,1,4,0:3:0:0:
382,266,45028,5,14,0:1:0:0:
461,293,45226,1,2,0:0:0:0:
443,211,45425,1,10,0:0:0:0:
399,349,45624,2,0,P|355:357|323:378,1,80,2|0,0:0|0:0,0:0:0:0:
202,300,46021,2,0,B|187:253|187:253|194:189|194:189|242:248,1,160,10|10,0:1|0:1,0:0:0:0:
296,146,46617,6,0,L|315:67,1,80,10|0,0:1|0:0,0:0:0:0:
168,14,47015,2,0,P|155:72|63:67,1,160,10|0,0:0|0:0,0:0:0:0:
67,72,47611,1,8,0:1:0:0:
24,149,47809,2,8,P|36:193|38:242,1,80,8|2,0:0|0:0,0:0:0:0:
90,298,48107,1,8,0:0:0:0:
103,303,48207,6,0,B|147:294|147:294|203:306,1,89.9999972534181,14|0,0:1|0:0,0:0:0:0:
203,313,48505,2,0,B|247:304|247:304|303:316,1,89.9999972534181,2|0,0:0|0:0,0:0:0:0:
301,327,48803,2,0,L|346:318,1,44.999998626709,2|0,0:0|0:0,0:0:0:0:
506,205,49001,6,0,B|462:196|462:196|406:208,1,89.9999972534181,10|0,0:1|0:0,0:0:0:0:
406,215,49299,2,0,B|362:206|362:206|306:218,1,89.9999972534181,2|0,0:0|0:0,0:0:0:0:
310,232,49597,5,10,0:3:0:0:
310,232,49697,1,2,0:0:0:0:
310,232,49796,1,10,0:1:0:0:
308,23,49995,1,10,0:3:0:0:
406,215,50193,1,10,0:3:0:0:
209,214,50392,1,10,0:1:0:0:
415,73,50591,1,8,0:1:0:0:
195,74,50789,5,8,0:1:0:0:
193,63,50856,1,8,0:1:0:0:
191,52,50922,1,8,0:1:0:0:
189,41,50988,1,12,0:0:0:0:
85,78,51187,5,8,0:0:0:0:
85,78,51286,1,8,0:0:0:0:
85,78,51385,1,14,0:1:0:0:
173,148,51583,2,0,B|183:109|183:109|178:78|178:78|194:27,1,110.000003356934,2|8,0:0|0:0,0:0:0:0:
392,122,51981,5,2,0:0:0:0:
304,192,52179,2,8,B|294:153|294:153|299:122|299:122|283:71,1,110.000003356934,10|8,0:1|0:1,0:1:0:0:
34,272,52577,1,10,0:0:0:0:
106,331,52775,1,10,0:1:0:0:
106,331,52875,1,8,0:0:0:0:
106,331,52974,2,8,P|161:324|206:282,1,110.000003356934,8|10,0:1|0:1,0:1:0:0:
406,383,53371,2,0,P|364:348|310:341,1,110.000003356934,10|0,0:0|0:0,0:0:0:0:
235,375,53669,1,2,0:0:0:0:
235,375,53769,6,0,B|282:356|322:376|322:376|400:378|419:306,1,220.000006713867,14|8,0:1|0:0,0:0:0:0:
392,122,54365,5,2,0:0:0:0:
478,182,54563,2,0,B|476:236|476:236|498:298,1,110.000003356934,10|0,0:1|0:0,0:0:0:0:
390,78,54961,5,10,0:0:0:0:
477,138,55159,2,0,B|475:192|475:192|497:254,1,110.000003356934,2|8,0:0|0:1,0:0:0:0:
265,22,55557,5,10,0:1:0:0:
186,162,55755,1,10,0:0:0:0:
55,39,55954,1,2,0:0:0:0:
204,202,56153,2,0,P|155:195|206:127,1,165.000005035401,14|0,0:1|0:0,0:0:0:0:
12,234,56550,5,10,0:0:0:0:
12,234,56649,1,8,0:0:0:0:
12,234,56749,1,8,0:0:0:0:
12,234,56848,1,8,0:0:0:0:
12,234,56947,6,0,B|88:258|88:258|117:318|117:318|203:346,2,220.000006713867,12|8|8,0:1|0:0|0:1,0:0:0:0:
204,202,57941,5,10,0:1:0:0:
187,340,58139,1,10,0:0:0:0:
106,220,58338,1,2,0:0:0:0:
287,120,58537,5,10,0:1:0:0:
373,264,58735,2,0,B|331:258|331:258|303:269|303:269|258:262,1,110.000003356934,2|8,0:0|0:0,0:0:0:0:
412,111,59133,1,8,0:1:0:0:
412,111,59232,1,8,0:0:0:0:
412,111,59331,2,0,B|415:170|415:170|454:217,1,110.000003356934,10|8,0:1|0:1,0:0:0:0:
322,21,59729,2,0,B|319:80|319:80|280:127,1,110.000003356934,8|2,0:0|0:0,0:0:0:0:
208,63,60027,1,8,0:0:0:0:
193,52,60126,6,0,P|124:51|87:184,1,220.000006713867,14|8,0:1|0:0,0:0:0:0:
286,119,60722,1,0,0:0:0:0:
211,188,60921,5,10,0:1:0:0:
327,312,61119,1,10,0:0:0:0:
327,312,61219,1,8,0:0:0:0:
327,312,61318,1,10,0:0:0:0:
286,119,61517,5,14,0:1:0:0:
244,373,61716,2,0,B|258:315|232:337|256:253,1,110.000003356934,2|8,0:0|0:1,0:0:0:0:
75,142,62113,5,10,0:0:0:0:
54,342,62312,2,0,L|5:233,1,110.000003356934,2|8,0:0|0:1,0:0:0:0:
20,213,62610,1,8,0:0:0:0:
20,213,62709,1,8,0:0:0:0:
252,264,62908,1,8,0:0:0:0:
40,59,63106,5,10,0:0:0:0:
40,59,63206,1,8,0:0:0:0:
40,59,63305,1,14,0:1:0:0:
286,119,63503,5,2,0:0:0:0:
286,119,63603,1,2,0:0:0:0:
157,168,63801,1,2,0:0:0:0:
157,168,63901,1,2,0:0:0:0:
307,103,64099,2,8,B|348:101|348:101|368:109|368:109|418:106,1,110.000003356934,10|8,0:1|0:1,0:1:0:0:
253,265,64497,5,10,0:0:0:0:
375,317,64695,2,0,B|384:270|384:270|357:210,1,110.000003356934,2|8,0:0|0:1,0:0:0:0:
254,300,65093,5,2,0:0:0:0:
376,352,65291,2,0,B|385:305|385:305|358:245,1,110.000003356934,10|0,0:0|0:0,0:0:0:0:
434,188,65589,1,8,0:0:0:0:
441,204,65689,6,0,B|507:231|507:231|479:382,1,220.000006713867,14|8,0:1|0:0,0:0:0:0:
307,103,66285,5,2,0:0:0:0:
430,118,66483,2,0,P|453:98|426:33,1,110.000003356934,10|0,0:1|0:0,0:0:0:0:
307,103,66881,5,10,0:0:0:0:
184,88,67079,2,0,P|161:108|188:173,1,110.000003356934,2|8,0:0|0:1,0:0:0:0:
294,71,67477,5,10,0:1:0:0:
171,56,67675,2,0,P|148:76|175:141,1,110.000003356934,10|0,0:0|0:0,0:0:0:0:
1,246,68073,2,0,B|43:244|67:206|67:206|112:233|102:288,1,165.000005035401,14|0,0:1|0:0,0:0:0:0:
12,144,68470,5,10,0:0:0:0:
12,144,68569,1,8,0:0:0:0:
12,144,68669,1,8,0:0:0:0:
12,144,68768,1,8,0:0:0:0:
12,144,68867,6,0,B|-13:71|19:0|19:0|72:55,2,220.000006713867,12|8|8,0:1|0:0|0:1,0:0:0:0:
171,56,69861,5,10,0:1:0:0:
273,218,70059,1,10,0:0:0:0:
282,82,70258,1,2,0:0:0:0:
180,244,70456,5,10,0:1:0:0:
294,343,70655,2,0,B|354:325|434:336|368:368|451:380|523:346,1,220.000006713867,2|8,0:0|0:1,0:0:0:0:
490,315,71152,1,8,0:0:0:0:
490,315,71251,1,10,0:1:0:0:
405,206,71450,1,8,0:1:0:0:
500,102,71649,2,0,B|457:91|457:91|442:77|442:77|396:64,1,110.000003356934,8|2,0:0|0:0,0:0:0:0:
233,156,72046,6,0,B|220:112|220:112|255:46|255:46|286:87,1,165.000005035401,14|0,0:1|0:0,0:0:0:0:
288,101,72443,1,10,0:0:0:0:
98,119,72642,2,0,P|51:122|46:65,1,110.000003356934,2|8,0:0|0:1,0:0:0:0:
131,13,73039,1,10,0:1:0:0:
131,13,73139,1,8,0:1:0:0:
131,13,73238,1,10,0:0:0:0:
288,101,73437,5,14,0:1:0:0:
161,271,73636,2,0,B|149:321|149:321|177:385,1,110.000003356934,2|8,0:0|0:1,0:0:0:0:
366,239,74033,2,0,B|378:289|378:289|350:353,1,110.000003356934,14|10,0:0|0:3,0:0:0:0:
399,369,74331,1,8,0:3:0:0:
399,369,74430,1,8,0:3:0:0:
399,369,74530,1,8,0:3:0:0:
399,369,74629,2,8,L|459:357,1,55.0000016784668,8|0,0:3|0:3,0:3:0:0:
512,274,74828,5,4,0:3:0:0:
512,274,74927,1,4,0:3:0:0:
512,274,75026,2,0,L|452:262,1,55.0000016784668,4|0,0:3|0:0,0:0:0:0:
289,101,75225,6,0,B|277:67|277:67|279:37|279:37|258:-14,1,110.000003356934,14|0,0:0|0:0,0:0:0:0:
235,4,75523,1,2,0:0:0:0:
235,4,75622,1,8,0:0:0:0:
382,48,75821,1,2,0:0:0:0:
205,154,76020,1,10,0:0:0:0:
382,48,76218,1,8,0:1:0:0:
382,48,76318,1,2,0:0:0:0:
382,48,76417,1,8,0:0:0:0:
352,217,76616,5,10,0:1:0:0:
352,217,76715,1,2,0:0:0:0:
352,217,76814,2,0,P|350:271|387:324,1,110.000003356934,10|8,0:0|0:1,0:0:0:0:
407,308,77112,1,2,0:0:0:0:
407,308,77212,1,8,0:0:0:0:
206,153,77410,1,2,0:0:0:0:
98,260,77609,2,0,B|139:253|139:253|165:261|165:261|214:253,1,110.000003356934,8|0,0:0|0:0,0:0:0:0:
263,313,77907,2,0,P|266:346|240:358,1,55.0000016784668,8|8,0:1|0:0,0:0:0:0:
107,155,78205,5,8,0:1:0:0:
107,155,78304,1,8,0:1:0:0:
107,155,78404,2,0,B|66:148|66:148|40:156|40:156|-9:148,1,110.000003356934,14|8,0:0|0:1,0:0:0:0:
0,117,78702,1,2,0:0:0:0:
0,117,78801,1,8,0:0:0:0:
120,1,79000,1,2,0:0:0:0:
98,260,79198,1,10,0:0:0:0:
120,1,79397,1,8,0:1:0:0:
120,1,79496,1,10,0:1:0:0:
120,1,79596,1,8,0:0:0:0:
206,153,79794,1,14,0:1:0:0:
107,155,79993,5,10,0:0:0:0:
259,50,80192,1,8,0:0:0:0:
281,267,80390,1,8,0:0:0:0:
281,267,80490,1,8,0:0:0:0:
281,267,80589,1,8,0:1:0:0:
206,153,80788,1,10,0:0:0:0:
438,160,80987,1,8,0:3:0:0:
438,160,81086,1,8,0:3:0:0:
330,171,81285,1,4,0:3:0:0:
330,171,81384,1,4,0:3:0:0:
472,373,81583,6,0,B|480:323|480:323|462:271,1,100,14|0,0:1|0:0,0:0:0:0:
272,363,81980,2,0,B|264:313|264:313|282:261,1,100,10|0,0:0|0:0,0:0:0:0:
206,153,82377,5,8,0:1:0:0:
280,266,82576,1,8,0:1:0:0:
330,171,82775,1,8,0:0:0:0:
159,251,82973,1,0,0:0:0:0:
34,129,83172,5,10,0:1:0:0:
34,129,83371,2,0,B|76:125|76:125|93:130|93:130|135:125,1,100,10|8,0:1|0:0,0:0:0:0:
173,50,83768,5,0,0:0:0:0:
159,251,83967,1,10,0:1:0:0:
330,171,84165,1,10,0:1:0:0:
219,155,84364,5,8,0:0:0:0:
219,155,84563,1,0,0:0:0:0:
357,273,84761,5,8,0:1:0:0:
274,310,84960,1,2,0:0:0:0:
330,171,85159,1,10,0:0:0:0:
428,350,85357,1,2,0:0:0:0:
494,201,85556,1,10,0:1:0:0:
494,201,85755,1,10,0:1:0:0:
357,273,85953,5,10,0:0:0:0:
330,171,86152,2,0,B|310:124|334:133|306:63,1,100,2|8,0:0|0:1,0:0:0:0:
333,52,86450,1,8,0:1:0:0:
333,52,86549,1,8,0:0:0:0:
333,52,86649,1,8,0:0:0:0:
333,52,86748,1,8,0:0:0:0:
143,156,86947,6,0,L|167:32,1,119.999996337891,14|0,0:1|0:0,0:0:0:0:
494,201,87344,2,0,L|471:83,1,119.999996337891,14|0,0:1|0:0,0:0:0:0:
357,273,87741,5,12,0:1:0:0:
256,192,87841,12,0,89927,0:0:0:0:
