osu file format v14

[General]
AudioFilename: audio.mp3
AudioLeadIn: 0
PreviewTime: 63205
Countdown: 1
SampleSet: Soft
StackLeniency: 0.7
Mode: 0
LetterboxInBreaks: 0
WidescreenStoryboard: 0

[Editor]
DistanceSpacing: 1.4
BeatDivisor: 4
GridSize: 4
TimelineZoom: 1

[Metadata]
Title:Kotonoha Puzzle
TitleUnicode:コトノハパズル
Artist:Rita
ArtistUnicode:Rita
Creator:Frostmourne
Version:Insane
Source:
Tags:
BeatmapID:1292477
BeatmapSetID:612449

[Difficulty]
HPDrainRate:6
CircleSize:4
OverallDifficulty:7
ApproachRate:8
SliderMultiplier:1.7
SliderTickRate:1

[Events]
//Background and Video events
0,0,"bg.jpg",0,0
//Break Periods
//Storyboard Layer 0 (Background)
//Storyboard Layer 1 (Fail)
//Storyboard Layer 2 (Pass)
//Storyboard Layer 3 (Foreground)
//Storyboard Sound Samples

[TimingPoints]
1754,483.870967741935,4,2,1,70,1,0
63689,-100,4,2,1,70,0,1
68528,-133.333333333333,4,2,1,70,0,1
71431,-100,4,2,1,70,0,1
76270,-133.333333333333,4,2,1,70,0,1
79173,-100,4,2,1,70,0,1
84012,-133.333333333333,4,2,1,70,0,1
86915,-100,4,2,1,70,0,1
91753,-133.333333333333,4,2,1,70,0,1
93447,-100,4,2,1,70,0,1
98528,-100,4,2,1,70,0,0

[Colours]
Combo1 : 126,177,254
Combo2 : 192,192,192
Combo3 : 189,130,255

[HitObjects]
98,124,1754,6,0,L|272:143,1,170,4|2,0:0|0:0,0:0:0:0:
436,132,2721,2,0,B|478:113|489:63,2,85,0|0|2,0:0|0:0|0:0,0:0:0:0:
352,149,3447,1,0,0:0:0:0:
266,142,3689,1,0,0:0:0:0:
101,186,4173,6,0,B|24:228|19:328,2,170,2|0|2,0:0|0:0|0:0,0:0:0:0:
184,169,5383,1,0,0:0:0:0:
184,169,5503,1,0,0:0:0:0:
184,169,5624,2,0,L|280:180,1,85
286,262,6108,2,0,L|190:251,1,85,2|0,0:0|0:0,0:0:0:0:
162,327,6592,2,0,L|258:338,1,85
332,348,7076,2,0,B|417:379|501:331,1,170,2|0,0:0|0:0,0:0:0:0:
492,163,8044,5,2,0:0:0:0:
416,201,8286,1,0,0:0:0:0:
416,201,8407,1,0,0:0:0:0:
416,201,8528,1,0,0:0:0:0:
331,190,8770,2,0,B|336:165|348:151|348:151,2,42.5,0|0|2,0:0|0:0|0:0,0:0:0:0:
268,247,9253,1,0,0:0:0:0:
268,247,9374,1,0,0:0:0:0:
268,247,9495,2,0,B|188:228|96:248,1,170,4|2,0:0|0:0,0:0:0:0:
67,326,10221,5,0,0:0:0:0:
67,326,10342,1,0,0:0:0:0:
67,326,10463,2,0,L|49:138,1,170,0|2,0:0|0:0,0:0:0:0:
183,59,11189,1,0,0:0:0:0:
183,59,11310,1,0,0:0:0:0:
183,59,11431,2,0,L|201:247,1,170,0|2,0:0|0:0,0:0:0:0:
67,326,12157,1,0,0:0:0:0:
67,326,12278,1,0,0:0:0:0:
67,326,12399,2,0,L|49:138,1,170,0|2,0:0|0:0,0:0:0:0:
183,59,13124,1,0,0:0:0:0:
183,59,13245,1,0,0:0:0:0:
183,59,13366,2,0,L|201:247,1,170,0|2,0:0|0:0,0:0:0:0:
445,326,14092,5,0,0:0:0:0:
445,326,14213,1,0,0:0:0:0:
445,326,14334,2,0,L|463:138,1,170,0|2,0:0|0:0,0:0:0:0:
329,59,15060,1,0,0:0:0:0:
329,59,15181,1,0,0:0:0:0:
329,59,15302,2,0,L|311:247,1,170,0|2,0:0|0:0,0:0:0:0:
445,326,16028,1,0,0:0:0:0:
445,326,16149,1,0,0:0:0:0:
445,326,16270,2,0,L|454:233,1,85,0|2,0:0|0:0,0:0:0:0:
453,241,16633,1,0,0:0:0:0:
453,241,16753,1,6,0:0:0:0:
400,174,16995,5,0,0:0:0:0:
321,345,17237,1,4,0:0:0:0:
279,270,17479,5,0,0:0:0:0:
194,274,17721,2,0,B|147:286|131:340|131:340,1,85,8|0,0:0|0:0,0:0:0:0:
112,222,18205,1,0,0:0:0:0:
45,274,18447,2,0,B|13:236|34:185|34:185,1,85,2|8,0:0|0:0,0:0:0:0:
31,193,18810,2,0,B|64:128|24:68|24:68,1,127.5,2|0,0:0|0:0,0:0:0:0:
98,25,19415,5,0,0:0:0:0:
98,25,19657,2,0,B|129:111|226:132|226:132,1,170,8|0,0:0|0:0,0:0:0:0:
291,81,20383,2,0,B|323:119|302:170|302:170,1,85,2|8,0:0|0:0,0:0:0:0:
305,162,20745,2,0,B|272:227|312:287|312:287,1,127.5,2|0,0:0|0:0,0:0:0:0:
385,219,21350,5,0,0:0:0:0:
470,219,21592,1,8,0:0:0:0:
498,299,21834,2,0,P|506:322|505:354,2,42.5
470,219,22318,1,0,0:0:0:0:
437,140,22560,2,0,B|379:66|291:62,1,170,8|0,0:0|0:0,0:0:0:0:
209,85,23286,5,0,0:0:0:0:
270,144,23528,1,8,0:0:0:0:
292,62,23770,2,0,P|292:35|283:10,2,42.5
251,227,24253,1,2,0:0:0:0:
129,108,24495,1,10,0:0:0:0:
292,62,24737,1,8,0:0:0:0:
237,311,24979,6,0,B|188:299|175:255,1,85
91,244,25463,2,0,B|103:195|147:182,1,85,8|0,0:0|0:0,0:0:0:0:
144,182,25826,2,0,L|12:162,1,127.5,0|2,0:0|0:0,0:0:0:0:
23,77,26431,2,0,L|71:84,2,42.5,8|2|0,0:0|0:0|0:0,0:0:0:0:
9,262,26915,6,0,B|21:311|65:324,1,85
91,244,27399,2,0,B|176:209|266:245,1,170,8|0,0:0|0:0,0:0:0:0:
308,309,28124,1,10,0:0:0:0:
383,206,28366,1,10,0:0:0:0:
357,80,28608,1,2,0:0:0:0:
315,154,28850,6,0,B|272:132|270:82,1,85
357,80,29334,2,0,B|452:80,2,85,8|0|0,0:0|0:0|0:0,0:0:0:0:
391,247,30060,2,0,B|463:308,2,85,2|10|0,0:0|0:0|0:0,0:0:0:0:
367,337,30786,2,0,B|324:301|324:301|294:249|294:249|251:213,1,170,0|8,0:0|0:0,0:0:0:0:
219,306,31512,1,2,0:0:0:0:
219,306,31633,1,0,0:0:0:0:
219,306,31753,1,0,0:0:0:0:
252,214,31995,5,8,0:0:0:0:
225,59,32237,1,8,0:0:0:0:
335,195,32479,1,2,0:0:0:0:
225,59,32721,2,0,B|179:55|145:90|145:90,1,85,4|0,0:0|0:0,0:0:0:0:
185,255,33205,2,0,B|279:264|337:192,2,170,8|0|8,0:0|0:0|0:0,0:0:0:0:
308,48,34657,6,0,B|358:59|376:98|376:98,1,85,2|0,0:0|0:0,0:0:0:0:
299,136,35141,2,0,B|327:179|311:220|311:220,1,85,8|0,0:0|0:0,0:0:0:0:
397,227,35624,2,0,B|385:277|346:295|346:295,1,85,2|0,0:0|0:0,0:0:0:0:
312,217,36108,2,0,B|268:245|227:229|227:229,1,85,8|0,0:0|0:0,0:0:0:0:
174,166,36592,2,0,B|108:98|17:116,1,170,2|8,0:0|0:0,0:0:0:0:
19,115,37560,6,0,L|27:206,1,85,2|0,0:0|0:0,0:0:0:0:
28,221,37923,1,2,0:0:0:0:
31,242,38044,2,0,B|56:280|108:272|108:272,1,85,8|0,0:0|0:0,0:0:0:0:
260,322,38528,2,0,B|194:254|103:272,1,170,2|8,0:0|0:0,0:0:0:0:
452,336,39495,5,0,0:0:0:0:
478,255,39737,1,2,0:0:0:0:
497,172,39979,1,10,0:0:0:0:
376,280,40221,1,2,0:0:0:0:
342,121,40463,2,0,B|408:189|499:171,1,170,0|8,0:0|0:0,0:0:0:0:
478,255,41189,6,0,L|482:352,2,85
342,121,41915,2,0,L|338:24,1,85,8|2,0:0|0:0,0:0:0:0:
443,162,42399,2,0,B|377:230|286:212,1,170,0|8,0:0|0:0,0:0:0:0:
43,120,43366,6,0,L|31:32,1,85,2|0,0:0|0:0,0:0:0:0:
31,35,43850,1,8,0:0:0:0:
129,113,44092,1,2,0:0:0:0:
29,210,44334,2,0,B|106:264|192:229,1,170,2|8,0:0|0:0,0:0:0:0:
256,176,45060,1,0,0:0:0:0:
271,262,45302,2,0,B|230:343|136:352,1,170,2|8,0:0|0:0,0:0:0:0:
54,142,46028,2,0,B|148:150|191:232,1,170,2|0,0:0|0:0,0:0:0:0:
256,176,46753,5,8,0:0:0:0:
312,112,46995,1,2,0:0:0:0:
324,96,47116,1,0,0:0:0:0:
337,80,47237,1,0,0:0:0:0:
349,65,47358,1,0,0:0:0:0:
361,49,47479,1,10,0:0:0:0:
408,136,47721,5,10,0:0:0:0:
375,253,47963,1,0,0:0:0:0:
408,136,48205,1,4,0:0:0:0:
475,187,48447,2,0,B|501:146|487:105,2,85,0|8|2,0:0|0:0|0:0,0:0:0:0:
307,205,49415,2,0,B|281:246|295:287,2,85,0|8|2,0:0|0:0|0:0,0:0:0:0:
204,48,50141,6,0,B|153:59|135:98|135:98,1,85
213,136,50625,2,0,B|184:179|200:220|200:220,1,85,8|0,0:0|0:0,0:0:0:0:
115,227,51108,2,0,B|126:277|165:295|165:295,1,85,2|0,0:0|0:0,0:0:0:0:
200,217,51592,2,0,B|243:245|284:229|284:229,1,85,8|0,0:0|0:0,0:0:0:0:
251,150,52076,2,0,B|185:82|94:100,1,170,2|8,0:0|0:0,0:0:0:0:
205,346,53044,6,0,L|296:338,1,85,2|0,0:0|0:0,0:0:0:0:
311,337,53407,1,2,0:0:0:0:
332,334,53528,2,0,B|370:309|362:257|362:257,1,85,8|0,0:0|0:0,0:0:0:0:
277,249,54012,2,0,L|186:257,1,85,2|0,0:0|0:0,0:0:0:0:
108,268,54495,2,0,B|51:195|77:104,1,170,8|0,0:0|0:0,0:0:0:0:
159,91,55221,5,8,0:0:0:0:
192,256,55463,1,8,0:0:0:0:
159,91,55705,1,0,0:0:0:0:
192,256,55947,2,0,L|175:173,1,85,2|0,0:0|0:0,0:0:0:0:
250,132,56431,2,0,L|267:215,1,85,8|2,0:0|0:0,0:0:0:0:
304,292,56915,5,0,0:0:0:0:
192,256,57157,1,2,0:0:0:0:
304,292,57399,1,8,0:0:0:0:
172,341,57641,1,2,0:0:0:0:
421,367,57883,6,0,B|503:320|491:223,1,170,0|8,0:0|0:0,0:0:0:0:
455,146,58608,1,0,0:0:0:0:
387,199,58850,2,0,L|293:190,1,85,2|0,0:0|0:0,0:0:0:0:
418,62,59334,2,0,L|512:71,1,85,8|0,0:0|0:0,0:0:0:0:
387,199,59818,2,0,B|306:152|318:55,1,170,2|8,0:0|0:0,0:0:0:0:
268,268,60786,2,0,B|221:186|124:198,1,170,2|8,0:0|0:0,0:0:0:0:
236,348,61512,2,0,B|275:369|318:344|318:344,1,85,2|4,0:0|0:0,0:0:0:0:
317,345,61995,5,0,0:0:0:0:
345,175,62237,1,0,0:0:0:0:
476,283,62479,1,4,0:0:0:0:
476,283,62963,5,0,0:0:0:0:
476,283,63084,1,0,0:0:0:0:
476,283,63205,2,0,L|479:187,1,85,4|0,0:0|0:0,0:0:0:0:
480,116,63689,2,0,B|420:43|320:56,1,170,4|8,0:0|0:0,0:0:0:0:
244,63,64415,5,0,0:0:0:0:
367,146,64657,2,0,B|307:219|207:206,1,170,0|8,0:0|0:0,0:0:0:0:
162,141,65383,2,0,L|143:51,1,85,2|0,0:0|0:0,0:0:0:0:
226,35,65866,2,0,L|245:125,1,85,0|8,0:0|0:0,0:0:0:0:
77,131,66350,2,0,B|179:142,1,85,2|0,0:0|0:0,0:0:0:0:
216,207,66834,5,2,0:0:0:0:
100,321,67076,1,8,0:0:0:0:
77,131,67318,1,0,0:0:0:0:
188,288,67560,1,0,0:0:0:0:
40,212,67802,5,0,0:0:0:0:
124,217,68044,1,8,0:0:0:0:
206,196,68286,2,0,B|248:183|269:140|269:140,1,85,2|0,0:0|0:0,0:0:0:0:
467,173,68770,5,0,0:0:0:0:
399,137,69012,1,8,0:0:0:0:
357,74,69253,1,0,0:0:0:0:
432,64,69495,2,0,L|507:54,2,63.7500024318696,2|0|8,0:0|0:0|0:0,0:0:0:0:
357,74,70221,2,0,P|220:58|220:58,1,127.500004863739
153,60,70947,5,8,0:0:0:0:
87,201,71189,1,8,0:0:0:0:
58,36,71431,2,0,L|76:134,1,85,2|0,0:0|0:0,0:0:0:0:
179,179,71915,2,0,L|157:272,1,85,8|0,0:0|0:0,0:0:0:0:
67,283,72399,2,0,L|89:190,1,85
283,263,72883,5,10,0:0:0:0:
343,192,73124,2,0,L|255:166,1,85,2|0,0:0|0:0,0:0:0:0:
349,353,73608,2,0,L|375:265,1,85,0|8,0:0|0:0,0:0:0:0:
456,260,74092,2,0,B|463:213|421:175|421:175,1,85,2|0,0:0|0:0,0:0:0:0:
343,192,74576,1,0,0:0:0:0:
283,263,74818,2,0,L|257:351,1,85,8|2,0:0|0:0,0:0:0:0:
173,344,75302,5,0,0:0:0:0:
192,261,75544,1,0,0:0:0:0:
258,344,75786,1,8,0:0:0:0:
108,284,76028,2,0,B|63:270|15:286|15:286,1,85,2|0,0:0|0:0,0:0:0:0:
42,358,76512,5,0,0:0:0:0:
23,283,76753,1,8,0:0:0:0:
36,207,76995,1,2,0:0:0:0:
36,207,77116,1,0,0:0:0:0:
36,207,77237,2,0,P|72:67|72:67,1,127.500004863739,0|8,0:0|0:0,0:0:0:0:
133,44,77963,1,2,0:0:0:0:
133,44,78084,1,0,0:0:0:0:
133,44,78205,2,0,B|164:34|203:43|203:43,1,63.7500024318696
252,93,78689,2,0,L|260:169,1,63.7500024318696,8|8,0:0|0:0,0:0:0:0:
392,358,79173,6,0,L|368:175,1,170,4|8,0:0|0:0,0:0:0:0:
360,104,79899,1,0,0:0:0:0:
369,189,80141,1,0,0:0:0:0:
439,141,80383,1,0,0:0:0:0:
268,316,80624,5,8,0:0:0:0:
258,144,80866,2,0,L|263:231,1,85,2|0,0:0|0:0,0:0:0:0:
185,265,81350,2,0,L|170:356,1,85,0|8,0:0|0:0,0:0:0:0:
258,144,81834,2,0,L|273:53,1,85,2|0,0:0|0:0,0:0:0:0:
347,127,82318,6,0,L|361:177,2,42.5,2|0|8,0:0|0:0|0:0,0:0:0:0:
415,76,82802,1,2,0:0:0:0:
459,181,83044,1,2,0:0:0:0:
411,294,83286,1,0,0:0:0:0:
329,318,83528,5,8,0:0:0:0:
252,284,83770,2,0,B|209:264|164:275|164:275,1,85,2|0,0:0|0:0,0:0:0:0:
329,318,84253,5,0,0:0:0:0:
393,359,84495,1,8,0:0:0:0:
468,346,84737,1,0,0:0:0:0:
507,280,84979,2,0,L|524:210,2,63.7500024318696,0|0|8,0:0|0:0|0:0,0:0:0:0:
468,346,85705,2,0,B|392:347|362:285|362:285,1,127.500004863739,2|0,0:0|0:0,0:0:0:0:
429,247,86431,2,0,L|417:168,1,63.7500024318696,8|2,0:0|0:0,0:0:0:0:
204,251,86915,6,0,B|282:321|384:277,1,170,0|8,0:0|0:0,0:0:0:0:
297,195,87641,1,0,0:0:0:0:
394,144,87883,2,0,B|316:74|214:118,1,170,0|8,0:0|0:0,0:0:0:0:
124,248,88608,2,0,B|88:339,1,85,2|0,0:0|0:0,0:0:0:0:
28,271,89092,2,0,B|64:180,1,85,0|8,0:0|0:0,0:0:0:0:
25,113,89576,2,0,B|103:43|205:87,1,170
247,134,90302,5,8,0:0:0:0:
166,162,90544,1,2,0:0:0:0:
182,78,90786,1,0,0:0:0:0:
82,193,91028,5,0,0:0:0:0:
147,249,91270,1,8,0:0:0:0:
68,281,91512,2,0,B|48:328|80:364|80:364,1,85,2|0,0:0|0:0,0:0:0:0:
154,362,91995,5,0,0:0:0:0:
230,365,92237,1,8,0:0:0:0:
320,368,92479,1,0,0:0:0:0:
320,368,92600,1,0,0:0:0:0:
320,368,92721,2,0,L|395:371,2,63.7500024318696,2|0|8,0:0|0:0|0:0,0:0:0:0:
190,208,93447,1,2,0:0:0:0:
190,208,93568,1,0,0:0:0:0:
190,208,93689,2,0,L|97:204,2,85,2|2|8,0:0|0:0|0:0,0:0:0:0:
416,220,94415,1,2,0:0:0:0:
278,214,94657,5,4,0:0:0:0:
317,289,94899,1,0,0:0:0:0:
344,159,95141,2,0,B|312:120|261:127|261:127,2,85,8|0|0,0:0|0:0|0:0,0:0:0:0:
468,372,95866,1,0,0:0:0:0:
349,274,96108,1,8,0:0:0:0:
436,160,96350,1,2,0:0:0:0:
349,274,96592,6,0,B|301:291|257:264|257:264,1,85,2|0,0:0|0:0,0:0:0:0:
268,132,97076,2,0,B|220:115|176:142|176:142,1,85,10|0,0:0|0:0,0:0:0:0:
267,269,97560,1,0,0:0:0:0:
268,132,97802,5,2,0:0:0:0:
180,244,98044,1,8,0:0:0:0:
280,104,98286,5,10,0:0:0:0:
204,332,98528,1,4,0:0:0:0:
256,192,98649,12,2,101915,0:0:0:0:
256,192,102399,5,4,0:0:0:0:
