osu file format v14

[General]
AudioFilename: Jet Loser.mp3
AudioLeadIn: 0
PreviewTime: 142241
Countdown: 0
SampleSet: Soft
StackLeniency: 0.2
Mode: 0
LetterboxInBreaks: 0
WidescreenStoryboard: 1

[Editor]
DistanceSpacing: 0.2
BeatDivisor: 4
GridSize: 32
TimelineZoom: 2.899998

[Metadata]
Title:Jet Loser
TitleUnicode:Jet Loser
Artist:Rita
ArtistUnicode:Rita
Creator:Lasse
Version:Resolve
Source:すぽコン!~SPORTSWEAR-COMPLEX~
Tags:Taishi GWAVE SuperFeatures vol.23 mode Experience Electro.muster eroge visual novel dnb drum and bass
BeatmapID:1313790
BeatmapSetID:623325

[Difficulty]
HPDrainRate:5
CircleSize:4.3
OverallDifficulty:8.7
ApproachRate:9.2
SliderMultiplier:1.92
SliderTickRate:1

[Events]
//Background and Video events
0,0,"bg.jpg",0,0
//Break Periods
2,118192,124501
2,142125,150793
2,234147,240456
//Storyboard Layer 0 (Background)
//Storyboard Layer 1 (Fail)
//Storyboard Layer 2 (Pass)
//Storyboard Layer 3 (Foreground)
//Storyboard Sound Samples

[TimingPoints]
352,337.078651685393,4,2,99,5,1,0
689,-100,4,2,99,10,0,0
1700,-100,4,2,99,14,0,0
2374,-100,4,2,99,16,0,0
2711,-100,4,2,99,20,0,0
3048,-100,4,2,99,22,0,0
3385,-100,4,2,99,26,0,0
3722,-100,4,2,99,30,0,0
4059,-100,4,2,99,5,0,0
4228,-83.3333333333333,4,2,54,50,0,0
4312,-83.3333333333333,4,2,54,30,0,0
4396,-166.666666666667,4,2,12,44,0,0
14003,-125,4,2,23,30,0,0
14340,-125,4,2,12,20,0,0
14509,-125,4,2,23,35,0,0
14846,-125,4,2,23,40,0,0
15183,-111.111111111111,4,2,12,50,0,0
15351,-111.111111111111,4,2,12,40,0,0
15520,-166.666666666666,4,2,12,46,0,0
16531,-111.111111111111,4,2,12,46,0,0
16868,-166.666666666666,4,2,12,46,0,0
17880,-111.111111111111,4,2,12,46,0,0
18217,-166.666666666666,4,2,12,46,0,0
19228,-111.111111111111,4,2,12,46,0,0
19565,-166.666666666666,4,2,12,46,0,0
20576,-111.111111111111,4,2,12,46,0,0
20745,-111.111111111111,4,2,12,30,0,0
20913,-111.111111111111,4,2,12,46,0,0
21082,-111.111111111111,4,2,12,30,0,0
21250,-111.111111111111,4,2,12,46,0,0
21419,-111.111111111111,4,2,12,30,0,0
21587,-111.111111111111,4,2,12,46,0,0
21756,-111.111111111111,4,2,12,30,0,0
21925,-111.111111111111,4,2,12,48,0,0
22093,-111.111111111111,4,2,12,30,0,0
22262,-111.111111111111,4,2,12,48,0,0
22430,-111.111111111111,4,2,12,30,0,0
22599,-111.111111111111,4,2,12,48,0,0
22767,-111.111111111111,4,2,12,30,0,0
22936,-111.111111111111,4,2,12,48,0,0
23104,-111.111111111111,4,2,12,30,0,0
23273,-111.111111111111,4,2,12,50,0,0
24621,-111.111111111111,4,2,12,51,0,0
24958,-111.111111111111,4,2,12,52,0,0
25295,-58.8235294117647,4,2,23,40,0,0
25464,-58.8235294117647,4,2,12,40,0,0
25632,-125,4,2,12,40,0,0
25717,-125,4,2,12,20,0,0
25801,-71.4285714285714,4,2,12,44,0,0
25885,-71.4285714285714,4,2,12,20,0,0
25969,-100,4,2,1,60,0,0
35408,-100,4,2,36,60,0,0
35745,-100,4,2,36,50,0,0
36419,-200,4,2,36,40,0,0
36672,-200,4,2,99,5,0,0
36756,-100,4,2,1,60,0,0
46194,-142.857142857143,4,2,36,50,0,0
46419,-142.857142857143,4,2,36,40,0,0
46531,-62.5,4,2,36,55,0,0
46700,-62.5,4,2,36,40,0,0
46868,-142.857142857143,4,2,36,50,0,0
46981,-142.857142857143,4,2,36,40,0,0
47205,-62.5,4,2,36,55,0,0
47374,-62.5,4,2,36,40,0,0
47543,-142.857142857143,4,2,1,46,0,0
57318,-66.6666666666667,4,2,1,42,0,0
57430,-66.6666666666667,4,2,23,23,0,0
57655,-100,4,2,1,40,0,0
57823,-100,4,2,1,20,0,0
57992,-200,4,2,1,45,0,0
58160,-200,4,2,1,30,0,0
58329,-125,4,2,1,52,0,0
63722,-125,4,2,1,56,0,0
65071,-125,4,2,1,58,0,0
66419,-125,4,2,1,60,0,0
66756,-125,4,2,1,61,0,0
67093,-125,4,2,1,62,0,0
67430,-125,4,2,1,63,0,0
67767,-125,4,2,36,56,0,0
68778,-125,4,2,36,54,0,0
68863,-125,4,2,36,52,0,0
68947,-125,4,2,36,50,0,0
69031,-125,4,2,36,48,0,0
69116,-200,4,2,36,46,0,0
70127,-83.3333333333333,4,2,36,26,0,0
70295,-111.111111111111,4,2,99,5,0,0
70380,-111.111111111111,4,2,36,28,0,0
70464,-111.111111111111,4,2,99,5,0,0
70632,-100,4,2,36,36,0,0
70717,-100,4,2,99,5,0,0
70801,-100,4,2,36,38,0,0
70885,-100,4,2,99,5,0,0
70969,-100,4,2,36,36,0,0
71138,-83.3333333333333,4,2,36,50,0,0
71475,-83.3333333333333,4,2,1,60,0,0
71812,-71.4285714285714,4,2,1,70,0,1
72149,-83.3333333333333,4,2,1,70,0,1
72823,-142.857142857143,4,2,1,70,0,1
73160,-71.4285714285714,4,2,1,70,0,1
73498,-83.3333333333333,4,2,1,70,0,1
77205,-71.4285714285714,4,2,1,70,0,1
77543,-83.3333333333333,4,2,1,70,0,1
82262,-142.857142857143,4,2,1,70,0,0
82599,-71.4285714285714,4,2,1,70,0,1
82936,-83.3333333333333,4,2,1,70,0,1
83610,-142.857142857143,4,2,1,70,0,1
83947,-71.4285714285714,4,2,1,70,0,1
84284,-83.3333333333333,4,2,1,70,0,1
87318,-62.5,4,2,1,70,0,1
87430,-62.5,4,2,23,40,0,1
87655,-83.3333333333333,4,2,1,70,0,1
87992,-100,4,2,1,70,0,1
90689,-83.3333333333333,4,2,1,70,0,1
92374,-83.3333333333333,4,2,36,60,0,1
92543,-83.3333333333333,4,2,36,50,0,1
92711,-83.3333333333333,4,2,36,60,0,1
93048,-142.857142857143,4,2,36,60,0,0
93217,-142.857142857143,4,2,36,30,0,0
93385,-71.4285714285714,4,2,1,70,0,1
93722,-83.3333333333333,4,2,1,70,0,1
94396,-142.857142857143,4,2,1,70,0,1
94734,-71.4285714285714,4,2,1,70,0,1
95071,-83.3333333333333,4,2,1,70,0,1
98778,-71.4285714285714,4,2,1,70,0,1
99116,-83.3333333333333,4,2,1,70,0,1
103835,-142.857142857143,4,2,1,70,0,0
104172,-71.4285714285714,4,2,1,70,0,1
104509,-83.3333333333333,4,2,1,70,0,1
105183,-142.857142857143,4,2,1,70,0,1
105520,-71.4285714285714,4,2,1,70,0,1
105857,-83.3333333333333,4,2,1,70,0,1
108891,-62.5,4,2,1,70,0,1
109003,-62.5,4,2,23,50,0,1
109116,-62.5,4,2,23,30,0,1
109228,-83.3333333333333,4,2,1,70,0,1
109565,-100,4,2,1,70,0,1
112262,-83.3333333333333,4,2,1,70,0,1
113441,-100,4,2,1,70,0,1
113610,-100,4,2,1,70,0,0
113947,-100,4,2,36,60,0,0
114284,-100,4,2,36,56,0,0
114621,-100,4,2,36,53,0,0
114958,-100,4,2,54,50,0,0
117992,-100,4,2,1,30,0,0
125071,-111.111111111111,4,2,68,50,0,0
125408,-111.111111111111,4,2,68,45,0,0
125745,-133.333333333333,4,2,68,50,0,0
136194,-133.333333333333,4,2,68,48,0,0
136531,-200,4,2,67,44,0,0
137037,-200,4,2,67,42,0,0
137543,-200,4,2,67,32,0,0
138385,-200,4,2,67,40,0,0
138891,-200,4,2,67,30,0,0
139228,-200,4,2,67,36,0,0
139734,-200,4,2,67,34,0,0
140239,-200,4,2,67,24,0,0
140913,-200,4,2,67,28,0,0
141587,-200,4,2,67,18,0,0
141925,-166.666666666667,4,2,54,46,0,0
151363,-166.666666666667,4,2,36,50,0,0
152374,-200,4,2,36,40,0,0
152627,-200,4,2,99,5,0,0
152711,-100,4,2,1,60,0,0
162149,-142.857142857143,4,2,36,50,0,0
162374,-142.857142857143,4,2,36,40,0,0
162486,-62.5,4,2,36,55,0,0
162655,-62.5,4,2,36,40,0,0
162823,-142.857142857143,4,2,36,50,0,0
162936,-142.857142857143,4,2,36,40,0,0
163160,-62.5,4,2,36,55,0,0
163329,-62.5,4,2,36,40,0,0
163498,-142.857142857143,4,2,1,46,0,0
173273,-66.6666666666667,4,2,1,42,0,0
173385,-66.6666666666667,4,2,23,23,0,0
173610,-100,4,2,1,40,0,0
173778,-100,4,2,1,20,0,0
173947,-200,4,2,1,45,0,0
174116,-200,4,2,1,30,0,0
174284,-125,4,2,1,52,0,0
179677,-125,4,2,1,56,0,0
181026,-125,4,2,1,58,0,0
182374,-125,4,2,1,60,0,0
182711,-125,4,2,1,61,0,0
183048,-125,4,2,1,62,0,0
183385,-125,4,2,1,63,0,0
183722,-125,4,2,36,56,0,0
184734,-125,4,2,36,54,0,0
184818,-125,4,2,36,52,0,0
184902,-125,4,2,36,50,0,0
184986,-125,4,2,36,48,0,0
185071,-125,4,2,36,46,0,0
186082,-83.3333333333333,4,2,36,26,0,0
186250,-111.111111111111,4,2,99,5,0,0
186335,-111.111111111111,4,2,36,28,0,0
186419,-111.111111111111,4,2,99,5,0,0
186587,-100,4,2,36,36,0,0
186630,-100,4,2,36,14,0,0
186756,-100,4,2,36,44,0,0
186925,-100,4,2,36,36,0,0
187093,-83.3333333333333,4,2,36,50,0,0
187430,-83.3333333333333,4,2,1,60,0,0
187767,-71.4285714285714,4,2,1,70,0,1
188104,-83.3333333333333,4,2,1,70,0,1
188778,-142.857142857143,4,2,1,70,0,1
189116,-71.4285714285714,4,2,1,70,0,1
189453,-83.3333333333333,4,2,1,70,0,1
193160,-71.4285714285714,4,2,1,70,0,1
193498,-83.3333333333333,4,2,1,70,0,1
198217,-142.857142857143,4,2,1,70,0,0
198554,-71.4285714285714,4,2,1,70,0,1
198891,-83.3333333333333,4,2,1,70,0,1
199565,-142.857142857143,4,2,1,70,0,1
199902,-71.4285714285714,4,2,1,70,0,1
200239,-83.3333333333333,4,2,1,70,0,1
203273,-62.5,4,2,1,70,0,1
203385,-62.5,4,2,23,50,0,1
203498,-62.5,4,2,23,30,0,1
203610,-83.3333333333333,4,2,1,70,0,1
203947,-100,4,2,1,70,0,1
206644,-83.3333333333333,4,2,1,70,0,1
207149,-71.4285714285714,4,2,1,70,0,1
208329,-71.4285714285714,4,2,36,60,0,1
208498,-71.4285714285714,4,2,36,50,0,1
208666,-71.4285714285714,4,2,36,60,0,1
209003,-142.857142857143,4,2,36,56,0,0
209172,-142.857142857143,4,2,36,44,0,0
209340,-90.9090909090909,4,2,68,58,0,1
209677,-125,4,2,68,54,0,0
216250,-125,4,2,68,20,0,0
216419,-125,4,2,68,54,0,0
219453,-111.111111111111,4,2,1,50,0,0
219495,-111.111111111111,4,2,1,20,0,0
219790,-100,4,2,1,52,0,0
219832,-100,4,2,1,22,0,0
220127,-90.9090909090909,4,2,68,58,0,1
220464,-125,4,2,68,54,0,0
224846,-83.3333333333333,4,2,1,54,0,0
224958,-83.3333333333333,4,2,23,42,0,0
225071,-83.3333333333333,4,2,23,30,0,0
225183,-142.857142857143,4,2,68,54,0,0
225520,-142.857142857143,4,2,68,56,0,0
228217,-100,4,2,68,56,0,0
229565,-100,4,2,1,56,0,0
229902,-100,4,2,36,50,0,0
230239,-100,4,2,36,48,0,0
230576,-100,4,2,36,46,0,0
230913,-100,4,2,54,40,0,0
233947,-100,4,2,1,30,0,0
241026,-111.111111111111,4,2,68,50,0,0
241363,-111.111111111111,4,2,68,45,0,0
241700,-133.333333333333,4,2,68,50,0,0
251812,-100,4,2,68,46,0,0
252486,-166.666666666667,4,2,68,40,0,0
257205,-111.111111111111,4,2,68,40,0,0
257880,-142.857142857143,4,2,68,44,0,0
259228,-142.857142857143,4,2,68,54,0,0
259565,-142.857142857143,4,2,68,46,0,0
260576,-125,4,2,68,56,0,0
260745,-125,4,2,68,50,0,0
261925,-111.111111111111,4,2,68,60,0,0
262262,-111.111111111111,4,2,68,54,0,0
262599,-90.9090909090909,4,2,68,54,0,0
263273,-100,4,2,1,60,0,0
264621,-100,4,2,1,62,0,0
265969,-100,4,2,1,64,0,0
266644,-100,4,2,1,66,0,0
267318,-100,4,2,1,64,0,0
267655,-100,4,2,1,62,0,0
267991,-83.3333333333333,4,2,68,60,0,0
268666,-58.8235294117647,4,2,1,74,0,1
269003,-58.8235294117647,4,2,1,70,0,1
269340,-71.4285714285714,4,2,1,70,0,1
270014,-111.111111111111,4,2,67,50,0,0
270183,-111.111111111111,4,2,1,70,0,0
270351,-55.5555555555556,4,2,1,70,0,0
270436,-55.5555555555556,4,2,67,20,0,0
270520,-55.5555555555556,4,2,1,70,0,0
270604,-55.5555555555556,4,2,67,20,0,0
270689,-50,4,2,1,70,0,1
271363,-100,4,2,1,70,0,0
272037,-83.3333333333333,4,2,1,70,0,0
272711,-62.5,4,2,67,70,0,1
272767,-62.5,4,2,67,30,0,1
272880,-71.4285714285714,4,2,67,70,0,1
272936,-71.4285714285714,4,2,67,30,0,1
273048,-83.3333333333333,4,2,67,60,0,1
273160,-83.3333333333333,4,2,67,56,0,1
273273,-83.3333333333333,4,2,67,52,0,1
273385,-71.4285714285714,4,2,1,60,0,0
273891,-71.4285714285714,4,2,68,60,0,0
274059,-58.8235294117647,4,2,1,74,0,1
274396,-58.8235294117647,4,2,1,70,0,1
274734,-71.4285714285714,4,2,1,70,0,1
275408,-111.111111111111,4,2,67,50,0,0
275576,-111.111111111111,4,2,1,70,0,0
275745,-55.5555555555556,4,2,1,70,0,0
275829,-55.5555555555556,4,2,67,20,0,0
275913,-55.5555555555556,4,2,1,70,0,0
275998,-55.5555555555556,4,2,67,20,0,0
276082,-50,4,2,1,70,0,1
276756,-100,4,2,1,70,0,0
277093,-83.3333333333333,4,2,1,70,0,0
278104,-71.4285714285714,4,2,67,60,0,1
278441,-62.5,4,2,67,62,0,1
278666,-62.5,4,2,67,64,0,1
278891,-62.5,4,2,67,66,0,1
279116,-83.3333333333333,4,2,67,68,0,0
279228,-83.3333333333333,4,2,67,58,0,0
279453,-58.8235294117647,4,2,1,74,0,1
279790,-58.8235294117647,4,2,1,70,0,1
280127,-71.4285714285714,4,2,1,70,0,1
280801,-111.111111111111,4,2,67,50,0,0
280969,-111.111111111111,4,2,1,70,0,0
281138,-55.5555555555556,4,2,1,70,0,0
281222,-55.5555555555556,4,2,67,20,0,0
281307,-55.5555555555556,4,2,1,70,0,0
281391,-55.5555555555556,4,2,67,20,0,0
281475,-50,4,2,1,70,0,1
282149,-100,4,2,1,70,0,0
282823,-83.3333333333333,4,2,1,70,0,0
283498,-62.5,4,2,1,70,0,0
283582,-62.5,4,2,67,30,0,0
283750,-62.5,4,2,1,70,0,0
283919,-62.5,4,2,67,30,0,0
284003,-62.5,4,2,1,70,0,0
284087,-62.5,4,2,67,30,0,0
284172,-71.4285714285714,4,2,1,70,0,1
284256,-71.4285714285714,4,2,67,30,0,1
284425,-71.4285714285714,4,2,1,70,0,1
284509,-71.4285714285714,4,2,1,70,0,0
284621,-71.4285714285714,4,2,67,40,0,0
284677,-71.4285714285714,4,2,1,70,0,0
284734,-71.4285714285714,4,2,67,40,0,0
284846,-58.8235294117647,4,2,1,74,0,1
285183,-58.8235294117647,4,2,1,70,0,1
285520,-71.4285714285714,4,2,1,70,0,1
286194,-111.111111111111,4,2,67,50,0,0
286363,-111.111111111111,4,2,1,70,0,0
286531,-55.5555555555556,4,2,1,70,0,0
286616,-55.5555555555556,4,2,67,20,0,0
286700,-55.5555555555556,4,2,1,70,0,0
286784,-55.5555555555556,4,2,67,20,0,0
286868,-50,4,2,1,70,0,1
287543,-83.3333333333333,4,2,1,70,0,0
288891,-66.6666666666667,4,2,1,70,0,1
288975,-66.6666666666667,4,2,1,40,0,1
289059,-66.6666666666667,4,2,1,70,0,1
289143,-66.6666666666667,4,2,1,40,0,1
289228,-66.6666666666667,4,2,1,70,0,1
289312,-66.6666666666667,4,2,1,40,0,1
289396,-66.6666666666667,4,2,1,70,0,1
289480,-66.6666666666667,4,2,1,40,0,1
289565,-66.6666666666667,4,2,1,70,0,1
289649,-66.6666666666667,4,2,1,40,0,1
289734,-66.6666666666667,4,2,1,70,0,1
289818,-66.6666666666667,4,2,1,40,0,1
289902,-100,4,2,1,62,0,0
290239,-100,4,2,1,58,0,0
299677,-166.666666666667,4,2,67,44,0,0
299930,-166.666666666667,4,2,99,5,0,0
300014,-83.3333333333333,4,2,67,42,0,0
300183,-83.3333333333333,4,2,67,32,0,0
300351,-83.3333333333333,4,2,67,46,0,0
300520,-83.3333333333333,4,2,67,42,0,0
300689,-83.3333333333333,4,2,67,50,0,0
301026,-125,4,2,1,54,0,0
305745,-83.3333333333333,4,2,1,54,0,0
305857,-83.3333333333333,4,2,23,30,0,0
306082,-166.666666666667,4,2,1,42,0,0
306419,-125,4,2,1,54,0,0
310801,-200,4,2,67,50,0,0
311981,-142.857142857143,4,2,67,40,0,0
312149,-142.857142857143,4,2,99,5,0,0
312234,-142.857142857143,4,2,67,42,0,0
312402,-142.857142857143,4,2,99,5,0,0
312486,-111.111111111111,4,2,67,44,0,0
312739,-111.111111111111,4,2,99,5,0,0
312823,-71.4285714285714,4,2,67,46,0,0
312992,-76.9230769230769,4,2,68,52,0,0
313076,-76.9230769230769,4,2,67,58,0,0
313160,-76.9230769230769,4,2,67,48,0,0
313329,-90.9090909090909,4,2,67,40,0,0
313582,-90.9090909090909,4,2,67,20,0,0
313666,-90.9090909090909,4,2,67,52,0,0
313835,-111.111111111111,4,2,67,54,0,0
314087,-111.111111111111,4,2,99,5,0,0
314172,-83.3333333333333,4,2,67,50,0,0
314256,-83.3333333333333,4,2,99,5,0,0
314340,-83.3333333333333,4,2,67,52,0,0
314425,-83.3333333333333,4,2,99,5,0,0
314509,-71.4285714285714,4,2,1,70,0,1
314846,-83.3333333333333,4,2,1,70,0,1
315520,-142.857142857143,4,2,1,70,0,1
315857,-71.4285714285714,4,2,1,70,0,1
316194,-83.3333333333333,4,2,1,70,0,1
319902,-71.4285714285714,4,2,1,70,0,1
320239,-83.3333333333333,4,2,1,70,0,1
324958,-142.857142857143,4,2,1,70,0,0
325295,-71.4285714285714,4,2,1,70,0,1
325632,-83.3333333333333,4,2,1,70,0,1
326307,-142.857142857143,4,2,1,70,0,1
326644,-71.4285714285714,4,2,1,70,0,1
326981,-83.3333333333333,4,2,1,70,0,1
330014,-62.5,4,2,1,70,0,1
330127,-62.5,4,2,23,40,0,1
330351,-83.3333333333333,4,2,1,70,0,1
330689,-100,4,2,1,70,0,1
333385,-83.3333333333333,4,2,1,70,0,1
334396,-100,4,2,1,70,0,1
334734,-100,4,2,36,70,0,1
334902,-100,4,2,36,60,0,1
335745,-142.857142857143,4,2,34,52,0,0
335829,-142.857142857143,4,2,34,53,0,0
335913,-142.857142857143,4,2,34,55,0,0
335998,-142.857142857143,4,2,34,56,0,0
336082,-71.4285714285714,4,2,1,70,0,1
336419,-83.3333333333333,4,2,1,70,0,1
337093,-142.857142857143,4,2,1,70,0,1
337430,-71.4285714285714,4,2,1,70,0,1
337767,-83.3333333333333,4,2,1,70,0,1
341475,-71.4285714285714,4,2,1,70,0,1
341812,-83.3333333333333,4,2,1,70,0,1
346531,-142.857142857143,4,2,1,70,0,0
346868,-71.4285714285714,4,2,1,70,0,1
347205,-83.3333333333333,4,2,1,70,0,1
347880,-142.857142857143,4,2,1,70,0,1
348217,-71.4285714285714,4,2,1,70,0,1
348554,-83.3333333333333,4,2,1,70,0,1
351587,-62.5,4,2,1,70,0,1
351700,-62.5,4,2,23,50,0,1
351813,-62.5,4,2,23,30,0,1
351925,-83.3333333333333,4,2,1,70,0,1
352262,-100,4,2,1,70,0,1
354958,-83.3333333333333,4,2,1,70,0,1
356138,-100,4,2,1,70,0,1
356307,-100,4,2,1,70,0,0
356644,-100,4,2,36,60,0,0
356981,-100,4,2,36,56,0,0
357318,-100,4,2,36,53,0,0
357655,-66.6666666666667,4,2,1,68,0,1
357992,-66.6666666666667,4,2,1,62,0,1
358329,-83.3333333333333,4,2,1,62,0,1
359003,-125,4,2,67,42,0,0
359172,-125,4,2,1,62,0,0
359340,-62.5,4,2,1,46,0,0
359425,-62.5,4,2,67,10,0,0
359509,-62.5,4,2,1,46,0,0
359593,-62.5,4,2,67,10,0,0
359677,-55.5555555555556,4,2,1,62,0,1
360351,-111.111111111111,4,2,1,62,0,0
361026,-100,4,2,1,62,0,0
361700,-71.4285714285714,4,2,1,62,0,1
361756,-71.4285714285714,4,2,67,30,0,1
361868,-83.3333333333333,4,2,67,62,0,1
361925,-83.3333333333333,4,2,67,30,0,1
362037,-100,4,2,67,54,0,1
362149,-100,4,2,67,52,0,1
362262,-100,4,2,67,50,0,1
362374,-83.3333333333333,4,2,1,54,0,0
362880,-83.3333333333333,4,2,68,54,0,0
363048,-66.6666666666667,4,2,1,70,0,1
363385,-66.6666666666667,4,2,1,62,0,1
363722,-83.3333333333333,4,2,1,62,0,1
364396,-125,4,2,67,42,0,0
364565,-125,4,2,1,62,0,0
364734,-62.5,4,2,1,62,0,0
364818,-62.5,4,2,67,10,0,0
364902,-62.5,4,2,1,62,0,0
364986,-62.5,4,2,67,10,0,0
365071,-55.5555555555556,4,2,1,62,0,1
365745,-111.111111111111,4,2,1,62,0,0
366082,-111.111111111111,4,2,1,62,0,0
366419,-100,4,2,1,62,0,0
367093,-83.3333333333333,4,2,67,56,0,1
367430,-71.4285714285714,4,2,67,58,0,1
367655,-71.4285714285714,4,2,67,60,0,1
367880,-71.4285714285714,4,2,67,62,0,1
368104,-100,4,2,67,64,0,0
368217,-125,4,2,67,58,0,0
368441,-66.6666666666667,4,2,1,70,0,1
368778,-66.6666666666667,4,2,1,62,0,1
369116,-83.3333333333333,4,2,1,62,0,1
369790,-125,4,2,67,42,0,0
369958,-125,4,2,1,62,0,0
370127,-62.5,4,2,1,62,0,0
370211,-62.5,4,2,67,10,0,0
370295,-62.5,4,2,1,62,0,0
370380,-62.5,4,2,67,10,0,0
370464,-55.5555555555556,4,2,1,62,0,1
371138,-111.111111111111,4,2,1,62,0,0
371812,-100,4,2,1,62,0,0
372486,-71.4285714285714,4,2,1,62,0,0
372571,-71.4285714285714,4,2,67,28,0,0
372739,-71.4285714285714,4,2,1,62,0,0
372908,-71.4285714285714,4,2,67,28,0,0
372992,-71.4285714285714,4,2,1,62,0,0
373076,-71.4285714285714,4,2,67,28,0,0
373160,-83.3333333333333,4,2,1,62,0,1
373245,-83.3333333333333,4,2,67,28,0,1
373413,-83.3333333333333,4,2,1,62,0,1
373498,-83.3333333333333,4,2,1,62,0,0
373610,-83.3333333333333,4,2,67,36,0,0
373666,-83.3333333333333,4,2,1,62,0,0
373722,-83.3333333333333,4,2,67,36,0,0
373835,-66.6666666666667,4,2,1,70,0,1
374172,-66.6666666666667,4,2,1,62,0,1
374509,-83.3333333333333,4,2,1,62,0,1
375183,-125,4,2,67,42,0,0
375351,-125,4,2,1,62,0,0
375520,-62.5,4,2,1,62,0,0
375604,-62.5,4,2,67,10,0,0
375689,-62.5,4,2,1,62,0,0
375773,-62.5,4,2,67,10,0,0
375857,-55.5555555555556,4,2,1,62,0,1
376531,-90.9090909090909,4,2,1,62,0,0
377880,-76.9230769230769,4,2,1,62,0,1
377964,-76.9230769230769,4,2,1,32,0,1
378048,-76.9230769230769,4,2,1,62,0,1
378132,-76.9230769230769,4,2,1,32,0,1
378217,-76.9230769230769,4,2,1,62,0,1
378301,-76.9230769230769,4,2,1,32,0,1
378385,-76.9230769230769,4,2,1,62,0,1
378469,-76.9230769230769,4,2,1,32,0,1
378554,-76.9230769230769,4,2,1,62,0,1
378638,-76.9230769230769,4,2,1,32,0,1
378722,-76.9230769230769,4,2,1,62,0,1
378806,-76.9230769230769,4,2,1,32,0,1
378891,-125,4,2,1,50,0,0
379228,-166.666666666667,4,2,67,40,0,0
379565,-166.666666666667,4,2,68,40,0,0
379734,-166.666666666667,4,2,67,40,0,0
380239,-166.666666666667,4,2,68,40,0,0
381082,-166.666666666667,4,2,67,38,0,0
381587,-166.666666666667,4,2,68,38,0,0
381925,-166.666666666667,4,2,67,36,0,0
382262,-166.666666666667,4,2,68,36,0,0
382430,-166.666666666667,4,2,67,36,0,0
382936,-166.666666666667,4,2,68,36,0,0
383610,-166.666666666667,4,2,67,34,0,0
384284,-166.666666666667,4,2,68,34,0,0
384621,-200,4,2,67,30,0,0
385127,-200,4,2,67,28,0,0
385295,-200,4,2,67,26,0,0
386475,-200,4,2,67,24,0,0
386644,-200,4,2,67,22,0,0
387318,-200,4,2,67,20,0,0
387823,-200,4,2,67,18,0,0
387992,-200,4,2,67,16,0,0
389003,-200,4,2,67,14,0,0
389340,-200,4,2,67,13,0,0
390014,-200,4,2,67,12,0,0
390520,-200,4,2,67,11,0,0
390689,-200,4,2,67,10,0,0
391868,-200,4,2,67,9,0,0
392037,-200,4,2,67,8,0,0
392711,-200,4,2,67,7,0,0
393217,-200,4,2,67,6,0,0
393385,-200,4,2,67,5,0,0
394396,-200,4,2,67,4,0,0
395408,-200,4,2,67,3,0,0
395913,-200,4,2,67,2,0,0
397262,-200,4,2,67,1,0,0

[Colours]
Combo1 : 255,110,110
Combo2 : 190,230,250
Combo3 : 140,140,140
Combo4 : 100,200,230
Combo5 : 255,30,30
Combo6 : 180,240,200
Combo7 : 200,200,200
Combo8 : 150,220,80

[HitObjects]
256,192,352,12,0,4059,0:0:0:0:
134,111,4228,54,0,L|216:104,1,57.5999982421876,4|0,1:2|1:0,0:0:0:0:
256,64,4396,21,14,0:1:0:0:
357,259,4734,53,2,0:0:0:0:
362,265,4902,1,2,0:0:0:0:
367,271,5071,1,2,0:0:0:0:
372,277,5239,2,0,L|315:282,1,57.5999982421876,2|0,0:1|0:0,0:0:0:0:
484,345,5576,54,0,L|427:340,1,57.5999982421876,2|0,0:1|0:0,0:0:0:0:
310,289,5913,53,2,0:0:0:0:
315,282,6082,2,0,L|372:277,1,57.5999982421876,2|0,0:0|0:0,0:0:0:0:
484,345,6419,54,0,L|427:340,1,57.5999982421876,2|0,0:1|0:0,0:0:0:0:
363,351,6756,2,0,L|420:346,1,57.5999982421876,2|0,0:1|0:0,0:0:0:0:
512,192,7093,53,8,0:1:0:0:
357,125,7430,53,2,0:2:0:0:
362,119,7599,1,2,0:0:0:0:
367,113,7767,1,2,0:0:0:0:
372,107,7936,2,0,L|315:102,1,57.5999982421876,2|0,0:1|0:0,0:0:0:0:
484,39,8273,54,0,L|427:44,1,57.5999982421876,2|0,0:1|0:0,0:0:0:0:
334,16,8610,53,2,0:1:0:0:
339,22,8778,1,2,0:0:0:0:
344,28,8947,1,2,0:0:0:0:
426,44,9116,53,2,0:1:0:0:
431,50,9284,1,2,0:0:0:0:
372,107,9453,53,2,0:1:0:0:
377,113,9621,1,2,0:0:0:0:
256,94,9790,53,10,0:1:0:0:
256,102,9958,1,2,0:0:0:0:
140,107,10127,53,2,0:1:0:0:
135,113,10295,1,2,0:0:0:0:
86,44,10464,53,2,0:1:0:0:
81,50,10632,2,0,L|24:45,1,57.5999982421876,2|0,0:0|0:0,0:0:0:0:
0,192,10969,53,2,0:0:0:0:
23,340,11307,53,2,0:1:0:0:
18,334,11475,1,2,0:0:0:0:
13,328,11644,1,2,0:0:0:0:
92,296,11812,53,2,0:1:0:0:
87,290,11981,1,2,0:0:0:0:
171,264,12149,53,2,0:1:0:0:
166,258,12318,1,2,0:0:0:0:
256,352,12486,53,10,0:1:0:0:
256,344,12655,1,2,0:0:0:0:
341,264,12823,53,2,0:1:0:0:
346,258,12992,1,2,0:0:0:0:
420,296,13160,53,2,0:1:0:0:
425,290,13329,1,2,0:0:0:0:
489,340,13498,53,2,0:1:0:0:
494,334,13666,2,0,L|499:277,1,57.5999982421876,2|0,0:0|0:0,0:0:0:0:
499,328,14003,86,2,B|503:271|503:271|483:237|483:237|487:176,1,153.6,2|0,0:1|0:0,1:2:0:0:
512,39,14509,69,10,1:1:0:0:
489,54,14593,1,2,0:0:0:0:
468,64,14677,1,2,1:2:0:0:
444,66,14762,1,2,0:0:0:0:
419,133,14846,53,2,3:1:0:0:
416,118,14930,1,2,1:2:0:0:
408,101,15014,1,2,3:2:0:0:
397,86,15099,1,2,1:2:0:0:
383,76,15183,70,0,B|343:60|343:60|302:74,1,86.3999973632813,14|0,0:1|0:0,0:0:0:0:
215,95,15520,53,10,0:0:0:0:
213,88,15689,1,10,2:3:0:0:
211,81,15857,1,2,0:1:0:0:
209,74,16026,2,0,L|202:139,1,57.5999982421876,10|8,0:0|0:3,0:0:0:0:
129,76,16363,53,10,0:0:0:0:
129,76,16447,1,2,0:0:0:0:
129,76,16531,2,0,B|169:60|169:60|209:74,1,86.3999973632813,8|0,0:1|0:0,0:0:0:0:
302,309,16868,54,0,L|309:251,1,57.5999982421876,10|8,0:0|0:3,0:0:0:0:
210,75,17205,2,0,L|203:132,1,57.5999982421876,2|8,0:1|0:0,0:0:0:0:
210,309,17543,2,0,L|203:251,1,57.5999982421876,10|8,0:3|0:0,0:0:0:0:
383,308,17880,54,0,B|343:324|343:324|303:310,1,86.3999973632813,10|0,0:1|0:0,0:0:0:0:
297,95,18217,53,10,0:0:0:0:
299,88,18385,1,10,0:3:0:0:
301,81,18554,1,2,0:1:0:0:
303,74,18722,2,0,L|310:139,1,57.5999982421876,10|8,0:0|0:3,0:0:0:0:
383,76,19059,53,10,0:0:0:0:
383,76,19144,1,2,0:0:0:0:
383,76,19228,2,0,B|343:60|343:60|303:74,1,86.3999973632813,10|0,0:1|0:0,0:0:0:0:
210,309,19565,54,0,L|203:251,1,57.5999982421876,10|0,0:0|0:3,0:0:0:0:
302,75,19902,1,2,0:1:0:0:
302,75,20071,2,0,L|309:133,1,57.5999982421876,10|8,0:0|0:3,0:0:0:0:
256,192,20408,53,8,0:3:0:0:
129,76,20576,102,0,B|169:60|169:60|209:74,1,86.3999973632813,10|2,0:1|0:0,0:0:0:0:
303,310,20913,2,0,B|343:324|343:324|383:308,1,86.3999973632813,10|10,1:1|0:3,0:0:0:0:
383,76,21250,54,0,B|343:60|343:60|303:74,1,86.3999973632813,10|10,0:1|0:2,0:0:0:0:
209,310,21587,2,0,B|169:324|169:324|129:308,1,86.3999973632813,10|10,0:1|0:2,0:0:0:0:
302,74,21925,54,0,B|342:60|342:60|382:76,1,86.3999973632813,10|2,0:1|0:0,0:0:0:0:
383,307,22262,2,0,B|343:323|343:323|303:309,1,86.3999973632813,10|10,1:1|0:3,0:0:0:0:
210,74,22599,54,0,B|170:60|170:60|130:76,1,86.3999973632813,10|10,0:1|0:0,0:0:0:0:
129,307,22936,2,0,B|169:323|169:323|209:309,1,86.3999973632813,10|10,0:1|0:0,0:0:0:0:
382,76,23273,85,10,0:1:0:0:
342,240,23441,1,10,0:1:0:0:
210,74,23610,53,10,1:1:0:0:
256,243,23778,1,10,0:1:0:0:
302,74,23947,53,10,0:1:0:0:
170,240,24116,1,10,1:1:0:0:
130,76,24284,53,10,0:1:0:0:
256,243,24453,1,10,0:1:0:0:
444,70,24621,69,8,0:1:0:0:
408,47,24705,1,8,0:1:0:0:
370,41,24790,1,8,0:1:0:0:
330,49,24874,1,8,0:1:0:0:
302,74,24958,53,8,0:1:0:0:
263,103,25043,1,8,0:1:0:0:
216,114,25127,1,8,0:1:0:0:
170,102,25211,1,8,0:1:0:0:
130,76,25295,54,0,B|157:45|157:45|147:166,1,163.200003112793,10|8,0:1|0:0,0:0:0:0:
20,144,25632,22,0,P|38:140|57:138,1,38.4,10|0,0:3|0:0,0:0:0:0:
183,249,25801,22,0,P|152:258|119:254,1,67.1999979492188,6|0,0:3|0:0,0:0:0:0:
130,76,25969,38,0,B|151:115|151:115|147:167,1,96,4|0,3:2|0:0,0:0:0:0:
50,319,26307,2,0,B|29:280|29:280|33:228,1,96,10|0,0:0|0:0,0:0:0:0:
117,253,26559,1,0,0:0:0:0:
136,256,26644,54,0,P|160:255|183:249,1,48,2|0,0:0|0:0,0:0:0:0:
177,79,26812,2,0,P|153:74|129:76,1,48,2|0,3:2|0:0,0:0:0:0:
20,144,26981,1,8,0:0:0:0:
137,83,27149,53,2,0:0:0:0:
137,83,27234,1,0,0:0:0:0:
137,83,27318,2,0,L|146:180,1,96,0|0,3:0|0:0,0:0:0:0:
285,22,27655,54,0,L|273:117,1,96,10|0,0:0|0:0,0:0:0:0:
312,191,27908,1,0,0:0:0:0:
329,198,27992,54,0,P|354:201|379:197,1,48,2|0,0:0|0:0,0:0:0:0:
416,36,28160,2,0,P|391:33|366:37,1,48,2|0,3:2|0:0,0:0:0:0:
272,117,28329,1,10,0:0:0:0:
186,16,28498,53,2,0:0:0:0:
186,16,28582,1,0,0:0:0:0:
186,16,28666,2,0,B|184:49|201:69|201:69|183:93|180:124|192:150|192:150|196:178|184:202,1,192,0|8,3:0|0:0,0:0:0:0:
66,296,29172,53,2,0:0:0:0:
97,278,29256,1,0,0:0:0:0:
132,272,29340,1,0,0:0:0:0:
167,280,29425,1,0,0:0:0:0:
197,300,29509,54,0,L|205:352,1,48,2|0,3:2|0:0,0:0:0:0:
338,361,29677,2,0,L|345:309,1,48,10|0,0:2|0:0,0:0:0:0:
321,132,29846,53,2,0:0:0:0:
321,132,29930,1,0,0:0:0:0:
321,132,30014,2,0,P|302:186|313:243,1,96,0|0,3:0|0:0,0:0:0:0:
467,293,30351,2,0,P|484:248|482:201,1,96,10|0,0:0|0:0,0:0:0:0:
461,123,30604,1,0,0:0:0:0:
450,106,30689,54,0,L|394:100,1,48,2|0,0:0|0:0,0:0:0:0:
353,229,30857,2,0,L|305:223,1,48,0|0,3:2|0:0,0:0:0:0:
202,154,31026,1,10,0:0:0:0:
297,11,31194,53,2,0:0:0:0:
297,11,31278,1,0,0:0:0:0:
297,11,31363,2,0,B|283:145|283:145|280:114|259:93,1,192,0|8,3:0|0:0,0:0:0:0:
78,118,31868,53,0,0:0:0:0:
111,107,31953,1,0,0:0:0:0:
146,111,32037,1,0,0:0:0:0:
177,127,32121,1,0,0:0:0:0:
202,154,32205,54,0,L|207:219,1,48,2|0,3:2|0:0,0:0:0:0:
62,267,32374,2,0,L|57:202,1,48,10|0,0:0|0:0,0:0:0:0:
205,201,32543,2,0,L|210:266,1,48,2|0,0:0|0:0,0:0:0:0:
69,362,32711,54,0,L|59:232,1,96,2|0,3:2|0:0,0:0:0:0:
216,344,33048,2,0,L|206:214,1,96,8|0,0:0|0:0,0:0:0:0:
280,178,33301,1,0,0:0:0:0:
296,187,33385,54,0,L|363:193,1,48,2|0,0:0|0:0,0:0:0:0:
368,310,33554,2,0,L|320:305,1,48,2|0,3:2|0:0,0:0:0:0:
208,248,33722,1,10,0:0:0:0:
321,100,33891,53,2,0:0:0:0:
321,100,33975,1,0,0:0:0:0:
321,100,34059,2,0,P|341:142|343:190,1,96,0|0,3:0|0:0,0:0:0:0:
208,248,34396,2,0,P|187:205|185:157,1,96,8|0,0:0|0:0,0:0:0:0:
218,83,34649,1,0,0:0:0:0:
232,69,34734,54,0,L|235:7,1,48,2|0,0:0|0:0,0:0:0:0:
109,70,34902,2,0,L|113:117,1,48,2|0,3:2|0:0,0:0:0:0:
208,248,35071,2,0,P|152:229|79:245,1,96,10|0,0:0|0:0,0:0:0:0:
58,301,35323,1,0,0:0:0:0:
53,319,35408,21,8,0:1:0:0:
22,22,35745,53,8,0:0:0:0:
113,117,35913,1,10,0:3:0:0:
113,117,36082,1,2,0:1:0:0:
22,22,36250,5,8,0:0:0:0:
113,117,36419,2,2,B|134:114|134:114|157:121|157:121|189:115,1,72,10|0,0:3|0:0,1:2:0:0:
251,46,36756,6,0,B|298:33|298:33|350:51,1,96,4|0,3:2|0:0,0:0:0:0:
431,209,37093,2,0,B|384:222|384:222|332:204,1,96,10|0,0:0|0:0,0:0:0:0:
254,172,37346,1,0,0:0:0:0:
257,190,37430,54,0,P|260:213|255:237,1,48,2|0,0:0|0:0,0:0:0:0:
138,266,37599,2,0,P|134:242|139:218,1,48,2|0,3:2|0:0,0:0:0:0:
183,116,37767,1,8,0:0:0:0:
347,214,37936,53,2,0:0:0:0:
347,214,38020,1,0,0:0:0:0:
347,214,38104,2,0,P|396:230|443:214,1,96,0|0,3:0|0:0,0:0:0:0:
342,48,38441,54,0,P|293:32|246:48,1,96,10|0,0:0|0:0,0:0:0:0:
183,116,38694,1,0,0:0:0:0:
166,125,38778,54,0,P|141:128|116:124,1,48,2|0,0:0|0:0,0:0:0:0:
93,14,38947,2,0,P|118:11|143:15,1,48,2|0,3:2|0:0,0:0:0:0:
251,44,39116,1,10,0:0:0:0:
178,241,39284,53,2,0:0:0:0:
178,241,39368,1,0,0:0:0:0:
178,241,39453,2,0,B|183:116|183:116|225:190,1,192,0|8,3:0|0:0,0:0:0:0:
299,297,39958,53,2,0:0:0:0:
330,315,40043,1,0,0:0:0:0:
365,321,40127,1,0,0:0:0:0:
400,313,40211,1,0,0:0:0:0:
430,293,40295,54,0,L|438:241,1,48,2|0,3:2|0:0,0:0:0:0:
308,166,40464,2,0,L|300:218,1,48,10|0,0:2|0:0,0:0:0:0:
234,349,40632,53,2,0:0:0:0:
234,349,40717,1,0,0:0:0:0:
234,349,40801,2,0,P|180:330|122:341,1,96,0|0,3:0|0:0,0:0:0:0:
0,359,41138,2,0,P|43:321|62:266,1,96,10|0,0:0|0:0,0:0:0:0:
44,206,41391,1,0,0:0:0:0:
33,188,41475,54,0,P|29:165|30:141,1,48,2|0,0:0|0:0,0:0:0:0:
178,107,41644,2,0,P|182:83|181:59,1,48,0|0,3:2|0:0,0:0:0:0:
73,10,41812,1,10,0:0:0:0:
113,172,41981,53,2,0:0:0:0:
113,172,42065,1,0,0:0:0:0:
113,172,42149,2,0,B|178:188|178:188|233:169|233:169|297:185,1,192,0|8,3:0|0:0,0:0:0:0:
375,324,42655,53,0,0:0:0:0:
343,338,42739,1,0,0:0:0:0:
308,338,42823,1,0,0:0:0:0:
275,325,42908,1,0,0:0:0:0:
247,301,42992,54,0,L|235:236,1,48,2|0,3:2|0:0,0:0:0:0:
373,227,43160,2,0,L|381:179,1,48,10|0,0:0|0:0,0:0:0:0:
292,106,43329,2,0,L|283:58,1,48,2|0,0:0|0:0,0:0:0:0:
373,227,43498,54,0,P|430:235|487:210,1,96,2|0,3:2|0:0,0:0:0:0:
376,55,43835,2,0,P|319:47|262:72,1,96,10|0,0:0|0:0,0:0:0:0:
218,125,44087,1,0,0:0:0:0:
199,131,44172,54,0,P|178:133|127:121,1,48,2|0,0:0|0:0,0:0:0:0:
130,16,44340,2,0,P|153:14|177:17,1,48,2|0,3:2|0:0,0:0:0:0:
283,58,44509,2,0,P|329:66|376:55,1,96,10|0,0:0|0:0,0:0:0:0:
503,171,44846,54,0,L|496:266,1,96,2|0,3:2|0:0,0:0:0:0:
400,333,45183,2,0,P|353:321|307:329,1,96,8|0,0:0|0:0,0:0:0:0:
238,372,45436,1,0,0:0:0:0:
221,381,45520,54,0,L|211:313,1,48,2|0,0:0|0:0,0:0:0:0:
273,257,45689,2,0,L|283:189,1,48,2|0,3:2|0:0,0:0:0:0:
218,125,45857,2,0,P|171:110|125:122,1,96,10|0,0:0|0:0,0:0:0:0:
62,165,46110,1,0,0:0:0:0:
58,183,46194,38,0,L|50:272,1,89.5999972656251,10|2,0:1|0:1,0:0:0:0:
46,351,46531,22,0,B|51:272|51:272|123:297,1,153.6,4|0,3:0|0:0,0:0:0:0:
269,287,46868,86,0,L|266:331,2,44.7999986328125,10|2|2,0:1|0:1|0:1,0:0:0:0:
275,209,47205,22,0,B|269:287|269:287|197:262,1,153.6,4|0,0:3|0:0,0:0:0:0:
148,56,47543,21,4,3:2:0:0:
148,56,47880,54,0,P|186:58|230:39,1,67.1999979492188,10|0,0:2|0:2,0:0:0:0:
290,103,48217,2,0,P|327:110|364:140,1,67.1999979492188,2|0,0:2|0:2,0:0:0:0:
434,81,48554,1,10,0:2:0:0:
434,81,48722,2,0,P|467:63|496:25,1,67.1999979492188,0|0,0:2|0:2,0:0:0:0:
486,41,49228,54,0,L|485:115,1,67.1999979492188,10|0,0:2|0:2,0:0:0:0:
351,125,49565,2,0,L|350:57,1,67.1999979492188,2|0,0:2|0:2,0:0:0:0:
485,108,49902,2,0,L|484:175,1,67.1999979492188,8|0,0:2|0:2,0:0:0:0:
408,285,50239,53,2,0:2:0:0:
408,285,50408,2,0,P|368:275|334:274,1,67.1999979492188,0|8,0:2|0:2,0:0:0:0:
264,326,50745,1,2,0:2:0:0:
264,326,50913,2,0,P|224:336|190:337,1,67.1999979492188,0|0,0:2|0:2,0:0:0:0:
108,364,51250,1,10,0:2:0:0:
108,364,51419,2,0,P|71:343|39:334,1,67.1999979492188,0|0,0:2|0:2,0:0:0:0:
48,336,51925,54,0,L|42:260,1,67.1999979492188,10|0,0:2|0:2,0:0:0:0:
117,212,52262,2,0,L|111:136,1,67.1999979492188,2|0,0:2|0:2,0:0:0:0:
186,87,52599,2,0,L|180:11,1,67.1999979492188,10|0,0:2|0:2,0:0:0:0:
306,77,52936,53,2,3:2:0:0:
306,77,53104,2,0,P|343:63|365:38,1,67.1999979492188,0|8,0:2|0:2,0:0:0:0:
376,143,53441,1,2,0:2:0:0:
376,143,53610,2,0,P|415:149|446:138,1,67.1999979492188,0|0,0:2|0:2,0:0:0:0:
403,235,53947,1,10,0:2:0:0:
403,235,54116,2,0,P|433:260|466:266,2,67.1999979492188,0|0|0,0:2|0:2|0:2,0:0:0:0:
376,143,54621,53,10,0:2:0:0:
376,143,54790,1,0,0:2:0:0:
403,235,54958,2,0,L|402:313,1,67.1999979492188,2|0,0:2|0:2,0:0:0:0:
284,354,55295,53,10,0:2:0:0:
196,299,55464,1,2,0:2:0:0:
196,299,55548,1,0,0:2:0:0:
196,299,55632,2,0,P|149:288|115:293,1,67.1999979492188,0|0,0:2|0:2,0:0:0:0:
12,331,55969,53,10,0:2:0:0:
12,331,56138,1,2,0:2:0:0:
60,257,56307,53,2,0:2:0:0:
64,238,56475,1,2,0:2:0:0:
23,160,56644,53,10,0:2:0:0:
17,135,56812,1,2,0:2:0:0:
95,84,56981,53,2,0:2:0:0:
105,41,57149,1,2,0:2:0:0:
215,88,57318,22,0,B|246:78|246:78|276:92|308:81,2,96.0000036621095,10|2|2,0:1|0:1|0:1,0:0:0:0:
163,164,57655,54,0,B|205:184|205:184|252:171,1,96,0|0,3:2|0:2,0:0:0:0:
261,74,57992,86,2,L|215:88,1,48,2|2,0:2|0:2,1:2:0:0:
248,247,58329,102,0,L|253:155,1,76.8,4|0,3:2|0:2,0:0:0:0:
309,296,58666,54,0,B|323:262|323:262|326:218,1,76.8,10|0,0:2|0:2,0:0:0:0:
171,215,59003,2,0,B|170:255|170:255|182:290,1,76.8,2|0,3:2|0:2,0:0:0:0:
252,170,59340,53,8,0:2:0:0:
168,92,59509,1,2,0:2:0:0:
168,92,59593,1,0,0:2:0:0:
168,92,59677,2,0,L|74:82,1,76.8,0|0,3:2|0:2,0:0:0:0:
94,223,60014,54,0,L|188:213,1,76.8,10|0,0:2|0:2,0:0:0:0:
325,222,60351,1,2,3:2:0:0:
181,289,60520,1,2,0:2:0:0:
309,296,60689,2,0,L|403:306,1,76.8,10|0,0:2|0:2,0:0:0:0:
456,273,60941,1,0,0:2:0:0:
469,264,61026,54,0,P|480:214|471:178,2,76.8,2|0|8,3:2|0:2|0:2,0:0:0:0:
325,222,61531,1,2,0:2:0:0:
325,222,61616,1,0,0:2:0:0:
324,221,61700,2,0,P|320:183|331:147,1,76.8,0|0,3:2|0:2,0:0:0:0:
482,87,62037,53,10,0:2:0:0:
482,87,62205,2,0,P|445:91|408:80,1,76.8,0|0,0:2|3:2,0:0:0:0:
224,41,62543,1,2,0:2:0:0:
224,41,62627,1,0,0:2:0:0:
224,41,62711,2,0,P|262:36|299:47,1,76.8,8|0,0:2|0:2,0:0:0:0:
325,222,63048,53,2,3:2:0:0:
262,130,63217,1,0,0:2:0:0:
262,130,63301,1,0,0:2:0:0:
262,130,63385,1,8,0:2:0:0:
213,262,63554,1,2,0:2:0:0:
81,168,63722,54,0,P|128:167|158:145,1,76.8,2|0,3:2|0:2,0:0:0:0:
213,262,64059,2,0,P|250:272|275:300,1,76.8,8|0,3:2|0:2,0:0:0:0:
362,182,64396,2,0,P|402:157|417:123,1,76.8,2|0,3:2|0:2,0:0:0:0:
484,266,64734,2,0,P|505:299|505:336,1,76.8,10|0,3:2|0:2,0:0:0:0:
274,300,65071,54,0,L|350:307,1,76.8,0|0,3:2|0:2,0:0:0:0:
259,119,65408,2,0,L|335:111,1,76.8,10|0,3:2|0:2,0:0:0:0:
197,292,65745,2,0,L|294:302,1,76.8,2|0,3:2|0:2,0:0:0:0:
183,127,66082,2,0,L|280:117,1,76.8,10|0,3:2|0:2,0:0:0:0:
121,285,66419,85,2,3:2:0:0:
106,134,66587,1,0,3:2:0:0:
197,292,66756,53,8,3:2:0:0:
183,127,66925,1,2,3:2:0:0:
273,299,67093,53,0,3:2:0:0:
259,119,67262,1,0,3:2:0:0:
350,307,67430,53,10,3:2:0:0:
335,111,67599,1,0,3:2:0:0:
273,299,67767,5,10,2:1:0:0:
285,263,67851,1,8,2:1:0:0:
314,238,67936,1,8,2:1:0:0:
351,230,68020,1,8,2:1:0:0:
387,240,68104,1,8,1:1:0:0:
414,267,68189,1,8,2:1:0:0:
425,303,68273,53,10,2:1:0:0:
429,265,68357,1,8,2:1:0:0:
432,227,68441,1,8,2:1:0:0:
436,188,68526,1,8,2:1:0:0:
440,150,68610,1,8,2:1:0:0:
443,112,68694,1,8,2:1:0:0:
447,74,68778,53,8,1:1:0:0:
457,85,68863,1,8,2:1:0:0:
466,95,68947,1,8,2:1:0:0:
475,105,69031,1,8,2:1:0:0:
484,115,69116,85,10,2:3:0:0:
484,115,70127,102,0,P|431:128|392:83,1,115.199996484375,2|0,0:2|0:2,0:0:0:0:
337,38,70380,2,0,P|312:29|271:22,1,43.1999986816407,2|0,0:2|0:2,0:0:0:0:
159,83,70632,54,0,L|163:133,1,48,0|0,3:2|0:2,0:0:0:0:
171,207,70801,2,0,L|175:257,1,48,8|0,0:2|0:2,0:0:0:0:
185,330,70969,1,8,0:3:0:0:
322,357,71138,102,0,P|349:347|377:351,3,57.5999982421876,2|2|2|2,3:2|0:2|3:2|0:2,0:0:0:0:
470,319,71475,53,2,0:2:0:0:
470,286,71559,1,0,0:2:0:0:
471,252,71644,1,8,0:2:0:0:
472,219,71728,1,0,0:2:0:0:
473,186,71812,38,0,B|404:175|404:175|355:201|355:201|269:188,1,201.599993847656,6|0,3:2|0:2,0:0:0:0:
256,186,72149,1,8,0:2:0:0:
323,36,72318,53,0,0:2:0:0:
329,58,72402,1,0,0:2:0:0:
330,80,72486,1,0,0:2:0:0:
232,18,72655,1,0,3:2:0:0:
87,110,72823,38,0,P|131:118|184:93,1,100.799996923828,10|0,0:2|0:2,0:0:0:0:
90,21,73160,6,0,L|82:250,1,201.599993847656,2|0,3:2|0:2,0:0:0:0:
83,245,73498,1,8,0:2:0:0:
226,281,73666,53,0,0:2:0:0:
231,259,73750,1,0,0:2:0:0:
234,236,73835,2,0,P|203:222|172:219,1,57.5999982421876,2|0,0:2|0:2,0:0:0:0:
84,335,74003,2,0,P|55:330|29:317,1,57.5999982421876,0|0,3:2|0:2,0:0:0:0:
87,110,74172,53,10,0:2:0:0:
83,245,74340,1,2,3:2:0:0:
0,132,74509,53,2,0:2:0:0:
83,245,74677,1,0,3:2:0:0:
174,88,74846,1,8,0:2:0:0:
242,243,75014,53,2,0:2:0:0:
242,243,75099,1,0,0:2:0:0:
242,243,75183,2,0,L|248:177,1,57.5999982421876,0|0,0:2|0:2,0:0:0:0:
261,66,75351,1,0,3:2:0:0:
355,210,75520,54,0,P|307:186|240:187,1,115.199996484375,10|0,0:2|0:2,0:0:0:0:
63,86,75857,2,0,B|104:101|104:101|201:81,1,115.199996484375,0|0,3:2|0:2,0:0:0:0:
261,66,76110,1,0,0:2:0:0:
283,63,76194,54,0,B|333:56|333:56|397:73|397:73|452:64,1,172.799994726563,10|0,0:2|0:2,0:0:0:0:
505,115,76531,53,2,0:2:0:0:
478,148,76616,1,0,0:2:0:0:
464,189,76700,1,0,0:2:0:0:
464,232,76784,1,0,0:2:0:0:
480,273,76868,54,0,B|463:232|463:232|449:371,1,172.799994726563,10|0,0:2|0:2,0:0:0:0:
344,290,77205,54,0,B|270:265|221:327|221:327|135:333|102:261,1,268.799991796875,2|8,3:2|0:2,0:0:0:0:
165,84,77711,53,2,0:2:0:0:
174,104,77795,1,0,0:2:0:0:
184,127,77880,2,0,L|188:242,1,115.199996484375,0|0,0:2|3:2,0:0:0:0:
54,284,78217,54,0,P|81:273|111:275,1,57.5999982421876,8|0,0:2|0:2,0:0:0:0:
237,309,78385,1,2,0:2:0:0:
258,315,78469,1,0,0:2:0:0:
281,315,78554,54,0,B|310:315|342:324|342:324|376:309|376:309|403:324|449:325,1,172.799994726563,0|0,3:2|0:2,0:0:0:0:
512,286,78891,1,8,0:2:0:0:
425,149,79059,53,2,0:2:0:0:
421,171,79144,1,0,0:2:0:0:
424,193,79228,1,0,0:2:0:0:
512,117,79396,1,0,3:2:0:0:
426,10,79565,54,0,P|397:5|369:7,1,57.5999982421876,10|0,0:2|0:2,0:0:0:0:
290,85,79734,2,0,P|261:87|233:82,1,57.5999982421876,0|0,3:2|0:2,0:0:0:0:
130,11,79902,53,2,0:2:0:0:
106,160,80071,1,0,3:2:0:0:
233,82,80239,1,8,0:2:0:0:
250,229,80408,53,2,0:2:0:0:
233,213,80492,1,0,0:2:0:0:
210,207,80576,1,0,0:2:0:0:
188,340,80745,2,0,L|192:282,1,57.5999982421876,0|0,3:2|0:2,0:0:0:0:
106,160,80913,53,10,0:2:0:0:
22,266,81082,1,2,0:2:0:0:
29,288,81166,1,0,0:2:0:0:
42,307,81250,54,0,P|112:259|192:283,1,172.799994726563,0|0,3:2|0:2,0:0:0:0:
263,317,81587,2,0,L|389:326,1,115.199996484375,8|0,0:2|0:2,0:0:0:0:
450,357,81840,1,0,0:2:0:0:
469,344,81925,53,2,3:2:0:0:
454,164,82093,1,2,0:2:0:0:
377,325,82262,38,0,B|407:297|407:297|414:233,1,100.799996923828,10|0,0:2|0:2,0:0:0:0:
454,164,82599,6,0,B|353:133|360:216|259:182,1,201.599993847656,6|0,3:2|0:2,0:0:0:0:
243,167,82936,1,8,0:2:0:0:
176,20,83104,53,0,0:2:0:0:
187,40,83189,1,0,0:2:0:0:
190,62,83273,1,0,0:2:0:0:
149,154,83441,1,0,3:2:0:0:
15,50,83610,38,0,B|77:55|77:55|103:84,1,100.799996923828,10|0,0:2|0:2,0:0:0:0:
149,154,83947,6,0,B|250:185|243:102|344:136,1,201.599993847656,2|0,3:2|0:2,0:0:0:0:
362,146,84284,1,8,0:2:0:0:
339,313,84453,53,0,0:2:0:0:
324,296,84537,1,0,0:2:0:0:
312,276,84621,2,0,P|303:249|299:220,1,57.5999982421876,2|0,0:2|0:2,0:0:0:0:
362,146,84790,2,0,P|371:118|374:90,1,57.5999982421876,2|0,3:2|0:2,0:0:0:0:
243,54,84958,53,10,0:2:0:0:
299,220,85127,1,2,3:2:0:0:
374,90,85295,53,2,0:2:0:0:
299,220,85464,1,0,3:2:0:0:
149,154,85632,1,8,0:2:0:0:
140,313,85801,53,2,0:2:0:0:
140,313,85885,1,0,0:2:0:0:
140,313,85969,2,0,L|131:249,1,57.5999982421876,0|0,0:2|0:2,0:0:0:0:
229,171,86138,1,0,3:2:0:0:
248,331,86307,54,0,P|192:306|128:318,1,115.199996484375,10|0,0:2|0:2,0:0:0:0:
0,206,86644,2,0,B|9:72,1,115.199996484375,0|0,3:2|0:2,0:0:0:0:
59,36,86896,1,0,0:2:0:0:
79,25,86981,53,10,0:2:0:0:
136,149,87149,1,2,0:2:0:0:
253,45,87318,70,0,B|278:41|291:35|291:35|312:43|312:43|330:36|351:36,2,102.4,2|2|2,0:1|0:1|0:1,0:0:0:0:
136,149,87655,101,10,0:2:0:0:
169,27,87823,1,2,0:2:0:0:
290,200,87992,54,0,P|268:158|227:135,1,96,2|0,3:2|0:2,0:0:0:0:
259,270,88245,1,0,0:2:0:0:
266,288,88329,2,0,P|291:248|290:200,1,96,10|0,0:2|0:2,0:0:0:0:
186,293,88582,1,0,0:2:0:0:
177,311,88666,2,0,P|225:312|266:288,1,96,2|0,0:2|3:2,0:0:0:0:
253,45,89003,53,10,0:2:0:0:
200,219,89172,1,2,0:2:0:0:
82,82,89340,54,0,B|125:103|125:103|182:87,1,96,2|0,3:2|0:2,0:0:0:0:
253,45,89593,1,0,0:2:0:0:
271,38,89677,2,0,B|317:28|317:28|359:53,1,96,10|0,0:2|0:2,0:0:0:0:
408,129,89930,1,0,0:2:0:0:
394,143,90014,2,0,B|347:152|347:152|305:127,1,96,2|0,0:2|3:2,0:0:0:0:
132,23,90351,53,8,0:2:0:0:
305,127,90520,1,2,0:2:0:0:
23,207,90689,70,0,B|102:216|102:216|189:193|189:193|249:202,1,230.39999296875,4|8,3:2|0:2,0:0:0:0:
398,342,91194,54,0,L|512:355,2,115.199996484375,2|0|0,3:2|0:2|0:2,0:0:0:0:
196,282,91700,53,10,0:2:0:0:
305,127,91868,1,2,0:2:0:0:
305,127,91953,1,0,0:2:0:0:
305,127,92037,1,0,0:2:0:0:
305,127,92374,69,8,0:0:0:0:
305,127,92543,1,0,0:0:0:0:
404,179,92711,53,2,0:1:0:0:
305,127,92880,1,8,0:0:0:0:
398,342,93048,70,0,L|406:261,1,67.1999979492188,10|8,0:3|0:0,0:0:0:0:
305,127,93385,6,0,B|272:111|272:111|289:236|289:236|318:210,1,201.599993847656,6|0,3:2|0:2,0:0:0:0:
373,161,93722,1,8,0:2:0:0:
272,33,93891,53,0,0:2:0:0:
249,37,93975,1,0,0:2:0:0:
228,48,94059,1,0,0:2:0:0:
189,171,94228,1,0,3:2:0:0:
75,31,94396,38,0,L|84:131,1,100.799996923828,10|0,0:2|0:2,0:0:0:0:
1,210,94734,6,0,B|44:173|44:173|189:171,1,201.599993847656,2|0,3:2|0:2,0:0:0:0:
212,172,95071,1,8,0:2:0:0:
117,313,95239,53,0,0:2:0:0:
103,294,95323,1,0,0:2:0:0:
97,271,95408,2,0,L|93:213,1,57.5999982421876,2|0,0:2|0:2,0:0:0:0:
235,182,95576,2,0,L|239:119,1,57.5999982421876,0|0,3:2|0:2,0:0:0:0:
99,57,95745,53,10,0:2:0:0:
93,213,95913,1,2,3:2:0:0:
26,100,96082,53,2,0:2:0:0:
93,213,96250,1,0,3:2:0:0:
177,75,96419,1,8,0:2:0:0:
229,239,96587,53,2,0:2:0:0:
229,239,96672,1,0,0:2:0:0:
229,239,96756,2,0,L|235:173,1,57.5999982421876,0|0,0:2|0:2,0:0:0:0:
104,132,96925,1,0,3:2:0:0:
287,54,97093,54,0,B|247:75|247:75|170:75,1,115.199996484375,10|0,0:2|0:2,0:0:0:0:
3,266,97430,2,0,P|37:221|92:212,1,115.199996484375,0|0,3:2|0:2,0:0:0:0:
151,265,97683,1,0,0:2:0:0:
170,277,97767,54,0,B|212:289|212:289|292:271|292:271|347:286,1,172.799994726563,10|0,0:2|0:2,0:0:0:0:
382,354,98104,53,2,0:2:0:0:
351,324,98189,1,0,0:2:0:0:
337,283,98273,1,0,0:2:0:0:
346,240,98357,1,0,0:2:0:0:
371,207,98441,54,0,P|363:126|284:113,1,172.799994726563,10|0,0:2|0:2,0:0:0:0:
160,108,98778,54,0,B|118:89|73:104|73:104|10:129|-29:70|6:13|60:27,1,268.799991796875,2|8,3:2|0:2,0:0:0:0:
65,200,99284,53,2,0:2:0:0:
89,186,99368,1,0,0:2:0:0:
112,183,99453,2,0,P|123:239|109:295,1,115.199996484375,0|0,0:2|3:2,0:0:0:0:
0,369,99790,54,0,L|57:366,1,57.5999982421876,8|0,0:2|0:2,0:0:0:0:
193,321,99958,1,2,0:2:0:0:
215,319,100043,1,0,0:2:0:0:
238,317,100127,54,0,B|299:311|299:311|344:334|344:334|409:331,1,172.799994726563,0|0,3:2|0:2,0:0:0:0:
479,319,100464,1,8,0:2:0:0:
371,193,100632,53,2,0:2:0:0:
367,215,100717,1,0,0:2:0:0:
363,237,100801,1,0,0:2:0:0:
272,141,100969,1,0,3:2:0:0:
143,219,101138,54,0,P|114:220|86:215,1,57.5999982421876,10|0,0:2|0:2,0:0:0:0:
117,82,101307,2,0,P|145:79|173:84,1,57.5999982421876,0|0,3:2|0:2,0:0:0:0:
272,141,101475,53,2,0:2:0:0:
343,39,101644,1,0,3:2:0:0:
371,193,101812,1,8,0:2:0:0:
512,92,101981,53,2,0:2:0:0:
489,89,102065,1,0,0:2:0:0:
466,82,102149,1,0,0:2:0:0:
374,135,102318,2,0,L|370:193,1,57.5999982421876,0|0,3:2|0:2,0:0:0:0:
453,308,102486,53,10,0:2:0:0:
335,269,102655,1,2,0:2:0:0:
315,280,102739,1,0,0:2:0:0:
294,290,102823,54,0,B|231:308|231:308|116:279,1,172.799994726563,0|0,3:2|0:2,0:0:0:0:
81,342,103160,2,0,L|72:213,1,115.199996484375,8|0,0:2|0:2,0:0:0:0:
66,150,103413,1,0,0:2:0:0:
64,126,103498,53,2,3:2:0:0:
156,32,103666,1,2,0:2:0:0:
246,137,103835,38,0,B|196:147|196:147|150:126,1,100.799996923828,10|0,0:2|0:2,0:0:0:0:
156,32,104172,6,0,B|218:28|218:28|276:55|276:55|351:51,1,201.599993847656,6|0,3:2|0:2,0:0:0:0:
374,47,104509,1,8,0:2:0:0:
263,181,104677,53,0,0:2:0:0:
251,160,104762,1,0,0:2:0:0:
246,137,104846,1,0,0:2:0:0:
251,44,105014,1,0,3:2:0:0:
384,139,105183,38,0,B|430:146|430:146|481:117,1,100.799996923828,10|0,0:2|0:2,0:0:0:0:
374,47,105520,6,0,B|370:109|370:109|397:167|397:167|393:242,1,201.599993847656,2|0,3:2|0:2,0:0:0:0:
392,265,105857,1,8,0:2:0:0:
212,200,106026,53,0,0:2:0:0:
232,189,106110,1,0,0:2:0:0:
254,184,106194,2,0,P|284:180|333:184,1,57.5999982421876,2|0,0:2|0:2,0:0:0:0:
392,265,106363,2,0,P|422:269|471:265,1,57.5999982421876,2|0,3:2|0:2,0:0:0:0:
477,119,106531,53,10,0:2:0:0:
311,180,106700,1,2,3:2:0:0:
363,45,106868,53,2,0:2:0:0:
311,180,107037,1,0,3:2:0:0:
226,35,107205,1,8,0:2:0:0:
109,180,107374,53,2,0:2:0:0:
109,180,107458,1,0,0:2:0:0:
109,180,107543,2,0,L|118:116,1,57.5999982421876,0|0,0:2|0:2,0:0:0:0:
137,11,107711,1,0,3:2:0:0:
216,183,107880,54,0,B|158:201|158:201|108:179,1,115.199996484375,10|0,0:2|0:2,0:0:0:0:
16,355,108217,2,0,P|61:327|137:330,1,115.199996484375,0|0,3:2|0:2,0:0:0:0:
193,346,108469,1,0,0:2:0:0:
214,354,108554,53,10,0:2:0:0:
321,229,108722,1,2,0:2:0:0:
423,367,108891,69,2,0:1:0:0:
336,343,109003,2,0,B|356:341|375:347|375:347|395:338|395:338|409:344|435:346,1,102.4,2|2,0:1|0:1,0:0:0:0:
483,191,109228,101,10,0:2:0:0:
447,325,109396,1,2,0:2:0:0:
352,105,109565,53,2,3:2:0:0:
398,240,109734,1,2,0:2:0:0:
505,58,109902,54,0,P|460:41|409:47,1,96,10|0,0:2|0:2,0:0:0:0:
352,105,110155,1,0,0:2:0:0:
337,117,110239,2,0,P|289:121|244:104,1,96,2|0,0:2|3:2,0:0:0:0:
87,24,110576,53,10,0:2:0:0:
245,104,110745,1,2,0:2:0:0:
56,144,110913,54,0,B|99:123|99:123|156:139,1,96,2|0,3:2|0:2,0:0:0:0:
76,219,111166,1,0,0:2:0:0:
63,233,111250,2,0,B|42:190|42:190|58:133,1,96,10|0,0:2|0:2,0:0:0:0:
250,268,111587,54,0,P|272:266|304:254,1,48,2|0,0:2|0:0,0:0:0:0:
245,104,111756,1,2,3:2:0:0:
158,282,111925,53,8,0:2:0:0:
245,104,112093,1,2,0:2:0:0:
420,230,112262,70,0,B|304:257|317:162|200:195,1,230.39999296875,2|8,3:2|0:2,0:0:0:0:
102,353,112767,54,0,P|157:370|212:355,1,115.199996484375,2|0,3:2|0:0,0:0:0:0:
229,341,113020,1,0,0:0:0:0:
248,328,113104,1,0,0:0:0:0:
270,322,113189,1,0,0:0:0:0:
292,323,113273,1,8,0:0:0:0:
442,363,113441,53,2,3:2:0:0:
442,363,113526,1,0,0:2:0:0:
442,363,113610,1,0,0:2:0:0:
442,363,113947,69,8,0:0:0:0:
442,363,114284,53,10,0:3:0:0:
479,213,114453,1,10,0:0:0:0:
330,175,114621,1,10,0:3:0:0:
292,323,114790,1,8,0:0:0:0:
386,269,114958,69,4,0:0:0:0:
256,192,115043,12,2,117992,0:2:0:0:
72,267,125071,102,0,P|91:261|110:249,1,43.1999986816407,2|0,0:2|0:2,0:0:0:0:
185,280,125239,2,0,P|204:285|223:297,1,43.1999986816407,2|0,0:2|0:2,0:0:0:0:
295,367,125408,53,2,0:2:0:0:
295,367,125492,1,2,0:2:0:0:
295,367,125576,1,2,0:2:0:0:
295,367,125660,1,2,0:2:0:0:
295,367,125745,70,0,L|311:209,1,144.000005493164,2|8,3:2|0:2,0:0:0:0:
310,224,126250,1,0,3:2:0:0:
310,224,126419,2,0,L|468:240,1,144.000005493164,8|8,0:1|0:2,0:0:0:0:
324,81,126925,54,0,L|310:225,1,144.000005493164,2|0,0:2|0:2,0:0:0:0:
310,224,127430,1,10,0:2:0:0:
310,224,127599,1,0,3:2:0:0:
310,224,127767,2,0,L|166:210,1,144.000005493164,8|8,0:1|0:2,0:0:0:0:
153,353,128441,54,0,L|167:209,1,144.000005493164,2|8,3:2|0:2,0:0:0:0:
167,210,128947,1,0,3:2:0:0:
167,210,129116,2,0,L|23:196,1,144.000005493164,8|8,0:1|0:2,0:0:0:0:
181,67,129621,54,0,L|167:211,1,144.000005493164,2|0,0:2|0:2,0:0:0:0:
167,210,130127,1,8,3:2:0:0:
167,210,130295,1,2,0:2:0:0:
167,210,130464,2,0,L|239:217,1,72.0000027465821,8|0,0:1|0:2,0:0:0:0:
239,217,130801,2,0,L|311:223,1,72.0000027465821,8|0,0:2|0:2,0:0:0:0:
325,80,131138,54,0,L|311:224,1,144.000005493164,2|8,0:2|0:2,0:0:0:0:
311,223,131644,1,0,3:2:0:0:
311,223,131812,2,0,L|455:237,1,144.000005493164,8|8,0:1|0:2,0:0:0:0:
440,380,132318,54,0,L|454:236,1,144.000005493164,2|2,0:2|0:2,0:0:0:0:
454,236,132823,1,8,0:0:0:0:
454,236,132992,1,0,3:2:0:0:
454,236,133160,2,0,L|383:229,1,72.0000027465821,8|0,0:1|0:2,0:0:0:0:
382,229,133498,2,0,L|311:222,1,72.0000027465821,8|0,0:2|0:2,0:0:0:0:
324,79,133835,54,0,L|310:223,1,144.000005493164,2|8,3:2|0:2,0:0:0:0:
311,222,134340,1,0,3:2:0:0:
311,222,134509,2,0,L|167:208,1,144.000005493164,8|8,0:1|0:2,0:0:0:0:
297,365,135014,54,0,L|311:221,1,144.000005493164,2|0,0:2|0:2,0:0:0:0:
311,222,135520,2,0,L|239:215,1,72.0000027465821,8|0,3:2|0:2,0:0:0:0:
92,174,135857,37,10,0:1:0:0:
93,144,135941,1,0,0:2:0:0:
96,117,136026,1,2,0:2:0:0:
99,89,136110,1,0,0:2:0:0:
175,73,136194,53,10,0:2:0:0:
177,58,136278,1,0,0:2:0:0:
179,43,136363,1,2,0:2:0:0:
182,29,136447,1,0,0:2:0:0:
184,14,136531,69,0,3:2:0:0:
184,14,137037,53,0,3:2:0:0:
184,14,137205,2,0,L|283:24,1,96,8|0,0:1|0:2,0:0:0:0:
280,24,138385,53,0,3:2:0:0:
280,24,138554,2,0,L|184:14,1,96,8|0,0:1|0:2,0:0:0:0:
184,14,139228,53,0,3:3:0:0:
184,14,139734,53,0,3:2:0:0:
184,14,139902,2,0,L|174:109,1,96,8|0,0:1|0:2,0:0:0:0:
174,109,140913,53,0,3:2:0:0:
174,109,141082,1,0,3:2:0:0:
174,109,141250,2,0,L|184:14,1,96,8|0,0:1|0:2,0:0:0:0:
256,352,141925,85,4,3:2:0:0:
256,32,151363,5,8,0:1:0:0:
368,192,151700,53,8,0:0:0:0:
434,82,151868,1,10,0:3:0:0:
434,82,152037,1,2,0:1:0:0:
368,192,152205,5,8,0:0:0:0:
434,82,152374,2,2,B|437:61|437:61|430:38|430:38|436:6,1,72,10|0,0:3|0:0,1:2:0:0:
350,48,152711,6,0,B|306:33|306:33|247:47,1,96,4|0,3:2|0:0,0:0:0:0:
175,177,153048,2,0,B|126:188|126:188|82:173,1,96,10|0,0:0|0:0,0:0:0:0:
10,139,153301,1,0,0:0:0:0:
8,119,153385,54,0,L|6:66,1,48,2|0,0:0|0:0,0:0:0:0:
133,59,153554,2,0,L|131:106,1,48,2|0,3:2|0:0,0:0:0:0:
82,173,153722,54,0,P|69:218|83:264,1,96,10|0,0:0|0:0,0:0:0:0:
148,308,153975,1,0,0:0:0:0:
166,314,154059,2,0,L|278:308,1,96,0|0,3:0|0:0,0:0:0:0:
403,131,154396,54,0,B|358:117|358:117|291:137,1,96,10|0,0:0|0:0,0:0:0:0:
256,189,154649,1,0,0:0:0:0:
240,201,154734,54,0,L|192:203,1,48,2|0,0:0|0:0,0:0:0:0:
82,173,154902,2,0,L|34:170,1,48,2|0,3:2|0:0,0:0:0:0:
0,73,155071,1,8,0:0:0:0:
144,32,155239,53,2,0:0:0:0:
144,32,155323,1,0,0:0:0:0:
144,32,155408,2,0,B|189:1|189:1|154:140,1,192,0|8,3:0|0:0,0:0:0:0:
21,273,155913,53,2,0:0:0:0:
52,255,155998,1,0,0:0:0:0:
87,249,156082,1,0,0:0:0:0:
122,257,156166,1,0,0:0:0:0:
152,277,156250,54,0,L|160:329,1,48,2|0,3:2|0:0,0:0:0:0:
270,357,156419,2,0,L|277:309,1,48,10|0,0:2|0:0,0:0:0:0:
240,152,156587,53,2,0:0:0:0:
240,152,156672,1,0,0:0:0:0:
240,152,156756,2,0,P|222:196|227:244,1,96,0|0,3:0|0:0,0:0:0:0:
358,330,157093,2,0,P|375:285|371:238,1,96,10|0,0:0|0:0,0:0:0:0:
337,174,157346,1,0,0:0:0:0:
332,154,157430,54,0,P|330:131|332:107,1,48,2|0,0:0|0:0,0:0:0:0:
445,96,157599,2,0,P|453:73|457:49,1,48,0|0,3:2|0:0,0:0:0:0:
342,6,157767,1,10,0:0:0:0:
247,159,157936,53,2,0:0:0:0:
247,159,158020,1,0,0:0:0:0:
247,159,158104,2,0,B|180:154|180:154|133:119|133:119|67:114,1,192,0|8,3:0|0:0,0:0:0:0:
6,307,158610,53,0,0:0:0:0:
0,272,158694,1,0,0:0:0:0:
8,238,158778,1,0,0:0:0:0:
30,210,158863,1,0,0:0:0:0:
59,190,158947,54,0,L|124:194,1,48,2|0,3:2|0:0,0:0:0:0:
182,241,159116,2,0,L|247:236,1,48,10|0,0:0|0:0,0:0:0:0:
312,209,159284,2,0,L|377:213,1,48,2|0,0:0|0:0,0:0:0:0:
192,332,159453,54,0,P|174:287|182:241,1,96,2|0,3:2|0:0,0:0:0:0:
312,209,159790,2,0,P|320:162|302:118,1,96,10|0,0:0|0:0,0:0:0:0:
219,98,160043,1,0,0:0:0:0:
199,101,160127,54,0,L|126:92,1,48,2|0,0:0|0:0,0:0:0:0:
67,114,160295,2,0,L|-6:105,1,48,2|0,3:2|0:0,0:0:0:0:
122,183,160464,2,0,B|148:149|148:149|151:95,1,96,8|0,0:0|0:0,0:0:0:0:
0,265,160801,54,0,B|39:248|39:248|92:259,1,96,2|0,3:2|0:0,0:0:0:0:
187,322,161138,2,0,L|306:330,1,96,8|0,0:0|0:0,0:0:0:0:
361,371,161391,1,0,0:0:0:0:
379,363,161475,54,0,P|386:341|388:317,1,48,2|0,0:0|0:0,0:0:0:0:
323,231,161644,2,0,P|315:208|313:184,1,48,2|0,3:2|0:0,0:0:0:0:
418,237,161812,2,0,L|299:229,1,96,10|0,0:0|0:0,0:0:0:0:
244,226,162065,1,0,0:0:0:0:
229,215,162149,38,0,B|215:174|215:174|228:129,1,89.5999972656251,10|2,0:1|0:1,0:0:0:0:
298,105,162486,22,0,B|228:130|228:130|223:51,1,153.6,4|0,3:0|0:0,0:0:0:0:
61,28,162823,86,0,L|-1:20,2,44.7999986328125,10|2|2,0:1|0:1|0:0,0:0:0:0:
29,97,163160,22,0,B|61:28|61:28|120:77,1,153.6,4|0,0:3|0:0,0:0:0:0:
105,250,163498,21,4,3:2:0:0:
105,250,163835,54,0,P|138:253|170:243,1,67.1999979492188,10|0,0:2|0:2,0:0:0:0:
215,325,164172,2,0,P|240:303|256:274,1,67.1999979492188,2|0,0:2|3:2,0:0:0:0:
345,300,164509,1,10,0:2:0:0:
345,300,164677,2,0,P|348:266|338:234,1,67.1999979492188,0|0,0:2|3:2,0:0:0:0:
338,235,165183,54,0,L|333:168,1,67.1999979492188,10|0,0:2|0:2,0:0:0:0:
256,273,165520,2,0,L|251:206,1,67.1999979492188,2|0,0:2|3:2,0:0:0:0:
174,312,165857,2,0,L|169:245,1,67.1999979492188,8|0,0:2|0:2,0:0:0:0:
170,146,166194,53,2,3:2:0:0:
170,146,166363,2,0,P|140:132|84:129,1,67.1999979492188,0|8,0:2|0:2,0:0:0:0:
238,101,166700,1,2,0:2:0:0:
238,101,166868,2,0,P|235:68|209:18,1,67.1999979492188,0|0,0:2|3:2,0:0:0:0:
310,137,167205,1,10,0:2:0:0:
310,137,167374,2,0,P|337:118|367:71,1,67.1999979492188,0|0,0:2|3:2,0:0:0:0:
358,91,167880,54,0,L|424:85,1,67.1999979492188,10|0,0:2|0:2,0:0:0:0:
405,177,168217,2,0,L|472:177,1,67.1999979492188,2|0,0:2|3:2,0:0:0:0:
444,266,168554,2,0,L|510:272,1,67.1999979492188,10|0,0:2|0:2,0:0:0:0:
360,246,168891,53,2,3:2:0:0:
360,246,169059,2,0,P|359:279|370:311,1,67.1999979492188,0|8,0:2|0:2,0:0:0:0:
295,198,169396,1,2,0:2:0:0:
295,198,169565,2,0,P|261:197|229:208,1,67.1999979492188,0|0,0:2|3:2,0:0:0:0:
342,132,169902,1,10,0:2:0:0:
342,132,170071,2,0,P|342:98|331:66,2,67.1999979492188,0|0|0,0:2|3:2|0:2,0:0:0:0:
229,208,170576,53,10,0:2:0:0:
229,208,170745,1,0,0:2:0:0:
342,132,170913,2,0,L|422:136,1,67.1999979492188,2|0,0:2|3:2,0:0:0:0:
256,32,171250,53,10,0:2:0:0:
143,108,171419,1,2,0:2:0:0:
143,108,171503,1,0,0:2:0:0:
143,108,171587,2,0,L|63:104,1,67.1999979492188,0|0,3:2|0:2,0:0:0:0:
7,210,171925,53,10,0:2:0:0:
7,210,172093,1,2,0:2:0:0:
91,262,172262,53,2,0:2:0:0:
72,258,172430,1,2,3:2:0:0:
193,214,172599,53,10,0:2:0:0:
168,220,172767,1,2,0:2:0:0:
272,303,172936,53,2,3:2:0:0:
229,293,173104,1,2,0:2:0:0:
272,139,173273,22,0,B|282:108|282:108|268:78|279:46,2,96.0000036621095,10|2|2,0:1|0:1|0:1,0:0:0:0:
352,72,173610,54,0,B|399:59|399:59|441:79,1,96,0|0,3:2|0:2,0:0:0:0:
276,93,173947,86,0,P|274:69|278:46,1,48,2|2,0:2|0:2,0:0:0:0:
392,140,174284,102,0,L|396:234,1,76.8,4|0,3:2|0:2,0:0:0:0:
441,79,174621,54,0,P|406:63|367:65,1,76.8,10|0,0:2|0:2,0:0:0:0:
322,202,174958,2,0,P|356:217|394:216,1,76.8,2|0,3:2|0:2,0:0:0:0:
512,142,175295,53,8,0:2:0:0:
402,223,175464,1,2,0:2:0:0:
402,223,175548,1,0,0:2:0:0:
402,223,175632,2,0,L|388:331,1,76.8,0|0,3:2|0:2,0:0:0:0:
239,370,175969,54,0,L|229:293,1,76.8,10|0,0:2|0:2,0:0:0:0:
113,191,176307,1,2,3:2:0:0:
253,191,176475,1,2,0:2:0:0:
137,293,176644,2,0,L|127:369,1,76.8,10|0,0:2|0:2,0:0:0:0:
113,191,176981,54,0,P|71:170|17:174,2,76.8,2|0|8,3:2|0:2|0:2,0:0:0:0:
236,301,177486,1,2,0:2:0:0:
236,301,177571,1,0,0:2:0:0:
236,301,177655,2,0,P|278:322|332:318,1,76.8,0|0,3:2|0:2,0:0:0:0:
306,140,177992,53,8,0:2:0:0:
306,140,178160,2,0,L|300:217,1,76.8,0|0,0:2|3:2,0:0:0:0:
120,198,178498,1,2,0:2:0:0:
120,198,178582,1,0,0:2:0:0:
120,198,178666,2,0,L|116:121,1,76.8,8|0,0:2|0:2,0:0:0:0:
256,32,179003,53,2,3:2:0:0:
314,147,179172,1,0,0:2:0:0:
314,147,179256,1,0,0:2:0:0:
314,147,179340,1,8,0:2:0:0:
407,22,179509,1,2,0:2:0:0:
482,189,179677,54,0,P|444:193|390:165,1,76.8,2|0,3:2|0:2,0:0:0:0:
327,260,180014,2,0,P|289:265|257:287,1,76.8,8|0,3:2|0:2,0:0:0:0:
211,154,180351,2,0,P|176:138|143:87,1,76.8,2|0,3:2|0:2,0:0:0:0:
52,234,180689,2,0,P|22:258|3:316,1,76.8,10|0,3:2|0:2,0:0:0:0:
211,154,181026,54,0,L|135:147,1,76.8,0|0,3:2|0:2,0:0:0:0:
182,315,181363,2,0,L|106:322,1,76.8,10|0,3:2|0:2,0:0:0:0:
287,161,181700,2,0,L|211:154,1,76.8,2|0,3:2|0:2,0:0:0:0:
258,307,182037,2,0,L|182:314,1,76.8,10|0,3:2|0:2,0:0:0:0:
364,169,182374,85,2,3:2:0:0:
211,154,182543,1,0,3:2:0:0:
335,300,182711,53,8,3:2:0:0:
181,314,182880,1,2,3:2:0:0:
287,161,183048,53,0,3:2:0:0:
134,146,183217,1,0,3:2:0:0:
258,307,183385,53,10,3:2:0:0:
105,322,183554,1,0,3:2:0:0:
59,128,183722,5,10,2:1:0:0:
77,94,183807,1,8,2:1:0:0:
108,73,183891,1,8,2:1:0:0:
146,69,183975,1,8,2:1:0:0:
181,85,184059,1,8,1:1:0:0:
204,115,184144,1,8,2:1:0:0:
211,154,184228,53,10,2:1:0:0:
244,139,184312,1,8,2:1:0:0:
280,126,184396,1,8,2:1:0:0:
317,112,184481,1,8,2:1:0:0:
352,98,184565,1,8,2:1:0:0:
388,86,184649,1,8,2:1:0:0:
424,72,184734,53,8,1:1:0:0:
425,86,184818,1,8,2:1:0:0:
426,100,184902,1,8,2:1:0:0:
428,113,184986,1,8,2:1:0:0:
429,126,185071,85,10,2:3:0:0:
429,126,186082,102,0,P|424:50|382:46,1,115.199996484375,2|0,0:2|0:2,0:0:0:0:
323,63,186335,2,0,L|266:50,1,43.1999986816407,2|0,0:2|0:2,0:0:0:0:
123,112,186587,54,0,L|88:103,4,24,2|0|0|0|8,0:1|0:2|0:2|0:2|0:2,0:0:0:0:
123,112,186925,1,8,0:3:0:0:
183,221,187093,102,0,P|188:248|186:282,3,57.5999982421876,2|2|2|2,3:2|0:2|3:2|0:2,0:0:0:0:
140,347,187430,53,2,0:2:0:0:
107,347,187514,1,0,0:2:0:0:
73,348,187599,1,8,0:2:0:0:
40,349,187683,1,0,0:2:0:0:
13,349,187767,38,0,B|-8:311|-8:311|7:198|7:198|29:247,1,201.599993847656,6|0,3:2|0:2,0:0:0:0:
35,259,188104,1,8,0:2:0:0:
152,143,188273,53,0,0:2:0:0:
135,158,188357,1,0,0:2:0:0:
112,164,188441,1,0,0:2:0:0:
25,83,188610,1,0,3:2:0:0:
35,259,188778,38,0,L|25:158,1,100.799996923828,10|0,0:2|0:2,0:0:0:0:
25,83,189116,6,0,B|76:88|94:132|94:132|147:159|198:119,1,201.599993847656,2|0,3:2|0:2,0:0:0:0:
218,106,189453,1,8,0:2:0:0:
261,249,189621,53,0,0:2:0:0:
241,261,189705,1,0,0:2:0:0:
219,268,189790,2,0,P|206:242|201:213,1,57.5999982421876,2|0,0:2|0:2,0:0:0:0:
218,106,189958,2,0,P|233:81|241:53,1,57.5999982421876,0|0,3:2|0:2,0:0:0:0:
123,25,190127,53,10,0:2:0:0:
25,158,190295,1,2,3:2:0:0:
0,11,190464,53,2,0:2:0:0:
25,158,190632,1,0,3:2:0:0:
217,106,190801,1,8,0:2:0:0:
124,228,190969,53,2,0:2:0:0:
124,228,191054,1,0,0:2:0:0:
124,228,191138,2,0,L|118:162,1,57.5999982421876,0|0,0:2|0:2,0:0:0:0:
123,25,191307,1,0,3:2:0:0:
25,158,191475,54,0,B|69:197|69:197|119:171,1,115.199996484375,10|0,0:2|0:2,0:0:0:0:
327,116,191812,2,0,P|273:97|216:105,1,115.199996484375,0|0,3:2|0:2,0:0:0:0:
194,176,192065,1,0,0:2:0:0:
207,195,192149,54,0,B|215:226|214:257|199:282|178:298|178:298|168:331|203:363,1,172.799994726563,10|0,0:2|0:2,0:0:0:0:
284,364,192486,53,2,0:2:0:0:
318,338,192571,1,0,0:2:0:0:
360,326,192655,1,0,0:2:0:0:
402,329,192739,1,0,0:2:0:0:
443,347,192823,54,0,B|402:329|402:329|372:263|406:204,1,172.799994726563,10|0,0:2|0:2,0:0:0:0:
510,129,193160,54,0,B|443:139|405:206|405:206|373:139|303:122,1,268.799991796875,2|8,3:2|0:2,0:0:0:0:
159,202,193666,53,2,0:2:0:0:
181,201,193750,1,0,0:2:0:0:
200,189,193835,2,0,P|216:124|196:79,1,115.199996484375,0|0,0:2|3:2,0:0:0:0:
58,49,194172,54,0,L|115:56,1,57.5999982421876,8|0,0:2|0:2,0:0:0:0:
269,36,194340,1,2,0:2:0:0:
291,40,194425,1,0,0:2:0:0:
313,44,194509,54,0,B|370:52|370:52|414:37|414:37|488:46,1,172.799994726563,0|0,3:2|0:2,0:0:0:0:
512,113,194846,1,8,0:2:0:0:
347,195,195014,53,2,0:2:0:0:
343,173,195099,1,0,0:2:0:0:
346,151,195183,1,0,0:2:0:0:
393,44,195351,1,0,3:2:0:0:
490,200,195520,54,0,P|461:205|433:203,1,57.5999982421876,10|0,0:2|0:2,0:0:0:0:
346,151,195689,2,0,P|317:146|289:148,1,57.5999982421876,0|0,3:2|0:2,0:0:0:0:
225,268,195857,53,2,0:2:0:0:
214,118,196026,1,0,3:2:0:0:
313,229,196194,1,8,0:2:0:0:
151,227,196363,53,2,0:2:0:0:
164,208,196447,1,0,0:2:0:0:
183,195,196531,1,0,0:2:0:0:
238,323,196700,2,0,P|235:294|224:267,1,57.5999982421876,0|0,3:2|0:2,0:0:0:0:
68,308,196868,53,10,0:2:0:0:
9,181,197037,1,2,0:2:0:0:
9,158,197121,1,0,0:2:0:0:
10,135,197205,54,0,B|23:20|23:20|47:71,1,172.799994726563,0|0,3:2|0:2,0:0:0:0:
112,117,197543,2,0,L|232:126,1,115.199996484375,8|0,0:2|0:2,0:0:0:0:
291,171,197795,1,0,0:2:0:0:
306,188,197880,53,2,3:2:0:0:
401,73,198048,1,2,0:2:0:0:
475,241,198217,38,0,B|445:202|445:202|448:151,1,100.799996923828,10|0,0:2|0:2,0:0:0:0:
502,68,198554,6,0,B|437:60|437:60|369:84|369:84|305:76,1,201.599993847656,6|0,3:2|0:2,0:0:0:0:
282,73,198891,1,8,0:2:0:0:
147,10,199059,53,0,0:2:0:0:
169,17,199144,1,0,0:2:0:0:
185,32,199228,1,0,0:2:0:0:
231,157,199396,1,0,3:2:0:0:
372,83,199565,38,0,B|330:56|330:56|282:73,1,100.799996923828,10|0,0:2|0:2,0:0:0:0:
231,157,199902,6,0,B|166:150|166:150|98:174|98:174|34:166,1,201.599993847656,2|0,3:2|0:2,0:0:0:0:
11,161,200239,1,8,0:2:0:0:
142,291,200408,53,0,0:2:0:0:
153,271,200492,1,0,0:2:0:0:
162,250,200576,2,0,L|166:171,1,57.5999982421876,2|0,0:2|0:2,0:0:0:0:
11,161,200745,2,0,L|7:240,1,57.5999982421876,2|0,3:2|0:2,0:0:0:0:
65,344,200913,53,10,0:2:0:0:
165,192,201082,1,2,3:2:0:0:
8,218,201250,53,2,0:2:0:0:
165,192,201419,1,0,3:2:0:0:
79,33,201587,1,8,0:2:0:0:
89,212,201756,53,2,0:2:0:0:
89,212,201840,1,0,0:2:0:0:
89,212,201925,2,0,L|91:154,1,57.5999982421876,0|0,0:2|0:2,0:0:0:0:
158,34,202093,1,0,3:2:0:0:
252,188,202262,54,0,B|209:228|209:228|165:192,1,115.199996484375,10|0,0:2|0:2,0:0:0:0:
322,58,202599,2,0,P|378:48|430:69,1,115.199996484375,0|0,3:2|0:2,0:0:0:0:
477,135,202851,1,0,0:2:0:0:
479,158,202936,53,10,0:2:0:0:
365,277,203104,1,2,0:2:0:0:
363,137,203273,69,2,0:1:0:0:
370,257,203385,2,0,B|379:233|375:218|375:218|365:197|365:197|371:178|369:158,1,102.4,2|2,0:1|0:1,0:0:0:0:
236,259,203610,101,10,0:2:0:0:
363,137,203778,1,2,0:2:0:0:
365,277,203947,53,2,3:2:0:0:
239,134,204116,1,2,0:2:0:0:
191,337,204284,54,0,P|154:301|146:254,1,96,10|0,0:2|0:2,0:0:0:0:
192,196,204537,1,0,0:2:0:0:
236,259,204621,2,0,P|224:308|188:339,1,96,2|0,0:2|3:2,0:0:0:0:
148,133,204958,53,10,0:2:0:0:
191,337,205127,1,2,0:2:0:0:
60,149,205295,54,0,B|101:124|101:124|148:133,1,96,2|0,3:2|0:2,0:0:0:0:
192,196,205548,1,0,0:2:0:0:
236,259,205632,2,0,B|282:268|282:268|324:243,1,96,10|0,0:2|0:2,0:0:0:0:
280,48,205969,54,0,L|272:117,1,48,2|0,0:2|0:0,0:0:0:0:
192,196,206138,1,2,3:2:0:0:
122,19,206307,53,8,0:2:0:0:
192,196,206475,1,2,0:2:0:0:
373,94,206644,70,0,B|261:56|264:149|150:100,1,230.39999296875,6|8,3:2|0:2,0:0:0:0:
248,325,207149,54,0,P|364:306|328:194,1,268.799991796875,2|0,3:2|0:0,0:0:0:0:
312,229,207571,1,0,0:0:0:0:
298,265,207655,1,10,0:0:0:0:
451,151,207823,53,2,3:2:0:0:
451,151,207992,1,0,0:2:0:0:
451,151,208329,69,8,0:0:0:0:
451,151,208498,1,0,0:0:0:0:
373,111,208666,53,2,0:1:0:0:
451,151,208835,1,8,0:0:0:0:
299,158,209003,69,10,0:3:0:0:
369,23,209172,1,8,0:0:0:0:
452,174,209340,102,0,B|439:331|439:331|415:258,1,211.200006445313,6|8,3:2|0:2,0:0:0:0:
422,280,209846,1,0,3:2:0:0:
299,158,210014,2,0,L|211:147,1,76.8,8|0,2:1|0:2,0:0:0:0:
216,162,210267,1,0,0:2:0:0:
210,176,210351,1,10,0:2:0:0:
165,251,210520,1,0,0:2:0:0:
86,134,210689,54,0,B|53:77|99:22|99:22|116:59,1,153.6,2|8,0:2|0:2,0:0:0:0:
112,51,211194,1,0,3:2:0:0:
210,176,211363,53,10,0:1:0:0:
291,80,211531,1,2,0:2:0:0:
291,80,211616,1,2,0:2:0:0:
291,80,211700,1,10,0:2:0:0:
353,188,211868,1,2,0:2:0:0:
415,63,212037,54,0,B|374:81|374:81|351:194,1,153.6,2|8,3:2|0:2,0:0:0:0:
379,312,212543,1,2,3:2:0:0:
379,312,212711,2,0,P|346:292|308:288,1,76.8,8|0,0:1|0:2,0:0:0:0:
176,337,213048,2,0,P|138:333|105:313,1,76.8,10|0,0:2|0:2,0:0:0:0:
99,299,213301,1,2,0:2:0:0:
96,283,213385,1,2,0:2:0:0:
96,283,213722,54,0,B|137:264|137:264|159:151,2,153.6,8|10|8,3:2|0:1|0:2,0:0:0:0:
95,283,214565,1,0,0:2:0:0:
24,157,214734,54,0,B|65:186|65:186|122:201|158:157,1,153.6,2|8,3:2|0:2,0:0:0:0:
99,25,215239,1,2,3:2:0:0:
99,25,215408,2,0,L|92:119,1,76.8,8|0,0:1|0:2,0:0:0:0:
95,283,215745,53,10,0:2:0:0:
158,157,215913,2,0,B|95:102|95:102|4:139|19:217,1,230.4,2|0,0:2|3:2,0:0:0:0:
18,212,216587,1,0,0:2:0:0:
167,271,216756,54,0,P|129:266|94:283,1,76.8,10|0,0:1|0:2,0:0:0:0:
217,324,217093,2,0,P|199:291|167:271,1,76.8,10|0,0:2|0:2,0:0:0:0:
20,301,217430,54,0,P|69:356|141:344,1,153.6,2|8,3:2|0:2,0:0:0:0:
107,206,217936,1,0,3:2:0:0:
107,206,218104,2,0,L|92:301,1,76.8,8|0,0:1|0:2,0:0:0:0:
217,324,218441,53,10,0:2:0:0:
300,168,218610,1,2,0:2:0:0:
300,168,218694,1,0,0:2:0:0:
300,168,218778,2,0,B|281:129|281:129|263:256,1,153.6,0|0,0:2|3:2,0:0:0:0:
266,238,219284,1,0,0:2:0:0:
397,311,219453,102,0,L|418:313,4,21.5999993408203,2|0|0|0|0,0:2|0:2|0:2|0:2|3:2,0:0:0:0:
266,238,219790,2,0,L|235:234,4,24,10|0|0|0|0,0:2|0:2|0:2|0:2|0:2,0:0:0:0:
401,119,220127,70,0,B|439:75|439:75|420:226,1,211.200006445313,6|8,0:2|0:2,0:0:0:0:
420,226,220632,1,0,3:2:0:0:
316,333,220801,2,0,L|228:322,1,76.8,8|0,0:1|0:2,0:0:0:0:
227,332,221054,1,0,0:2:0:0:
215,341,221138,1,10,0:2:0:0:
131,352,221307,1,0,0:2:0:0:
23,219,221475,54,0,B|70:278|70:278|119:211,1,153.6,2|8,0:2|0:2,0:0:0:0:
116,215,221981,1,0,3:2:0:0:
158,35,222149,53,8,0:1:0:0:
68,153,222318,1,2,0:2:0:0:
68,153,222402,1,2,0:2:0:0:
68,153,222486,1,10,0:2:0:0:
68,21,222655,1,2,0:2:0:0:
162,148,222823,54,0,B|185:99|159:35|159:35|145:73,1,153.6,2|8,3:2|0:2,0:0:0:0:
116,215,223329,1,2,3:2:0:0:
116,215,223498,2,0,P|151:229|189:224,1,76.8,8|0,2:1|0:2,0:0:0:0:
219,80,223835,2,0,P|183:65|145:70,1,76.8,10|0,0:2|0:2,0:0:0:0:
116,215,224172,54,0,L|110:314,1,76.8,0|0,0:2|0:2,0:0:0:0:
116,306,224425,1,0,0:2:0:0:
121,320,224509,1,8,3:2:0:0:
197,358,224677,1,0,0:2:0:0:
325,274,224846,38,0,B|342:269|357:275|357:275|371:270|371:270|387:275|398:273,2,76.7999976562501,2|2|2,0:1|0:1|0:1,0:0:0:0:
197,358,225183,5,10,0:2:0:0:
309,281,225351,1,2,0:2:0:0:
121,320,225520,53,2,3:2:0:0:
292,286,225689,1,2,0:2:0:0:
193,177,225857,54,0,P|183:141|186:98,1,67.1999979492188,10|0,0:2|3:2,0:0:0:0:
193,98,226110,1,0,0:2:0:0:
206,88,226194,2,0,L|285:76,1,67.1999979492188,2|0,0:2|0:2,0:0:0:0:
422,33,226531,53,10,0:2:0:0:
288,81,226700,1,2,0:2:0:0:
429,147,226868,54,0,L|495:157,1,67.1999979492188,2|0,0:2|3:2,0:0:0:0:
504,171,227121,1,0,0:2:0:0:
511,186,227205,2,0,P|510:219|501:251,1,67.1999979492188,10|0,0:2|0:2,0:0:0:0:
327,263,227543,54,0,P|346:256|376:254,1,33.5999989746094,2|0,3:2|0:2,0:0:0:0:
493,267,227711,1,2,0:2:0:0:
363,335,227880,53,10,0:2:0:0:
484,281,228048,1,2,0:2:0:0:
429,147,228217,54,0,B|369:128|321:167|321:167|270:170|245:131,1,192,2|8,3:2|0:2,0:0:0:0:
135,23,228722,54,0,P|160:78|156:119,1,96,2|0,3:2|0:2,0:0:0:0:
151,135,228975,1,0,0:2:0:0:
137,155,229059,1,0,0:2:0:0:
117,169,229144,1,0,0:2:0:0:
94,177,229228,1,8,0:2:0:0:
0,273,229396,69,2,0:2:0:0:
0,273,229481,1,0,0:2:0:0:
0,273,229565,1,0,3:2:0:0:
0,273,229902,53,8,0:0:0:0:
0,273,230239,101,10,0:3:0:0:
94,177,230408,1,10,0:0:0:0:
190,271,230576,1,10,0:3:0:0:
96,367,230745,1,8,0:0:0:0:
95,272,230913,69,4,0:0:0:0:
256,192,230998,12,2,233947,0:2:0:0:
91,265,241026,102,0,P|85:241|82:215,1,43.1999986816407,2|0,0:2|0:2,0:0:0:0:
113,136,241194,2,0,P|119:112|122:86,1,43.1999986816407,2|0,0:2|0:2,0:0:0:0:
56,52,241363,53,2,0:2:0:0:
56,52,241447,1,2,0:2:0:0:
56,52,241531,1,2,0:2:0:0:
56,52,241616,1,2,0:2:0:0:
56,52,241700,70,0,L|214:68,1,144.000005493164,2|8,3:2|0:2,0:0:0:0:
199,66,242205,1,0,3:2:0:0:
199,66,242374,2,0,L|183:223,1,144.000005493164,8|8,0:1|0:2,0:0:0:0:
342,80,242880,54,0,L|198:66,1,144.000005493164,2|0,0:2|0:2,0:0:0:0:
199,66,243385,1,10,0:2:0:0:
199,66,243554,1,0,3:2:0:0:
199,66,243722,2,0,L|185:210,1,144.000005493164,8|8,0:1|0:2,0:0:0:0:
171,353,244396,54,0,L|185:209,1,144.000005493164,2|8,3:2|0:2,0:0:0:0:
185,210,244902,1,0,3:2:0:0:
185,210,245071,2,0,L|329:224,1,144.000005493164,8|8,0:1|0:2,0:0:0:0:
342,80,245576,54,0,L|328:224,1,144.000005493164,2|0,0:2|0:2,0:0:0:0:
328,223,246082,1,8,3:2:0:0:
328,223,246250,1,2,0:2:0:0:
328,223,246419,2,0,L|400:230,1,72.0000027465821,8|0,0:1|0:2,0:0:0:0:
400,230,246756,2,0,L|472:236,1,72.0000027465821,8|0,0:2|0:2,0:0:0:0:
457,379,247093,54,0,L|471:235,1,144.000005493164,2|8,0:2|0:2,0:0:0:0:
471,236,247599,1,0,3:2:0:0:
471,236,247767,2,0,L|485:92,1,144.000005493164,8|8,0:1|0:2,0:0:0:0:
342,78,248273,54,0,L|486:92,1,144.000005493164,2|2,0:2|0:2,0:0:0:0:
486,92,248778,1,2,3:2:0:0:
486,92,248947,1,2,0:0:0:0:
486,92,249116,2,0,L|479:163,1,72.0000027465821,8|0,0:1|0:2,0:0:0:0:
479,164,249453,2,0,L|472:235,1,72.0000027465821,8|0,0:2|0:2,0:0:0:0:
458,379,249790,54,0,L|472:235,1,144.000005493164,2|8,3:2|0:2,0:0:0:0:
472,236,250295,1,0,3:2:0:0:
472,236,250464,1,8,0:1:0:0:
472,236,250632,2,0,L|400:228,1,72.0000027465821,2|8,0:2|0:0,0:0:0:0:
257,215,250969,54,0,L|401:229,1,144.000005493164,2|0,0:2|0:2,0:0:0:0:
400,229,251475,2,0,L|407:157,1,72.0000027465821,8|0,3:2|0:2,0:0:0:0:
320,19,251812,86,0,P|294:14|249:19,2,48,10|0|0,0:3|0:2|3:2,0:0:0:0:
378,68,252065,1,0,0:2:0:0:
390,79,252149,2,0,P|415:83|460:78,2,48,10|0|0,0:3|0:2|0:2,0:0:0:0:
318,111,252402,1,2,0:2:0:0:
306,122,252486,86,0,B|299:162|299:162|307:194|307:194|301:234,1,115.199996484375,0|2,3:2|0:2,0:0:0:0:
258,313,252992,1,2,3:2:0:0:
258,313,253160,1,10,0:1:0:0:
258,313,253329,2,0,L|192:304,1,57.5999982421876,2|0,0:2|0:2,0:0:0:0:
83,356,253666,54,0,P|99:301|86:246,1,115.199996484375,2|0,0:2|0:2,0:0:0:0:
0,248,254172,2,0,L|86:245,1,86.3999973632813,2|0,3:2|0:2,0:0:0:0:
153,210,254509,2,0,L|157:177,3,28.7999991210938,10|0|0|0,0:1|0:2|0:2|0:2,0:0:0:0:
124,116,254846,2,0,L|120:83,3,28.7999991210938,2|0|0|0,0:2|0:2|0:2|0:2,0:0:0:0:
191,26,255183,54,0,L|269:28,1,57.5999982421876,0|0,3:2|0:2,0:0:0:0:
258,38,255436,1,0,0:2:0:0:
268,47,255520,1,2,0:2:0:0:
352,70,255689,1,2,3:2:0:0:
352,70,255857,1,10,0:1:0:0:
352,70,256026,2,0,L|430:72,1,57.5999982421876,2|0,0:2|0:2,0:0:0:0:
508,155,256363,54,0,B|478:176|478:176|473:272,1,115.199996484375,2|0,0:2|0:2,0:0:0:0:
428,353,256868,2,0,P|391:335|329:337,1,86.3999973632813,2|0,3:2|0:2,0:0:0:0:
275,359,257205,86,0,L|214:365,2,43.1999986816407,10|0|0,0:3|0:2|3:2,0:0:0:0:
288,285,257458,1,0,0:2:0:0:
267,277,257543,2,0,L|206:271,2,43.1999986816407,10|0|0,0:3|0:2|0:2,0:0:0:0:
359,258,257795,1,0,0:2:0:0:
380,250,257880,70,0,P|403:195|373:124,1,134.399995898438,6|0,3:2|0:2,0:0:0:0:
377,128,258385,1,0,3:2:0:0:
290,68,258554,2,0,L|240:62,3,33.5999989746094,10|0|0|0,0:1|0:2|0:2|0:2,0:0:0:0:
186,86,258891,2,0,L|136:80,3,33.5999989746094,2|0|0|0,0:2|0:2|0:2|0:2,0:0:0:0:
55,27,259228,54,0,B|79:57|79:57|74:158,1,134.399995898438,2|0,3:2|3:2,0:0:0:0:
74,152,259734,1,0,0:2:0:0:
129,234,259902,1,10,0:1:0:0:
142,236,259986,1,0,0:2:0:0:
156,239,260071,1,0,0:2:0:0:
171,242,260155,1,0,0:2:0:0:
186,245,260239,2,0,L|229:241,3,33.5999989746094,2|0|0|0,0:2|0:2|0:2|0:2,0:0:0:0:
310,173,260576,54,0,P|298:209|295:248,1,76.8,2|0,3:2|0:2,0:0:0:0:
295,262,260829,1,0,0:2:0:0:
297,276,260913,1,0,0:2:0:0:
285,359,261082,1,0,3:2:0:0:
363,328,261250,1,10,0:1:0:0:
384,323,261335,1,0,0:2:0:0:
405,324,261419,1,0,0:2:0:0:
426,328,261503,1,0,0:2:0:0:
447,338,261587,1,2,0:2:0:0:
440,317,261672,1,0,0:2:0:0:
440,295,261756,1,0,0:2:0:0:
445,275,261840,1,0,0:2:0:0:
456,256,261925,54,0,P|490:174|448:87,1,172.799994726563,2|0,3:2|3:3,0:0:0:0:
461,99,262430,1,0,0:2:0:0:
298,56,262599,102,0,L|241:46,2,52.8000016113282,10|0|0,0:3|0:2|3:2,0:0:0:0:
337,128,262851,1,2,0:2:0:0:
308,141,262936,2,0,L|256:131,1,52.8000016113282,10|0,0:3|0:2,0:0:0:0:
409,89,263104,2,0,L|461:99,1,52.8000016113282,2|0,3:2|0:2,0:0:0:0:
366,328,263273,70,0,P|351:283|351:236,1,96,4|0,3:2|0:2,0:0:0:0:
461,99,263610,2,0,P|476:144|476:191,1,96,0|0,3:2|0:2,0:0:0:0:
148,108,263947,54,0,L|52:98,1,96,2|0,3:2|0:2,0:0:0:0:
366,109,264284,2,0,L|461:99,1,96,0|0,3:2|0:2,0:0:0:0:
145,328,264621,54,0,P|160:283|160:236,1,96,4|0,3:2|0:2,0:0:0:0:
52,98,264958,2,0,P|36:143|36:190,1,96,0|0,3:2|0:2,0:0:0:0:
461,337,265295,54,0,L|366:328,1,96,2|0,3:2|0:2,0:0:0:0:
49,337,265632,2,0,L|145:328,1,96,0|0,3:2|0:2,0:0:0:0:
351,236,265969,85,4,3:2:0:0:
256,96,266138,1,0,3:2:0:0:
160,236,266307,53,0,3:2:0:0:
256,96,266475,1,0,3:2:0:0:
145,328,266644,53,4,3:2:0:0:
256,96,266812,1,0,3:2:0:0:
366,328,266981,53,0,3:2:0:0:
256,96,267149,1,0,3:2:0:0:
30,245,267318,69,0,3:2:0:0:
56,220,267402,1,0,3:2:0:0:
90,211,267486,1,0,3:2:0:0:
125,215,267571,1,0,3:2:0:0:
155,236,267655,53,0,3:2:0:0:
193,272,267739,1,0,3:2:0:0:
242,290,267823,1,0,3:2:0:0:
294,285,267908,1,0,3:2:0:0:
339,256,267992,54,0,L|348:192,2,57.5999982421876,10|0|0,3:3|0:2|3:2,0:0:0:0:
250,183,268245,1,0,0:2:0:0:
247,153,268329,2,0,L|256:89,2,57.5999982421876,10|0|0,3:3|0:2|0:2,0:0:0:0:
6,86,268666,102,2,B|32:80|54:92|54:92|77:78|89:51|89:51|117:80|125:109|125:109|151:96|166:75|166:75|175:91|194:96|194:96|207:89|217:89|217:89|230:97|254:96,1,326.400006225586,6|8,0:2|0:2,0:1:0:0:
255,96,269172,1,0,3:2:0:0:
163,213,269340,22,0,B|127:206|127:206|118:212|118:212|101:192|101:192|92:199|92:199|43:189,1,134.399995898438,10|0,0:1|0:2,0:0:0:0:
6,86,269593,2,0,B|24:91|41:92|41:92|50:86|50:86|67:106|67:106|76:99|76:99|125:109,1,134.399995898438,2|0,3:1|0:2,0:0:0:0:
163,213,269846,1,10,0:1:0:0:
163,213,270014,70,2,B|201:209|204:181|204:181|184:181|178:192,1,86.3999973632813,2|8,0:2|0:2,1:2:0:0:
98,285,270351,6,0,B|82:319|104:336|104:336|114:318|106:307,1,86.3999973632813,0|0,3:2|0:2,0:0:0:0:
70,193,270520,2,0,B|47:162|22:172|22:172|32:190|45:189,1,86.3999973632813,0|0,3:2|0:2,0:0:0:0:
204,301,270689,70,2,B|233:324|268:318|297:302|305:264|305:264|345:258|376:288|339:288|391:328|426:314|428:291|413:268,1,288,2|8,3:1|0:2,1:1:0:0:
505,241,271026,2,2,B|473:237|459:205|459:205|420:184|383:200|383:200|352:199|333:179,1,192,2|8,0:1|0:2,1:1:0:0:
336,182,271363,70,0,L|332:135,1,48,2|0,0:2|0:2,0:0:0:0:
360,8,271531,1,0,3:0:0:0:
486,37,271700,1,8,0:2:0:0:
457,163,271868,2,0,L|410:159,1,48,0|0,3:2|0:2,0:0:0:0:
290,62,272037,54,0,P|223:27|127:57,1,172.799994726563,8|0,0:2|3:2,0:0:0:0:
93,113,272374,5,2,0:2:0:0:
117,127,272458,1,2,0:2:0:0:
91,140,272543,1,10,0:2:0:0:
115,154,272627,1,2,0:2:0:0:
89,167,272711,86,0,L|82:217,2,51.2,2|0|0,3:1|0:2|0:2,0:0:0:0:
133,51,272880,2,0,L|140:1,2,44.7999986328125,2|0|0,0:1|0:2|0:2,0:0:0:0:
197,141,273048,53,2,0:3:0:0:
269,156,273160,1,2,3:2:0:0:
341,171,273273,1,2,0:2:0:0:
349,39,273385,22,0,B|330:7|330:7|317:101,1,134.399995898438,2|0,0:1|3:3,0:0:0:0:
260,287,273722,2,0,B|278:319|278:319|291:224,1,134.399995898438,2|8,0:1|0:3,0:0:0:0:
430,32,274059,70,2,B|431:83|392:108|392:108|424:134|432:177|418:217|388:237|388:237|379:250|377:281|393:292|393:292|391:277|394:257,1,326.400006225586,6|8,0:2|0:2,0:1:0:0:
393,263,274565,1,0,3:2:0:0:
260,287,274734,22,0,B|241:287|225:275|225:275|216:285|216:285|191:267|159:263|136:275,1,134.399995898438,10|0,0:1|0:2,0:0:0:0:
39,327,274986,2,0,B|48:310|46:290|46:290|59:287|59:287|56:257|68:227|90:214,1,134.399995898438,2|0,3:1|0:2,0:0:0:0:
166,346,275239,1,10,0:1:0:0:
260,287,275408,70,2,B|267:257|239:232|239:232|246:249|245:264,1,86.3999973632813,2|8,0:2|0:2,1:2:0:0:
89,214,275745,6,0,B|82:184|110:159|110:159|103:176|104:191,1,86.3999973632813,0|0,3:2|0:2,0:0:0:0:
259,138,275913,2,0,B|266:108|238:83|238:83|245:100|244:115,1,86.3999973632813,0|0,3:2|0:2,0:0:0:0:
104,182,276082,70,2,B|84:160|53:143|53:143|85:154|112:142|112:142|135:120|165:119|165:119|199:160|260:138,1,288,2|8,3:1|0:2,1:1:0:0:
388,203,276419,2,2,B|336:256|268:218|268:218|297:214|320:188,1,192,2|8,0:1|0:2,1:1:0:0:
319,189,276756,69,2,0:2:0:0:
378,48,276925,1,0,3:2:0:0:
227,67,277093,2,0,P|193:65|149:47,1,57.5999982421876,8|0,0:2|0:2,0:0:0:0:
104,182,277262,53,2,0:2:0:0:
118,163,277346,1,2,0:2:0:0:
132,145,277430,2,0,L|144:261,1,115.199996484375,2|0,0:2|0:2,0:0:0:0:
166,351,277683,1,10,0:2:0:0:
186,357,277767,54,0,P|214:357|242:348,1,57.5999982421876,2|0,0:2|0:2,0:0:0:0:
200,250,277936,2,0,P|171:250|144:259,1,57.5999982421876,2|2,3:2|0:2,0:0:0:0:
75,324,278104,102,0,P|23:325|-15:297,2,89.5999972656251,2|0|0,0:2|3:2|3:2,0:0:0:0:
104,182,278441,53,14,0:3:0:0:
50,246,278554,1,0,3:2:0:0:
15,154,278666,53,6,0:3:0:0:
100,161,278778,1,0,3:2:0:0:
74,70,278891,53,6,0:3:0:0:
11,133,279003,1,0,3:2:0:0:
0,19,279116,53,6,0:3:0:0:
90,57,279228,2,0,B|127:64|127:64|168:50,1,76.7999976562501,2|0,0:2|0:2,0:0:0:0:
449,69,279453,102,2,B|395:44|353:77|353:77|313:80|292:32|292:32|243:35|219:69|219:69|193:52|163:51,1,326.400006225586,6|8,0:2|0:2,0:1:0:0:
165,51,279958,1,0,3:2:0:0:
247,248,280127,22,0,B|253:208|253:208|263:202|263:202|267:178|267:178|260:169|260:169|272:106,1,134.399995898438,10|0,0:1|0:2,0:0:0:0:
165,51,280380,2,0,B|158:90|158:90|148:96|148:96|144:120|144:120|151:129|151:129|139:192,1,134.399995898438,2|0,3:1|0:2,0:0:0:0:
247,248,280632,1,10,0:1:0:0:
247,248,280801,70,2,B|300:231|300:231|270:221,1,86.3999973632813,2|8,0:2|0:2,1:2:0:0:
142,175,281138,6,0,B|100:137|100:137|107:167,1,86.3999973632813,0|0,0:2|0:2,0:0:0:0:
132,305,281307,2,0,B|120:359|120:359|142:338,1,86.3999973632813,0|0,0:2|0:2,0:0:0:0:
271,221,281475,70,2,B|296:211|308:189|308:189|317:217|344:237|344:237|377:201|423:210|423:210|464:236|508:214,1,288,2|8,3:1|0:2,1:1:0:0:
499,96,281812,2,2,B|501:130|472:151|472:151|417:131|421:69|448:45,1,192,2|8,0:1|0:2,1:1:0:0:
446,47,282149,70,0,L|396:40,1,48,2|0,0:2|0:2,0:0:0:0:
269,20,282318,1,0,3:2:0:0:
212,137,282486,1,8,0:2:0:0:
305,227,282655,2,0,L|312:277,1,48,0|0,3:2|0:2,0:0:0:0:
212,365,282823,53,8,0:2:0:0:
138,158,283076,1,2,3:2:0:0:
119,232,283160,1,2,0:2:0:0:
157,84,283329,1,8,0:2:0:0:
305,227,283498,86,0,L|390:235,2,76.8,0|2|2,3:2|0:2|0:2,0:0:0:0:
212,137,283750,1,0,3:0:0:0:
138,158,283835,54,0,L|53:150,1,76.8,8|2,0:2|0:2,0:0:0:0:
231,63,284003,2,0,L|316:71,1,76.8,0|2,3:2|0:2,0:0:0:0:
381,234,284172,22,0,L|466:242,2,67.1999979492188,2|2|2,0:1|0:2|0:2,0:0:0:0:
261,294,284425,1,10,0:1:0:0:
208,240,284509,102,0,L|98:230,1,89.5999972656251,2|0,0:1|0:2,0:0:0:0:
49,268,284677,2,0,L|39:224,1,44.7999986328125,8|0,0:2|0:2,0:0:0:0:
17,48,284846,102,2,B|46:21|96:37|96:37|123:65|170:65|194:31|194:31|221:33|231:63|231:63|266:82|306:69,1,326.400006225586,6|8,3:2|0:2,0:1:0:0:
307,70,285351,1,0,0:2:0:0:
491,129,285520,22,0,B|467:132|467:132|441:120|441:120|419:140|419:140|367:148,1,134.399995898438,10|0,0:1|0:2,0:0:0:0:
359,246,285773,2,0,B|382:242|382:242|408:254|408:254|430:234|430:234|482:226,1,134.399995898438,2|0,3:1|0:2,0:0:0:0:
491,129,286026,1,10,0:1:0:0:
359,246,286194,70,2,B|356:281|356:281|342:295|342:295|338:263,1,86.3999973632813,2|8,0:2|0:2,1:2:0:0:
256,156,286531,6,0,B|253:121|253:121|239:107|239:107|235:138,1,86.3999973632813,0|0,3:3|0:2,0:0:0:0:
195,281,286700,2,0,B|192:316|192:316|178:330|178:330|174:298,1,86.3999973632813,0|0,3:2|0:2,0:0:0:0:
146,117,286868,70,2,B|131:61|131:61|106:122|106:122|120:167|120:167|108:199|108:199|113:229|113:229|104:251|104:251|100:280,1,288,2|8,3:1|0:2,1:1:0:0:
195,281,287205,2,2,B|140:282|140:282|92:303|92:303|57:289|57:289|75:277|75:277|106:280,1,192,2|8,0:1|0:2,1:1:0:0:
100,279,287543,69,2,0:2:0:0:
146,117,287711,1,0,3:2:0:0:
314,110,287880,1,8,0:2:0:0:
372,267,288048,1,0,3:2:0:0:
472,57,288217,54,0,B|447:84|447:84|425:202,1,115.199996484375,8|0,3:2|0:2,0:0:0:0:
443,234,288469,1,0,3:2:0:0:
447,256,288554,1,2,0:2:0:0:
334,335,288722,1,8,0:2:0:0:
256,114,288891,101,2,3:2:0:0:
246,164,288975,1,0,3:2:0:0:
236,216,289059,1,0,3:2:0:0:
228,268,289144,1,0,3:2:0:0:
187,233,289228,53,2,3:2:0:0:
236,216,289312,1,0,3:2:0:0:
286,199,289396,1,0,3:2:0:0:
335,180,289481,1,0,3:2:0:0:
325,233,289565,53,2,3:2:0:0:
286,199,289649,1,0,3:2:0:0:
246,164,289734,1,0,3:2:0:0:
206,131,289818,1,0,3:2:0:0:
256,114,289902,53,10,0:2:0:0:
488,34,290239,70,0,B|471:59|471:59|466:124,1,96,6|0,3:2|0:2,0:0:0:0:
512,278,290576,2,0,B|487:261|487:261|421:256,1,96,10|0,0:2|0:2,0:0:0:0:
358,301,290829,1,0,0:2:0:0:
345,315,290913,2,0,L|246:313,1,96,2|0,0:2|3:2,0:0:0:0:
100,354,291250,1,8,0:2:0:0:
186,211,291419,53,2,0:2:0:0:
186,211,291503,1,0,0:2:0:0:
186,211,291587,2,0,B|217:161|198:98|198:98|170:125,1,144,0|0,3:2|0:2,0:0:0:0:
179,116,291925,2,0,L|274:114,1,96,10|0,0:2|0:2,0:0:0:0:
344,151,292177,1,0,0:2:0:0:
362,155,292262,2,0,P|374:110|361:64,1,96,2|0,0:2|3:2,0:0:0:0:
230,28,292599,1,10,0:2:0:0:
186,211,292767,54,0,B|192:146|192:146|224:89|224:89|231:15,1,192,2|0,3:2|3:2,0:0:0:0:
277,163,293273,1,8,0:2:0:0:
142,72,293441,1,0,0:2:0:0:
142,72,293526,1,0,0:2:0:0:
142,72,293610,2,0,B|94:58|94:58|40:73,1,96,2|0,0:2|3:2,0:0:0:0:
2,228,293947,1,10,0:2:0:0:
186,211,294116,53,2,0:2:0:0:
186,211,294200,1,0,0:2:0:0:
186,211,294284,2,0,B|166:176|166:176|146:308,1,144,0|0,3:2|0:2,0:0:0:0:
203,338,294621,2,0,P|243:326|314:335,1,96,10|0,0:2|0:2,0:0:0:0:
370,362,294874,1,0,0:2:0:0:
387,368,294958,2,0,L|397:266,1,96,2|0,0:2|3:2,0:0:0:0:
278,160,295295,2,0,L|268:58,1,96,10|0,0:2|0:2,0:0:0:0:
327,19,295548,1,0,0:2:0:0:
345,16,295632,54,0,B|479:30|479:30|448:33|427:54,1,192,2|8,3:2|0:2,0:0:0:0:
477,208,296138,1,2,0:2:0:0:
477,208,296222,1,0,0:2:0:0:
477,208,296307,2,0,L|486:113,1,96,0|0,0:2|3:2,0:0:0:0:
345,16,296644,1,10,0:2:0:0:
195,175,296812,53,2,0:2:0:0:
195,175,296896,1,0,0:2:0:0:
195,175,296981,2,0,L|187:79,1,96,0|0,3:2|0:2,0:0:0:0:
369,184,297318,2,0,L|377:88,1,96,10|0,0:2|0:2,0:0:0:0:
345,16,297571,1,0,0:2:0:0:
329,27,297655,2,0,P|283:32|221:10,1,96,0|0,0:2|3:2,0:0:0:0:
98,76,297992,1,8,0:2:0:0:
202,182,298160,53,2,3:2:0:0:
202,182,298245,1,2,0:2:0:0:
202,182,298329,2,0,P|216:233|197:269,1,96,2|0,0:2|3:2,0:0:0:0:
37,295,298666,2,0,P|81:281|124:301,1,96,8|0,0:2|0:2,0:0:0:0:
133,318,298919,1,0,0:2:0:0:
137,336,299003,1,2,0:2:0:0:
260,365,299172,1,0,3:2:0:0:
328,213,299340,2,0,P|290:250|288:290,1,96,8|0,0:2|0:2,0:0:0:0:
404,383,299677,6,0,B|401:351|401:351|406:329|406:329|402:298,1,86.3999973632813,0|0,3:2|0:2,0:0:0:0:
328,213,300014,86,0,B|385:223|385:223|432:184,1,115.199996484375,2|0,0:1|0:2,0:0:0:0:
451,17,300351,21,2,3:2:0:0:
363,140,300520,1,2,3:2:0:0:
234,37,300689,21,2,0:2:0:0:
224,34,300773,1,2,0:2:0:0:
215,31,300857,1,2,0:2:0:0:
206,29,300941,1,2,0:2:0:0:
197,26,301026,70,0,P|174:52|167:96,1,76.8,4|0,0:2|0:2,0:0:0:0:
188,198,301363,1,10,0:2:0:0:
188,198,301531,1,2,0:2:0:0:
85,164,301700,2,0,L|-9:154,1,76.8,2|0,0:2|0:2,0:0:0:0:
51,267,302037,1,10,0:2:0:0:
195,205,302205,53,2,0:2:0:0:
195,205,302290,1,0,0:2:0:0:
195,205,302374,2,0,P|179:247|169:298,1,76.8,0|0,0:2|0:2,0:0:0:0:
257,328,302711,2,0,L|351:338,1,76.8,10|0,0:2|0:2,0:0:0:0:
271,213,303048,2,0,L|177:203,1,76.8,2|0,0:2|0:2,0:0:0:0:
99,231,303385,1,10,0:2:0:0:
170,135,303554,53,2,0:2:0:0:
170,135,303638,1,0,0:2:0:0:
170,135,303722,2,0,B|195:180|195:180|192:290,2,153.6,0|8|0,0:2|0:2|0:2,0:0:0:0:
170,135,304734,1,10,0:2:0:0:
94,58,304902,53,2,0:2:0:0:
94,58,304986,1,0,0:2:0:0:
94,58,305071,2,0,P|127:64|179:45,1,76.8,0|0,0:2|0:2,0:0:0:0:
249,122,305408,2,0,P|286:126|319:146,1,76.8,8|0,0:2|0:2,0:0:0:0:
268,278,305745,38,0,B|265:251|265:251|261:247|261:247|264:243|264:243|260:206,2,76.7999976562501,2|2|0,0:1|0:1|0:1,0:0:0:0:
357,338,306082,22,0,P|397:325|423:325,1,57.5999982421876,0|0,0:2|0:2,0:0:0:0:
462,193,306419,102,0,B|420:224|420:224|413:324,1,153.6,2|8,0:2|0:2,0:0:0:0:
275,285,306925,1,2,0:2:0:0:
275,285,307009,1,0,0:2:0:0:
275,285,307093,2,0,L|281:193,1,76.8,0|0,0:2|0:2,0:0:0:0:
343,113,307430,1,10,0:2:0:0:
420,240,307599,53,2,0:2:0:0:
420,240,307683,1,0,0:2:0:0:
420,240,307767,2,0,P|355:201|280:208,1,153.6,0|8,0:2|0:2,0:0:0:0:
281,208,308441,2,0,L|204:201,1,76.8,2|0,0:2|0:2,0:0:0:0:
186,210,308694,1,0,0:2:0:0:
170,220,308778,2,0,L|93:213,1,76.8,10|0,0:2|0:2,0:0:0:0:
29,339,309116,54,0,B|74:313|74:313|93:214,1,153.6,2|8,0:2|0:2,0:0:0:0:
63,80,309621,1,2,0:2:0:0:
63,80,309705,1,0,0:2:0:0:
63,80,309790,2,0,B|44:114|44:114|40:151,1,76.8,0|0,0:2|0:2,0:0:0:0:
170,220,310127,1,8,0:2:0:0:
256,64,310295,53,2,0:2:0:0:
256,64,310380,1,0,0:2:0:0:
256,64,310464,1,0,0:2:0:0:
256,64,310801,70,0,P|284:65|311:58,1,48,2|0,0:2|0:2,0:0:0:0:
377,15,311138,1,2,0:2:0:0:
377,15,311475,53,0,0:2:0:0:
303,60,311644,2,0,P|294:86|294:114,1,48,2|0,0:2|0:2,0:0:0:0:
418,179,311981,38,0,P|376:167|346:170,1,67.1999979492188,2|0,0:2|0:2,0:0:0:0:
300,228,312234,2,0,P|266:226|235:214,1,67.1999979492188,2|0,0:2|0:2,0:0:0:0:
199,148,312486,54,2,L|189:289,1,129.599996044922,2|0,0:2|0:2,0:0:0:0:
130,326,312823,38,2,B|118:304|93:297|64:305|47:335|61:369|94:374|127:365|155:341|130:327|178:309|217:310|251:335,1,268.799991796875,2|0,0:2|3:2,1:2:0:0:
378,382,313329,53,2,0:2:0:0:
378,382,313413,1,2,0:2:0:0:
378,382,313498,2,0,L|383:317,1,52.8000016113282,2|0,0:2|0:2,0:0:0:0:
342,152,313666,85,2,0:2:0:0:
342,152,313750,1,2,0:2:0:0:
342,152,313835,2,0,B|315:190|315:190|321:286,1,129.599996044922,2|0,0:2|0:2,0:0:0:0:
246,331,314172,86,2,P|218:319|178:317,1,57.5999982421876,2|0,0:2|0:2,1:2:0:0:
110,286,314340,2,2,P|82:295|54:296,1,57.5999982421876,2|0,0:2|0:2,1:2:0:0:
40,162,314509,38,0,B|148:136|124:218|232:190,1,201.599993847656,6|0,3:2|0:2,0:0:0:0:
253,182,314846,1,8,0:2:0:0:
208,32,315014,53,0,0:2:0:0:
202,54,315099,1,0,0:2:0:0:
201,76,315183,1,0,0:2:0:0:
293,31,315351,1,0,3:2:0:0:
407,126,315520,38,0,B|365:140|325:119|325:119|351:104,1,100.799996923828,10|0,0:2|0:2,0:0:0:0:
412,23,315857,6,0,L|402:249,1,201.599993847656,2|0,3:2|0:2,0:0:0:0:
403,247,316194,1,8,0:2:0:0:
253,204,316363,53,0,0:2:0:0:
274,196,316447,1,0,0:2:0:0:
296,190,316531,2,0,P|312:215|319:243,1,57.5999982421876,2|0,0:2|0:2,0:0:0:0:
242,359,316700,2,0,P|249:331|264:307,1,57.5999982421876,0|0,3:2|0:2,0:0:0:0:
440,318,316868,53,10,0:2:0:0:
322,363,317037,1,2,3:2:0:0:
403,247,317205,53,2,0:2:0:0:
322,363,317374,1,0,3:2:0:0:
199,262,317543,1,8,0:2:0:0:
83,355,317711,53,2,0:2:0:0:
83,355,317795,1,0,0:2:0:0:
83,355,317880,2,0,L|77:289,1,57.5999982421876,0|0,0:2|0:2,0:0:0:0:
136,193,318048,1,0,3:2:0:0:
299,248,318217,54,0,B|252:282|252:282|198:261,1,115.199996484375,10|0,0:2|0:2,0:0:0:0:
221,53,318554,2,0,L|236:168,1,115.199996484375,0|0,3:2|0:2,0:0:0:0:
284,230,318807,1,0,0:2:0:0:
299,248,318891,54,0,B|349:237|349:237|414:268|414:268|466:262,1,172.799994726563,10|0,0:2|0:2,0:0:0:0:
512,333,319228,53,2,0:2:0:0:
478,302,319312,1,0,0:2:0:0:
463,262,319396,1,0,0:2:0:0:
471,220,319481,1,0,0:2:0:0:
500,187,319565,54,0,B|527:156|532:101|506:70|506:70|510:86|506:104|499:115,1,172.799994726563,10|0,0:2|0:2,0:0:0:0:
391,83,319902,54,0,B|340:72|282:81|282:81|238:57|238:57|179:73|130:63,1,268.799991796875,2|8,3:2|0:2,0:0:0:0:
163,225,320408,53,2,0:2:0:0:
185,228,320492,1,0,0:2:0:0:
208,231,320576,2,0,B|249:193|249:193|223:130,1,115.199996484375,0|0,0:2|3:2,0:0:0:0:
130,63,320913,54,0,L|46:58,1,57.5999982421876,8|0,0:2|0:2,0:0:0:0:
1,169,321082,1,2,0:2:0:0:
23,161,321166,1,0,0:2:0:0:
45,154,321250,54,0,B|51:188|35:215|35:215|51:250|51:250|33:275|42:321,1,172.799994726563,0|0,3:2|0:2,0:0:0:0:
111,360,321587,1,8,0:2:0:0:
208,231,321756,53,2,0:2:0:0:
185,228,321840,1,0,0:2:0:0:
163,225,321925,1,0,0:2:0:0:
51,249,322093,1,0,3:2:0:0:
96,97,322262,54,0,P|114:119|122:146,1,57.5999982421876,10|0,0:2|0:2,0:0:0:0:
137,274,322430,2,0,P|145:246|163:224,1,57.5999982421876,0|0,3:2|0:2,0:0:0:0:
288,170,322599,53,2,0:2:0:0:
235,304,322767,1,0,3:2:0:0:
206,149,322936,1,8,0:2:0:0:
304,256,323104,53,2,0:2:0:0:
325,262,323189,1,0,0:2:0:0:
347,258,323273,1,0,0:2:0:0:
392,131,323441,2,0,L|380:192,1,57.5999982421876,0|0,3:2|0:2,0:0:0:0:
390,330,323610,53,10,0:2:0:0:
494,265,323778,1,2,0:2:0:0:
498,242,323863,1,0,0:2:0:0:
501,219,323947,54,0,B|381:187|381:187|431:236,1,172.799994726563,0|0,3:2|0:2,0:0:0:0:
501,219,324284,2,0,B|519:167|519:167|507:94,1,115.199996484375,8|0,0:2|0:2,0:0:0:0:
476,38,324537,1,0,0:2:0:0:
453,30,324621,53,2,3:2:0:0:
381,187,324790,1,2,0:2:0:0:
323,51,324958,38,0,B|333:25|333:25|346:97,1,100.799996923828,10|0,0:2|0:2,0:0:0:0:
381,187,325295,6,0,B|280:210|292:130|187:158,1,201.599993847656,6|0,3:2|0:2,0:0:0:0:
169,170,325632,1,8,0:2:0:0:
224,306,325801,53,0,0:2:0:0:
229,283,325885,1,0,0:2:0:0:
226,261,325969,1,0,0:2:0:0:
131,322,326138,1,0,3:2:0:0:
70,189,326307,38,0,B|80:163|80:163|93:235,1,100.799996923828,10|0,0:2|0:2,0:0:0:0:
131,322,326644,6,0,B|232:345|220:265|325:293,1,201.599993847656,2|0,3:2|0:2,0:0:0:0:
345,300,326981,1,8,0:2:0:0:
467,377,327149,53,0,0:2:0:0:
456,355,327234,1,0,0:2:0:0:
448,333,327318,2,0,P|445:304|447:275,1,57.5999982421876,2|0,0:2|0:2,0:0:0:0:
498,200,327486,2,0,P|500:171|497:142,1,57.5999982421876,2|0,3:2|0:2,0:0:0:0:
286,81,327655,53,10,0:2:0:0:
407,170,327823,1,2,3:2:0:0:
374,32,327992,53,2,0:2:0:0:
407,170,328160,1,0,3:2:0:0:
261,178,328329,1,8,0:2:0:0:
345,300,328498,53,2,0:2:0:0:
345,300,328582,1,0,0:2:0:0:
345,300,328666,2,0,L|342:236,1,57.5999982421876,0|0,0:2|0:2,0:0:0:0:
358,109,328835,1,0,3:2:0:0:
450,258,329003,54,0,P|393:266|342:242,1,115.199996484375,10|0,0:2|0:2,0:0:0:0:
238,69,329340,2,0,B|259:101|259:101|261:190,1,115.199996484375,0|0,3:2|0:2,0:0:0:0:
231,250,329593,1,0,0:2:0:0:
221,271,329677,53,10,0:2:0:0:
159,133,329846,1,2,0:2:0:0:
70,281,330014,70,0,B|41:290|22:282|22:282|7:290|7:290|-8:286|-27:297,2,102.4,2|2|2,0:1|0:1|0:1,0:0:0:0:
159,133,330351,101,10,0:2:0:0:
221,271,330520,1,2,0:2:0:0:
320,105,330689,54,0,P|365:90|410:102,1,96,2|0,3:2|0:2,0:0:0:0:
296,174,330941,1,0,0:2:0:0:
278,185,331026,2,0,P|287:138|321:105,1,96,10|0,0:2|0:2,0:0:0:0:
332,242,331278,1,0,0:2:0:0:
326,262,331363,2,0,P|290:229|277:183,1,96,2|0,0:2|3:2,0:0:0:0:
319,16,331700,53,10,0:2:0:0:
372,183,331868,1,2,0:2:0:0:
498,97,332037,54,0,B|452:77|452:77|412:100,1,96,2|0,3:2|0:2,0:0:0:0:
372,183,332290,1,0,0:2:0:0:
361,200,332374,2,0,B|318:215|318:215|277:185,1,96,10|0,0:2|0:2,0:0:0:0:
317,100,332627,1,0,0:2:0:0:
328,85,332711,2,0,B|371:70|371:70|412:100,1,96,2|0,0:2|3:2,0:0:0:0:
390,287,333048,53,8,0:2:0:0:
277,185,333217,1,2,0:2:0:0:
169,330,333385,70,0,B|139:293|139:223|170:179|170:179|166:220|193:246,1,230.39999296875,4|8,3:2|0:2,0:0:0:0:
386,202,333891,54,0,P|334:180|277:185,2,115.199996484375,2|0|0,3:2|0:2|0:2,0:0:0:0:
435,369,334396,53,10,0:2:0:0:
483,191,334565,1,2,0:2:0:0:
483,191,334649,1,0,0:2:0:0:
483,191,334734,2,0,P|466:146|431:113,1,96,8|8,0:3|0:3,0:0:0:0:
276,185,335071,69,8,0:0:0:0:
360,55,335239,1,8,0:3:0:0:
386,202,335408,53,2,0:1:0:0:
261,64,335576,1,8,0:0:0:0:
190,221,335745,37,2,0:0:0:0:
187,213,335829,1,2,0:0:0:0:
185,205,335913,1,2,0:0:0:0:
183,197,335998,1,2,0:0:0:0:
181,189,336082,38,0,B|161:142|161:142|134:314,1,201.599993847656,6|0,3:2|0:2,0:0:0:0:
134,313,336419,1,8,0:2:0:0:
34,191,336587,53,0,0:2:0:0:
56,183,336672,1,0,0:2:0:0:
78,184,336756,1,0,0:2:0:0:
187,213,336925,1,0,3:2:0:0:
189,50,337093,38,0,B|154:69|154:69|144:130,1,100.799996923828,10|0,0:2|0:2,0:0:0:0:
260,63,337430,6,0,B|189:50|189:50|138:78|138:78|69:66,1,201.599993847656,2|0,3:2|0:2,0:0:0:0:
45,61,337767,1,8,0:2:0:0:
16,205,337936,53,0,0:2:0:0:
34,191,338020,1,0,0:2:0:0:
56,183,338104,2,0,P|83:189|108:204,1,57.5999982421876,2|0,0:2|0:2,0:0:0:0:
103,339,338273,2,0,P|94:311|95:282,1,57.5999982421876,0|0,3:2|0:2,0:0:0:0:
144,129,338441,53,10,0:2:0:0:
209,294,338610,1,2,3:2:0:0:
108,204,338778,53,2,0:2:0:0:
209,294,338947,1,0,3:2:0:0:
227,125,339116,1,8,0:2:0:0:
328,215,339284,53,2,0:2:0:0:
328,215,339368,1,0,0:2:0:0:
328,215,339453,2,0,L|339:149,1,57.5999982421876,0|0,0:2|0:2,0:0:0:0:
362,51,339621,1,0,3:2:0:0:
432,212,339790,54,0,B|378:237|378:237|327:214,1,115.199996484375,10|0,0:2|0:2,0:0:0:0:
130,89,340127,2,0,P|186:87|227:124,1,115.199996484375,0|0,3:2|0:2,0:0:0:0:
249,198,340380,1,0,0:2:0:0:
250,220,340464,54,0,B|254:269|292:295|334:295|334:295|304:300|283:324,1,172.799994726563,10|0,0:2|0:2,0:0:0:0:
193,366,340801,53,2,0:2:0:0:
160,337,340885,1,0,0:2:0:0:
118,325,340969,1,0,0:2:0:0:
75,325,341054,1,0,0:2:0:0:
35,340,341138,54,0,L|26:158,1,172.799994726563,10|0,0:2|0:2,0:0:0:0:
117,81,341475,54,0,B|148:46|148:46|187:212|187:212|141:188,1,268.799991796875,2|8,3:2|0:2,0:0:0:0:
35,340,341981,53,2,0:2:0:0:
34,317,342065,1,0,0:2:0:0:
33,294,342149,2,0,B|81:265|81:265|135:293,1,115.199996484375,0|0,0:2|3:2,0:0:0:0:
260,356,342486,54,0,L|318:361,1,57.5999982421876,8|0,0:2|0:2,0:0:0:0:
356,229,342655,1,2,0:2:0:0:
345,208,342739,1,0,0:2:0:0:
334,187,342823,54,0,B|314:150|314:150|297:279,1,172.799994726563,0|0,3:2|0:2,0:0:0:0:
260,356,343160,1,8,0:2:0:0:
174,195,343329,53,2,0:2:0:0:
196,191,343413,1,0,0:2:0:0:
218,194,343498,1,0,0:2:0:0:
297,279,343666,1,0,3:2:0:0:
371,108,343835,54,0,P|342:101|314:104,1,57.5999982421876,10|0,0:2|0:2,0:0:0:0:
297,279,344003,2,0,P|325:285|353:282,1,57.5999982421876,0|0,3:2|0:2,0:0:0:0:
218,194,344172,53,2,0:2:0:0:
227,34,344340,1,0,3:2:0:0:
371,108,344509,1,8,0:2:0:0:
485,19,344677,53,2,0:2:0:0:
463,26,344762,1,0,0:2:0:0:
444,39,344846,1,0,0:2:0:0:
490,150,345014,2,0,P|498:122|496:94,1,57.5999982421876,0|0,3:2|0:2,0:0:0:0:
363,29,345183,53,10,0:2:0:0:
339,180,345351,1,2,0:2:0:0:
319,167,345436,1,0,0:2:0:0:
301,152,345520,54,0,B|268:132|268:132|222:151|222:151|128:136,1,172.799994726563,0|0,3:2|0:2,0:0:0:0:
82,189,345857,2,0,L|96:73,1,115.199996484375,8|0,0:2|0:2,0:0:0:0:
158,26,346110,1,0,0:2:0:0:
179,19,346194,53,2,3:2:0:0:
224,151,346363,1,2,0:2:0:0:
304,0,346531,38,0,P|264:29|246:75,1,100.799996923828,10|0,0:2|0:2,0:0:0:0:
337,88,346868,6,0,B|480:73|480:73|422:54,1,201.599993847656,6|0,3:2|0:2,0:0:0:0:
401,53,347205,1,8,0:2:0:0:
250,119,347374,53,0,0:2:0:0:
245,97,347458,1,0,0:2:0:0:
246,75,347543,1,0,0:2:0:0:
337,88,347711,1,0,3:2:0:0:
261,212,347880,38,0,P|211:205|172:174,1,100.799996923828,10|0,0:2|0:2,0:0:0:0:
250,119,348217,6,0,B|262:262|262:262|234:211,1,201.599993847656,2|0,3:2|0:2,0:0:0:0:
218,194,348554,1,8,0:2:0:0:
68,281,348722,53,0,0:2:0:0:
84,265,348807,1,0,0:2:0:0:
103,254,348891,2,0,P|131:251|159:258,1,57.5999982421876,2|0,0:2|0:2,0:0:0:0:
229,341,349059,2,0,P|256:348|287:345,1,57.5999982421876,2|0,3:2|0:2,0:0:0:0:
391,197,349228,53,10,0:2:0:0:
263,262,349396,1,2,3:2:0:0:
410,285,349565,53,2,0:2:0:0:
263,262,349734,1,0,3:2:0:0:
349,115,349902,1,8,0:2:0:0:
196,178,350071,53,2,0:2:0:0:
196,178,350155,1,0,0:2:0:0:
196,178,350239,2,0,L|187:99,1,57.5999982421876,0|0,0:2|0:2,0:0:0:0:
257,26,350408,1,0,3:2:0:0:
391,197,350576,54,0,P|334:203|284:177,1,115.199996484375,10|0,0:2|0:2,0:0:0:0:
65,38,350913,2,0,B|125:19|125:19|181:47,1,115.199996484375,0|0,3:2|0:2,0:0:0:0:
189,120,351166,1,0,0:2:0:0:
194,142,351250,53,10,0:2:0:0:
257,26,351419,1,2,0:2:0:0:
284,177,351587,69,2,0:1:0:0:
314,91,351700,2,0,B|314:111|307:129|307:129|314:150|314:150|307:163|304:189,1,102.4,2|2,0:1|0:1,0:0:0:0:
170,43,351925,101,10,0:2:0:0:
284,177,352093,1,2,0:2:0:0:
257,26,352262,53,2,3:2:0:0:
212,218,352430,1,2,0:2:0:0:
314,91,352599,54,0,P|355:73|411:83,1,96,10|0,0:2|0:2,0:0:0:0:
446,146,352851,1,0,0:2:0:0:
451,164,352936,2,0,L|457:259,1,96,2|0,0:2|3:2,0:0:0:0:
270,352,353273,53,10,0:2:0:0:
289,179,353441,1,2,0:2:0:0:
458,260,353610,54,0,B|419:230|419:230|354:245,1,96,2|0,3:2|0:2,0:0:0:0:
298,268,353863,1,0,0:2:0:0:
279,270,353947,2,0,L|182:254,1,96,10|0,0:2|0:2,0:0:0:0:
143,65,354284,54,0,L|157:134,1,48,2|0,0:2|0:0,0:0:0:0:
184,254,354453,1,2,3:2:0:0:
234,87,354621,53,8,0:2:0:0:
184,254,354790,1,2,0:2:0:0:
62,153,354958,70,0,B|174:114|168:208|282:172,1,230.39999296875,2|8,3:2|0:2,0:0:0:0:
411,22,355464,54,0,P|385:72|392:156,1,115.199996484375,2|0,3:2|0:0,0:0:0:0:
391,151,355717,1,0,0:0:0:0:
402,170,355801,1,0,0:0:0:0:
412,190,355885,1,0,0:0:0:0:
421,210,355969,2,0,L|407:301,1,57.5999982421876,8|0,0:0|0:0,0:0:0:0:
285,347,356138,53,2,3:2:0:0:
285,347,356222,1,0,0:2:0:0:
285,347,356307,1,0,0:2:0:0:
285,347,356644,69,8,0:0:0:0:
285,347,356981,53,10,0:3:0:0:
206,223,357149,1,10,0:0:0:0:
330,144,357318,1,10,0:3:0:0:
409,268,357486,1,8,0:0:0:0:
390,91,357655,86,2,B|365:65|330:52|300:65|278:83|278:83|246:85|227:71|251:49|203:18|141:51|167:94|212:80,1,288.000010986329,6|8,3:2|0:2,0:1:0:0:
209,80,358160,1,0,3:2:0:0:
330,144,358329,22,0,B|334:191|334:191|330:196|330:196|338:195|338:195|335:200|335:200|339:247,1,115.199996484375,10|0,0:1|0:2,0:0:0:0:
265,279,358582,2,0,B|261:232|261:232|265:227|265:227|257:228|257:228|261:224|261:224|256:176,1,115.199996484375,2|0,3:1|0:2,0:0:0:0:
330,144,358835,1,10,0:1:0:0:
330,144,359003,70,2,B|375:116|375:116|323:110,1,76.8,2|8,0:2|0:2,1:2:0:0:
240,144,359340,6,0,B|241:196|241:196|255:177,1,76.8,0|0,3:2|0:2,0:0:0:0:
285,66,359509,2,0,B|238:41|238:41|247:62,1,76.8,0|0,3:2|0:2,0:0:0:0:
330,144,359677,70,2,B|371:149|392:126|392:126|414:134|430:146|430:146|451:151|473:138|473:138|509:163|511:202|479:233,1,259.199992089844,2|8,3:1|0:2,1:1:0:0:
399,283,360014,2,2,B|371:273|337:279|337:279|309:283|283:267|283:267|311:284|322:304,1,172.799994726563,2|8,0:1|0:2,1:1:0:0:
321,303,360351,70,0,L|325:235,1,43.1999986816407,2|0,0:2|0:2,0:0:0:0:
330,144,360520,1,0,3:2:0:0:
215,137,360689,1,8,0:2:0:0:
208,252,360857,2,0,L|204:320,1,43.1999986816407,0|0,3:2|0:2,0:0:0:0:
83,219,361026,54,0,P|117:187|163:193,1,96,8|0,0:2|0:2,0:0:0:0:
208,252,361278,1,0,3:2:0:0:
219,267,361363,1,2,0:2:0:0:
330,144,361531,1,8,0:2:0:0:
384,288,361700,102,0,L|389:352,2,44.7999986328125,2|0|0,3:1|0:2|0:2,0:0:0:0:
405,156,361868,2,0,L|407:117,2,38.399998828125,2|0|0,0:1|0:2|0:2,0:0:0:0:
357,216,362037,53,2,0:3:0:0:
330,144,362149,1,2,3:2:0:0:
303,72,362262,1,2,0:2:0:0:
199,88,362374,22,0,B|174:95|174:95|255:132,1,115.199996484375,2|0,0:1|3:3,0:0:0:0:
357,216,362711,2,0,B|382:222|382:222|301:259,1,115.199996484375,2|8,0:1|0:3,0:0:0:0:
97,290,363048,70,2,B|106:263|90:226|90:226|106:208|92:171|92:171|65:112|99:70|99:70|90:97|102:127,1,288.000010986329,6|8,3:2|0:2,0:1:0:0:
101,125,363554,1,0,3:2:0:0:
292,105,363722,22,0,B|259:102|259:102|254:92|254:92|251:101|251:101|235:100|235:100|230:107|230:107|227:99|227:99|191:97,1,115.199996484375,10|0,0:1|0:2,0:0:0:0:
207,182,363975,2,0,B|240:185|240:185|245:195|245:195|248:186|248:186|264:187|264:187|269:180|269:180|272:188|272:188|301:190,1,115.199996484375,2|0,3:1|0:2,0:0:0:0:
370,139,364228,1,10,0:1:0:0:
292,105,364396,70,2,B|271:79|275:47|275:47|268:60,1,76.8,2|8,0:2|0:2,1:2:0:0:
208,182,364734,6,0,B|187:207|191:239|191:239|184:226,1,76.8,0|0,3:2|0:2,0:0:0:0:
123,86,364902,2,0,B|143:60|139:28|139:28|146:41,1,76.8,0|0,3:2|0:2,0:0:0:0:
292,105,365071,70,2,B|334:119|365:92|365:92|399:85|426:108|426:108|455:117|480:109|480:109|453:121|434:160,1,259.199992089844,2|8,3:1|0:2,1:1:0:0:
378,228,365408,2,2,B|328:261|271:233|271:233|298:249|309:278,1,172.799994726563,2|8,0:1|0:2,1:1:0:0:
438,152,365745,69,2,0:2:0:0:
309,278,365913,1,0,3:2:0:0:
292,105,366082,2,0,B|280:45|280:45|259:88,1,86.3999973632813,8|0,0:2|0:0,0:0:0:0:
186,164,366419,54,0,L|90:158,1,96,2|0,0:2|0:2,0:0:0:0:
30,203,366672,1,0,3:2:0:0:
21,220,366756,1,2,0:2:0:0:
41,97,366925,2,0,P|64:82|90:79,1,48,2|0,3:2|0:2,0:0:0:0:
169,241,367093,38,0,P|206:240|239:220,2,76.7999976562501,2|0|0,0:2|3:2|3:2,0:0:0:0:
30,203,367430,53,14,0:3:0:0:
90,158,367543,1,0,3:2:0:0:
95,251,367655,53,6,0:3:0:0:
21,220,367767,1,0,3:2:0:0:
19,306,367880,53,6,0:3:0:0:
101,269,367992,1,0,3:2:0:0:
103,351,368104,53,6,0:3:0:0:
28,322,368217,2,0,B|2:319|2:319|-27:334,1,51.2,2|0,0:2|0:2,0:0:0:0:
21,220,368441,102,2,B|53:216|53:216|89:235|89:235|101:269|101:269|166:295|166:295|224:279|224:279|257:224,1,288.000010986329,6|8,3:2|0:2,0:1:0:0:
249,237,368947,1,0,3:2:0:0:
177,105,369116,22,0,B|176:120|176:120|172:136|172:136|178:153|178:153|173:157|173:157|173:161|173:161|168:164|168:164|174:177|174:177|170:190|170:190|169:212,1,115.199996484375,10|0,0:1|0:2,0:0:0:0:
249,237,369368,2,0,B|249:221|249:221|253:205|253:205|247:188|247:188|252:184|252:184|252:180|252:180|257:177|257:177|251:164|251:164|255:151|255:151|256:129,1,115.199996484375,2|0,3:1|0:2,0:0:0:0:
177,105,369621,1,10,0:1:0:0:
177,105,369790,70,2,B|128:83|128:83|154:78,1,76.8,2|8,0:2|0:2,1:2:0:0:
195,185,370127,6,0,B|200:238|200:238|185:220,1,76.8,0|0,3:2|0:2,0:0:0:0:
256,130,370295,2,0,B|299:98|299:98|291:120,1,76.8,0|0,3:2|0:2,0:0:0:0:
151,78,370464,70,2,B|120:82|103:108|103:108|95:89|85:63|85:63|55:95|1:96|-40:61|-8:26|24:34|27:60,1,259.199992089844,2|8,3:1|0:2,1:1:0:0:
36,174,370801,2,2,B|52:190|53:221|53:221|74:203|71:176|71:176|58:147|68:106,1,172.799994726563,2|8,0:1|0:2,1:1:0:0:
215,21,371138,69,2,0:2:0:0:
291,119,371307,1,0,3:2:0:0:
414,136,371475,1,8,0:2:0:0:
512,61,371644,1,0,3:2:0:0:
412,154,371812,54,0,L|402:272,1,96,8|0,0:2|0:2,0:0:0:0:
393,321,372065,1,2,3:2:0:0:
336,277,372149,1,2,0:2:0:0:
460,293,372318,1,8,0:2:0:0:
412,154,372486,86,0,L|420:58,2,67.1999979492188,0|2|2,3:2|0:2|0:2,0:0:0:0:
404,249,372739,1,0,3:0:0:0:
336,277,372823,54,0,L|270:264,1,67.1999979492188,8|2,0:2|0:2,0:0:0:0:
346,141,372992,2,0,L|412:154,1,67.1999979492188,0|2,3:2|0:2,0:0:0:0:
270,264,373160,22,0,L|204:251,2,57.5999982421876,2|2|2,0:1|0:2|0:2,0:0:0:0:
393,321,373413,1,10,0:1:0:0:
460,293,373498,102,0,L|467:208,1,76.7999976562501,2|0,0:1|0:2,0:0:0:0:
486,146,373666,2,0,L|480:81,1,38.399998828125,8|0,0:2|0:2,0:0:0:0:
344,62,373835,102,2,B|323:43|285:49|285:49|259:61|230:60|202:27|202:27|168:43|156:76|156:76|130:49|86:57,1,288.000010986329,6|8,3:2|0:2,0:1:0:0:
99,56,374340,1,0,3:2:0:0:
90,242,374509,22,0,B|96:226|96:226|93:214|93:214|97:210|97:210|95:194|95:194|99:190|99:190|98:166|98:166|102:162|102:162|100:142|100:142|103:135,1,115.199996484375,10|0,2:1|0:2,0:0:0:0:
32,99,374762,2,0,B|26:114|26:114|29:126|29:126|24:130|24:130|26:146|26:146|22:150|22:150|24:174|24:174|19:178|19:178|21:198|21:198|19:206,1,115.199996484375,2|0,3:1|0:2,0:0:0:0:
90,242,375014,1,10,0:1:0:0:
104,134,375183,70,2,B|124:114|151:117|151:117|139:124|132:133,1,76.8,2|8,0:2|0:2,1:2:0:0:
167,256,375520,6,0,B|159:283|175:305|175:305|175:291|181:281,1,76.8,0|0,3:2|0:2,0:0:0:0:
241,171,375689,2,0,B|248:143|232:121|232:121|232:135|226:145,1,76.8,0|0,3:2|0:2,0:0:0:0:
181,281,375857,70,2,B|212:285|212:285|226:275|226:275|265:280|265:280|276:294|276:294|327:301|327:301|352:281|352:281|357:238|357:238|338:221,1,259.199992089844,2|8,3:1|0:2,1:1:0:0:
241,171,376194,2,2,B|209:167|209:167|195:177|195:177|154:169|154:169|145:143|145:143|149:114|149:114|169:98,1,172.799994726563,2|8,0:1|0:2,1:1:0:0:
168,98,376531,69,2,0:2:0:0:
241,171,376700,1,0,3:2:0:0:
340,144,376868,1,8,0:2:0:0:
412,216,377037,1,0,3:2:0:0:
390,59,377205,54,0,B|359:78|359:78|340:144,1,105.600003222656,8|0,0:2|0:2,0:0:0:0:
318,219,377458,1,0,3:2:0:0:
313,239,377543,1,2,0:2:0:0:
241,171,377711,1,8,0:2:0:0:
179,278,377880,101,2,3:2:0:0:
187,233,377964,1,0,3:2:0:0:
196,186,378048,1,0,3:2:0:0:
204,139,378132,1,0,3:2:0:0:
241,171,378217,53,2,3:2:0:0:
196,186,378301,1,0,3:2:0:0:
152,201,378385,1,0,3:2:0:0:
107,218,378469,1,0,3:2:0:0:
116,171,378554,53,2,3:2:0:0:
152,201,378638,1,0,3:2:0:0:
187,233,378722,1,0,3:2:0:0:
223,262,378807,1,0,3:2:0:0:
179,278,378891,53,10,0:2:0:0:
127,49,379228,86,0,L|12:37,1,115.199996484375,0|0,3:2|0:2,0:0:0:0:
12,37,379734,1,0,3:2:0:0:
12,37,379902,2,0,L|0:158,1,115.199996484375,8|0,0:1|0:2,0:0:0:0:
1,152,381082,53,0,3:2:0:0:
1,152,381250,2,0,L|13:38,1,115.199996484375,8|0,0:1|0:2,0:0:0:0:
1,152,381925,54,0,L|116:164,1,115.199996484375,0|0,3:2|0:2,0:0:0:0:
116,164,382430,1,0,3:2:0:0:
116,164,382599,2,0,L|104:279,1,115.199996484375,8|0,0:1|0:2,0:0:0:0:
104,278,383610,53,0,3:2:0:0:
116,164,383947,2,0,L|104:279,1,115.199996484375,8|0,0:1|0:2,0:0:0:0:
116,164,384621,53,0,3:2:0:0:
116,164,385127,53,0,3:2:0:0:
116,164,385295,1,8,0:1:0:0:
116,164,386475,53,0,3:2:0:0:
116,164,386644,1,8,0:1:0:0:
396,164,387318,53,0,3:2:0:0:
396,164,387823,53,0,3:2:0:0:
396,164,387992,1,8,0:1:0:0:
396,164,389003,53,0,3:2:0:0:
396,164,389340,1,8,0:1:0:0:
190,111,390014,53,0,3:2:0:0:
190,111,390520,53,0,3:2:0:0:
190,111,390689,1,8,0:1:0:0:
190,111,391868,53,0,3:2:0:0:
190,111,392037,1,8,0:1:0:0:
322,111,392711,53,0,3:2:0:0:
322,111,393217,53,0,3:2:0:0:
322,111,393385,1,8,0:1:0:0:
322,111,394396,53,0,3:2:0:0:
322,111,394734,1,8,0:1:0:0:
256,32,395408,53,0,3:2:0:0:
256,32,395913,53,0,3:2:0:0:
256,32,396082,1,8,0:1:0:0:
256,32,397262,53,0,3:2:0:0:
256,32,397430,1,8,0:1:0:0:
256,192,398104,53,0,3:2:0:0:
256,192,398610,53,0,3:2:0:0:
256,192,398778,1,8,0:1:0:0:
256,192,399789,53,0,3:2:0:0:
256,192,400127,1,8,0:1:0:0:
256,352,400801,53,0,3:0:0:0:
