osu file format v14

[General]
AudioFilename: Jet Loser.mp3
AudioLeadIn: 0
PreviewTime: 209951
Countdown: 0
SampleSet: Soft
StackLeniency: 0.7
Mode: 0
LetterboxInBreaks: 1
WidescreenStoryboard: 1

[Editor]
Bookmarks: 269614,291187,325569,358603,380176
DistanceSpacing: 1.9
BeatDivisor: 4
GridSize: 4
TimelineZoom: 2.699999

[Metadata]
Title:Jet Loser
TitleUnicode:Jet Loser
Artist:Rita
ArtistUnicode:Rita
Creator:Kibbleru
Version:Remap
Source:すぽコン!~SPORTSWEAR-COMPLEX~
Tags:taishi gwave superfeatures vol.23 mode experience electro.muster eroge visual novel dnb drum and bass
BeatmapID:1003874
BeatmapSetID:431337

[Difficulty]
HPDrainRate:6.5
CircleSize:4
OverallDifficulty:8
ApproachRate:9.5
SliderMultiplier:1.7
SliderTickRate:1

[Events]
//Background and Video events
0,0,"BG_JL.jpg",0,0
//Break Periods
2,118803,125465
2,142873,151757
2,234758,241420
//Storyboard Layer 0 (Background)
//Storyboard Layer 1 (Fail)
//Storyboard Layer 2 (Pass)
//Storyboard Layer 3 (Foreground)
//Storyboard Layer 4 (Overlay)
//Storyboard Sound Samples

[TimingPoints]
1300,337.078651685393,4,2,99,5,1,0
1637,-100,4,2,99,10,0,0
2648,-100,4,2,99,14,0,0
3322,-100,4,2,99,16,0,0
3659,-100,4,2,99,20,0,0
3996,-100,4,2,99,22,0,0
4333,-100,4,2,99,26,0,0
4670,-100,4,2,99,30,0,0
5007,-100,4,2,99,5,0,0
5176,-66.6666666666667,4,2,54,50,0,0
5260,-66.6666666666667,4,2,54,30,0,0
5344,-200,4,2,12,44,0,0
14951,-200,4,2,23,30,0,0
15288,-200,4,2,12,20,0,0
15457,-200,4,2,23,35,0,0
15794,-200,4,2,23,40,0,0
16131,-200,4,2,12,50,0,0
16299,-200,4,2,12,40,0,0
16468,-100,4,2,12,46,0,0
16974,-200,4,2,12,46,0,0
17479,-133.333333333333,4,2,12,46,0,0
18322,-200,4,2,12,46,0,0
18828,-133.333333333333,4,2,12,46,0,0
19165,-100,4,2,12,46,0,0
19670,-200,4,2,12,46,0,0
20176,-133.333333333333,4,2,12,46,0,0
20513,-100,4,2,12,46,0,0
21019,-200,4,2,12,46,0,0
21692,-200,4,2,12,30,0,0
21861,-100,4,2,12,46,0,0
22029,-100,4,2,12,30,0,0
22198,-100,4,2,12,46,0,0
22367,-133.333333333333,4,2,12,30,0,0
22535,-133.333333333333,4,2,12,46,0,0
22703,-133.333333333333,4,2,12,30,0,0
22873,-100,4,2,12,48,0,0
23041,-100,4,2,12,30,0,0
23210,-100,4,2,12,48,0,0
23378,-100,4,2,12,30,0,0
23547,-100,4,2,12,48,0,0
23715,-133.333333333333,4,2,12,30,0,0
23884,-133.333333333333,4,2,12,48,0,0
24052,-133.333333333333,4,2,12,30,0,0
24221,-133.333333333333,4,2,12,50,0,0
25569,-133.333333333333,4,2,12,51,0,0
25906,-133.333333333333,4,2,12,52,0,0
26243,-66.6666666666667,4,2,23,40,0,0
26411,-66.6666666666667,4,2,12,40,0,0
26664,-66.6666666666667,4,2,12,20,0,0
26749,-66.6666666666667,4,2,12,44,0,0
26833,-66.6666666666667,4,2,12,20,0,0
26917,-100,4,2,1,60,0,0
36356,-151.515151515152,4,2,36,60,0,0
36693,-151.515151515152,4,2,36,50,0,0
36861,-200,4,2,36,50,0,0
37367,-100,4,2,36,40,0,0
37619,-100,4,2,99,5,0,0
37704,-100,4,2,1,60,0,0
47142,-133.333333333333,4,2,36,50,0,0
47366,-133.333333333333,4,2,36,40,0,0
47479,-66.6666666666667,4,2,36,55,0,0
47647,-66.6666666666667,4,2,36,40,0,0
47816,-133.333333333333,4,2,36,50,0,0
47928,-133.333333333333,4,2,36,40,0,0
48153,-66.6666666666667,4,2,36,55,0,0
48321,-66.6666666666667,4,2,36,40,0,0
48491,-133.333333333333,4,2,1,46,0,0
58266,-50,4,2,1,42,0,0
58378,-50,4,2,23,23,0,0
58603,-133.333333333333,4,2,1,40,0,0
58771,-133.333333333333,4,2,1,20,0,0
58940,-80,4,2,1,45,0,0
59108,-80,4,2,1,30,0,0
59277,-133.333333333333,4,2,1,52,0,0
64670,-133.333333333333,4,2,1,56,0,0
66019,-133.333333333333,4,2,1,58,0,0
67367,-133.333333333333,4,2,1,60,0,0
67704,-133.333333333333,4,2,1,61,0,0
68041,-133.333333333333,4,2,1,62,0,0
68378,-133.333333333333,4,2,1,63,0,0
68715,-100,4,2,36,56,0,0
69726,-66.6666666666667,4,2,36,54,0,0
69811,-66.6666666666667,4,2,36,52,0,0
69895,-66.6666666666667,4,2,36,50,0,0
69979,-66.6666666666667,4,2,36,48,0,0
70064,-66.6666666666667,4,2,36,46,0,0
70569,-133.333333333333,4,2,36,46,0,0
71075,-133.333333333333,4,2,36,26,0,0
71243,-133.333333333333,4,2,99,5,0,0
71328,-133.333333333333,4,2,36,28,0,0
71412,-100,4,2,99,5,0,0
71580,-100,4,2,36,36,0,0
71664,-100,4,2,99,5,0,0
71749,-100,4,2,36,38,0,0
71833,-100,4,2,99,5,0,0
71917,-100,4,2,36,36,0,0
72086,-100,4,2,36,50,0,0
72255,-66.6666666666667,4,2,36,50,0,0
72423,-66.6666666666667,4,2,1,60,0,0
72760,-133.333333333333,4,2,1,70,0,1
73097,-74.0740740740741,4,2,1,70,0,1
77142,-100,4,2,1,70,0,1
77479,-74.0740740740741,4,2,1,70,0,1
82198,-200,4,2,1,70,0,0
82535,-66.6666666666667,4,2,1,70,0,0
82873,-200,4,2,1,70,0,0
83210,-66.6666666666667,4,2,1,70,0,0
83547,-133.333333333333,4,2,1,70,0,1
83884,-74.0740740740741,4,2,1,70,0,1
88266,-50,4,2,1,70,0,1
88378,-50,4,2,23,40,0,1
88603,-133.333333333333,4,2,1,70,0,1
90962,-74.0740740740741,4,2,1,70,0,1
91637,-100,4,2,1,70,0,1
92816,-133.333333333333,4,2,1,70,0,0
93322,-133.333333333333,4,2,36,60,0,0
93491,-133.333333333333,4,2,36,50,0,0
93659,-133.333333333333,4,2,36,60,0,0
94164,-133.333333333333,4,2,36,30,0,0
94333,-133.333333333333,4,2,1,70,0,1
94670,-74.0740740740741,4,2,1,70,0,1
98715,-100,4,2,1,70,0,1
99052,-74.0740740740741,4,2,1,70,0,1
103771,-200,4,2,1,70,0,0
104108,-66.6666666666667,4,2,1,70,0,0
104446,-200,4,2,1,70,0,0
104783,-66.6666666666667,4,2,1,70,0,0
105120,-133.333333333333,4,2,1,70,0,1
105457,-74.0740740740741,4,2,1,70,0,1
109839,-50,4,2,1,70,0,1
109951,-50,4,2,23,50,0,1
110063,-50,4,2,23,30,0,1
110176,-133.333333333333,4,2,1,70,0,1
111693,-74.0740740740741,4,2,1,70,0,1
113210,-100,4,2,1,70,0,1
114389,-133.333333333333,4,2,1,70,0,0
114895,-133.333333333333,4,2,36,60,0,0
115232,-133.333333333333,4,2,36,56,0,0
115569,-133.333333333333,4,2,36,53,0,0
115906,-133.333333333333,4,2,54,50,0,0
118940,-133.333333333333,4,2,1,30,0,0
126019,-133.333333333333,4,2,68,50,0,0
126356,-133.333333333333,4,2,68,45,0,0
126693,-200,4,2,68,50,0,0
127198,-100,4,2,68,50,0,0
127873,-133.333333333333,4,2,68,50,0,0
128378,-100,4,2,68,50,0,0
128715,-133.333333333333,4,2,68,50,0,0
129389,-200,4,2,68,50,0,0
129895,-100,4,2,68,50,0,0
130569,-133.333333333333,4,2,68,50,0,0
131075,-133.333333333333,4,2,68,50,0,0
132086,-200,4,2,68,50,0,0
132592,-100,4,2,68,50,0,0
133266,-133.333333333333,4,2,68,50,0,0
133771,-100,4,2,68,50,0,0
134108,-133.333333333333,4,2,68,50,0,0
134783,-200,4,2,68,50,0,0
135288,-100,4,2,68,50,0,0
136468,-133.333333333333,4,2,68,50,0,0
136805,-80,4,2,68,50,0,0
137142,-80,4,2,68,48,0,0
137479,-133.333333333333,4,2,67,44,0,0
137985,-133.333333333333,4,2,67,42,0,0
138490,-133.333333333333,4,2,67,32,0,0
139333,-133.333333333333,4,2,67,40,0,0
139839,-133.333333333333,4,2,67,30,0,0
140176,-133.333333333333,4,2,67,36,0,0
140682,-133.333333333333,4,2,67,34,0,0
141187,-133.333333333333,4,2,67,24,0,0
141861,-266.666666666666,4,2,67,28,0,0
142535,-266.666666666666,4,2,67,18,0,0
142873,-266.666666666666,4,2,54,46,0,0
152311,-151.515151515152,4,2,36,50,0,0
152816,-200,4,2,36,50,0,0
153322,-100,4,2,36,40,0,0
153322,-100,4,2,36,40,0,0
153574,-100,4,2,99,5,0,0
153659,-100,4,2,1,60,0,0
163097,-133.333333333333,4,2,36,50,0,0
163321,-133.333333333333,4,2,36,40,0,0
163434,-66.6666666666667,4,2,36,55,0,0
163602,-66.6666666666667,4,2,36,40,0,0
163771,-133.333333333333,4,2,36,50,0,0
163883,-133.333333333333,4,2,36,40,0,0
164108,-66.6666666666667,4,2,36,55,0,0
164276,-66.6666666666667,4,2,36,40,0,0
164446,-133.333333333333,4,2,1,46,0,0
174221,-50,4,2,1,42,0,0
174333,-50,4,2,23,23,0,0
174558,-133.333333333333,4,2,1,40,0,0
174726,-133.333333333333,4,2,1,20,0,0
174895,-66.6666666666667,4,2,1,45,0,0
175063,-66.6666666666667,4,2,1,30,0,0
175232,-133.333333333333,4,2,1,52,0,0
180625,-133.333333333333,4,2,1,56,0,0
181974,-133.333333333333,4,2,1,58,0,0
183322,-133.333333333333,4,2,1,60,0,0
183659,-133.333333333333,4,2,1,61,0,0
183996,-133.333333333333,4,2,1,62,0,0
184333,-133.333333333333,4,2,1,63,0,0
184670,-100,4,2,36,56,0,0
185682,-66.6666666666667,4,2,36,54,0,0
185766,-66.6666666666667,4,2,36,52,0,0
185850,-66.6666666666667,4,2,36,50,0,0
185934,-66.6666666666667,4,2,36,48,0,0
186019,-66.6666666666667,4,2,36,46,0,0
186356,-133.333333333333,4,2,36,46,0,0
187030,-133.333333333333,4,2,36,26,0,0
187198,-133.333333333333,4,2,99,5,0,0
187283,-80,4,2,36,28,0,0
187367,-80,4,2,99,5,0,0
187535,-80,4,2,36,36,0,0
187577,-80,4,2,36,14,0,0
187704,-100,4,2,36,44,0,0
187873,-100,4,2,36,36,0,0
188041,-100,4,2,36,50,0,0
188378,-133.333333333333,4,2,1,60,0,0
188715,-133.333333333333,4,2,1,70,0,1
189052,-74.0740740740741,4,2,1,70,0,1
193097,-100,4,2,1,70,0,1
193434,-74.0740740740741,4,2,1,70,0,1
198153,-200,4,2,1,70,0,0
198491,-66.6666666666667,4,2,1,70,0,0
198828,-200,4,2,1,70,0,0
199165,-66.6666666666667,4,2,1,70,0,0
199502,-133.333333333333,4,2,1,70,0,1
199839,-74.0740740740741,4,2,1,70,0,1
204221,-50,4,2,1,70,0,1
204333,-50,4,2,23,50,0,1
204445,-50,4,2,23,30,0,1
204558,-133.333333333333,4,2,1,70,0,1
206075,-74.0740740740741,4,2,1,70,0,1
207423,-66.6666666666667,4,2,1,70,0,1
207592,-100,4,2,1,70,0,1
207929,-80,4,2,1,70,0,1
208097,-100,4,2,1,70,0,1
208771,-133.333333333333,4,2,1,70,0,0
209277,-133.333333333333,4,2,36,60,0,0
209446,-133.333333333333,4,2,36,50,0,0
209614,-133.333333333333,4,2,36,60,0,0
209951,-133.333333333333,4,2,36,56,0,0
210120,-133.333333333333,4,2,36,44,0,0
210288,-133.333333333333,4,2,68,58,0,1
210373,-133.333333333333,4,2,68,58,0,0
210625,-133.333333333333,4,2,68,54,0,0
217198,-133.333333333333,4,2,68,20,0,0
217366,-133.333333333333,4,2,68,54,0,0
220401,-80,4,2,1,50,0,0
220443,-80,4,2,1,20,0,0
220738,-80,4,2,1,52,0,0
220780,-80,4,2,1,22,0,0
221075,-133.333333333333,4,2,68,58,0,1
221159,-133.333333333333,4,2,68,58,0,0
221412,-133.333333333333,4,2,68,54,0,0
225794,-80,4,2,1,54,0,0
225906,-80,4,2,23,42,0,0
226018,-80,4,2,23,30,0,0
226131,-133.333333333333,4,2,68,54,0,0
226468,-133.333333333333,4,2,68,56,0,0
226974,-80,4,2,68,56,0,0
227479,-133.333333333333,4,2,68,56,0,0
227985,-80,4,2,68,56,0,0
228491,-133.333333333333,4,2,68,56,0,0
230513,-133.333333333333,4,2,1,56,0,0
230850,-133.333333333333,4,2,36,50,0,0
231187,-133.333333333333,4,2,36,48,0,0
231524,-133.333333333333,4,2,36,46,0,0
231861,-133.333333333333,4,2,54,40,0,0
234895,-133.333333333333,4,2,1,30,0,0
241974,-133.333333333333,4,2,68,50,0,0
242311,-133.333333333333,4,2,68,45,0,0
242648,-200,4,2,68,50,0,0
243153,-100,4,2,68,50,0,0
243828,-133.333333333333,4,2,68,50,0,0
244333,-100,4,2,68,50,0,0
244670,-133.333333333333,4,2,68,50,0,0
245344,-200,4,2,68,50,0,0
245850,-100,4,2,68,50,0,0
246524,-133.333333333333,4,2,68,50,0,0
248041,-200,4,2,68,50,0,0
248547,-100,4,2,68,50,0,0
249221,-133.333333333333,4,2,68,50,0,0
249726,-100,4,2,68,50,0,0
250064,-133.333333333333,4,2,68,50,0,0
250738,-200,4,2,68,50,0,0
251243,-100,4,2,68,50,0,0
252423,-133.333333333333,4,2,68,50,0,0
252760,-57.1428571428571,4,2,68,46,0,0
253434,-133.333333333333,4,2,68,40,0,0
254614,-100,4,2,68,40,0,0
255120,-133.333333333333,4,2,68,40,0,0
257311,-100,4,2,68,40,0,0
257816,-133.333333333333,4,2,68,40,0,0
258153,-57.1428571428571,4,2,68,40,0,0
258828,-133.333333333333,4,2,68,44,0,0
259502,-100,4,2,68,44,0,0
260176,-133.333333333333,4,2,68,54,0,0
260513,-133.333333333333,4,2,68,46,0,0
260850,-100,4,2,68,46,0,0
261524,-133.333333333333,4,2,68,56,0,0
261692,-133.333333333333,4,2,68,50,0,0
262198,-100,4,2,68,50,0,0
262873,-133.333333333333,4,2,68,60,0,0
263210,-133.333333333333,4,2,68,54,0,0
263547,-57.1428571428571,4,2,68,54,0,0
264221,-166.666666666667,4,2,1,60,0,0
264895,-142.857142857143,4,2,1,60,0,0
265569,-125,4,2,1,62,0,0
266243,-111.111111111111,4,2,1,62,0,0
266917,-55.5555555555556,4,2,1,64,0,0
267255,-62.5,4,2,1,64,0,0
267592,-71.4285714285714,4,2,1,66,0,0
267929,-83.3333333333333,4,2,1,66,0,0
268266,-83.3333333333333,4,2,1,64,0,0
268603,-83.3333333333333,4,2,1,62,0,0
268940,-58.8235294117647,4,2,68,60,0,0
269614,-58.8235294117647,4,2,1,74,0,0
269951,-58.8235294117647,4,2,1,70,0,0
270962,-58.8235294117647,4,2,67,50,0,0
271130,-58.8235294117647,4,2,1,70,0,0
271383,-58.8235294117647,4,2,67,20,0,0
271468,-58.8235294117647,4,2,1,70,0,0
271552,-58.8235294117647,4,2,67,20,0,0
271637,-58.8235294117647,4,2,1,70,0,0
272479,-66.6666666666667,4,2,1,70,0,0
272985,-76.9230769230769,4,2,1,70,0,0
273659,-58.8235294117647,4,2,67,70,0,0
273715,-58.8235294117647,4,2,67,30,0,0
273828,-58.8235294117647,4,2,67,70,0,0
273884,-58.8235294117647,4,2,67,30,0,0
273996,-58.8235294117647,4,2,67,60,0,0
274108,-58.8235294117647,4,2,67,56,0,0
274221,-58.8235294117647,4,2,67,52,0,0
274333,-57.1428571428571,4,2,1,60,0,0
274838,-57.1428571428571,4,2,68,60,0,0
275007,-57.1428571428571,4,2,1,74,0,0
275176,-58.8235294117647,4,2,1,74,0,0
275344,-58.8235294117647,4,2,1,70,0,0
276356,-58.8235294117647,4,2,67,50,0,0
276524,-58.8235294117647,4,2,1,70,0,0
276777,-58.8235294117647,4,2,67,20,0,0
276861,-58.8235294117647,4,2,1,70,0,0
276945,-58.8235294117647,4,2,67,20,0,0
277030,-58.8235294117647,4,2,1,70,0,0
277873,-66.6666666666667,4,2,1,70,0,0
278378,-76.9230769230769,4,2,1,70,0,0
278715,-111.111111111111,4,2,1,70,0,0
279052,-100,4,2,67,60,0,0
279389,-58.8235294117647,4,2,67,62,0,0
279614,-54.054054054054,4,2,67,64,0,0
279839,-50,4,2,67,66,0,0
280064,-76.9230769230769,4,2,67,68,0,0
280176,-76.9230769230769,4,2,67,58,0,0
280401,-76.9230769230769,4,2,1,74,0,0
280569,-58.8235294117647,4,2,1,74,0,0
280738,-58.8235294117647,4,2,1,70,0,0
281749,-58.8235294117647,4,2,67,50,0,0
281917,-58.8235294117647,4,2,1,70,0,0
282170,-58.8235294117647,4,2,67,20,0,0
282255,-58.8235294117647,4,2,1,70,0,0
282339,-58.8235294117647,4,2,67,20,0,0
282423,-58.8235294117647,4,2,1,70,0,0
283266,-66.6666666666667,4,2,1,70,0,0
283771,-76.9230769230769,4,2,1,70,0,0
284530,-76.9230769230769,4,2,67,30,0,0
284698,-76.9230769230769,4,2,1,70,0,0
284867,-76.9230769230769,4,2,67,30,0,0
284951,-76.9230769230769,4,2,1,70,0,0
285035,-76.9230769230769,4,2,67,30,0,0
285120,-76.9230769230769,4,2,1,70,0,0
285204,-76.9230769230769,4,2,67,30,0,0
285373,-76.9230769230769,4,2,1,70,0,0
285569,-76.9230769230769,4,2,67,40,0,0
285625,-76.9230769230769,4,2,1,70,0,0
285681,-76.9230769230769,4,2,67,40,0,0
285794,-76.9230769230769,4,2,1,74,0,0
285962,-58.8235294117647,4,2,1,74,0,0
286131,-58.8235294117647,4,2,1,70,0,0
287142,-58.8235294117647,4,2,67,50,0,0
287310,-58.8235294117647,4,2,1,70,0,0
287563,-58.8235294117647,4,2,67,20,0,0
287648,-58.8235294117647,4,2,1,70,0,0
287732,-58.8235294117647,4,2,67,20,0,0
287816,-58.8235294117647,4,2,1,70,0,0
288659,-66.6666666666667,4,2,1,70,0,0
289165,-76.9230769230769,4,2,1,70,0,0
289502,-111.111111111111,4,2,1,70,0,0
289923,-111.111111111111,4,2,1,40,0,0
290007,-111.111111111111,4,2,1,70,0,0
290092,-111.111111111111,4,2,1,40,0,0
290176,-111.111111111111,4,2,1,70,0,0
290260,-111.111111111111,4,2,1,40,0,0
290344,-111.111111111111,4,2,1,70,0,0
290429,-111.111111111111,4,2,1,40,0,0
290513,-111.111111111111,4,2,1,70,0,0
290597,-111.111111111111,4,2,1,40,0,0
290682,-111.111111111111,4,2,1,70,0,0
290766,-111.111111111111,4,2,1,40,0,0
290850,-111.111111111111,4,2,1,62,0,0
291187,-100,4,2,1,58,0,0
300625,-133.333333333333,4,2,67,44,0,0
300877,-133.333333333333,4,2,99,5,0,0
300962,-66.6666666666667,4,2,67,42,0,0
301130,-66.6666666666667,4,2,67,32,0,0
301299,-66.6666666666667,4,2,67,46,0,0
301468,-66.6666666666667,4,2,67,42,0,0
301637,-66.6666666666667,4,2,67,50,0,0
301974,-133.333333333333,4,2,1,54,0,0
306693,-80,4,2,1,54,0,0
306805,-80,4,2,23,30,0,0
307030,-133.333333333333,4,2,1,42,0,0
307367,-133.333333333333,4,2,1,54,0,0
311749,-133.333333333333,4,2,67,50,0,0
312086,-200,4,2,67,50,0,0
312929,-80,4,2,67,40,0,0
313097,-80,4,2,99,5,0,0
313182,-80,4,2,67,42,0,0
313350,-80,4,2,99,5,0,0
313434,-80,4,2,67,44,0,0
313603,-80,4,2,67,44,0,0
313687,-133.333333333333,4,2,99,5,0,0
313771,-133.333333333333,4,2,67,46,0,0
313940,-133.333333333333,4,2,68,52,0,0
314024,-133.333333333333,4,2,67,58,0,0
314108,-133.333333333333,4,2,67,48,0,0
314193,-80,4,2,67,48,0,0
314277,-80,4,2,67,40,0,0
314530,-80,4,2,67,20,0,0
314614,-80,4,2,67,52,0,0
314783,-100,4,2,67,54,0,0
315035,-100,4,2,99,5,0,0
315120,-80,4,2,67,50,0,0
315204,-80,4,2,99,5,0,0
315288,-80,4,2,67,52,0,0
315372,-80,4,2,99,5,0,0
315457,-133.333333333333,4,2,1,70,0,1
315794,-74.0740740740741,4,2,1,70,0,1
319839,-100,4,2,1,70,0,1
320176,-74.0740740740741,4,2,1,70,0,1
324895,-200,4,2,1,70,0,0
325232,-66.6666666666667,4,2,1,70,0,0
325569,-200,4,2,1,70,0,0
325906,-66.6666666666667,4,2,1,70,0,0
326243,-133.333333333333,4,2,1,70,0,1
326580,-74.0740740740741,4,2,1,70,0,1
330962,-50,4,2,1,70,0,1
331074,-50,4,2,23,40,0,1
331299,-133.333333333333,4,2,1,70,0,1
333659,-74.0740740740741,4,2,1,70,0,1
334333,-100,4,2,1,70,0,1
335513,-133.333333333333,4,2,1,70,0,0
335682,-133.333333333333,4,2,36,70,0,0
335850,-133.333333333333,4,2,36,60,0,0
336693,-133.333333333333,4,2,34,52,0,0
336777,-133.333333333333,4,2,34,53,0,0
336861,-133.333333333333,4,2,34,55,0,0
336946,-133.333333333333,4,2,34,56,0,0
337030,-133.333333333333,4,2,1,70,0,1
337367,-74.0740740740741,4,2,1,70,0,1
341412,-100,4,2,1,70,0,1
341749,-74.0740740740741,4,2,1,70,0,1
346468,-133.333333333333,4,2,1,70,0,0
346805,-66.6666666666667,4,2,1,70,0,0
347142,-133.333333333333,4,2,1,70,0,0
347479,-66.6666666666667,4,2,1,70,0,0
347816,-133.333333333333,4,2,1,70,0,1
348153,-74.0740740740741,4,2,1,70,0,1
352535,-50,4,2,1,70,0,1
352648,-50,4,2,23,50,0,1
352760,-50,4,2,23,30,0,1
352873,-133.333333333333,4,2,1,70,0,1
355232,-74.0740740740741,4,2,1,70,0,1
355906,-100,4,2,1,70,0,1
357086,-133.333333333333,4,2,1,70,0,0
357592,-133.333333333333,4,2,36,60,0,0
357929,-133.333333333333,4,2,36,56,0,0
358266,-133.333333333333,4,2,36,53,0,0
358603,-58.8235294117647,4,2,1,68,0,0
358940,-58.8235294117647,4,2,1,62,0,0
359951,-58.8235294117647,4,2,67,42,0,0
360119,-58.8235294117647,4,2,1,62,0,0
360288,-58.8235294117647,4,2,1,46,0,0
360372,-58.8235294117647,4,2,67,10,0,0
360457,-58.8235294117647,4,2,1,46,0,0
360541,-58.8235294117647,4,2,67,10,0,0
360625,-58.8235294117647,4,2,1,62,0,0
361468,-66.6666666666667,4,2,1,62,0,0
361974,-76.9230769230769,4,2,1,62,0,0
362648,-58.8235294117647,4,2,1,62,0,0
362704,-58.8235294117647,4,2,67,30,0,0
362816,-58.8235294117647,4,2,67,62,0,0
362872,-58.8235294117647,4,2,67,30,0,0
362985,-58.8235294117647,4,2,67,54,0,0
363097,-58.8235294117647,4,2,67,52,0,0
363210,-58.8235294117647,4,2,67,50,0,0
363322,-58.8235294117647,4,2,1,54,0,0
363827,-58.8235294117647,4,2,68,54,0,0
363996,-58.8235294117647,4,2,1,70,0,0
364333,-58.8235294117647,4,2,1,62,0,0
365344,-58.8235294117647,4,2,67,42,0,0
365512,-58.8235294117647,4,2,1,62,0,0
365766,-58.8235294117647,4,2,67,10,0,0
365850,-58.8235294117647,4,2,1,62,0,0
365934,-58.8235294117647,4,2,67,10,0,0
366019,-58.8235294117647,4,2,1,62,0,0
366861,-66.6666666666667,4,2,1,62,0,0
367367,-76.9230769230769,4,2,1,62,0,0
368041,-100,4,2,67,56,0,0
368378,-58.8235294117647,4,2,67,58,0,0
368603,-54.054054054054,4,2,67,60,0,0
368828,-50,4,2,67,62,0,0
369052,-76.9230769230769,4,2,67,64,0,0
369165,-76.9230769230769,4,2,67,58,0,0
369389,-76.9230769230769,4,2,1,70,0,0
369558,-58.8235294117647,4,2,1,70,0,0
369726,-58.8235294117647,4,2,1,62,0,0
370738,-58.8235294117647,4,2,67,42,0,0
370906,-58.8235294117647,4,2,1,62,0,0
371159,-58.8235294117647,4,2,67,10,0,0
371243,-58.8235294117647,4,2,1,62,0,0
371327,-58.8235294117647,4,2,67,10,0,0
371412,-58.8235294117647,4,2,1,62,0,0
372255,-66.6666666666667,4,2,1,62,0,0
372760,-76.9230769230769,4,2,1,62,0,0
373518,-76.9230769230769,4,2,67,28,0,0
373687,-76.9230769230769,4,2,1,62,0,0
373855,-76.9230769230769,4,2,67,28,0,0
373940,-76.9230769230769,4,2,1,62,0,0
374024,-76.9230769230769,4,2,67,28,0,0
374108,-76.9230769230769,4,2,1,62,0,0
374192,-76.9230769230769,4,2,67,28,0,0
374361,-76.9230769230769,4,2,1,62,0,0
374558,-76.9230769230769,4,2,67,36,0,0
374614,-76.9230769230769,4,2,1,62,0,0
374670,-76.9230769230769,4,2,67,36,0,0
374783,-76.9230769230769,4,2,1,70,0,0
374951,-58.8235294117647,4,2,1,70,0,0
375120,-58.8235294117647,4,2,1,62,0,0
376131,-58.8235294117647,4,2,67,42,0,0
376299,-58.8235294117647,4,2,1,62,0,0
376552,-58.8235294117647,4,2,67,10,0,0
376637,-58.8235294117647,4,2,1,62,0,0
376721,-58.8235294117647,4,2,67,10,0,0
376805,-58.8235294117647,4,2,1,62,0,0
377648,-66.6666666666667,4,2,1,62,0,0
378153,-76.9230769230769,4,2,1,62,0,0
378912,-76.9230769230769,4,2,1,32,0,0
378996,-76.9230769230769,4,2,1,62,0,0
379080,-76.9230769230769,4,2,1,32,0,0
379165,-76.9230769230769,4,2,1,62,0,0
379249,-76.9230769230769,4,2,1,32,0,0
379333,-76.9230769230769,4,2,1,62,0,0
379417,-76.9230769230769,4,2,1,32,0,0
379502,-76.9230769230769,4,2,1,62,0,0
379586,-76.9230769230769,4,2,1,32,0,0
379670,-76.9230769230769,4,2,1,62,0,0
379755,-76.9230769230769,4,2,1,32,0,0
379839,-76.9230769230769,4,2,1,50,0,0
380176,-200,4,2,67,40,0,0
380513,-200,4,2,68,40,0,0
380682,-100,4,2,67,40,0,0
381187,-100,4,2,68,40,0,0
382030,-100,4,2,67,38,0,0
382535,-100,4,2,68,38,0,0
382873,-200,4,2,67,36,0,0
383210,-200,4,2,68,36,0,0
383378,-100,4,2,67,36,0,0
383884,-100,4,2,68,36,0,0
384558,-200,4,2,67,34,0,0
385232,-200,4,2,68,34,0,0
385569,-200,4,2,67,30,0,0
386075,-100,4,2,67,28,0,0
386243,-100,4,2,67,26,0,0
387423,-100,4,2,67,24,0,0
387592,-100,4,2,67,22,0,0
388266,-200,4,2,67,20,0,0
388771,-100,4,2,67,18,0,0
388940,-100,4,2,67,16,0,0
389951,-200,4,2,67,14,0,0
390288,-200,4,2,67,13,0,0
390962,-200,4,2,67,12,0,0
391468,-200,4,2,67,11,0,0
391637,-200,4,2,67,10,0,0
392816,-200,4,2,67,9,0,0
392985,-200,4,2,67,8,0,0
393659,-200,4,2,67,7,0,0
394165,-200,4,2,67,6,0,0
394333,-200,4,2,67,5,0,0
395344,-200,4,2,67,4,0,0
396356,-200,4,2,67,3,0,0
396861,-200,4,2,67,2,0,0
398210,-200,4,2,67,1,0,0
399052,-90.9090909090909,4,2,67,1,0,0

[Colours]
Combo1 : 227,57,57
Combo2 : 92,95,184
Combo3 : 248,165,90
Combo4 : 135,209,214

[HitObjects]
256,192,1300,12,0,4923,0:0:0:0:
155,119,5176,6,0,B|161:158|161:158|148:182|148:182|155:211|155:211|139:245,1,127.500004863739,4|14,1:2|2:1,2:0:0:0:
146,250,5682,5,2,2:0:0:0:
219,207,5850,1,2,2:0:0:0:
294,245,6019,1,2,2:0:0:0:
367,201,6187,2,0,B|386:163|386:163|375:122,1,85,2|2,2:1|2:1,2:0:0:0:
205,141,6861,5,2,2:0:0:0:
290,154,7030,2,0,L|205:141,1,85,2|2,2:0|2:1,2:0:0:0:
73,251,7704,1,2,2:1:0:0:
73,251,7873,1,0,2:0:0:0:
73,251,8041,6,0,L|157:238,1,85,8|2,2:1|2:0,0:0:0:0:
234,204,8547,1,2,2:0:0:0:
296,261,8715,1,2,2:0:0:0:
369,218,8884,2,0,B|388:179|388:179|377:139,1,85,2|2,2:1|2:1,2:0:0:0:
267,117,9389,1,0,2:0:0:0:
343,47,9558,5,2,2:1:0:0:
274,96,9726,1,2,2:0:0:0:
190,78,9895,1,2,2:0:0:0:
150,2,10064,2,0,L|159:86,1,85,2|2,2:1|2:1,0:0:0:0:
78,166,10569,1,2,2:0:0:0:
103,286,10738,5,10,2:1:0:0:
153,217,10906,1,2,2:0:0:0:
238,214,11075,1,2,2:1:0:0:
298,273,11243,1,2,2:0:0:0:
364,220,11412,1,2,2:1:0:0:
321,146,11580,2,0,P|311:105|327:66,1,85,2|2,2:0|2:0,2:0:0:0:
197,175,12086,1,0,0:0:0:0:
170,12,12255,5,2,2:1:0:0:
224,76,12423,1,2,2:0:0:0:
188,153,12592,1,2,2:0:0:0:
105,170,12760,2,0,L|20:158,1,85,2|2,2:1|2:1,0:0:0:0:
164,265,13266,1,2,2:0:0:0:
103,345,13434,5,10,2:1:0:0:
160,281,13603,1,2,2:0:0:0:
244,278,13771,1,2,2:1:0:0:
299,342,13940,1,2,2:0:0:0:
365,218,14108,1,2,2:1:0:0:
373,302,14277,2,0,L|364:207,1,85,2|2,2:0|2:0,0:0:0:0:
271,75,14783,6,0,L|262:159,1,85,0|0,2:0|0:0,0:0:0:0:
120,286,15288,1,0,2:0:0:0:
44,239,15457,5,10,1:0:0:0:
72,207,15541,1,2,2:0:0:0:
111,193,15625,1,2,1:2:0:0:
153,198,15710,1,2,2:0:0:0:
187,223,15794,1,2,3:1:0:0:
215,255,15878,1,2,1:2:0:0:
254,269,15962,1,2,3:2:0:0:
296,264,16047,1,2,1:2:0:0:
330,239,16131,6,0,L|338:163,1,63.75,14|0,2:1|0:0,2:0:0:0:
284,99,16468,2,0,P|322:80|364:86,1,85,10|10,2:0|2:3,0:0:0:0:
241,206,16805,1,2,2:1:0:0:
162,127,16974,2,0,P|123:110|78:120,1,85,10|10,2:0|2:0,2:0:0:0:
98,308,17479,6,0,P|105:260|112:213,1,95.6250036478044,8|0,2:1|0:0,2:0:0:0:
112,213,17816,1,10,2:0:0:0:
215,292,17985,1,8,2:3:0:0:
317,236,18153,1,2,2:1:0:0:
324,320,18322,2,0,P|319:278|317:236,1,85,8|8,2:0|2:0,0:0:0:0:
377,114,18828,6,0,L|282:102,1,95.6250036478044,10|0,2:1|0:0,2:0:0:0:
212,52,19165,2,0,B|194:90|194:90|203:131,1,85,10|10,2:0|2:3,0:0:0:0:
46,115,19502,1,2,2:1:0:0:
108,280,19670,2,0,B|126:242|126:242|116:200,1,85,10|10,2:0|2:0,2:0:0:0:
250,250,20176,6,0,P|297:244|345:241,1,95.6250036478044,10|0,2:1|0:0,2:0:0:0:
345,242,20513,1,10,2:0:0:0:
279,143,20682,1,0,2:3:0:0:
334,50,20850,1,2,2:1:0:0:
249,41,21019,2,0,P|291:47|333:49,1,85,10|8,2:0|2:3,2:0:0:0:
476,211,21524,6,0,L|412:216,1,63.75,10|0,2:1|0:0,2:0:0:0:
386,200,21861,2,0,P|417:174|459:178,1,85,10|10,1:0|2:3,2:0:0:0:
336,302,22198,1,10,2:1:0:0:
432,364,22367,2,0,P|435:332|441:301,1,63.7500024318696,10|10,2:0|2:1,0:0:0:0:
234,183,22704,2,0,P|240:214|243:245,1,63.7500024318696,10|10,2:0|2:1,0:0:0:0:
238,271,23041,5,2,2:0:0:0:
238,271,23125,1,0,0:0:0:0:
238,271,23210,2,0,P|203:247|155:252,1,85,10|10,1:0|2:3,2:0:0:0:
66,320,23547,1,10,2:1:0:0:
23,178,23715,2,0,P|54:172|78:147,1,63.7500024318696,10|10,2:0|2:1,0:0:0:0:
217,137,24052,2,0,P|232:106|228:67,1,63.7500024318696,10|10,2:0|2:1,0:0:0:0:
132,31,24389,1,10,2:1:0:0:
178,302,24558,5,10,1:0:0:0:
231,77,24726,1,10,2:1:0:0:
307,291,24895,5,10,2:1:0:0:
337,90,25064,1,10,1:0:0:0:
422,348,25232,5,10,2:1:0:0:
432,41,25401,1,10,2:1:0:0:
504,196,25569,5,8,2:1:0:0:
466,229,25653,1,8,2:1:0:0:
417,241,25738,1,8,2:1:0:0:
368,230,25822,1,8,2:1:0:0:
330,197,25906,1,8,2:1:0:0:
291,163,25991,1,8,2:1:0:0:
242,151,26075,1,8,2:1:0:0:
193,162,26159,1,8,2:1:0:0:
155,194,26243,6,0,P|165:253|225:262,1,127.500004863739,10|8,2:1|2:0,2:0:0:0:
259,237,26580,6,0,P|227:235|203:254,1,63.7500024318696,10|0,2:3|2:0,2:0:0:0:
90,129,26749,2,0,P|59:122|33:97,1,63.7500024318696,6|0,2:3|2:0,2:0:0:0:
34,240,26917,6,0,P|17:279|26:319,1,85,4|0,3:2|2:0,2:0:0:0:
140,384,27255,1,10,2:0:0:0:
271,317,27423,1,0,2:0:0:0:
271,317,27507,1,0,2:0:0:0:
271,317,27592,2,0,L|228:320,1,42.5,2|0,2:0|2:0,2:0:0:0:
336,244,27760,1,2,3:2:0:0:
124,286,27929,1,8,2:0:0:0:
352,377,28097,1,2,2:0:0:0:
352,377,28182,1,0,2:0:0:0:
352,377,28266,5,0,3:0:0:0:
218,212,28434,2,0,L|211:169,2,42.5,0|0|10,2:0|0:0|2:0,0:0:0:0:
395,279,28771,1,0,2:0:0:0:
395,279,28856,1,0,2:0:0:0:
395,279,28940,2,0,B|356:260|356:260|316:272,1,85,2|2,2:0|3:2,2:0:0:0:
469,366,29277,1,10,2:0:0:0:
366,147,29446,1,2,2:0:0:0:
366,147,29530,1,0,2:0:0:0:
366,147,29614,6,0,L|354:292,1,127.5,0|0,3:0|0:0,2:0:0:0:
348,358,29951,1,8,2:0:0:0:
201,182,30120,1,2,2:0:0:0:
201,182,30204,1,0,2:0:0:0:
201,182,30288,2,0,L|136:168,1,42.5,0|0,2:0|2:0,0:0:0:0:
262,263,30457,1,2,3:2:0:0:
66,213,30625,2,0,B|52:171|52:171|69:133,1,85,10|2,2:0|2:0,2:0:0:0:
300,52,30962,6,0,B|314:94|314:94|296:131,1,85,0|0,3:0|2:0,2:0:0:0:
204,224,31299,2,0,L|199:169,2,42.5,10|0|0,2:0|0:0|2:0,2:0:0:0:
246,335,31637,1,2,2:0:0:0:
224,348,31721,1,0,2:0:0:0:
198,347,31805,1,0,3:2:0:0:
312,208,31974,1,10,2:0:0:0:
189,83,32142,1,2,2:0:0:0:
189,83,32226,1,0,2:0:0:0:
189,83,32311,6,0,B|204:138|204:138|186:188|186:188|200:246,1,170,0|8,3:0|2:0,2:0:0:0:
84,128,32816,2,0,L|34:121,2,42.5,0|0|0,2:0|2:0|2:0,0:0:0:0:
312,208,33153,1,2,3:2:0:0:
96,322,33322,2,0,P|83:282|98:242,1,85,10|2,2:0|2:0,2:0:0:0:
357,312,33659,6,0,B|273:328|283:269|193:284,1,170,2|8,3:2|2:0,2:0:0:0:
339,213,34165,2,0,L|388:200,2,42.5,0|0|2,2:0|2:0|2:0,0:0:0:0:
220,380,34502,1,2,3:2:0:0:
451,276,34670,1,10,2:0:0:0:
194,164,34839,1,2,2:0:0:0:
194,164,34923,1,0,2:0:0:0:
194,164,35007,6,0,L|188:248,1,85,0|0,3:0|2:0,2:0:0:0:
117,321,35344,1,8,2:0:0:0:
360,346,35513,2,0,B|315:345|284:308|284:308|263:349|220:358,1,170,0|2,2:0|3:2,0:0:0:0:
360,243,36019,1,10,2:0:0:0:
360,243,36103,1,0,0:0:0:0:
360,243,36187,1,0,2:0:0:0:
293,150,36356,6,0,P|253:143|215:160,1,84.1499997431946,8|0,2:1|0:0,0:0:0:0:
177,233,36693,1,8,2:0:0:0:
213,146,36861,6,0,P|251:128|292:136,1,85,10|8,2:3|2:0,0:0:0:0:
387,246,37367,2,2,B|358:237|358:237|328:241|328:241|298:226|298:226|265:228,1,127.5,10|0,2:3|2:0,1:2:0:0:
265,228,37704,6,0,P|267:270|270:312,1,85,4|0,3:2|2:0,2:0:0:0:
162,245,38041,1,10,2:0:0:0:
281,124,38210,1,0,2:0:0:0:
255,120,38294,1,0,2:0:0:0:
230,128,38378,1,2,2:0:0:0:
162,245,38547,1,2,3:2:0:0:
54,283,38715,2,0,P|57:240|59:198,1,85,8|2,2:0|2:0,0:0:0:0:
59,198,38968,1,0,2:0:0:0:
59,198,39052,5,0,3:0:0:0:
161,74,39221,2,0,P|203:69|245:63,1,85,0|10,2:0|2:0,0:0:0:0:
293,187,39558,1,0,2:0:0:0:
293,187,39642,1,0,2:0:0:0:
293,187,39726,2,0,L|251:180,1,42.5,2|0,2:0|2:0,2:0:0:0:
370,138,39895,1,2,3:2:0:0:
169,227,40064,1,10,2:0:0:0:
348,365,40232,1,2,2:0:0:0:
348,365,40316,1,0,2:0:0:0:
348,365,40401,6,0,P|382:313|366:254,1,127.5,0|0,3:0|0:0,2:0:0:0:
366,254,40738,1,8,2:0:0:0:
209,306,40906,1,2,2:0:0:0:
209,306,40991,1,0,2:0:0:0:
209,306,41075,2,0,L|251:300,1,42.5,0|0,2:0|2:0,0:0:0:0:
127,370,41243,1,2,3:2:0:0:
206,194,41412,2,0,P|164:189|122:182,1,85,10|2,2:0|2:0,2:0:0:0:
298,30,41749,6,0,B|299:73|266:106|266:106|304:132|308:177,1,170,0|10,3:0|2:0,2:0:0:0:
197,33,42255,1,0,2:0:0:0:
173,23,42339,1,0,2:0:0:0:
147,24,42423,1,2,2:0:0:0:
387,94,42592,2,0,L|429:89,2,42.5,0|0|10,3:2|2:0|2:0,2:0:0:0:
152,139,42929,1,2,2:0:0:0:
152,139,43013,1,0,2:0:0:0:
152,138,43097,6,0,L|139:265,1,127.5,0|0,3:0|0:0,2:0:0:0:
203,335,43434,2,0,L|209:376,2,42.5,8|0|0,2:0|0:0|2:0,0:0:0:0:
44,259,43771,1,0,2:0:0:0:
249,169,43940,1,2,3:2:0:0:
249,169,44024,1,0,2:0:0:0:
249,169,44108,2,0,L|333:157,1,85,10|2,2:0|2:0,2:0:0:0:
484,236,44446,6,0,B|401:213|406:272|318:249,1,170,2|10,3:2|2:0,2:0:0:0:
451,378,44951,1,0,2:0:0:0:
460,354,45035,1,0,2:0:0:0:
458,328,45120,1,2,2:0:0:0:
347,148,45288,1,2,3:2:0:0:
205,290,45457,2,0,P|211:248|218:206,1,85,10|0,2:0|2:0,2:0:0:0:
96,57,45794,6,0,B|68:163|68:163|114:201,1,170,2|8,3:2|2:0,2:0:0:0:
218,117,46299,2,0,L|279:105,2,42.5,0|0|2,2:0|2:0|2:0,0:0:0:0:
332,225,46637,1,2,3:2:0:0:
114,201,46805,1,10,2:0:0:0:
114,201,47142,6,0,B|179:190|179:190|197:229,1,95.6250036478044,10|0,2:1|0:0,2:0:0:0:
206,292,47479,2,0,B|232:235|257:127|140:167|192:217,1,191.250007295609,4|0,3:0|0:0,2:0:0:0:
301,188,47816,6,0,B|366:199|366:199|384:160,1,95.6250036478044,10|0,2:1|0:0,2:0:0:0:
393,97,48153,2,0,B|419:152|444:260|327:220|378:172,1,191.250007295609,4|0,2:3|0:0,2:0:0:0:
377,171,48491,1,4,3:2:0:0:
277,361,48828,6,0,P|291:334|292:299,1,63.7500024318696,10|0,2:0|2:0,2:0:0:0:
231,182,49165,2,0,P|204:160|169:152,1,63.7500024318696,2|0,2:0|2:0,2:0:0:0:
366,197,49502,2,0,P|417:189|437:172,1,63.7500024318696,10|0,2:0|2:0,0:0:0:0:
467,90,49839,1,0,2:0:0:0:
282,18,50176,6,0,P|266:46|267:86,1,63.7500024318696,10|0,2:0|2:0,2:0:0:0:
249,194,50513,2,0,P|271:226|306:246,1,63.7500024318696,2|0,2:0|2:0,2:0:0:0:
160,122,50850,2,0,P|127:121|92:136,1,63.7500024318696,8|0,2:0|2:0,2:0:0:0:
126,358,51187,6,0,L|141:232,1,127.500004863739,2|8,2:0|2:0,0:0:0:0:
242,129,51693,2,0,L|257:255,1,127.500004863739,2|0,2:0|2:0,0:0:0:0:
354,319,52198,2,0,P|360:287|367:256,1,63.7500024318696,10|0,2:0|2:0,0:0:0:0:
456,184,52535,1,0,2:0:0:0:
289,92,52873,6,0,P|264:115|231:120,1,63.7500024318696,10|0,2:0|2:0,2:0:0:0:
117,90,53210,2,0,P|94:67|65:55,1,63.7500024318696,2|0,2:0|2:0,2:0:0:0:
145,201,53547,2,0,P|145:234|133:263,1,63.7500024318696,10|0,2:0|2:0,2:0:0:0:
104,362,53884,6,0,B|187:340|187:340|217:367,1,127.500004863739,2|8,3:2|2:0,0:0:0:0:
341,324,54389,2,0,B|373:253|373:253|345:210,1,127.500004863739,2|0,2:0|2:0,0:0:0:0:
257,68,54895,2,0,P|249:99|259:129,1,63.7500024318696,10|0,2:0|2:0,0:0:0:0:
362,100,55232,5,0,2:0:0:0:
149,84,55401,1,0,2:0:0:0:
343,204,55569,1,10,2:0:0:0:
161,188,55738,1,0,2:0:0:0:
239,357,55906,2,0,B|231:310|263:282|250:229,1,127.500004863739,2|10,2:0|2:0,2:0:0:0:
121,113,56412,1,2,2:0:0:0:
121,113,56496,1,0,2:0:0:0:
121,113,56580,5,0,2:0:0:0:
179,196,56749,1,0,2:0:0:0:
280,194,56917,1,10,2:0:0:0:
345,115,57086,1,2,2:0:0:0:
268,177,57255,5,2,2:0:0:0:
373,117,57423,1,2,2:0:0:0:
486,159,57592,1,10,2:0:0:0:
506,277,57760,1,2,2:0:0:0:
414,357,57929,5,2,2:0:0:0:
414,357,58097,1,2,2:0:0:0:
259,276,58266,6,0,B|227:269|227:269|198:274|198:274|169:262|169:262|135:263,2,127.5,10|0|0,2:1|0:0|0:0,2:0:0:0:
336,229,58603,5,0,3:2:0:0:
336,229,58771,1,0,2:0:0:0:
225,72,58940,6,2,L|212:177,1,106.25,2|2,2:0|2:0,1:2:0:0:
342,380,59277,6,0,L|333:316,1,63.7500024318696,4|0,3:2|2:0,2:0:0:0:
420,218,59614,1,10,2:0:0:0:
420,218,59783,1,0,2:0:0:0:
212,219,59951,2,0,L|220:282,1,63.7500024318696,2|0,3:2|2:0,2:0:0:0:
292,134,60288,1,8,2:0:0:0:
292,134,60457,1,2,2:0:0:0:
175,70,60625,6,0,P|135:59|99:69,1,63.7500024318696,0|0,3:2|2:0,2:0:0:0:
113,62,60878,1,0,0:0:0:0:
113,62,60962,1,10,2:0:0:0:
34,179,61131,1,0,2:0:0:0:
238,212,61299,1,2,3:2:0:0:
34,179,61468,1,2,2:0:0:0:
135,330,61637,2,0,L|128:255,1,63.7500024318696,10|0,2:0|2:0,2:0:0:0:
275,95,61974,6,0,P|303:82|340:84,1,63.7500024318696,2|0,3:2|2:0,2:0:0:0:
238,212,62311,1,8,2:0:0:0:
238,212,62479,1,2,2:0:0:0:
140,143,62648,2,0,P|110:131|78:132,1,63.7500024318696,0|0,3:2|2:0,2:0:0:0:
198,304,62985,1,10,2:0:0:0:
198,304,63153,1,0,2:0:0:0:
326,195,63322,6,0,L|317:283,1,63.7500024318696,0|2,3:2|2:0,0:0:0:0:
242,121,63659,1,8,2:0:0:0:
414,140,63828,1,0,2:0:0:0:
414,140,63912,1,0,0:0:0:0:
414,140,63996,5,2,3:2:0:0:
212,214,64165,1,0,2:0:0:0:
414,140,64333,1,8,2:0:0:0:
160,68,64502,1,2,2:0:0:0:
290,128,64670,5,2,3:2:0:0:
290,128,64839,1,0,2:0:0:0:
212,170,65007,1,8,3:2:0:0:
212,170,65176,1,0,2:0:0:0:
127,142,65344,1,2,3:2:0:0:
127,142,65513,1,0,2:0:0:0:
111,53,65682,1,10,3:2:0:0:
111,53,65850,1,0,2:0:0:0:
109,166,66019,5,0,3:2:0:0:
109,166,66187,1,0,2:0:0:0:
180,247,66356,1,10,3:2:0:0:
180,247,66524,1,0,2:0:0:0:
152,352,66693,1,2,3:2:0:0:
152,352,66861,1,0,2:0:0:0:
44,364,67030,1,10,3:2:0:0:
44,364,67198,1,0,2:0:0:0:
415,344,67367,5,2,3:2:0:0:
88,283,67535,1,0,3:2:0:0:
370,255,67704,5,8,3:2:0:0:
94,265,67873,1,2,3:2:0:0:
381,152,68041,5,0,3:2:0:0:
95,101,68210,1,0,3:2:0:0:
449,42,68378,5,10,3:2:0:0:
89,85,68547,1,0,3:2:0:0:
267,211,68715,5,10,2:1:0:0:
268,230,68799,1,8,2:1:0:0:
270,249,68884,1,8,2:1:0:0:
271,268,68968,1,8,2:1:0:0:
273,287,69052,2,0,L|275:329,1,42.5,8|8,1:0|2:1,0:0:0:0:
168,165,69221,5,10,2:1:0:0:
185,135,69305,1,8,2:1:0:0:
210,113,69389,1,8,2:1:0:0:
242,100,69474,1,8,2:1:0:0:
275,98,69558,1,8,2:1:0:0:
308,107,69642,1,8,2:1:0:0:
336,125,69726,6,0,P|367:131|397:122,1,63.7500024318696,8|8,1:0|2:1,0:0:0:0:
463,231,69895,2,0,P|487:211|501:182,1,63.7500024318696,8|8,2:1|2:1,0:0:0:0:
356,234,70064,5,10,2:3:0:0:
356,234,70401,1,0,0:0:0:0:
400,312,70569,2,0,P|351:272|289:279,1,127.500004863739
135,322,71075,2,0,P|172:352|219:348,1,95.6250036478044,2|2,2:0|2:0,2:0:0:0:
206,153,71412,6,0,P|203:195|199:238,1,85,0|0,2:0|3:2,0:0:0:0:
317,108,71749,1,8,2:0:0:0:
411,289,71917,2,0,P|406:246|403:204,1,85,8|2,2:3|3:2,0:0:0:0:
427,124,72170,5,2,2:0:0:0:
427,124,72255,2,0,P|395:118|365:128,1,63.7500024318696,2|2,3:2|2:0,0:0:0:0:
247,228,72423,1,2,2:0:0:0:
211,241,72507,1,0,2:0:0:0:
174,237,72592,1,8,2:0:0:0:
143,214,72676,1,0,2:0:0:0:
128,180,72760,6,0,P|133:227|138:275,1,95.6250036478044,6|0,3:2|2:0,2:0:0:0:
82,88,73097,6,0,P|109:84|141:80,1,57.3750002188683,8|0,2:0|0:0,0:0:0:0:
242,48,73266,1,0,2:0:0:0:
250,67,73350,1,0,2:0:0:0:
249,89,73434,1,0,2:0:0:0:
128,180,73603,5,0,3:2:0:0:
364,92,73771,2,0,P|355:119|348:147,1,57.3750002188683,10|0,2:0|0:0,2:0:0:0:
128,180,73940,2,0,P|136:207|143:235,1,57.3750002188683,0|0,0:0|2:0,0:0:0:0:
244,339,74108,6,0,B|229:286|256:275|239:225,1,114.750000437737,2|0,3:2|0:0,2:0:0:0:
210,120,74361,1,0,2:0:0:0:
210,120,74446,2,0,L|287:124,1,57.3750002188683,8|0,2:0|0:0,0:0:0:0:
396,131,74614,1,0,2:0:0:0:
391,249,74783,6,0,L|314:245,1,57.3750002188683,2|0,2:0|2:0,2:0:0:0:
115,103,74951,2,0,P|108:130|109:159,1,57.3750002188683,0|0,3:2|2:0,2:0:0:0:
335,64,75120,2,0,P|342:36|341:7,1,57.3750002188683,10|0,2:0|0:0,0:0:0:0:
218,42,75288,6,0,B|245:126|186:117|211:210,1,172.125000656605,2|0,3:2|0:0,0:0:0:0:
111,311,75625,2,0,P|139:306|167:301,1,57.3750002188683,0|0,3:2|0:0,0:0:0:0:
307,170,75794,1,8,2:0:0:0:
374,251,75962,5,2,2:0:0:0:
339,270,76047,1,0,2:0:0:0:
297,275,76131,1,0,2:0:0:0:
259,264,76215,1,0,2:0:0:0:
230,239,76299,1,0,3:2:0:0:
172,35,76468,2,0,P|175:63|180:91,1,57.3750002188683,10|0,2:0|0:0,2:0:0:0:
78,190,76637,2,0,P|74:218|69:246,1,57.3750002188683,0|0,2:0|0:0,0:0:0:0:
379,158,76805,6,0,B|329:129|329:129|273:146,1,114.750000437737,0|0,3:2|2:0,2:0:0:0:
186,281,77058,1,0,2:0:0:0:
186,281,77142,2,0,B|247:263|255:291|311:272,1,127.5,10|0,2:0|2:0,2:0:0:0:
443,359,77479,6,0,L|386:351,1,57.3750002188683,2|0,2:0|2:0,0:0:0:0:
403,178,77648,2,0,L|346:170,1,57.3750002188683,0|0,2:0|2:0,0:0:0:0:
202,43,77816,2,0,B|220:155|220:155|225:128|246:103,1,172.125000656605,10|0,2:0|2:0,2:0:0:0:
236,252,78153,6,0,B|170:257|140:204|140:204|130:269|73:290,1,229.500000875473,2|8,3:2|2:0,2:0:0:0:
98,121,78659,1,2,2:0:0:0:
118,110,78743,1,0,2:0:0:0:
141,110,78828,1,0,2:0:0:0:
159,380,78996,6,0,P|164:351|170:323,1,57.3750002188683,0|0,3:2|0:0,0:0:0:0:
248,81,79165,2,0,P|254:109|259:137,1,57.3750002188683,8|0,2:0|2:0,2:0:0:0:
378,273,79333,1,2,2:0:0:0:
378,273,79417,1,0,2:0:0:0:
378,273,79502,6,0,B|262:260|262:260|287:309,1,172.125000656605,0|0,3:2|2:0,2:0:0:0:
173,210,79839,2,0,P|160:235|158:264,1,57.3750002188683,8|0,2:0|0:0,0:0:0:0:
259,137,80007,1,2,2:0:0:0:
139,47,80176,6,0,L|150:103,1,57.3750002188683,0|0,2:0|0:0,0:0:0:0:
262,260,80344,1,0,3:2:0:0:
393,89,80513,2,0,P|364:86|335:83,1,57.3750002188683,10|0,2:0|2:0,2:0:0:0:
31,197,80682,6,0,B|89:186|89:186|137:206|137:206|196:193,1,172.125000656605,0|0,3:2|0:0,2:0:0:0:
153,300,81019,2,0,P|124:302|97:293,1,57.3750002188683,0|0,3:2|0:0,0:0:0:0:
150,103,81187,1,8,2:0:0:0:
288,264,81356,5,2,2:0:0:0:
317,237,81440,1,0,2:0:0:0:
354,222,81524,1,0,2:0:0:0:
394,223,81608,1,0,0:0:0:0:
431,237,81693,1,0,3:2:0:0:
256,163,81861,2,0,L|263:106,1,57.3750002188683,10|0,2:0|0:0,0:0:0:0:
375,325,82030,2,0,L|367:381,1,57.3750002188683,2|0,2:0|2:0,0:0:0:0:
274,286,82198,6,0,L|210:278,1,63.75,0|0,3:2|2:0,2:0:0:0:
101,154,82535,2,0,B|114:279|114:279|115:243|137:218,1,191.250007295609,8|0,2:0|2:0,2:0:0:0:
256,163,82873,6,0,L|319:155,1,63.75,2|0,3:2|0:0,0:0:0:0:
429,31,83210,2,0,B|416:156|416:156|415:120|392:95,1,191.250007295609,10|0,2:0|2:0,2:0:0:0:
174,107,83547,6,0,P|156:145|170:196,1,95.6250036478044,6|0,3:2|2:0,2:0:0:0:
246,343,83884,2,0,P|258:317|258:289,1,57.3750002188683,8|0,2:0|0:0,0:0:0:0:
114,303,84052,1,0,2:0:0:0:
137,301,84137,1,0,2:0:0:0:
159,299,84221,1,0,2:0:0:0:
272,152,84389,5,0,3:2:0:0:
158,51,84558,2,0,P|162:79|166:107,1,57.3750002188683,10|0,2:0|0:0,2:0:0:0:
381,196,84726,2,0,P|384:167|389:139,1,57.3750002188683,0|0,0:0|2:0,0:0:0:0:
272,152,84895,6,0,B|275:193|275:193|264:226|264:226|268:267,1,114.750000437737,2|0,3:2|0:0,2:0:0:0:
276,356,85148,1,0,2:0:0:0:
277,378,85232,1,8,2:0:0:0:
381,196,85401,1,0,2:0:0:0:
169,242,85569,6,0,P|163:270|158:298,1,57.3750002188683,2|0,2:0|2:0,2:0:0:0:
381,196,85738,2,0,P|376:167|370:139,1,57.3750002188683,2|0,3:2|2:0,2:0:0:0:
96,95,85906,2,0,P|122:101|152:105,1,57.3750002188683,10|0,2:0|0:0,0:0:0:0:
258,70,86075,6,0,B|229:156|283:148|253:238,1,172.125000656605,2|0,3:2|0:0,0:0:0:0:
141,262,86412,2,0,P|144:234|153:207,1,57.3750002188683,0|0,3:2|0:0,0:0:0:0:
352,115,86580,1,8,2:0:0:0:
508,277,86749,5,2,2:0:0:0:
472,294,86833,1,0,2:0:0:0:
432,295,86917,1,0,2:0:0:0:
395,280,87002,1,0,2:0:0:0:
369,250,87086,1,0,3:2:0:0:
444,137,87255,2,0,P|447:165|452:193,1,57.3750002188683,10|0,2:0|0:0,2:0:0:0:
256,284,87423,2,0,P|260:255|264:227,1,57.3750002188683,0|0,2:0|0:0,0:0:0:0:
211,139,87592,6,0,B|254:140|287:104|287:104|299:146|343:164,1,172.125000656605,0|0,3:2|2:0,2:0:0:0:
450,68,87929,2,0,P|421:71|392:73,1,57.3750002188683,10|0,2:0|0:0,0:0:0:0:
263,227,88097,1,2,2:0:0:0:
83,53,88266,6,0,B|116:50|116:50|138:54|138:54|161:46|161:46|207:42,2,127.5,2|0|0,2:1|0:0|0:0,2:0:0:0:
0,33,88603,2,0,P|-2:64|9:93,1,63.7500024318696,10|2,2:0|2:0,0:0:0:0:
84,156,88856,1,0,0:0:0:0:
106,152,88940,5,2,3:2:0:0:
283,101,89108,1,0,2:0:0:0:
83,53,89277,1,10,2:0:0:0:
283,101,89446,1,0,2:0:0:0:
173,263,89614,5,2,2:0:0:0:
170,240,89698,1,0,0:0:0:0:
178,215,89783,1,0,3:2:0:0:
272,249,89951,1,10,2:0:0:0:
79,224,90120,1,2,2:0:0:0:
191,111,90288,5,2,3:2:0:0:
249,334,90457,1,0,2:0:0:0:
332,125,90625,1,10,2:0:0:0:
249,334,90794,1,0,2:0:0:0:
167,229,90962,6,0,P|195:225|221:214,1,57.3750002188683,2|0,2:0|0:0,2:0:0:0:
394,274,91131,2,0,P|369:259|350:237,1,57.3750002188683,0|0,3:2|0:0,0:0:0:0:
312,145,91299,2,0,B|292:270|292:270|345:240,1,172.125000656605,8|0,2:0|0:0,0:0:0:0:
382,79,91637,6,0,P|307:44|235:85,1,170,4|8,3:2|2:0,2:0:0:0:
202,179,92142,6,0,B|234:193|267:180|267:180|224:211|176:183|176:183|151:170|117:164|91:186,1,255,2|10,3:2|2:0,2:0:0:0:
239,98,92816,6,0,B|260:77|261:44|261:44|290:75|306:137|263:176|263:176|209:235|249:307|299:318|352:315|378:263,1,446.250017023087,2|10,2:0|2:3,0:0:0:0:
314,229,94333,6,0,L|218:220,1,95.6250036478044,6|0,3:2|2:0,2:0:0:0:
108,200,94670,6,0,P|115:227|122:255,1,57.3750002188683,8|0,2:0|0:0,0:0:0:0:
229,104,94839,1,0,2:0:0:0:
237,82,94923,1,0,2:0:0:0:
233,59,95007,1,0,2:0:0:0:
121,72,95176,5,0,3:2:0:0:
383,19,95344,2,0,P|354:13|326:7,1,57.3750002188683,10|0,2:0|0:0,2:0:0:0:
275,199,95513,2,0,P|246:204|218:210,1,57.3750002188683,0|0,0:0|2:0,0:0:0:0:
121,72,95682,6,0,B|237:81|237:81|192:115,1,172.125000656605,2|0,3:2|2:0,2:0:0:0:
341,91,96019,2,0,P|341:62|329:36,1,57.3750002188683,8|0,2:0|0:0,0:0:0:0:
275,199,96187,1,0,2:0:0:0:
141,136,96356,6,0,P|164:119|192:114,1,57.3750002188683,2|0,2:0|2:0,2:0:0:0:
250,290,96524,2,0,P|223:278|205:256,1,57.3750002188683,0|0,3:2|2:0,2:0:0:0:
371,116,96693,2,0,P|374:144|364:171,1,57.3750002188683,10|0,2:0|0:0,0:0:0:0:
280,366,96861,6,0,B|308:287|248:271|275:198,1,172.125000656605,2|0,3:2|0:0,0:0:0:0:
184,319,97198,2,0,P|176:346|169:374,1,57.3750002188683,0|0,3:2|0:0,0:0:0:0:
371,232,97367,1,8,2:0:0:0:
470,284,97535,5,2,2:0:0:0:
453,319,97619,1,0,2:0:0:0:
422,344,97703,1,0,2:0:0:0:
383,351,97788,1,0,2:0:0:0:
344,341,97873,1,0,3:2:0:0:
228,233,98041,2,0,P|256:228|284:223,1,57.3750002188683,10|0,2:0|0:0,2:0:0:0:
474,118,98210,2,0,P|445:113|417:108,1,57.3750002188683,0|0,2:0|0:0,0:0:0:0:
303,20,98378,6,0,B|316:70|291:86|306:133,1,114.750000437737,0|0,3:2|2:0,2:0:0:0:
370,335,98631,1,0,2:0:0:0:
370,335,98715,2,0,B|313:306|313:306|255:333,1,127.5,10|0,2:0|2:0,2:0:0:0:
149,267,99052,6,0,P|154:238|159:210,1,57.3750002188683,2|0,2:0|2:0,0:0:0:0:
399,189,99221,2,0,P|393:160|388:132,1,57.3750002188683,0|0,2:0|2:0,0:0:0:0:
238,5,99389,2,0,B|247:60|230:124|230:124|252:101|272:93,1,172.125000656605,10|0,2:0|2:0,2:0:0:0:
308,190,99726,6,0,P|297:281|236:213,1,229.500000875473,2|8,3:2|2:0,2:0:0:0:
427,276,100232,1,2,2:0:0:0:
437,255,100316,1,0,2:0:0:0:
437,232,100400,1,0,2:0:0:0:
306,84,100569,6,0,L|311:141,1,57.3750002188683,0|0,3:2|0:0,0:0:0:0:
227,384,100738,2,0,L|221:326,1,57.3750002188683,8|0,2:0|2:0,2:0:0:0:
87,238,100906,1,2,2:0:0:0:
87,238,100991,1,0,2:0:0:0:
87,238,101075,6,0,B|176:261|164:203|255:227,1,172.125000656605,0|0,3:2|2:0,2:0:0:0:
150,133,101412,2,0,P|177:124|205:121,1,57.3750002188683,8|0,2:0|0:0,0:0:0:0:
317,315,101580,1,2,2:0:0:0:
427,223,101749,6,0,L|369:226,1,57.3750002188683,0|0,2:0|0:0,0:0:0:0:
221,326,101917,1,0,3:2:0:0:
148,125,102086,2,0,L|205:121,1,57.3750002188683,10|0,2:0|2:0,2:0:0:0:
345,45,102255,6,0,B|351:87|313:124|313:124|350:151|355:193,1,172.125000656605,0|0,3:2|0:0,2:0:0:0:
241,270,102592,2,0,P|245:241|253:214,1,57.3750002188683,0|0,3:2|0:0,0:0:0:0:
427,122,102760,1,8,2:0:0:0:
241,42,102929,5,2,2:0:0:0:
202,30,103013,1,0,2:0:0:0:
163,36,103097,1,0,2:0:0:0:
131,59,103182,1,0,0:0:0:0:
111,94,103266,1,0,3:2:0:0:
216,218,103434,2,0,L|210:160,1,57.3750002188683,10|0,2:0|0:0,0:0:0:0:
340,12,103603,2,0,L|345:69,1,57.3750002188683,2|0,2:0|2:0,0:0:0:0:
468,267,103771,6,0,L|461:203,1,63.75,0|0,3:2|2:0,2:0:0:0:
449,117,104108,2,0,B|413:171|383:291|495:241|460:203,1,191.250007295609,8|0,2:0|2:0,2:0:0:0:
298,161,104446,6,0,L|291:225,1,63.75,2|0,3:2|0:0,0:0:0:0:
279,311,104783,2,0,B|242:257|213:137|325:187|290:225,1,191.250007295609,10|0,2:0|2:0,2:0:0:0:
291,224,105120,6,0,L|195:216,1,95.6250036478044,6|0,3:2|2:0,2:0:0:0:
157,106,105457,6,0,P|185:107|214:108,1,57.3750002188683,8|0,2:0|0:0,0:0:0:0:
339,79,105625,1,0,2:0:0:0:
348,106,105710,1,0,2:0:0:0:
343,134,105794,1,0,2:0:0:0:
195,216,105962,5,0,3:2:0:0:
351,319,106131,2,0,P|354:290|358:262,1,57.3750002188683,10|0,2:0|0:0,2:0:0:0:
214,108,106299,2,0,P|210:79|206:51,1,57.3750002188683,0|0,0:0|2:0,0:0:0:0:
456,136,106468,6,0,B|405:147|398:119|342:134,1,114.750000437737,2|0,3:2|0:0,2:0:0:0:
206,51,106721,1,0,2:0:0:0:
206,51,106805,2,0,P|234:48|262:44,1,57.3750002188683,8|0,2:0|0:0,0:0:0:0:
435,5,106974,1,0,2:0:0:0:
431,273,107142,6,0,P|426:244|422:216,1,57.3750002188683,2|0,2:0|2:0,2:0:0:0:
351,77,107311,2,0,P|346:105|342:133,1,57.3750002188683,2|0,3:2|2:0,2:0:0:0:
217,203,107479,2,0,P|221:174|225:146,1,57.3750002188683,10|0,2:0|0:0,0:0:0:0:
355,322,107648,6,0,B|310:307|291:274|291:274|256:309|208:302,1,172.125000656605,2|0,3:2|0:0,0:0:0:0:
160,197,107985,2,0,L|217:203,1,57.3750002188683,0|0,3:2|0:0,0:0:0:0:
401,203,108153,1,8,2:0:0:0:
360,117,108322,5,2,2:0:0:0:
326,138,108406,1,0,2:0:0:0:
305,172,108491,1,0,2:0:0:0:
302,212,108575,1,0,2:0:0:0:
315,249,108659,1,0,3:2:0:0:
502,300,108828,2,0,P|473:297|445:292,1,57.3750002188683,10|0,2:0|0:0,2:0:0:0:
351,358,108996,2,0,P|322:360|294:365,1,57.3750002188683,0|0,2:0|0:0,0:0:0:0:
180,193,109165,6,0,B|164:309|164:309|177:281|206:262,1,172.125000656605,0|0,3:2|2:0,2:0:0:0:
338,208,109502,2,0,L|281:215,1,57.3750002188683,10|0,2:0|0:0,0:0:0:0:
79,227,109670,1,2,2:0:0:0:
265,349,109839,6,0,B|298:352|298:352|320:348|320:348|343:356|343:356|389:360,2,127.5,2|0|0,2:1|0:0|0:0,0:0:0:0:
170,375,110176,2,0,P|165:343|172:312,1,63.7500024318696,10|2,2:0|2:0,0:0:0:0:
258,239,110429,1,0,0:0:0:0:
279,235,110513,5,2,3:2:0:0:
87,161,110682,1,2,2:0:0:0:
309,118,110850,1,10,2:0:0:0:
87,161,111019,1,0,2:0:0:0:
182,301,111187,5,2,2:0:0:0:
191,280,111271,1,0,0:0:0:0:
191,257,111356,1,0,3:2:0:0:
98,264,111524,1,10,2:0:0:0:
286,295,111693,1,2,2:0:0:0:
203,146,111861,5,2,3:2:0:0:
240,376,112030,1,0,2:0:0:0:
334,171,112198,1,10,2:0:0:0:
240,376,112367,1,0,2:0:0:0:
199,260,112535,6,0,L|257:248,1,57.3750002188683,2|0,2:0|2:0,2:0:0:0:
380,310,112704,2,0,L|438:298,1,57.3750002188683,2|0,3:2|0:0,0:0:0:0:
380,95,112873,2,0,B|366:213|366:213|333:170,1,172.125000656605,8|0,2:0|0:0,0:0:0:0:
259,108,113210,6,0,P|206:95|177:195,1,170,2|8,3:2|2:0,2:0:0:0:
146,291,113715,2,0,B|184:310|231:286|231:286|271:262|308:262|332:287|332:287|299:312|266:298,1,255,2|8,3:2|2:0,2:0:0:0:
180,205,114389,6,0,B|142:184|147:114|187:95|187:95|198:121|167:154,1,191.250007295609,2|8,3:2|2:0,0:0:0:0:
245,27,115064,2,0,P|217:10|186:7,1,63.7500024318696,0|10,0:0|2:3,0:0:0:0:
18,100,115401,2,0,P|45:83|76:80,1,63.7500024318696,10|10,2:0|2:3,0:0:0:0:
152,253,115738,1,8,2:0:0:0:
171,148,115906,5,4,2:0:0:0:
256,192,115991,12,0,118603,0:0:0:0:
304,80,126019,5,2,2:0:0:0:
276,94,126103,1,0,2:0:0:0:
260,121,126187,1,2,2:0:0:0:
262,153,126271,1,0,2:0:0:0:
281,177,126356,1,2,2:0:0:0:
311,188,126440,1,2,2:0:0:0:
341,180,126524,1,2,2:0:0:0:
363,157,126608,1,2,2:0:0:0:
367,126,126693,6,0,L|282:116,1,85,2|8,3:2|2:0,2:0:0:0:
164,188,127198,2,0,P|138:221|136:268,1,85,0|8,3:2|2:1,0:0:0:0:
164,68,127535,2,0,P|147:29|111:8,1,85,0|8,0:0|2:0,0:0:0:0:
244,252,127873,6,0,P|305:262|356:226,1,127.500004863739,2|0,2:0|2:0,2:0:0:0:
504,188,128378,2,0,P|477:220|473:262,1,85,10|0,2:0|3:2,0:0:0:0:
308,136,128715,2,0,P|323:75|290:22,1,127.500004863739,8|8,2:1|2:0,2:0:0:0:
140,192,129221,1,0,0:0:0:0:
147,107,129389,6,0,L|139:191,1,85,2|8,3:2|2:0,2:0:0:0:
283,352,129895,2,0,P|315:324|356:318,1,85,0|8,3:2|2:1,0:0:0:0:
155,296,130232,2,0,P|114:300|78:279,1,85,0|8,0:0|2:0,0:0:0:0:
252,128,130569,6,0,P|276:185|252:248,1,127.500004863739,2|0,2:0|2:0,2:0:0:0:
78,279,131075,1,8,3:2:0:0:
160,204,131412,1,8,2:1:0:0:
186,311,131749,1,8,2:0:0:0:
56,308,132086,6,0,L|47:223,1,85,2|8,2:0|2:0,2:0:0:0:
82,83,132592,2,0,P|41:95|2:81,1,85,0|8,3:2|2:1,0:0:0:0:
179,203,132929,2,0,P|210:230|224:270,1,85,0|8,0:0|2:0,0:0:0:0:
312,149,133266,6,0,P|288:91|311:33,1,127.500004863739,2|2,2:0|2:0,2:0:0:0:
449,273,133771,2,0,P|452:314|428:357,1,85,8|0,2:0|3:2,0:0:0:0:
256,209,134108,2,0,P|305:171|374:181,1,127.500004863739,8|8,2:1|2:0,2:0:0:0:
153,59,134614,1,0,2:0:0:0:
237,66,134783,6,0,L|152:58,1,85,2|8,3:2|2:0,2:0:0:0:
18,29,135288,2,0,P|23:71|26:113,1,85,0|8,3:2|2:1,0:0:0:0:
238,321,135625,2,0,P|241:278|246:236,1,85,0|8,0:0|2:0,0:0:0:0:
144,88,135962,6,0,B|163:161|106:177|127:253,1,170,2|0,2:0|2:0,2:0:0:0:
246,236,136468,2,0,L|341:230,1,95.6250036478044,8|0,3:2|0:0,2:0:0:0:
450,219,136805,6,0,P|442:244|437:270,3,53.125,10|0|2|0,2:1|2:0|2:0|2:0,0:0:0:0:
348,119,137142,2,0,P|343:93|336:68,3,53.125,10|0|2|0,2:0|2:0|2:0|2:0,0:0:0:0:
272,209,137479,5,0,3:2:0:0:
272,209,137985,2,0,L|208:201,1,63.7500024318696,0|8,3:2|2:1,0:0:0:0:
208,201,139333,6,0,L|272:209,1,63.7500024318696,0|8,3:2|2:1,0:0:0:0:
145,194,140176,5,0,3:0:0:0:
145,194,140682,2,0,L|209:202,1,63.7500024318696,0|8,3:2|2:1,0:0:0:0:
209,202,141861,6,0,L|146:193,1,63.7500024318696,0|8,3:2|2:1,0:0:0:0:
252,136,152311,6,0,L|168:146,1,84.1499997431946,8|0,2:1|0:0,0:0:0:0:
96,180,152648,1,8,2:0:0:0:
164,136,152816,6,0,L|248:125,1,85,10|8,2:3|2:0,0:0:0:0:
392,241,153322,2,2,B|330:256|335:214|267:229,1,127.5,10|0,2:3|2:0,1:2:0:0:
268,229,153659,6,0,L|259:323,1,85,4|0,3:2|2:0,2:0:0:0:
377,154,153996,1,10,2:0:0:0:
164,161,154165,1,0,2:0:0:0:
156,141,154249,1,0,2:0:0:0:
158,119,154333,1,2,2:0:0:0:
359,134,154502,2,0,L|275:139,1,85,2|10,3:2|2:0,2:0:0:0:
132,260,154839,1,0,2:0:0:0:
132,260,154923,1,0,2:0:0:0:
132,260,155007,5,0,3:0:0:0:
272,376,155176,2,0,P|290:338|283:297,1,85,0|10,2:0|2:0,0:0:0:0:
101,168,155513,1,0,2:0:0:0:
101,168,155597,1,0,2:0:0:0:
101,168,155682,2,0,L|160:161,1,42.5,2|0,2:0|2:0,2:0:0:0:
23,239,155850,1,2,3:2:0:0:
100,64,156019,1,8,2:0:0:0:
225,240,156187,1,2,2:0:0:0:
225,240,156271,1,0,2:0:0:0:
225,240,156356,6,0,L|244:103,1,127.5,0|0,3:0|0:0,2:0:0:0:
256,34,156693,1,8,2:0:0:0:
365,106,156861,1,2,2:0:0:0:
365,106,156946,1,0,2:0:0:0:
365,106,157030,2,0,B|376:149|376:149|353:183,1,85,0|2,2:0|3:2,0:0:0:0:
121,197,157367,2,0,B|110:154|110:154|132:119,1,85,10|2,2:0|2:0,2:0:0:0:
265,265,157704,6,0,B|180:247|192:309|101:291,1,170,0|10,3:0|2:0,2:0:0:0:
246,357,158210,2,0,L|286:368,2,42.5,0|0|2,2:0|2:0|2:0,0:0:0:0:
132,184,158547,1,0,3:2:0:0:
17,304,158715,2,0,L|102:291,1,85,10|2,2:0|2:0,0:0:0:0:
237,249,159052,6,0,P|267:195|250:133,1,127.5,0|0,3:0|0:0,2:0:0:0:
210,60,159389,2,0,L|219:18,2,42.5,8|0|0,2:0|0:0|2:0,0:0:0:0:
33,175,159726,1,0,2:0:0:0:
52,183,159811,1,0,2:0:0:0:
73,182,159895,1,2,3:2:0:0:
54,5,160064,2,0,P|59:47|64:89,1,85,10|2,2:0|2:0,2:0:0:0:
65,279,160401,6,0,B|128:271|128:271|162:237|162:237|219:230,1,170,2|10,3:2|2:0,2:0:0:0:
259,350,160906,1,0,2:0:0:0:
237,350,160991,1,0,2:0:0:0:
218,339,161075,1,2,2:0:0:0:
75,125,161243,2,0,L|70:167,2,42.5,2|0|8,3:2|2:0|2:0,2:0:0:0:
243,42,161580,1,0,2:0:0:0:
243,42,161665,1,0,0:0:0:0:
243,42,161749,6,0,B|256:90|226:126|226:126|267:133|288:172,1,170,2|8,3:2|2:0,2:0:0:0:
348,87,162255,2,0,L|406:78,2,42.5,0|0|2,2:0|2:0|2:0,0:0:0:0:
206,225,162592,1,2,3:2:0:0:
142,71,162760,1,10,2:0:0:0:
142,71,163097,6,0,P|178:102|224:97,1,95.6250036478044,10|0,2:1|0:0,2:0:0:0:
224,97,163434,2,0,P|138:107|126:209,1,191.250007295609,4|0,3:0|0:0,2:0:0:0:
210,244,163771,6,0,P|253:228|271:180,1,95.6250036478044,10|0,2:1|0:0,2:0:0:0:
194,170,164108,2,0,B|268:203|309:137|381:172,1,191.250007295609,4|0,2:3|0:0,2:0:0:0:
380,171,164446,1,4,3:2:0:0:
346,379,164783,6,0,P|338:315|334:252,1,127.500004863739,10|2,2:0|2:0,2:0:0:0:
159,343,165288,1,0,3:2:0:0:
171,216,165457,2,0,P|165:279|158:342,1,127.500004863739,10|0,2:0|3:2,0:0:0:0:
117,131,166131,6,0,P|145:116|176:113,1,63.7500024318696,10|0,2:0|2:0,2:0:0:0:
290,182,166468,2,0,P|305:209|308:242,1,63.7500024318696,2|0,2:0|3:2,2:0:0:0:
302,58,166805,2,0,P|314:28|347:1,1,63.7500024318696,8|0,2:0|2:0,2:0:0:0:
512,176,167142,6,0,B|455:156|440:192|386:173,1,127.500004863739,2|8,3:2|2:0,0:0:0:0:
271,134,167648,2,0,P|208:131|163:174,1,127.500004863739,2|0,2:0|3:2,0:0:0:0:
240,323,168153,2,0,P|252:293|254:262,1,63.7500024318696,10|0,2:0|2:0,0:0:0:0:
123,356,168491,1,0,3:2:0:0:
128,106,168828,6,0,P|147:130|187:145,1,63.7500024318696,10|0,2:0|2:0,2:0:0:0:
308,125,169165,2,0,P|329:100|362:85,1,63.7500024318696,2|0,2:0|3:2,2:0:0:0:
249,236,169502,2,0,P|246:269|260:310,1,63.7500024318696,10|0,2:0|2:0,2:0:0:0:
479,256,169839,6,0,B|404:223|404:223|370:254,1,127.500004863739,2|8,3:2|2:0,0:0:0:0:
216,362,170344,2,0,B|254:297|254:297|226:240,1,127.500004863739,2|0,2:0|3:2,0:0:0:0:
161,121,170850,2,0,P|188:139|228:137,1,63.7500024318696,10|0,2:0|2:0,0:0:0:0:
330,69,171187,1,0,3:2:0:0:
427,226,171524,6,0,P|431:194|436:163,1,63.7500024318696,10|0,2:0|2:0,0:0:0:0:
329,294,171861,2,0,P|337:328|346:359,1,63.7500024318696,2|0,2:0|3:2,2:0:0:0:
197,274,172198,2,0,P|168:259|139:245,1,63.7500024318696,10|2,2:0|2:0,0:0:0:0:
0,176,172535,5,0,3:2:0:0:
56,261,172704,1,0,2:0:0:0:
155,237,172873,1,10,2:0:0:0:
176,137,173041,1,2,2:0:0:0:
139,245,173210,5,2,2:0:0:0:
199,140,173378,1,2,3:2:0:0:
319,138,173547,1,10,2:0:0:0:
402,225,173715,1,2,2:0:0:0:
364,340,173884,5,2,3:2:0:0:
364,340,174052,1,2,2:0:0:0:
283,136,174221,6,0,B|288:167|288:167|276:195|276:195|282:224|282:224|267:256,2,127.5,10|0|0,2:1|0:0|0:0,2:0:0:0:
343,69,174558,5,0,3:2:0:0:
343,69,174726,1,0,2:0:0:0:
457,169,174895,6,0,P|403:191|428:249,1,127.500004863739,2|2,2:0|2:0,2:0:0:0:
433,266,175232,6,0,L|370:254,1,63.7500024318696,4|0,3:2|2:0,2:0:0:0:
286,166,175569,1,10,2:0:0:0:
286,166,175738,1,0,2:0:0:0:
251,338,175906,2,0,L|313:349,1,63.7500024318696,2|0,3:2|2:0,2:0:0:0:
163,240,176243,2,0,L|151:177,1,63.7500024318696,8|2,2:0|2:0,0:0:0:0:
361,31,176580,6,0,P|364:62|353:92,1,63.7500024318696,0|0,3:2|2:0,2:0:0:0:
353,92,176833,1,0,0:0:0:0:
353,92,176917,1,10,2:0:0:0:
244,96,177086,1,0,2:0:0:0:
396,215,177255,1,2,3:2:0:0:
177,187,177423,1,2,2:0:0:0:
474,163,177592,2,0,P|491:188|492:232,1,63.7500024318696,10|0,2:0|2:0,2:0:0:0:
312,372,177929,6,0,L|328:272,1,95.6250036478044,2|0,3:2|0:0,2:0:0:0:
396,215,178266,1,8,2:0:0:0:
396,215,178434,1,2,2:0:0:0:
181,19,178603,2,0,L|196:113,1,95.6250036478044,0|0,3:2|0:0,2:0:0:0:
279,155,178940,1,8,2:0:0:0:
279,155,179108,1,0,2:0:0:0:
116,166,179277,5,0,3:2:0:0:
310,53,179446,1,2,2:0:0:0:
358,235,179614,1,8,2:0:0:0:
279,155,179783,1,0,2:0:0:0:
279,155,179867,1,0,0:0:0:0:
279,155,179951,5,2,3:2:0:0:
110,257,180120,1,0,2:0:0:0:
262,252,180288,1,8,2:0:0:0:
77,160,180457,1,2,2:0:0:0:
41,343,180625,5,2,3:2:0:0:
41,343,180794,1,0,2:0:0:0:
88,262,180962,1,8,3:2:0:0:
88,262,181131,1,0,2:0:0:0:
177,235,181299,1,2,3:2:0:0:
177,235,181468,1,0,2:0:0:0:
258,281,181637,1,10,3:2:0:0:
258,281,181805,1,0,2:0:0:0:
159,211,181974,5,0,3:2:0:0:
159,211,182142,1,0,2:0:0:0:
133,112,182311,1,10,3:2:0:0:
133,112,182479,1,0,2:0:0:0:
200,34,182648,1,2,3:2:0:0:
200,34,182816,1,0,2:0:0:0:
302,36,182985,1,10,3:2:0:0:
302,36,183153,1,0,2:0:0:0:
302,341,183322,5,2,3:2:0:0:
260,135,183491,1,0,3:2:0:0:
190,363,183659,5,8,3:2:0:0:
240,126,183828,1,2,3:2:0:0:
94,312,183996,5,0,3:2:0:0:
74,53,184165,1,0,3:2:0:0:
0,351,184333,5,10,3:2:0:0:
55,64,184502,1,0,3:2:0:0:
167,240,184670,5,10,2:1:0:0:
194,252,184755,1,8,2:1:0:0:
223,253,184839,1,8,2:1:0:0:
251,243,184923,1,8,2:1:0:0:
273,222,185007,2,0,P|293:216|313:210,1,42.5,8|8,1:0|2:1,0:0:0:0:
444,94,185176,5,10,2:1:0:0:
406,112,185260,1,8,2:1:0:0:
364,110,185344,1,8,2:1:0:0:
328,88,185428,1,8,2:1:0:0:
289,69,185513,1,8,2:1:0:0:
247,71,185597,1,8,2:1:0:0:
211,93,185682,6,0,L|205:156,1,63.7500024318696,8|8,1:0|2:1,0:0:0:0:
81,99,185850,2,0,L|86:35,1,63.7500024318696,8|8,2:1|2:1,0:0:0:0:
105,201,186019,5,10,2:3:0:0:
105,201,186356,1,0,0:0:0:0:
46,258,186524,2,0,L|172:239,1,127.500004863739
366,282,187030,2,0,B|317:292|317:292|276:271,1,95.6250036478044,2|2,2:0|2:0,2:0:0:0:
317,145,187367,6,0,L|379:155,1,53.125,0|0,2:0|0:0,0:0:0:0:
436,104,187535,2,0,L|461:97,3,26.5625,2|0|0|0,2:1|2:0|2:0|2:0,2:0:0:0:
394,123,187704,6,0,L|310:109,1,85,8|8,2:0|2:3,0:0:0:0:
158,69,188041,1,2,3:2:0:0:
179,66,188125,1,2,2:0:0:0:
159,152,188210,1,2,3:2:0:0:
180,149,188294,1,2,2:0:0:0:
145,240,188378,2,0,L|207:228,1,63.7500024318696,2|8,2:0|2:0,0:0:0:0:
368,228,188715,6,0,P|359:274|350:322,1,95.6250036478044,6|0,3:2|2:0,2:0:0:0:
417,147,189052,2,0,P|390:135|357:136,1,57.3750002188683,8|0,2:0|0:0,0:0:0:0:
252,221,189221,1,0,2:0:0:0:
230,229,189305,1,0,2:0:0:0:
207,227,189389,1,0,2:0:0:0:
219,122,189558,5,0,3:2:0:0:
350,321,189726,2,0,P|354:292|360:264,1,57.3750002188683,10|0,2:0|0:0,2:0:0:0:
229,65,189895,2,0,P|225:93|219:121,1,57.3750002188683,0|0,0:0|2:0,0:0:0:0:
93,227,190064,6,0,B|145:241|157:213|206:226,1,114.750000437737,2|0,3:2|0:0,2:0:0:0:
316,232,190316,1,0,2:0:0:0:
339,230,190401,1,8,2:0:0:0:
174,316,190569,1,0,2:0:0:0:
265,85,190738,6,0,P|262:113|260:142,1,57.3750002188683,2|0,2:0|2:0,2:0:0:0:
388,348,190906,2,0,P|391:320|393:291,1,57.3750002188683,0|0,3:2|2:0,2:0:0:0:
383,135,191075,2,0,P|410:126|439:127,1,57.3750002188683,10|0,2:0|0:0,0:0:0:0:
481,244,191243,6,0,B|423:229|423:229|374:246|374:246|315:231,1,172.125000656605,2|0,3:2|0:0,0:0:0:0:
240,316,191580,2,0,P|267:322|295:329,1,57.3750002188683,0|0,3:2|0:0,0:0:0:0:
160,217,191749,1,8,2:0:0:0:
231,125,191917,5,2,2:0:0:0:
198,102,192002,1,0,2:0:0:0:
159,94,192086,1,0,2:0:0:0:
120,104,192170,1,0,2:0:0:0:
90,130,192254,1,0,3:2:0:0:
152,273,192423,2,0,P|156:244|160:216,1,57.3750002188683,10|0,2:0|0:0,2:0:0:0:
357,119,192592,2,0,P|352:90|348:62,1,57.3750002188683,0|0,2:0|0:0,0:0:0:0:
418,226,192760,6,0,B|367:250|367:250|312:228,1,114.750000437737,0|0,3:2|2:0,2:0:0:0:
231,125,193013,1,0,2:0:0:0:
231,125,193097,2,0,B|294:137|294:105|357:118,1,127.5,10|0,2:0|2:0,2:0:0:0:
473,89,193434,6,0,L|464:145,1,57.3750002188683,2|0,2:0|2:0,0:0:0:0:
341,251,193603,2,0,L|332:307,1,57.3750002188683,0|0,2:0|2:0,0:0:0:0:
231,125,193771,2,0,P|180:99|136:190,1,172.125000656605,10|0,2:0|2:0,2:0:0:0:
196,368,194108,6,0,B|174:320|182:278|208:241|208:241|177:285|126:277,1,229.500000875473,2|8,3:2|2:0,2:0:0:0:
299,192,194614,1,2,2:0:0:0:
309,211,194698,1,0,2:0:0:0:
311,234,194783,1,0,2:0:0:0:
184,147,194951,5,0,3:2:0:0:
381,89,195120,2,0,L|323:85,1,57.3750002188683,8|0,2:0|2:0,2:0:0:0:
184,147,195288,2,0,L|126:143,1,57.3750002188683,2|0,2:0|2:0,0:0:0:0:
19,5,195457,6,0,B|36:124|36:124|43:100|62:80,1,172.125000656605,0|0,3:2|2:0,2:0:0:0:
153,48,195794,2,0,L|215:46,1,57.3750002188683,8|0,2:0|0:0,0:0:0:0:
272,144,195962,1,2,2:0:0:0:
379,2,196131,6,0,L|383:59,1,57.3750002188683,0|0,2:0|0:0,0:0:0:0:
387,237,196299,1,0,3:2:0:0:
423,158,196468,2,0,P|395:150|366:152,1,57.3750002188683,10|0,2:0|2:0,2:0:0:0:
187,257,196637,6,0,B|313:282|313:282|295:241,1,172.125000656605,0|0,3:2|0:0,2:0:0:0:
228,114,196974,2,0,L|232:171,1,57.3750002188683,0|0,3:2|0:0,0:0:0:0:
245,351,197142,1,8,2:0:0:0:
433,280,197311,5,2,2:0:0:0:
408,248,197395,1,0,2:0:0:0:
373,230,197479,1,0,2:0:0:0:
333,227,197564,1,0,0:0:0:0:
295,241,197648,1,0,3:2:0:0:
188,343,197816,2,0,P|216:346|244:350,1,57.3750002188683,10|0,2:0|0:0,0:0:0:0:
276,134,197985,2,0,P|247:137|219:141,1,57.3750002188683,2|0,2:0|2:0,0:0:0:0:
20,229,198153,6,0,L|83:232,1,63.75,0|0,3:2|2:0,2:0:0:0:
189,178,198491,2,0,P|173:98|107:145,1,191.250007295609,8|0,2:0|2:0,2:0:0:0:
189,178,198828,6,0,L|252:174,1,63.75,2|0,3:2|0:0,0:0:0:0:
358,229,199166,2,0,P|342:308|276:261,1,191.250007295609,10|0,2:0|2:0,2:0:0:0:
358,229,199502,6,0,L|458:236,1,95.6250036478044,6|0,3:2|2:0,2:0:0:0:
401,81,199839,6,0,L|406:138,1,57.3750002188683,8|0,2:0|0:0,0:0:0:0:
406,325,200007,1,0,2:0:0:0:
428,330,200092,1,0,2:0:0:0:
450,326,200176,1,0,2:0:0:0:
282,208,200344,1,0,3:2:0:0:
428,160,200513,6,0,P|425:188|423:217,1,57.3750002188683,10|0,2:0|0:0,2:0:0:0:
235,347,200682,2,0,P|232:318|230:289,1,57.3750002188683,0|0,0:0|2:0,0:0:0:0:
312,121,200850,6,0,B|225:103|233:158|144:137,1,172.125000656605,2|0,3:2|2:0,2:0:0:0:
117,35,201187,2,0,L|173:45,1,57.3750002188683,8|0,2:0|0:0,0:0:0:0:
283,210,201356,1,0,2:0:0:0:
342,24,201524,6,0,P|328:49|325:77,1,57.3750002188683,2|0,2:0|2:0,2:0:0:0:
511,129,201693,2,0,P|496:104|473:87,1,57.3750002188683,2|0,3:2|2:0,2:0:0:0:
333,266,201861,2,0,P|361:265|387:254,1,57.3750002188683,10|0,2:0|0:0,0:0:0:0:
427,161,202030,6,0,B|346:134|340:192|259:168,1,172.125000656605,2|0,3:2|0:0,0:0:0:0:
240,64,202367,2,0,L|304:64,1,57.3750002188683,0|0,3:2|0:0,0:0:0:0:
445,59,202535,1,8,2:0:0:0:
493,252,202704,5,2,2:0:0:0:
458,271,202788,1,0,2:0:0:0:
418,274,202873,1,0,2:0:0:0:
381,260,202956,1,0,2:0:0:0:
354,231,203041,1,0,3:2:0:0:
428,94,203210,2,0,P|430:122|434:150,1,57.3750002188683,10|0,2:0|0:0,2:0:0:0:
254,273,203378,2,0,P|251:244|247:216,1,57.3750002188683,0|0,2:0|0:0,0:0:0:0:
301,100,203547,6,0,L|186:93,1,114.750000437737,0|0,3:2|2:0,2:0:0:0:
80,85,203799,1,0,2:0:0:0:
56,83,203884,1,10,2:0:0:0:
220,2,204052,1,2,2:0:0:0:
148,287,204221,6,0,B|144:253|144:253|149:232|149:232|137:210|137:210|131:163,2,127.5,2|0|0,2:1|0:0|0:0,0:0:0:0:
111,364,204558,2,0,P|142:374|173:368,1,63.7500024318696,10|2,2:0|2:0,0:0:0:0:
250,324,204811,1,0,0:0:0:0:
254,302,204895,5,2,3:2:0:0:
53,244,205064,1,2,2:0:0:0:
265,195,205232,1,10,2:0:0:0:
53,244,205401,1,0,2:0:0:0:
147,94,205569,5,2,2:0:0:0:
155,114,205653,1,0,0:0:0:0:
154,136,205738,1,0,3:2:0:0:
60,120,205906,1,10,2:0:0:0:
257,113,206075,1,2,2:0:0:0:
146,263,206243,5,2,3:2:0:0:
211,26,206412,1,0,2:0:0:0:
282,251,206580,1,10,2:0:0:0:
211,26,206749,1,0,2:0:0:0:
197,152,206917,6,0,P|224:145|251:136,1,57.3750002188683,2|0,2:0|2:0,2:0:0:0:
432,192,207086,2,0,P|408:176|384:157,1,57.3750002188683,2|0,3:2|0:0,0:0:0:0:
343,58,207255,2,0,B|331:117|331:117|339:149|339:149|320:174|320:174|310:220,1,172.125000656605,8|0,2:0|0:0,0:0:0:0:
243,313,207592,6,0,P|189:251|210:172,1,170,6|8,3:2|2:0,2:0:0:0:
210,59,208097,6,0,B|182:59|156:49|156:49|180:79|235:87|256:64|256:64|295:32|338:43,1,255,2|10,3:2|2:0,2:0:0:0:
451,114,208771,6,0,B|469:151|437:177|399:147|432:96|432:96|455:59|441:19,1,191.250007295609,2|8,3:2|2:0,0:0:0:0:
348,208,209446,2,0,L|344:271,1,63.7500024318696,0|2,2:0|2:1,0:0:0:0:
248,156,209783,2,0,L|244:219,1,63.7500024318696,8|10,2:0|2:3,0:0:0:0:
140,180,210120,1,8,2:0:0:0:
13,190,210288,6,0,P|76:183|140:180,1,127.500004863739,6|8,3:2|2:0,2:0:0:0:
8,68,210794,1,0,3:2:0:0:
200,40,210962,2,0,P|168:37|136:33,1,63.7500024318696,8|0,2:1|2:0,2:0:0:0:
136,33,211215,1,0,2:0:0:0:
136,33,211299,1,10,2:0:0:0:
280,132,211468,1,0,2:0:0:0:
152,264,211637,6,0,P|135:204|167:150,1,127.500004863739,2|8,2:0|2:0,2:0:0:0:
356,208,212142,1,0,3:2:0:0:
376,43,212311,2,0,P|379:75|384:107,1,63.7500024318696,10|2,2:1|2:0,0:0:0:0:
336,280,212648,2,0,P|341:248|344:216,1,63.7500024318696,10|2,2:0|2:0,0:0:0:0:
252,112,212985,6,0,P|204:156|136:148,1,127.500004863739,2|8,3:2|2:0,2:0:0:0:
33,199,213491,1,2,3:2:0:0:
44,72,213659,2,0,L|32:220,1,127.500004863739,8|10,2:1|2:0,2:0:0:0:
128,296,214165,1,0,2:0:0:0:
128,296,214249,1,2,2:0:0:0:
128,296,214333,5,2,2:0:0:0:
376,184,214670,2,0,P|344:178|313:172,1,63.7500024318696,8|0,3:2|0:0,2:0:0:0:
164,132,215007,2,0,P|175:161|185:191,1,63.7500024318696,10|0,2:1|0:0,0:0:0:0:
216,336,215344,2,0,P|236:311|256:287,1,63.7500024318696,8|0,2:0|2:0,0:0:0:0:
233,56,215682,6,0,P|176:27|107:45,1,127.500004863739,2|8,3:2|2:0,2:0:0:0:
268,167,216187,1,2,3:2:0:0:
119,235,216356,2,0,P|148:245|183:241,1,63.7500024318696,8|0,2:1|2:0,2:0:0:0:
180,242,216608,1,0,0:0:0:0:
180,242,216693,1,10,2:0:0:0:
303,89,216861,1,2,2:0:0:0:
388,297,217030,6,0,P|397:233|407:170,1,127.500004863739,0|0,0:0|3:2,0:0:0:0:
253,178,217535,1,0,2:0:0:0:
253,178,217620,1,0,0:0:0:0:
253,178,217704,2,0,L|303:188,2,31.8750012159348,10|0|0,2:1|0:0|2:0,2:0:0:0:
211,274,218041,2,0,L|261:284,2,31.8750012159348,10|0|0,2:0|0:0|2:0,2:0:0:0:
79,283,218378,6,0,B|97:230|66:210|85:156,1,127.500004863739,2|8,3:2|2:0,2:0:0:0:
142,45,218884,1,0,3:2:0:0:
15,56,219052,2,0,L|160:43,1,127.500004863739,8|10,2:1|2:0,2:0:0:0:
332,116,219558,1,2,2:0:0:0:
332,116,219642,1,0,2:0:0:0:
332,116,219726,6,0,L|320:210,1,95.6250036478044,0|0,2:0|0:0,2:0:0:0:
320,210,220064,1,0,3:2:0:0:
211,250,220232,1,0,2:0:0:0:
211,250,220316,1,0,0:0:0:0:
211,250,220401,6,0,P|187:263|163:272,2,53.125,2|0|0,2:0|2:0|3:2,2:0:0:0:
401,286,220738,2,0,P|415:308|432:328,2,53.125,10|0|0,2:0|2:0|2:0,2:0:0:0:
362,110,221075,6,0,P|314:150|311:212,1,127.500004863739,6|8,2:0|2:0,2:0:0:0:
171,210,221580,1,0,3:2:0:0:
295,346,221749,2,0,P|268:328|237:322,1,63.7500024318696,8|0,2:1|2:0,2:0:0:0:
237,322,222002,1,0,2:0:0:0:
237,322,222086,1,10,2:0:0:0:
108,360,222255,1,0,2:0:0:0:
44,228,222423,6,0,P|107:218|170:209,1,127.500004863739,2|8,2:0|2:0,2:0:0:0:
260,118,222929,1,0,3:2:0:0:
345,256,223097,2,0,P|350:224|357:193,1,63.7500024318696,8|2,2:1|2:0,0:0:0:0:
152,43,223434,2,0,P|146:74|139:105,1,63.7500024318696,10|2,2:0|2:0,0:0:0:0:
96,271,223771,6,0,P|149:237|219:249,1,127.500004863739,2|8,3:2|2:0,2:0:0:0:
436,266,224277,1,2,3:2:0:0:
308,350,224446,2,0,P|339:355|370:362,1,63.7500024318696,8|0,2:1|2:0,2:0:0:0:
375,167,224783,2,0,P|343:173|312:179,1,63.7500024318696,10|0,2:0|2:0,2:0:0:0:
220,261,225120,5,0,2:0:0:0:
468,252,225288,1,0,2:0:0:0:
468,252,225373,1,0,2:0:0:0:
468,252,225457,1,8,3:2:0:0:
321,74,225625,1,0,2:0:0:0:
332,307,225794,6,0,L|346:228,2,79.6875,2|0|0,2:1|0:0|0:0,2:0:0:0:
258,367,226131,2,0,P|232:348|195:345,1,63.7500024318696,10|2,2:0|2:0,0:0:0:0:
23,306,226468,5,2,3:2:0:0:
220,239,226637,1,2,2:0:0:0:
83,131,226805,1,10,2:0:0:0:
103,366,226974,6,0,P|115:342|117:311,1,53.125,0|0,3:2|2:0,0:0:0:0:
89,230,227142,1,2,2:0:0:0:
71,217,227226,1,0,0:0:0:0:
50,212,227311,1,0,2:0:0:0:
192,73,227479,6,0,P|184:103|191:134,1,63.7500024318696,10|2,2:0|2:0,0:0:0:0:
312,216,227816,1,2,2:0:0:0:
456,138,227985,2,0,L|403:129,1,53.125,0|0,3:2|2:0,0:0:0:0:
281,55,228153,1,10,2:0:0:0:
284,76,228238,1,0,0:0:0:0:
287,96,228322,1,0,2:0:0:0:
419,231,228491,5,2,3:2:0:0:
444,33,228659,1,2,2:0:0:0:
312,216,228828,1,10,2:0:0:0:
502,137,228996,1,2,2:0:0:0:
213,111,229165,6,0,P|276:105|339:98,1,127.500004863739,2|8,3:2|2:0,2:0:0:0:
372,234,229670,2,0,B|323:214|275:247|275:247|231:283|155:274|131:221,1,255.000009727478,2|2,3:2|2:0,2:0:0:0:
200,60,230513,6,0,P|203:107|208:155,1,95.6250036478044,0|0,3:2|0:0,0:0:0:0:
208,155,230850,1,8,2:0:0:0:
407,230,231019,1,0,0:0:0:0:
330,384,231187,6,0,P|331:352|335:320,1,63.7500024318696,10|10,2:3|2:0,0:0:0:0:
197,217,231524,2,0,P|195:185|191:153,1,63.7500024318696,10|8,2:3|2:0,0:0:0:0:
129,308,231861,5,4,2:0:0:0:
256,192,231946,12,0,234558,0:0:0:0:
289,218,241974,5,2,2:0:0:0:
289,218,242058,1,0,2:0:0:0:
289,218,242142,1,2,2:0:0:0:
289,218,242226,1,0,2:0:0:0:
289,218,242311,1,2,2:0:0:0:
289,218,242395,1,2,2:0:0:0:
289,218,242479,1,2,2:0:0:0:
289,218,242564,1,2,2:0:0:0:
289,217,242648,6,0,P|247:221|206:193,1,85,2|8,3:2|2:0,2:0:0:0:
99,141,243153,2,0,L|88:225,1,85,0|8,3:2|2:1,0:0:0:0:
275,117,243491,2,0,L|264:32,1,85,0|8,0:0|2:0,0:0:0:0:
488,158,243828,6,0,P|438:195|375:187,1,127.500004863739,2|0,2:0|2:0,2:0:0:0:
191,130,244333,2,0,L|274:116,1,85,10|0,2:0|3:2,0:0:0:0:
327,301,244670,2,0,P|277:263|214:271,1,127.500004863739,8|8,2:1|2:0,2:0:0:0:
132,143,245176,1,0,0:0:0:0:
47,115,245344,6,0,P|41:156|60:193,1,85,2|8,3:2|2:0,2:0:0:0:
229,167,245850,2,0,L|312:152,1,85,0|8,3:2|2:1,0:0:0:0:
242,340,246187,2,0,L|158:354,1,85,0|8,0:0|2:0,0:0:0:0:
322,259,246524,6,0,P|384:266|422:316,1,127.500004863739,2|0,2:0|2:0,2:0:0:0:
242,340,247030,1,8,3:2:0:0:
209,238,247367,1,8,2:1:0:0:
322,259,247704,1,8,2:0:0:0:
136,313,248041,6,0,P|94:319|57:300,1,85,2|8,2:0|2:0,2:0:0:0:
89,118,248547,2,0,L|104:207,1,85,0|8,3:2|2:1,0:0:0:0:
257,359,248884,2,0,L|271:275,1,85,0|8,0:0|2:0,0:0:0:0:
344,137,249221,6,0,P|288:165|226:144,1,127.500004863739,2|2,2:0|2:0,2:0:0:0:
275,44,249726,2,0,L|359:34,1,85,2|2,3:2|2:0,0:0:0:0:
465,228,250064,2,0,P|444:168|468:111,1,127.500004863739,8|8,2:1|2:0,2:0:0:0:
314,273,250569,1,0,2:0:0:0:
325,188,250738,6,0,L|314:272,1,85,2|8,3:2|2:0,2:0:0:0:
79,238,251243,2,0,L|162:224,1,85,0|8,3:2|2:1,0:0:0:0:
297,22,251580,2,0,L|213:35,1,85,2|8,2:0|2:0,2:0:0:0:
66,91,251917,6,0,B|129:97|129:97|164:134|164:134|219:139,1,170,2|0,2:0|2:0,2:0:0:0:
77,193,252423,2,0,P|52:232|59:285,1,95.6250036478044,8|0,3:2|0:0,2:0:0:0:
147,328,252760,6,0,B|247:307|247:307|229:348,1,148.750001418591,10|0,2:3|3:2,2:0:0:0:
511,171,253097,2,0,B|410:191|410:191|428:150,1,148.750001418591,10|0,2:3|2:0,2:0:0:0:
318,193,253434,6,0,B|314:259|344:249|338:317,1,127.500004863739,0|2,3:2|2:0,2:0:0:0:
416,212,253940,2,0,L|431:134,1,63.7500024318696,2|10,3:2|2:1,0:0:0:0:
209,127,254277,2,0,L|221:189,1,63.7500024318696,2|0,2:0|2:0,2:0:0:0:
288,60,254614,6,0,P|219:15|140:40,1,170,2|0,2:0|2:0,2:0:0:0:
31,189,255120,2,0,L|123:165,1,95.6250036478044,2|0,3:2|2:0,2:0:0:0:
221,189,255457,2,0,L|214:220,3,31.8750012159348,10|0|0|0,2:1|2:0|2:0|2:0,2:0:0:0:
316,172,255794,2,0,L|309:203,3,31.8750012159348,2|0|0|0,2:0|2:0|2:0|2:0,2:0:0:0:
420,121,256131,6,0,L|405:183,1,63.7500024318696,0|0,3:2|2:0,2:0:0:0:
385,268,256384,1,0,2:0:0:0:
381,283,256468,1,2,2:0:0:0:
279,83,256637,1,2,3:2:0:0:
254,175,256805,2,0,P|285:179|315:171,1,63.7500024318696,10|2,2:1|2:0,0:0:0:0:
186,107,257142,1,0,2:0:0:0:
160,224,257311,6,0,P|99:168|19:183,1,170,2|0,2:0|2:0,2:0:0:0:
88,371,257816,2,0,P|133:359|162:319,1,95.6250036478044,2|0,3:2|2:0,2:0:0:0:
57,161,258153,6,0,B|72:266|72:266|90:227,1,148.750001418591,10|0,2:3|3:2,2:0:0:0:
302,341,258491,2,0,B|287:236|287:236|268:274,1,148.750001418591,10|0,2:3|2:0,2:0:0:0:
157,143,258828,6,0,B|240:172|262:111|344:143,1,191.250007295609,6|0,3:2|3:2,2:0:0:0:
197,21,259502,2,0,L|204:62,3,42.5,10|0|0|0,2:1|2:0|2:0|2:0,2:0:0:0:
300,225,259839,2,0,L|307:266,3,42.5,2|0|0|0,2:0|2:0|2:0|2:0,2:0:0:0:
200,165,260176,6,0,P|145:133|85:147,1,127.500004863739,2|0,3:2|3:2,2:0:0:0:
131,228,260682,1,0,2:0:0:0:
282,115,260850,2,0,L|323:104,3,42.5,10|0|0|0,2:1|2:0|2:0|2:0,0:0:0:0:
411,257,261187,2,0,L|369:267,3,42.5,2|0|0|0,2:0|2:0|2:0|2:0,2:0:0:0:
281,212,261524,6,0,P|278:243|276:275,1,63.7500024318696,2|0,3:2|2:0,2:0:0:0:
269,357,261777,1,0,2:0:0:0:
267,376,261861,1,0,2:0:0:0:
385,168,262030,1,0,3:2:0:0:
176,266,262198,2,0,L|134:257,3,42.5,10|0|0|0,2:1|2:0|2:0|2:0,0:0:0:0:
72,162,262535,2,0,L|30:154,3,42.5,2|0|0|0,2:0|2:0|2:0|2:0,0:0:0:0:
188,10,262873,6,0,P|210:67|187:125,1,127.500004863739,2|0,3:2|3:0,2:0:0:0:
123,69,263378,1,0,2:0:0:0:
390,120,263547,6,0,B|297:98|297:98|319:115|330:142,1,148.750001418591,10|0,2:3|3:2,2:0:0:0:
97,293,263884,2,0,B|190:315|190:315|168:298|157:271,1,148.750001418591,10|2,2:3|3:2,2:0:0:0:
247,179,264221,6,0,L|241:229,1,50.9999984436036,4|0,3:2|2:0,2:0:0:0:
322,266,264558,2,0,L|327:215,1,50.9999984436036,0|0,3:2|2:0,2:0:0:0:
212,161,264895,2,0,L|208:222,1,59.4999981842042,2|0,3:2|2:0,2:0:0:0:
356,282,265232,2,0,L|358:221,1,59.4999981842042,0|0,3:2|2:0,2:0:0:0:
178,144,265569,2,0,L|174:211,1,68,4|0,3:2|2:0,2:0:0:0:
390,299,265906,2,0,L|392:230,1,68,0|0,3:2|2:0,2:0:0:0:
144,128,266243,2,0,L|148:204,1,76.4999976654053,2|0,3:2|2:0,2:0:0:0:
424,316,266580,2,0,L|418:238,1,76.4999976654053,0|0,3:2|2:0,2:0:0:0:
144,128,266917,6,0,L|148:204,1,76.4999976654053,4|0,3:2|0:0,0:0:0:0:
424,316,267086,2,0,L|418:238,1,76.4999976654053,0|0,3:2|0:0,0:0:0:0:
178,144,267255,2,0,L|174:211,1,68,0|0,3:2|0:0,0:0:0:0:
390,299,267423,2,0,L|392:230,1,68,0|0,3:2|0:0,0:0:0:0:
212,161,267592,2,0,L|208:220,1,59.4999981842042,4|0,3:2|0:0,0:0:0:0:
356,282,267760,2,0,L|358:221,1,59.4999981842042,0|0,3:2|0:0,0:0:0:0:
247,179,267929,2,0,L|241:229,1,50.9999984436036,0|0,3:2|0:0,0:0:0:0:
322,266,268097,2,0,L|327:215,1,50.9999984436036,0|0,3:2|0:0,0:0:0:0:
249,0,268266,5,0,3:2:0:0:
277,41,268350,1,0,3:2:0:0:
273,91,268434,1,0,3:2:0:0:
240,128,268519,1,0,3:2:0:0:
206,165,268603,1,0,3:2:0:0:
201,215,268687,1,0,3:2:0:0:
227,258,268771,1,0,3:2:0:0:
273,277,268856,1,0,3:2:0:0:
322,266,268940,6,0,B|347:241|399:234|427:262|427:262|391:267,1,144.500002756119,10|0,3:0|3:2,2:0:0:0:
177,61,269277,2,0,B|152:36|100:29|72:57|72:57|104:62,1,144.500002756119,10|0,3:0|2:0,2:0:0:0:
304,64,269614,5,6,2:0:0:0:
150,169,269783,2,0,B|134:209|134:209|265:193|265:193|237:157,1,216.750004134178
190,19,270120,2,0,P|179:52|183:88,1,72.2500013780594,0|0,3:2|0:0,0:0:0:0:
424,121,270288,6,0,B|328:99|328:99|354:136,1,144.500002756119,10|0,2:1|2:0,2:0:0:0:
276,275,270541,2,0,B|180:297|180:297|206:259,1,144.500002756119,2|0,3:1|2:0,2:0:0:0:
239,160,270794,2,0,L|167:151,1,72.2500013780594,10|0,2:1|0:0,0:0:0:0:
58,137,270962,1,2,2:0:0:0:
323,104,271131,6,0,P|339:135|336:171,1,72.2500013780594,8|0,2:0|0:0,0:0:0:0:
241,255,271299,2,0,P|205:253|175:233,1,72.2500013780594,0|0,3:2|2:0,2:0:0:0:
151,114,271468,2,0,P|169:83|202:68,1,72.2500013780594,0|0,3:2|2:0,2:0:0:0:
239,160,271637,6,2,B|257:208|257:208|230:254|230:254|249:301|249:301|247:368,1,216.750004134178,2|8,3:1|2:0,1:0:0:0:
407,277,271974,2,2,P|372:275|340:259,1,72.2500013780594,2|0,2:1|0:0,1:0:0:0:
79,220,272142,2,0,P|114:218|145:200,1,72.2500013780594,8|0,2:0|0:0,0:0:0:0:
88,122,272311,1,2,2:0:0:0:
233,120,272479,6,0,L|296:110,1,63.7500024318696,0|0,3:0|0:0,0:0:0:0:
370,179,272648,2,0,P|380:208|378:248,1,63.7500024318696,8|0,2:0|0:0,0:0:0:0:
393,79,272816,2,0,P|392:47|402:17,1,63.7500024318696,0|0,3:2|2:0,2:0:0:0:
279,220,272985,6,0,B|205:243|195:184|117:206,1,165.749992412568,8|0,2:0|3:2,2:0:0:0:
94,314,273322,2,0,L|147:300,1,55.2499974708558,2|2,2:0|2:0,0:0:0:0:
295,110,273491,2,0,L|241:123,1,55.2499974708558,10|2,2:0|2:0,0:0:0:0:
55,43,273659,6,0,P|52:66|48:90,2,48.1666675853729,2|0|0,3:1|2:0|2:0,2:0:0:0:
215,90,273828,2,0,P|217:113|221:137,2,48.1666675853729,2|0|0,2:1|2:0|2:0,2:0:0:0:
28,181,273996,2,0,P|25:204|21:228,2,48.1666675853729,2|0|2,2:3|0:0|3:2,0:0:0:0:
255,232,274165,2,0,P|259:267|264:303,1,72.2500013780594
105,353,274333,6,0,B|114:253|114:253|143:291,1,148.750001418591,2|0,2:1|3:0,2:0:0:0:
253,28,274670,2,0,B|244:128|244:128|214:89,1,148.750001418591,2|8,2:1|2:3,2:0:0:0:
166,178,275007,1,6,2:0:0:0:
404,220,275176,6,0,B|374:161|295:174|274:213|274:213|300:215|325:241,1,216.750004134178
267,375,275513,2,0,P|256:339|263:303,1,74.3750007092953,0|0,3:2|0:0,0:0:0:0:
421,130,275682,6,0,B|404:221|404:221|396:192|370:178,1,144.500002756119,10|0,2:1|2:0,2:0:0:0:
185,19,275934,2,0,B|202:110|202:110|210:81|236:67,1,144.500002756119,2|0,3:1|2:0,2:0:0:0:
316,29,276187,2,0,P|326:64|319:100,1,74.3750007092953,10|0,2:1|0:0,0:0:0:0:
268,194,276356,1,2,2:0:0:0:
268,194,276524,6,0,P|231:191|195:189,1,72.2500013780594,8|0,2:0|0:0,0:0:0:0:
19,280,276693,2,0,P|55:282|91:284,1,72.2500013780594,0|0,3:2|2:0,2:0:0:0:
256,99,276861,2,0,P|219:96|183:94,1,72.2500013780594,0|0,3:2|2:0,2:0:0:0:
0,184,277030,6,2,B|38:177|74:202|74:202|122:168|122:168|152:195|196:189,1,216.750004134178,2|8,3:1|2:0,1:0:0:0:
137,346,277367,2,2,P|125:312|133:277,1,72.2500013780594,2|0,2:1|0:0,1:0:0:0:
63,27,277535,2,0,P|51:60|59:95,1,72.2500013780594,8|0,2:0|0:0,0:0:0:0:
159,68,277704,1,2,2:0:0:0:
259,196,277873,6,0,L|195:189,1,63.7500024318696,0|0,3:2|0:0,0:0:0:0:
325,65,278041,2,0,P|334:96|329:127,1,63.7500024318696,8|0,2:0|2:0,2:0:0:0:
340,305,278210,2,0,P|334:273|343:243,1,63.7500024318696,2|2,2:0|2:0,0:0:0:0:
459,155,278378,6,0,B|404:166|404:166|361:144|361:144|301:155,1,165.749992412568,2|10,2:0|2:0,2:0:0:0:
203,112,278715,2,0,P|199:150|194:188,1,76.4999976654053,2|2,2:0|3:2,2:0:0:0:
171,296,279052,6,0,P|197:283|224:277,2,56.6666666666667,2|0|0,2:0|3:2|3:2,2:0:0:0:
88,188,279389,5,14,2:3:0:0:
88,188,279502,2,0,L|83:139,1,48.1666675853729,0|0,3:2|0:0,0:0:0:0:
213,32,279614,5,6,2:3:0:0:
213,32,279726,2,0,L|208:85,1,52.416666466713,0|0,3:2|0:0,0:0:0:0:
332,219,279839,5,6,2:3:0:0:
332,219,279951,2,0,L|326:163,1,56.6666666666667,0|0,3:2|0:0,0:0:0:0:
433,212,280064,6,0,B|274:195|274:195|325:161,1,220.999989883423,6|6,2:3|2:0,0:0:0:0:
340,301,280569,6,0,B|270:318|270:318|208:278,1,144.500002756119,0|8,0:0|2:0,0:0:0:0:
239,124,280906,2,0,P|244:159|248:195,1,72.2500013780594,0|0,3:2|0:0,0:0:0:0:
93,268,281075,6,0,P|76:205|140:191,1,144.500002756119,10|0,2:1|2:0,2:0:0:0:
216,12,281328,2,0,P|199:74|263:88,1,144.500002756119,2|0,3:1|2:0,2:0:0:0:
416,232,281580,2,0,L|344:223,1,72.2500013780594,10|0,2:1|0:0,0:0:0:0:
237,214,281749,1,2,2:0:0:0:
357,53,281917,6,0,P|367:87|360:122,1,72.2500013780594,8|0,2:0|0:0,0:0:0:0:
206,127,282086,2,0,P|230:100|263:89,1,72.2500013780594,0|0,2:0|2:0,2:0:0:0:
344,223,282255,2,0,P|309:215|282:191,1,72.2500013780594,0|0,2:0|2:0,2:0:0:0:
361,122,282423,6,2,B|348:161|348:161|369:202|369:202|348:250|348:250|375:277|383:318,1,216.750004134178,2|8,3:1|2:0,1:0:0:0:
300,382,282760,2,2,P|291:346|279:312,1,72.2500013780594,2|0,2:1|0:0,1:0:0:0:
455,242,282929,2,0,P|463:206|475:172,1,72.2500013780594,8|0,2:0|0:0,0:0:0:0:
361,122,283097,5,2,2:0:0:0:
234,201,283266,2,0,L|170:205,1,63.7500024318696,0|0,3:2|0:0,0:0:0:0:
91,112,283434,2,0,P|84:80|79:49,1,63.7500024318696,8|0,2:0|0:0,0:0:0:0:
61,213,283603,2,0,P|55:244|49:275,1,63.7500024318696,0|0,3:2|2:0,2:0:0:0:
197,107,283771,6,0,B|271:81|283:134|359:110,1,165.749992412568,8|2,2:0|3:2,0:0:0:0:
440,41,284108,2,0,P|466:47|493:53,1,55.2499974708558,2|0,2:0|0:0,0:0:0:0:
395,196,284277,2,0,P|367:201|341:208,1,55.2499974708558,8|0,2:0|0:0,0:0:0:0:
242,193,284446,6,0,L|235:247,2,55.2499974708558,0|2|2,3:2|2:0|2:0,2:0:0:0:
197,80,284698,2,0,L|190:25,2,55.2499974708558,0|8|2,3:0|2:0|2:0,0:0:0:0:
120,163,284951,2,0,L|113:217,1,55.2499974708558,0|2,3:2|2:0,2:0:0:0:
93,259,285120,5,2,2:1:0:0:
135,224,285204,1,2,2:0:0:0:
189,220,285288,1,2,2:0:0:0:
236,248,285373,1,10,2:1:0:0:
257,298,285457,6,0,P|260:334|262:371,1,73.6666632944744,2|0,2:1|2:0,2:0:0:0:
414,309,285682,2,0,P|416:272|419:235,1,73.6666632944744,0|6,2:0|3:2,0:0:0:0:
313,42,285962,6,0,B|297:109|345:113|325:183,1,144.500002756119,0|8,0:0|2:0,0:0:0:0:
253,171,286299,2,0,L|324:181,1,72.2500013780594,0|0,2:0|0:0,0:0:0:0:
178,113,286468,6,0,B|157:140|160:181|160:181|143:143|108:135,1,144.500002756119,10|0,2:1|2:0,2:0:0:0:
18,271,286721,2,0,B|52:263|69:224|69:224|66:266|87:293,1,144.500002756119,2|0,3:1|2:0,2:0:0:0:
168,339,286974,2,0,P|179:303|172:268,1,72.2500013780594,10|0,2:1|0:0,0:0:0:0:
52,379,287142,1,2,2:0:0:0:
264,184,287311,6,0,P|228:181|193:177,1,72.2500013780594,8|0,2:0|0:0,0:0:0:0:
15,299,287479,2,0,P|50:295|86:292,1,72.2500013780594,0|0,3:0|2:0,2:0:0:0:
283,90,287648,2,0,P|246:87|211:83,1,72.2500013780594,0|0,3:2|2:0,2:0:0:0:
35,171,287816,6,2,B|94:160|117:107|117:107|135:165|192:177,1,216.750004134178,2|8,3:1|2:0,1:0:0:0:
211,83,288153,2,2,P|216:47|204:13,1,72.2500013780594,2|0,2:1|0:0,1:0:0:0:
110,258,288322,2,0,P|98:291|103:327,1,72.2500013780594,8|0,2:0|0:0,0:0:0:0:
195,300,288491,5,2,2:0:0:0:
350,139,288659,2,0,L|286:144,1,63.7500024318696,0|0,3:2|0:0,0:0:0:0:
211,83,288828,2,0,P|179:79|148:72,1,63.7500024318696,8|0,2:0|0:0,0:0:0:0:
118,214,288996,2,0,P|149:206|180:203,1,63.7500024318696,0|0,3:2|0:0,0:0:0:0:
355,314,289165,6,0,B|267:337|272:277|193:299,1,165.749992412568,8|0,3:2|3:2,2:0:0:0:
319,210,289502,2,0,P|335:175|331:138,1,76.4999976654053,2|8,2:0|2:0,0:0:0:0:
237,158,289839,5,2,3:2:0:0:
196,176,289923,1,0,3:2:0:0:
151,170,290007,1,0,3:2:0:0:
115,142,290092,1,0,3:2:0:0:
84,74,290176,5,2,3:2:0:0:
79,123,290260,1,0,3:2:0:0:
75,173,290344,1,0,3:2:0:0:
71,222,290428,1,0,3:2:0:0:
17,287,290513,5,2,3:2:0:0:
68,309,290597,1,0,3:2:0:0:
120,291,290682,1,0,3:2:0:0:
172,273,290766,1,0,3:2:0:0:
224,296,290850,1,10,2:0:0:0:
224,295,291187,6,0,P|266:259|344:263,1,127.5,6|0,3:2|0:0,2:0:0:0:
411,327,291524,2,0,L|453:329,2,42.5,10|0|0,2:0|0:0|2:0,2:0:0:0:
432,217,291861,1,2,2:0:0:0:
304,349,292030,1,0,3:2:0:0:
274,165,292198,1,8,2:0:0:0:
335,259,292367,1,2,2:0:0:0:
335,259,292451,1,0,2:0:0:0:
335,259,292535,6,0,B|277:272|277:272|233:255|233:255|171:269,1,170,0|10,3:2|2:0,2:0:0:0:
227,360,293041,1,0,2:0:0:0:
274,165,293210,2,0,L|231:159,1,42.5,2|0,2:0|0:0,2:0:0:0:
132,146,293378,1,0,3:2:0:0:
336,77,293547,1,10,2:0:0:0:
143,301,293715,6,0,P|211:254|290:277,1,170,2|0,3:2|3:2,2:0:0:0:
506,227,294221,2,0,P|473:246|417:240,1,85,8|0,2:0|2:0,0:0:0:0:
361,185,294474,1,0,2:0:0:0:
361,185,294558,1,2,2:0:0:0:
436,62,294726,2,0,P|439:104|444:146,1,85,0|10,3:2|2:0,0:0:0:0:
260,221,295064,1,2,2:0:0:0:
260,221,295148,1,0,2:0:0:0:
260,221,295232,6,0,B|236:142|297:130|272:55,1,170,0|10,3:2|2:0,2:0:0:0:
111,95,295738,1,0,2:0:0:0:
136,94,295822,1,0,2:0:0:0:
161,93,295906,1,2,2:0:0:0:
358,186,296075,1,0,3:2:0:0:
163,338,296243,2,0,P|155:274|147:211,1,127.5,10|0,2:0|2:0,2:0:0:0:
81,128,296580,6,0,B|129:127|161:93|161:93|180:132|219:145,1,170,2|8,3:2|2:0,2:0:0:0:
372,74,297086,1,2,2:0:0:0:
349,54,297170,1,0,2:0:0:0:
322,43,297254,1,0,2:0:0:0:
292,41,297338,1,0,0:0:0:0:
264,49,297423,1,0,3:2:0:0:
147,211,297592,1,10,2:0:0:0:
86,25,297760,1,2,2:0:0:0:
49,174,297929,6,0,P|107:115|189:120,1,170,0|10,3:2|2:0,2:0:0:0:
285,229,298434,1,0,2:0:0:0:
285,229,298519,1,0,2:0:0:0:
285,229,298603,2,0,L|275:280,1,42.5,0|0,2:0|0:0,2:0:0:0:
257,365,298771,1,0,3:2:0:0:
382,176,298940,1,8,2:0:0:0:
86,286,299108,6,0,B|178:300|178:300|164:261|184:225,1,170,2|0,3:2|3:2,0:0:0:0:
276,31,299614,2,0,L|284:115,1,85,8|0,2:0|2:0,2:0:0:0:
293,207,299867,1,0,2:0:0:0:
293,207,299951,1,2,2:0:0:0:
173,108,300120,1,0,3:2:0:0:
468,95,300288,2,0,P|426:90|384:85,1,85,8|0,2:0|2:0,2:0:0:0:
118,209,300625,6,0,P|166:200|212:191,1,95.6250036478044,0|0,3:2|2:0,2:0:0:0:
254,123,300962,2,0,B|246:150|231:170|231:170|241:189|250:211|250:211|240:230|234:244|234:244|241:269|246:299,1,191.250007295609,2|0,2:1|0:0,2:0:0:0:
329,343,301299,5,2,3:2:0:0:
159,318,301468,1,2,3:2:0:0:
329,343,301637,5,2,2:0:0:0:
288,323,301721,1,2,2:0:0:0:
244,330,301805,1,2,2:0:0:0:
203,310,301889,1,2,2:0:0:0:
159,318,301974,1,4,2:0:0:0:
249,159,302311,6,0,P|259:188|256:220,1,63.7500024318696,10|2,2:0|2:0,0:0:0:0:
288,58,302648,2,0,P|342:25|405:31,1,127.500004863739,2|10,2:0|2:0,2:0:0:0:
364,122,303153,1,2,2:0:0:0:
184,75,303322,6,0,P|152:73|123:60,1,63.7500024318696,0|0,2:0|2:0,2:0:0:0:
123,60,303575,1,0,0:0:0:0:
123,60,303659,1,10,2:0:0:0:
127,189,303828,1,0,2:0:0:0:
244,196,303996,2,0,P|253:226|253:257,1,63.7500024318696,2|0,2:0|2:0,2:0:0:0:
385,160,304333,2,0,P|359:140|329:132,1,63.7500024318696,10|2,2:0|2:0,0:0:0:0:
279,40,304670,6,0,P|334:10|396:17,1,127.500004863739,0|8,2:0|2:0,2:0:0:0:
489,141,305176,2,0,P|486:204|442:249,1,127.500004863739
301,158,305682,2,0,P|333:151|364:146,1,63.7500024318696,10|2,2:0|2:0,0:0:0:0:
264,259,306019,5,0,2:0:0:0:
264,259,306187,1,0,2:0:0:0:
214,97,306356,2,0,P|182:92|151:85,1,63.7500024318696,8|0,2:0|2:0,2:0:0:0:
151,203,306693,6,0,P|147:242|144:282,2,79.6875,2|0|0,2:1|0:0|0:0,2:0:0:0:
49,155,307030,2,0,P|47:187|44:219,1,63.7500024318696,0|0,2:0|2:0,2:0:0:0:
150,84,307367,6,0,P|212:96|264:62,1,127.500004863739,2|8,2:0|2:0,2:0:0:0:
366,134,307873,2,0,P|392:172|380:254,1,127.500004863739,2|0,2:0|2:0,0:0:0:0:
256,302,308378,2,0,P|260:270|265:238,1,63.7500024318696,10|2,2:0|2:0,0:0:0:0:
187,138,308715,5,0,2:0:0:0:
187,138,308884,1,0,0:0:0:0:
121,219,309052,2,0,L|51:229,1,63.7500024318696,8|0,2:0|0:0,0:0:0:0:
57,228,309305,1,0,0:0:0:0:
57,228,309389,1,2,2:0:0:0:
257,66,309558,1,0,2:0:0:0:
159,35,309726,2,0,L|89:45,1,63.7500024318696,10|0,2:0|2:0,2:0:0:0:
222,169,310064,6,0,P|285:176|336:141,1,127.500004863739,2|8,2:0|2:0,2:0:0:0:
456,74,310569,2,0,B|473:150|473:150|445:191,1,127.500004863739,2|0,2:0|2:0,0:0:0:0:
455,322,311075,2,0,P|428:304|397:298,1,63.7500024318696,8|2,2:0|2:0,0:0:0:0:
236,311,311412,1,0,2:0:0:0:
236,311,311749,6,0,P|265:296|285:272,1,63.7500024318696,2|0,2:0|2:0,2:0:0:0:
353,110,312086,2,0,P|352:152|373:188,1,85,2|0,2:0|2:0,0:0:0:0:
448,129,312592,1,2,2:0:0:0:
401,310,312929,6,0,P|375:303|349:298,1,53.125,2|0,2:0|0:0,2:0:0:0:
251,96,313182,2,0,P|225:102|199:107,1,53.125,2|0,2:0|0:0,2:0:0:0:
96,246,313434,6,2,P|140:273|191:265,1,106.25,2|0,2:0|0:0,2:0:0:0:
268,212,313687,2,0,P|317:177|418:212,1,159.375006079674,0|0,2:0|3:2,0:0:0:0:
339,328,314277,5,2,2:0:0:0:
339,328,314361,1,2,2:0:0:0:
339,328,314446,2,0,L|344:273,1,53.125,2|0,2:0|2:0,2:0:0:0:
369,74,314614,1,2,2:0:0:0:
369,74,314698,1,2,2:0:0:0:
369,74,314783,6,0,L|241:84,1,127.5,2|0,2:0|2:0,2:0:0:0:
106,161,315120,2,2,B|188:141|175:202|258:184,1,159.375,2|0,2:0|2:0,1:2:0:0:
357,180,315457,6,0,P|349:227|342:274,1,95.6250036478044,6|0,3:2|2:0,2:0:0:0:
312,84,315794,6,0,P|340:79|368:73,1,57.3750002188683,8|0,2:0|0:0,0:0:0:0:
258,183,315962,1,0,2:0:0:0:
235,186,316047,1,0,2:0:0:0:
212,181,316131,1,0,2:0:0:0:
141,71,316299,5,0,3:2:0:0:
219,341,316468,2,0,P|224:312|229:284,1,57.3750002188683,10|0,2:0|0:0,2:0:0:0:
102,163,316637,2,0,P|107:191|112:219,1,57.3750002188683,0|0,0:0|2:0,0:0:0:0:
248,86,316805,6,0,B|338:70|328:132|412:118,1,172.125000656605,2|0,3:2|2:0,2:0:0:0:
454,13,317142,2,0,P|426:16|398:22,1,57.3750002188683,8|0,2:0|0:0,0:0:0:0:
275,179,317311,1,0,2:0:0:0:
366,310,317479,6,0,P|369:281|374:253,1,57.3750002188683,2|0,2:0|2:0,2:0:0:0:
283,122,317648,2,0,P|278:150|274:178,1,57.3750002188683,0|0,3:2|2:0,2:0:0:0:
159,303,317816,2,0,P|163:274|167:246,1,57.3750002188683,10|0,2:0|0:0,0:0:0:0:
13,137,317985,6,0,B|128:150|128:150|103:161|87:187,1,172.125000656605,2|0,3:2|0:0,0:0:0:0:
71,44,318322,2,0,P|99:47|127:50,1,57.3750002188683,0|0,3:2|0:0,0:0:0:0:
274,178,318491,1,8,2:0:0:0:
319,94,318659,5,2,2:0:0:0:
281,81,318743,1,0,2:0:0:0:
241,85,318827,1,0,2:0:0:0:
207,105,318911,1,0,2:0:0:0:
183,138,318996,1,0,3:2:0:0:
204,314,319165,2,0,P|207:285|209:256,1,57.3750002188683,10|0,2:0|0:0,2:0:0:0:
385,173,319333,2,0,P|381:201|379:230,1,57.3750002188683,0|0,2:0|0:0,0:0:0:0:
416,366,319502,6,0,B|370:332|370:332|314:347,1,114.750000437737,0|0,3:2|2:0,2:0:0:0:
139,235,319755,1,0,2:0:0:0:
139,235,319839,2,0,B|194:217|210:252|264:234,1,127.5,10|0,2:0|2:0,2:0:0:0:
398,161,320176,6,0,P|369:156|341:150,1,57.3750002188683,2|0,2:0|2:0,0:0:0:0:
313,346,320344,2,0,P|284:350|256:356,1,57.3750002188683,0|0,2:0|2:0,0:0:0:0:
115,117,320513,2,0,B|139:235|139:235|150:211|168:193,1,172.125000656605,10|0,2:0|2:0,2:0:0:0:
313,346,320850,6,0,B|253:341|229:280|229:280|201:337|134:335,1,229.500000875473,2|8,3:2|2:0,2:0:0:0:
329,202,321356,1,2,2:0:0:0:
332,224,321440,1,0,2:0:0:0:
325,246,321524,1,0,2:0:0:0:
83,241,321693,6,0,P|111:236|139:233,1,57.3750002188683,0|0,3:2|0:0,0:0:0:0:
267,69,321861,2,0,P|238:73|210:76,1,57.3750002188683,8|0,2:0|2:0,2:0:0:0:
3,117,322030,1,2,2:0:0:0:
3,117,322114,1,0,2:0:0:0:
3,117,322198,6,0,B|62:104|120:135|120:135|105:111|102:86,1,172.125000656605,0|0,3:2|2:0,2:0:0:0:
101,228,322535,2,0,P|129:229|157:222,1,57.3750002188683,8|0,2:0|0:0,0:0:0:0:
210,76,322704,1,2,2:0:0:0:
348,189,322873,6,0,L|291:177,1,57.3750002188683,0|0,2:0|0:0,0:0:0:0:
465,143,323041,1,0,3:2:0:0:
455,331,323210,2,0,P|450:303|446:275,1,57.3750002188683,10|0,2:0|2:0,2:0:0:0:
331,99,323378,6,0,B|294:170|355:195|319:265,1,172.125000656605,0|0,3:2|0:0,2:0:0:0:
211,278,323715,2,0,P|215:250|225:223,1,57.3750002188683,0|0,3:2|0:0,0:0:0:0:
421,142,323884,1,8,2:0:0:0:
210,64,324052,5,2,2:0:0:0:
245,81,324137,1,0,2:0:0:0:
285,82,324221,1,0,2:0:0:0:
321,66,324304,1,0,0:0:0:0:
347,35,324389,1,0,3:2:0:0:
426,252,324558,2,0,P|398:244|370:238,1,57.3750002188683,10|0,2:0|0:0,0:0:0:0:
241,182,324726,2,0,P|213:189|185:195,1,57.3750002188683,2|0,2:0|2:0,0:0:0:0:
121,264,324895,6,0,P|89:257|58:251,1,63.75,0|0,3:2|2:0,2:0:0:0:
185,195,325232,2,0,B|217:183|231:149|231:149|201:212|227:269,1,191.250007295609,8|0,2:0|2:0,2:0:0:0:
433,192,325569,6,0,P|465:185|496:179,1,63.75,2|0,3:2|0:0,0:0:0:0:
369,123,325906,2,0,B|337:111|323:77|323:77|353:140|326:197,1,191.250007295609,10|0,2:0|2:0,2:0:0:0:
310,301,326243,6,0,P|273:271|226:268,1,95.6250036478044,6|0,3:2|2:0,2:0:0:0:
58,226,326580,6,0,P|86:220|114:214,1,57.3750002188683,8|0,2:0|0:0,0:0:0:0:
227,163,326749,1,0,2:0:0:0:
235,143,326833,1,0,2:0:0:0:
235,119,326917,1,0,2:0:0:0:
125,117,327086,5,0,3:2:0:0:
282,330,327255,2,0,P|284:301|287:272,1,57.3750002188683,10|0,2:0|0:0,2:0:0:0:
130,59,327423,2,0,P|127:87|124:116,1,57.3750002188683,0|0,0:0|2:0,0:0:0:0:
18,226,327592,6,0,L|135:213,1,114.750000437737,2|0,3:2|0:0,2:0:0:0:
222,205,327844,1,0,2:0:0:0:
244,202,327929,1,8,2:0:0:0:
177,366,328097,1,0,2:0:0:0:
177,366,328182,1,0,2:0:0:0:
176,365,328266,6,0,P|164:338|160:308,1,57.3750002188683,2|0,2:0|2:0,2:0:0:0:
358,143,328434,2,0,P|369:169|374:200,1,57.3750002188683,2|0,3:2|2:0,2:0:0:0:
200,170,328603,2,0,P|171:164|143:158,1,57.3750002188683,10|0,2:0|0:0,0:0:0:0:
236,280,328771,6,0,B|317:252|317:318|401:297,1,172.125000656605,2|0,3:2|0:0,0:0:0:0:
429,183,329108,2,0,P|400:189|373:197,1,57.3750002188683,0|0,3:2|0:0,0:0:0:0:
271,376,329277,1,8,2:0:0:0:
84,231,329446,5,2,2:0:0:0:
108,262,329530,1,0,2:0:0:0:
143,280,329614,1,0,2:0:0:0:
183,281,329698,1,0,2:0:0:0:
219,265,329783,1,0,3:2:0:0:
176,118,329951,2,0,L|168:174,1,57.3750002188683,10|0,2:0|0:0,2:0:0:0:
324,252,330120,2,0,L|316:308,1,57.3750002188683,0|0,2:0|0:0,0:0:0:0:
290,150,330288,6,0,B|416:135|416:135|389:171,1,172.125000656605,0|0,3:2|2:0,2:0:0:0:
483,278,330625,2,0,P|457:265|429:260,1,57.3750002188683,10|0,2:0|0:0,0:0:0:0:
324,252,330794,1,2,2:0:0:0:
218,314,330962,6,0,B|215:275|215:275|219:250|219:250|210:229|210:229|206:188,2,127.5,2|0|0,2:1|0:0|0:0,2:0:0:0:
152,117,331299,2,0,P|178:99|210:97,1,63.7500024318696,10|2,2:0|2:0,0:0:0:0:
323,137,331552,1,0,0:0:0:0:
324,159,331637,5,2,3:2:0:0:
293,351,331805,1,0,2:0:0:0:
206,188,331974,1,10,2:0:0:0:
293,351,332142,1,0,2:0:0:0:
400,256,332311,5,2,2:0:0:0:
378,251,332395,1,0,0:0:0:0:
356,246,332479,1,0,3:2:0:0:
449,345,332648,1,10,2:0:0:0:
391,148,332816,1,2,2:0:0:0:
257,268,332985,5,2,3:2:0:0:
480,187,333153,1,0,2:0:0:0:
263,115,333322,1,10,2:0:0:0:
480,187,333491,1,0,2:0:0:0:
377,339,333659,6,0,L|382:281,1,57.3750002188683,2|0,2:0|0:0,2:0:0:0:
263,115,333828,2,0,L|257:172,1,57.3750002188683,0|0,3:2|0:0,0:0:0:0:
111,292,333996,2,0,B|163:289|163:289|194:270|194:270|227:286|227:286|274:284,1,172.125000656605,8|0,2:0|0:0,0:0:0:0:
377,337,334333,6,0,P|404:261|353:197,1,170,4|8,3:2|2:0,2:0:0:0:
450,109,334839,6,0,B|395:135|344:99|344:99|306:71|247:65|211:99,1,255,2|10,3:2|2:0,2:0:0:0:
126,62,335513,6,0,B|106:98|116:148|141:184|203:196|203:196|140:227|105:278|84:384|230:353|168:274,1,446.250017023087,2|2,2:0|2:0,0:0:0:0:
210,99,337030,6,0,P|258:93|305:88,1,95.6250036478044,6|0,3:2|2:0,2:0:0:0:
350,176,337367,6,0,P|322:178|294:182,1,57.3750002188683,8|0,2:0|0:0,0:0:0:0:
113,131,337535,1,0,2:0:0:0:
105,108,337620,1,0,2:0:0:0:
107,85,337704,1,0,2:0:0:0:
174,247,337873,5,0,3:2:0:0:
61,344,338041,2,0,P|67:316|73:287,1,57.3750002188683,10|0,2:0|0:0,2:0:0:0:
211,99,338210,2,0,P|216:127|223:155,1,57.3750002188683,0|0,0:0|2:0,0:0:0:0:
402,312,338378,6,0,L|287:301,1,114.750000437737,2|0,3:2|0:0,2:0:0:0:
205,294,338631,1,0,2:0:0:0:
182,292,338715,1,8,2:0:0:0:
323,182,338884,1,0,2:0:0:0:
422,364,339052,6,0,P|416:335|401:311,1,57.3750002188683,2|0,2:0|2:0,2:0:0:0:
358,138,339221,2,0,P|336:156|322:181,1,57.3750002188683,0|0,3:2|2:0,2:0:0:0:
206,352,339389,2,0,P|233:361|261:360,1,57.3750002188683,10|0,2:0|0:0,0:0:0:0:
311,279,339558,6,0,B|226:263|224:324|146:311,1,172.125000656605,2|0,3:2|0:0,0:0:0:0:
110,210,339895,2,0,P|139:210|168:209,1,57.3750002188683,0|0,3:2|0:0,0:0:0:0:
279,162,340064,1,8,2:0:0:0:
448,319,340232,5,2,2:0:0:0:
424,287,340316,1,0,2:0:0:0:
388,268,340400,1,0,2:0:0:0:
349,265,340484,1,0,2:0:0:0:
311,279,340569,1,0,3:2:0:0:
401,109,340738,2,0,P|400:137|396:166,1,57.3750002188683,10|0,2:0|0:0,2:0:0:0:
214,302,340906,2,0,P|214:273|218:244,1,57.3750002188683,0|0,2:0|0:0,0:0:0:0:
279,162,341075,6,0,B|229:135|229:135|174:153,1,114.750000437737,0|0,3:2|2:0,2:0:0:0:
91,254,341328,1,0,2:0:0:0:
91,254,341412,2,0,B|218:244,1,127.5,10|0,2:0|2:0,2:0:0:0:
345,312,341749,6,0,P|350:283|357:255,1,57.3750002188683,2|0,2:0|2:0,0:0:0:0:
291,105,341917,2,0,P|285:133|278:161,1,57.3750002188683,0|0,2:0|2:0,0:0:0:0:
458,226,342086,2,0,B|431:175|433:117|433:117|423:151|402:167,1,172.125000656605,10|0,2:0|2:0,2:0:0:0:
277,160,342423,6,0,P|238:76|329:96,1,229.500000875473,2|8,3:2|2:0,2:0:0:0:
307,266,342929,1,2,2:0:0:0:
284,263,343013,1,0,2:0:0:0:
261,260,343097,1,0,2:0:0:0:
137,118,343266,6,0,P|165:121|193:126,1,57.3750002188683,0|0,3:2|0:0,0:0:0:0:
85,311,343434,2,0,P|56:307|28:302,1,57.3750002188683,8|0,2:0|2:0,2:0:0:0:
0,202,343603,1,2,2:0:0:0:
0,202,343687,1,0,2:0:0:0:
0,202,343771,6,0,B|89:186|89:248|166:231,1,172.125000656605,0|0,3:2|2:0,2:0:0:0:
68,49,344108,2,0,P|64:77|61:105,1,57.3750002188683,8|0,2:0|0:0,0:0:0:0:
28,302,344277,1,2,2:0:0:0:
221,241,344446,6,0,P|193:233|164:230,1,57.3750002188683,0|0,2:0|0:0,0:0:0:0:
320,319,344614,1,0,3:2:0:0:
309,140,344783,2,0,P|337:137|365:129,1,57.3750002188683,10|0,2:0|2:0,2:0:0:0:
225,39,344951,6,0,B|177:15|177:15|201:130,1,172.125000656605,0|0,3:2|0:0,2:0:0:0:
309,298,345288,2,0,P|321:272|325:243,1,57.3750002188683,0|0,3:2|0:0,0:0:0:0:
206,341,345457,1,8,2:0:0:0:
81,256,345625,5,2,2:0:0:0:
109,228,345709,1,0,2:0:0:0:
147,216,345793,1,0,2:0:0:0:
187,220,345877,1,0,0:0:0:0:
221,241,345962,1,0,3:2:0:0:
321,145,346131,6,0,P|292:141|264:137,1,57.3750002188683,10|0,2:0|0:0,0:0:0:0:
158,334,346299,2,0,P|129:337|101:341,1,57.3750002188683,2|0,2:0|2:0,0:0:0:0:
146,215,346468,6,0,P|154:169|127:130,1,95.6250036478044,0|0,3:2|2:0,2:0:0:0:
63,240,346805,2,0,B|153:211|161:282|248:253,1,191.250007295609,8|0,2:0|2:0,2:0:0:0:
337,109,347142,6,0,P|329:62|355:24,1,95.6250036478044,2|0,3:2|0:0,0:0:0:0:
420,133,347479,2,0,B|330:104|322:175|234:146,1,191.250007295609,10|0,2:0|2:0,2:0:0:0:
377,223,347816,6,0,P|382:270|389:317,1,95.6250036478044,6|0,3:2|2:0,2:0:0:0:
419,133,348153,6,0,P|391:129|363:123,1,57.3750002188683,8|0,2:0|0:0,0:0:0:0:
226,255,348322,1,0,2:0:0:0:
248,259,348406,1,0,2:0:0:0:
270,263,348491,1,0,2:0:0:0:
172,125,348659,5,0,3:2:0:0:
366,307,348828,2,0,P|374:279|377:251,1,57.3750002188683,10|0,2:0|0:0,2:0:0:0:
292,29,348996,2,0,P|283:56|280:84,1,57.3750002188683,0|0,0:0|2:0,0:0:0:0:
409,160,349165,6,0,B|324:133|330:200|243:175,1,172.125000656605,2|0,3:2|2:0,2:0:0:0:
208,284,349502,2,0,P|236:282|265:280,1,57.3750002188683,8|0,2:0|0:0,0:0:0:0:
377,251,349670,1,0,2:0:0:0:
485,353,349839,6,0,P|476:325|473:297,1,57.3750002188683,2|0,2:0|2:0,2:0:0:0:
412,94,350007,2,0,P|401:120|394:148,1,57.3750002188683,2|0,3:2|2:0,2:0:0:0:
238,330,350176,2,0,P|248:303|265:279,1,57.3750002188683,10|0,2:0|0:0,0:0:0:0:
376,251,350344,6,0,P|294:260|235:196,1,172.125000656605,2|0,3:2|0:0,0:0:0:0:
297,68,350682,2,0,P|302:96|303:124,1,57.3750002188683,0|0,3:2|0:0,0:0:0:0:
151,251,350850,1,8,2:0:0:0:
68,189,351019,5,2,2:0:0:0:
95,160,351103,1,0,2:0:0:0:
132,144,351187,1,0,2:0:0:0:
171,144,351271,1,0,2:0:0:0:
208,160,351356,1,0,3:2:0:0:
141,307,351524,2,0,L|150:250,1,57.3750002188683,10|0,2:0|0:0,2:0:0:0:
332,244,351693,2,0,L|341:187,1,57.3750002188683,0|0,2:0|0:0,0:0:0:0:
228,85,351861,6,0,L|237:199,1,114.750000437737,0|0,3:2|2:0,2:0:0:0:
246,302,352114,1,0,2:0:0:0:
248,324,352198,1,10,2:0:0:0:
332,244,352367,1,2,2:0:0:0:
150,250,352535,6,0,B|111:242|111:242|88:232|88:232|65:235|65:235|21:230,2,127.5,2|0|0,2:1|0:0|0:0,0:0:0:0:
245,302,352873,2,0,P|257:272|257:240,1,63.7500024318696,10|2,2:0|2:0,0:0:0:0:
203,159,353125,1,0,0:0:0:0:
181,152,353210,5,2,3:2:0:0:
83,342,353378,1,2,2:0:0:0:
46,130,353547,1,10,2:0:0:0:
83,342,353715,1,0,2:0:0:0:
128,253,353884,5,2,2:0:0:0:
107,243,353968,1,0,0:0:0:0:
84,241,354052,1,0,3:2:0:0:
199,336,354221,1,10,2:0:0:0:
188,169,354389,1,2,2:0:0:0:
307,250,354558,5,2,3:2:0:0:
83,342,354726,1,0,2:0:0:0:
307,250,354895,1,10,2:0:0:0:
88,143,355064,1,0,2:0:0:0:
235,112,355232,6,0,P|228:140|225:168,1,57.3750002188683,2|0,2:0|2:0,2:0:0:0:
399,303,355401,2,0,P|405:274|408:246,1,57.3750002188683,2|0,3:2|0:0,0:0:0:0:
361,25,355569,2,0,B|340:147|340:147|378:118,1,172.125000656605,8|0,2:0|0:0,0:0:0:0:
234,111,355906,6,0,P|160:77|87:114,1,170,2|8,3:2|2:0,2:0:0:0:
141,230,356412,2,0,B|155:203|160:177|160:177|183:223|144:261|130:271|124:330|161:364,1,255,2|8,3:2|2:0,2:0:0:0:
237,303,357086,6,0,B|290:300|290:300|328:282|328:282|371:294|371:294|422:289,1,191.250007295609,2|8,3:2|2:0,0:0:0:0:
401,128,357760,2,0,L|388:190,1,63.7500024318696,0|10,0:0|2:3,0:0:0:0:
248,195,358097,2,0,L|260:132,1,63.7500024318696,10|10,2:0|2:3,0:0:0:0:
331,43,358434,1,8,2:0:0:0:
145,138,358603,5,6,3:2:0:0:
324,254,358771,2,0,P|231:236|247:333,1,216.750004134178
409,301,359108,2,0,P|423:268|421:232,1,72.2500013780594,0|0,3:2|0:0,0:0:0:0:
260,64,359277,6,0,B|277:157|277:157|244:195,1,144.500002756119,10|0,2:1|2:0,2:0:0:0:
73,192,359530,2,0,B|56:285|56:285|88:323,1,144.500002756119,2|0,3:1|2:0,2:0:0:0:
188,349,359783,2,0,L|180:277,1,72.2500013780594,10|0,2:1|0:0,0:0:0:0:
160,131,359951,1,2,2:0:0:0:
314,202,360120,6,0,P|278:203|243:194,1,72.2500013780594,8|0,2:0|0:0,0:0:0:0:
131,65,360288,2,0,P|150:95|159:130,1,72.2500013780594,0|0,3:2|2:0,2:0:0:0:
102,292,360457,2,0,P|118:260|143:234,1,72.2500013780594,0|0,3:2|2:0,2:0:0:0:
51,169,360625,6,2,B|96:195|96:195|145:163|145:163|187:191|187:191|243:194,1,216.750004134178,2|8,3:1|2:0,1:0:0:0:
312,97,360962,2,2,P|275:96|239:95,1,72.2500013780594,2|0,2:1|0:0,1:0:0:0:
147,284,361131,2,0,P|183:284|219:285,1,72.2500013780594,8|0,2:0|0:0,0:0:0:0:
328,254,361299,1,2,2:0:0:0:
250,34,361468,6,0,P|238:63|239:95,1,63.7500024318696,0|0,3:2|0:0,0:0:0:0:
147,284,361637,2,0,P|148:252|136:222,1,63.7500024318696,8|0,2:0|0:0,0:0:0:0:
55,106,361805,2,0,L|120:114,1,63.7500024318696,0|0,3:2|2:0,2:0:0:0:
240,203,361974,6,0,B|321:223|325:164|401:185,1,165.749992412568,8|0,2:0|3:2,2:0:0:0:
429,287,362311,2,0,P|401:285|374:277,1,55.2499974708558,2|0,2:0|0:0,0:0:0:0:
267,110,362479,2,0,P|239:111|212:119,1,55.2499974708558,8|0,2:0|0:0,0:0:0:0:
52,283,362648,6,0,P|55:259|58:235,2,48.1666675853729,2|0|0,3:1|2:0|2:0,2:0:0:0:
266,270,362816,2,0,P|262:246|259:222,2,48.1666675853729,2|0|0,2:1|2:0|2:0,2:0:0:0:
59,139,362985,2,0,P|62:115|65:91,2,48.1666675853729,2|0|2,2:3|0:0|3:2,0:0:0:0:
267,110,363153,2,0,P|263:86|258:36,1,72.2500013780594
165,94,363322,6,0,B|160:136|160:136|168:164|168:164|153:189|153:189|149:232,1,144.500002756119,2|0,2:1|3:0,2:0:0:0:
367,91,363659,2,0,B|371:133|371:133|363:161|363:161|378:186|378:186|382:229,1,144.500002756119,2|8,2:1|2:3,2:0:0:0:
267,110,363996,5,6,3:2:0:0:
351,336,364165,2,0,B|295:331|266:276|266:276|236:331|179:332,1,216.750004134178
97,206,364502,2,0,P|132:206|167:226,1,72.2500013780594,0|0,3:2|0:0,0:0:0:0:
267,60,364670,6,0,B|255:162|255:162|241:145|225:124,1,144.500002756119,10|0,2:1|2:0,2:0:0:0:
59,136,364923,2,0,B|71:238|71:238|84:221|101:200,1,144.500002756119,2|0,3:1|2:0,2:0:0:0:
180,330,365176,2,0,P|210:312|246:307,1,72.2500013780594,10|0,2:1|0:0,0:0:0:0:
345,364,365344,1,2,2:0:0:0:
329,147,365513,6,0,P|324:182|321:218,1,72.2500013780594,8|0,2:0|0:0,0:0:0:0:
71,380,365682,2,0,P|75:344|78:308,1,72.2500013780594,0|0,3:2|2:0,2:0:0:0:
237,95,365850,2,0,P|232:130|229:166,1,72.2500013780594,0|0,3:2|2:0,2:0:0:0:
180,330,366019,6,2,B|170:289|177:254|177:254|128:210|128:210|136:172|122:137,1,216.750004134178,2|8,3:1|2:0,1:0:0:0:
71,46,366356,2,2,P|107:44|142:37,1,72.2500013780594,2|0,2:1|0:0,1:0:0:0:
229,166,366524,2,0,P|265:168|300:175,1,72.2500013780594,8|0,2:0|0:0,0:0:0:0:
390,74,366693,1,2,2:0:0:0:
280,8,366861,6,0,P|276:40|284:71,1,63.7500024318696,0|0,3:2|0:0,0:0:0:0:
397,237,367030,2,0,P|404:206|401:174,1,63.7500024318696,8|0,2:0|0:0,2:0:0:0:
298,198,367198,2,0,P|291:229|284:260,1,63.7500024318696,0|0,2:0|0:0,0:0:0:0:
203,136,367367,6,0,B|92:114|92:114|119:159,1,165.749992412568,2|0,2:0|3:2,2:0:0:0:
164,300,367704,2,0,P|169:273|173:245,1,55.2499974708558,2|0,2:0|0:0,0:0:0:0:
23,198,367873,2,0,P|17:224|13:252,1,55.2499974708558,2|0,3:2|2:0,2:0:0:0:
72,346,368041,6,0,P|44:347|16:352,2,56.6666666666667,2|0|0,2:0|3:2|3:2,2:0:0:0:
243,378,368378,5,14,2:3:0:0:
243,378,368491,2,0,P|246:353|250:330,1,48.1666675853729,0|0,3:2|0:0,0:0:0:0:
170,175,368603,5,6,2:3:0:0:
170,175,368716,2,0,P|166:200|161:226,1,52.416666466713,0|0,3:2|0:0,0:0:0:0:
358,173,368828,5,6,2:3:0:0:
358,172,368941,2,0,P|361:146|368:116,1,56.6666666666667,0|0,3:2|0:0,0:0:0:0:
466,85,369052,6,0,B|322:57|322:57|367:115,1,220.999989883423,6|6,2:3|3:2,0:0:0:0:
450,334,369558,6,0,B|466:269|423:261|441:192,1,144.500002756119,0|8,0:0|2:0,0:0:0:0:
347,300,369895,2,0,P|334:333|338:373,1,72.2500013780594,0|0,3:2|0:0,0:0:0:0:
281,217,370064,6,0,B|192:194|192:194|209:243,1,144.500002756119,10|0,2:1|2:0,2:0:0:0:
125,338,370316,2,0,B|36:361|36:361|53:311,1,144.500002756119,2|0,3:1|2:0,2:0:0:0:
101,230,370569,2,0,P|68:215|32:218,1,72.2500013780594,10|0,2:1|0:0,0:0:0:0:
54,312,370738,5,2,2:0:0:0:
180,81,370906,2,0,P|170:115|173:150,1,72.2500013780594,8|0,2:0|0:0,0:0:0:0:
267,228,371075,2,0,P|302:220|331:199,1,72.2500013780594,0|0,3:2|2:0,2:0:0:0:
345,78,371243,2,0,P|320:51|287:36,1,72.2500013780594,0|0,3:2|2:0,2:0:0:0:
67,132,371412,6,2,B|97:132|123:110|123:110|158:135|158:135|200:112|200:112|227:133|259:133,1,216.750004134178,2|8,3:1|2:0,1:0:0:0:
177,232,371749,2,2,P|141:226|105:220,1,72.2500013780594,2|0,2:1|0:0,1:0:0:0:
164,16,371917,2,0,P|199:21|235:27,1,72.2500013780594,8|0,2:0|0:0,0:0:0:0:
343,78,372086,1,2,2:0:0:0:
362,257,372255,6,0,P|351:227|352:195,1,63.7500024318696,0|0,3:2|0:0,0:0:0:0:
353,16,372423,2,0,P|353:47|343:77,1,63.7500024318696,8|0,2:0|0:0,0:0:0:0:
259,133,372592,2,0,P|227:127|196:122,1,63.7500024318696,0|0,3:2|0:0,0:0:0:0:
55,177,372760,6,0,B|116:185|116:185|148:217|148:217|205:227,1,165.749992412568,8|2,2:0|3:2,2:0:0:0:
200,67,373097,2,0,L|195:122,1,55.2499974708558,2|0,2:0|0:0,0:0:0:0:
69,279,373266,2,0,L|64:334,1,55.2499974708558,8|0,2:0|0:0,0:0:0:0:
225,331,373434,6,0,P|198:325|170:319,2,55.2499974708558,0|2|2,3:2|2:0|2:0,2:0:0:0:
315,256,373687,2,0,P|342:250|369:244,2,55.2499974708558,0|8|2,3:0|2:0|2:0,0:0:0:0:
237,181,373940,2,0,P|210:175|182:169,1,55.2499974708558,0|2,3:2|2:0,2:0:0:0:
265,84,374108,5,2,2:1:0:0:
313,107,374192,1,2,2:0:0:0:
342,154,374276,1,2,2:0:0:0:
343,208,374360,1,10,2:1:0:0:
314,255,374446,6,0,P|308:291|304:328,1,73.6666632944744,2|0,2:1|2:0,2:0:0:0:
191,241,374670,2,0,P|187:204|181:168,1,73.6666632944744,0|6,2:0|3:2,0:0:0:0:
59,321,374951,6,0,B|132:307|128:355|198:341,1,144.500002756119,0|8,0:0|2:0,0:0:0:0:
386,262,375288,2,0,L|314:254,1,72.2500013780594,0|0,3:2|0:0,0:0:0:0:
238,115,375457,6,0,P|244:180|180:192,1,144.500002756119,10|0,2:1|2:0,2:0:0:0:
92,313,375710,2,0,P|98:247|34:235,1,144.500002756119,2|0,3:1|2:0,2:0:0:0:
87,70,375962,2,0,P|102:102|92:146,1,72.2500013780594,10|0,2:1|0:0,0:0:0:0:
8,119,376131,1,2,2:0:0:0:
238,115,376299,6,0,P|273:111|309:107,1,72.2500013780594,8|0,2:0|0:0,0:0:0:0:
408,353,376468,2,0,P|372:356|336:360,1,72.2500013780594,0|0,3:2|2:0,2:0:0:0:
198,238,376637,2,0,P|233:234|269:230,1,72.2500013780594,0|0,3:2|2:0,2:0:0:0:
410,73,376805,6,2,B|399:106|409:143|409:143|364:186|364:186|383:229|367:271,1,216.750004134178,2|8,3:1|2:0,1:0:0:0:
480,304,377142,2,2,P|485:268|478:233,1,72.2500013780594,2|0,2:1|0:0,1:0:0:0:
308,36,377311,2,0,P|302:71|309:106,1,72.2500013780594,8|0,2:0|0:0,0:0:0:0:
392,176,377479,1,2,2:0:0:0:
207,237,377648,6,0,P|239:233|270:230,1,63.7500024318696,0|0,3:2|0:0,0:0:0:0:
122,167,377816,2,0,P|90:170|58:174,1,63.7500024318696,8|0,2:0|0:0,0:0:0:0:
221,45,377985,2,0,P|225:77|217:108,1,63.7500024318696,0|0,3:2|0:0,0:0:0:0:
121,283,378153,6,0,B|86:205|145:188|113:121,1,165.749992412568,8|0,2:0|3:2,2:0:0:0:
18,106,378491,2,0,P|14:133|10:160,1,55.2499974708558,2|0,2:0|0:0,0:0:0:0:
207,237,378659,2,0,P|210:264|214:291,1,55.2499974708558,8|0,2:0|0:0,0:0:0:0:
309,273,378828,5,2,3:2:0:0:
327,232,378912,1,0,3:2:0:0:
321,187,378996,1,0,3:2:0:0:
293,151,379081,1,0,3:2:0:0:
225,120,379165,5,2,3:2:0:0:
274,115,379249,1,0,3:2:0:0:
324,111,379333,1,0,3:2:0:0:
373,107,379417,1,0,3:2:0:0:
438,53,379502,5,2,3:2:0:0:
460,104,379586,1,0,3:2:0:0:
442,156,379671,1,0,3:2:0:0:
424,208,379755,1,0,3:2:0:0:
447,260,379839,1,10,2:0:0:0:
447,260,380176,6,0,L|341:244,1,106.25,0|0,3:2|0:0,2:0:0:0:
327,234,380682,2,0,L|342:318,1,85,0|8,3:2|2:1,0:0:0:0:
327,234,382030,2,0,L|342:318,1,85,0|8,3:2|2:1,0:0:0:0:
82,209,382873,6,0,L|188:192,1,106.25,0|0,3:2|0:0,2:0:0:0:
202,182,383379,2,0,L|187:266,1,85,0|8,3:2|2:1,0:0:0:0:
187,266,384558,2,0,L|202:182,1,85,0|8,3:2|2:1,0:0:0:0:
435,114,385569,6,0,L|329:97,1,106.25,0|0,3:2|0:0,0:0:0:0:
315,87,386075,2,0,L|330:171,1,85,0|8,3:2|2:1,0:0:0:0:
315,87,387423,2,0,L|330:171,1,85,0|8,3:2|2:1,0:0:0:0:
84,82,388266,6,0,L|190:65,1,106.25,0|0,3:2|0:0,0:0:0:0:
204,55,388772,2,0,L|189:139,1,85,0|8,3:2|2:1,0:0:0:0:
189,139,389951,2,0,L|204:55,1,85,0|8,3:2|2:1,0:0:0:0:
256,192,390962,12,0,399052,3:2:0:0:
