osu file format v14

[General]
AudioFilename: Jet Loser.mp3
AudioLeadIn: 0
PreviewTime: 209951
Countdown: 0
SampleSet: Soft
StackLeniency: 0.7
Mode: 0
LetterboxInBreaks: 1
WidescreenStoryboard: 1

[Editor]
Bookmarks: 269614,325569
DistanceSpacing: 1.2
BeatDivisor: 4
GridSize: 4
TimelineZoom: 2.699999

[Metadata]
Title:Jet Loser
TitleUnicode:Jet Loser
Artist:Rita
ArtistUnicode:Rita
Creator:Kibbleru
Version:Ex
Source:すぽコン!~SPORTSWEAR-COMPLEX~
Tags:taishi gwave superfeatures vol.23 mode experience electro.muster eroge visual novel dnb drum and bass
BeatmapID:930369
BeatmapSetID:431337

[Difficulty]
HPDrainRate:7
CircleSize:4
OverallDifficulty:8
ApproachRate:9.3
SliderMultiplier:1.7
SliderTickRate:1

[Events]
//Background and Video events
0,0,"BG_JL.jpg",0,0
//Break Periods
2,118803,125465
2,142873,151757
2,234758,241420
//Storyboard Layer 0 (Background)
//Storyboard Layer 1 (Fail)
//Storyboard Layer 2 (Pass)
//Storyboard Layer 3 (Foreground)
//Storyboard Layer 4 (Overlay)
//Storyboard Sound Samples

[TimingPoints]
1300,337.078651685393,4,2,99,5,1,0
1637,-100,4,2,99,10,0,0
2648,-100,4,2,99,14,0,0
3322,-100,4,2,99,16,0,0
3659,-100,4,2,99,20,0,0
3996,-100,4,2,99,22,0,0
4333,-100,4,2,99,26,0,0
4670,-100,4,2,99,30,0,0
5007,-100,4,2,99,5,0,0
5176,-66.6666666666667,4,2,54,50,0,0
5260,-66.6666666666667,4,2,54,30,0,0
5344,-200,4,2,12,44,0,0
14951,-200,4,2,23,30,0,0
15288,-200,4,2,12,20,0,0
15457,-200,4,2,23,35,0,0
15794,-200,4,2,23,40,0,0
16131,-200,4,2,12,50,0,0
16299,-200,4,2,12,40,0,0
16468,-100,4,2,12,46,0,0
16974,-133.333333333333,4,2,12,46,0,0
17816,-100,4,2,12,46,0,0
18322,-133.333333333333,4,2,12,46,0,0
19165,-100,4,2,12,46,0,0
19670,-133.333333333333,4,2,12,46,0,0
20513,-100,4,2,12,46,0,0
21019,-133.333333333333,4,2,12,46,0,0
21356,-80,4,2,12,46,0,0
21524,-100,4,2,12,46,0,0
21692,-100,4,2,12,30,0,0
21861,-100,4,2,12,46,0,0
22029,-100,4,2,12,30,0,0
22198,-100,4,2,12,46,0,0
22367,-133.333333333333,4,2,12,30,0,0
22535,-133.333333333333,4,2,12,46,0,0
22703,-133.333333333333,4,2,12,30,0,0
22873,-100,4,2,12,48,0,0
23041,-100,4,2,12,30,0,0
23210,-100,4,2,12,48,0,0
23378,-100,4,2,12,30,0,0
23547,-100,4,2,12,48,0,0
23715,-133.333333333333,4,2,12,30,0,0
23884,-133.333333333333,4,2,12,48,0,0
24052,-133.333333333333,4,2,12,30,0,0
24221,-66.6666666666667,4,2,12,50,0,0
25569,-66.6666666666667,4,2,12,51,0,0
25906,-66.6666666666667,4,2,12,52,0,0
26243,-66.6666666666667,4,2,23,40,0,0
26411,-66.6666666666667,4,2,12,40,0,0
26664,-66.6666666666667,4,2,12,20,0,0
26749,-66.6666666666667,4,2,12,44,0,0
26833,-66.6666666666667,4,2,12,20,0,0
26917,-100,4,2,1,60,0,0
36356,-200,4,2,36,60,0,0
36693,-200,4,2,36,50,0,0
37367,-100,4,2,36,40,0,0
37619,-100,4,2,99,5,0,0
37704,-100,4,2,1,60,0,0
47142,-200,4,2,36,50,0,0
47366,-200,4,2,36,40,0,0
47479,-80,4,2,36,55,0,0
47647,-80,4,2,36,40,0,0
47816,-200,4,2,36,50,0,0
47928,-200,4,2,36,40,0,0
48153,-80,4,2,36,55,0,0
48321,-80,4,2,36,40,0,0
48491,-133.333333333333,4,2,1,46,0,0
58266,-66.6666666666667,4,2,1,42,0,0
58378,-66.6666666666667,4,2,23,23,0,0
58603,-133.333333333333,4,2,1,40,0,0
58771,-133.333333333333,4,2,1,20,0,0
58940,-80,4,2,1,45,0,0
59108,-80,4,2,1,30,0,0
59277,-133.333333333333,4,2,1,52,0,0
59614,-100,4,2,1,52,0,0
59951,-133.333333333333,4,2,1,52,0,0
60288,-100,4,2,1,52,0,0
60625,-133.333333333333,4,2,1,52,0,0
60962,-100,4,2,1,52,0,0
61299,-133.333333333333,4,2,1,52,0,0
61637,-100,4,2,1,52,0,0
61974,-133.333333333333,4,2,1,52,0,0
62311,-100,4,2,1,52,0,0
62648,-133.333333333333,4,2,1,52,0,0
62985,-100,4,2,1,52,0,0
63322,-133.333333333333,4,2,1,52,0,0
63659,-100,4,2,1,52,0,0
63996,-133.333333333333,4,2,1,52,0,0
64333,-100,4,2,1,52,0,0
64670,-100,4,2,1,56,0,0
66019,-100,4,2,1,58,0,0
67367,-66.6666666666667,4,2,1,60,0,0
67704,-66.6666666666667,4,2,1,61,0,0
68041,-66.6666666666667,4,2,1,62,0,0
68378,-66.6666666666667,4,2,1,63,0,0
68715,-66.6666666666667,4,2,36,56,0,0
69726,-66.6666666666667,4,2,36,54,0,0
69811,-66.6666666666667,4,2,36,52,0,0
69895,-66.6666666666667,4,2,36,50,0,0
69979,-66.6666666666667,4,2,36,48,0,0
70064,-66.6666666666667,4,2,36,46,0,0
70401,-200,4,2,36,46,0,0
71075,-133.333333333333,4,2,36,26,0,0
71243,-133.333333333333,4,2,99,5,0,0
71328,-80,4,2,36,28,0,0
71412,-80,4,2,99,5,0,0
71580,-80,4,2,36,36,0,0
71664,-80,4,2,99,5,0,0
71749,-80,4,2,36,38,0,0
71833,-80,4,2,99,5,0,0
71917,-80,4,2,36,36,0,0
72086,-80,4,2,36,50,0,0
72423,-80,4,2,1,60,0,0
72760,-90.9090909090909,4,2,1,70,0,1
74277,-80,4,2,1,70,0,1
75457,-90.9090909090909,4,2,1,70,0,1
77479,-80,4,2,1,70,0,1
78153,-90.9090909090909,4,2,1,70,0,1
79670,-80,4,2,1,70,0,1
80850,-90.9090909090909,4,2,1,70,0,1
81861,-80,4,2,1,70,0,1
82198,-200,4,2,1,70,0,0
82535,-90.9090909090909,4,2,1,70,0,0
82873,-200,4,2,1,70,0,0
83210,-90.9090909090909,4,2,1,70,0,0
83547,-90.9090909090909,4,2,1,70,0,1
85064,-80,4,2,1,70,0,1
86243,-90.9090909090909,4,2,1,70,0,1
88266,-66.6666666666667,4,2,1,70,0,1
88378,-66.6666666666667,4,2,23,40,0,1
88603,-66.6666666666667,4,2,1,70,0,1
88771,-80,4,2,1,70,0,1
88940,-90.9090909090909,4,2,1,70,0,1
90120,-80,4,2,1,70,0,1
91637,-100,4,2,1,70,0,1
91974,-80,4,2,1,70,0,1
92142,-100,4,2,1,70,0,1
92816,-133.333333333333,4,2,1,70,0,0
93322,-133.333333333333,4,2,36,60,0,0
93491,-133.333333333333,4,2,36,50,0,0
93659,-133.333333333333,4,2,36,60,0,0
94164,-133.333333333333,4,2,36,30,0,0
94333,-90.9090909090909,4,2,1,70,0,1
95850,-80,4,2,1,70,0,1
97030,-90.9090909090909,4,2,1,70,0,1
99221,-80,4,2,1,70,0,1
99726,-90.9090909090909,4,2,1,70,0,1
101243,-80,4,2,1,70,0,1
102423,-90.9090909090909,4,2,1,70,0,1
103603,-80,4,2,1,70,0,1
103771,-200,4,2,1,70,0,0
104108,-90.9090909090909,4,2,1,70,0,0
104446,-200,4,2,1,70,0,0
104783,-90.9090909090909,4,2,1,70,0,0
105120,-90.9090909090909,4,2,1,70,0,1
106637,-80,4,2,1,70,0,1
107816,-90.9090909090909,4,2,1,70,0,1
109839,-66.6666666666667,4,2,1,70,0,1
109951,-66.6666666666667,4,2,23,50,0,1
110063,-66.6666666666667,4,2,23,30,0,1
110176,-66.6666666666667,4,2,1,70,0,1
110344,-80,4,2,1,70,0,1
110513,-90.9090909090909,4,2,1,70,0,1
111693,-80,4,2,1,70,0,1
113210,-100,4,2,1,70,0,1
114389,-133.333333333333,4,2,1,70,0,0
114895,-133.333333333333,4,2,36,60,0,0
115232,-133.333333333333,4,2,36,56,0,0
115569,-133.333333333333,4,2,36,53,0,0
115906,-133.333333333333,4,2,54,50,0,0
118940,-133.333333333333,4,2,1,30,0,0
126019,-133.333333333333,4,2,68,50,0,0
126356,-133.333333333333,4,2,68,45,0,0
126693,-133.333333333333,4,2,68,50,0,0
127873,-100,4,2,68,50,0,0
128715,-133.333333333333,4,2,68,50,0,0
130569,-100,4,2,68,50,0,0
131075,-133.333333333333,4,2,68,50,0,0
133266,-100,4,2,68,50,0,0
134108,-133.333333333333,4,2,68,50,0,0
135962,-100,4,2,68,50,0,0
137142,-100,4,2,68,48,0,0
137479,-200,4,2,67,44,0,0
137985,-200,4,2,67,42,0,0
138490,-200,4,2,67,32,0,0
139333,-200,4,2,67,40,0,0
139839,-200,4,2,67,30,0,0
140176,-200,4,2,67,36,0,0
140682,-200,4,2,67,34,0,0
141187,-200,4,2,67,24,0,0
141861,-200,4,2,67,28,0,0
142535,-200,4,2,67,18,0,0
142873,-200,4,2,54,46,0,0
152311,-200,4,2,36,50,0,0
153322,-100,4,2,36,40,0,0
153574,-100,4,2,99,5,0,0
153659,-100,4,2,1,60,0,0
163097,-200,4,2,36,50,0,0
163321,-200,4,2,36,40,0,0
163434,-80,4,2,36,55,0,0
163602,-80,4,2,36,40,0,0
163771,-200,4,2,36,50,0,0
163883,-200,4,2,36,40,0,0
164108,-80,4,2,36,55,0,0
164276,-80,4,2,36,40,0,0
164446,-133.333333333333,4,2,1,46,0,0
174221,-66.6666666666667,4,2,1,42,0,0
174333,-66.6666666666667,4,2,23,23,0,0
174558,-133.333333333333,4,2,1,40,0,0
174726,-133.333333333333,4,2,1,20,0,0
174895,-80,4,2,1,45,0,0
175063,-80,4,2,1,30,0,0
175232,-133.333333333333,4,2,1,52,0,0
175569,-100,4,2,1,52,0,0
175906,-133.333333333333,4,2,1,52,0,0
176243,-100,4,2,1,52,0,0
176580,-133.333333333333,4,2,1,52,0,0
176917,-100,4,2,1,52,0,0
177255,-133.333333333333,4,2,1,52,0,0
177592,-100,4,2,1,52,0,0
177929,-133.333333333333,4,2,1,52,0,0
178266,-100,4,2,1,52,0,0
178603,-133.333333333333,4,2,1,52,0,0
178940,-100,4,2,1,52,0,0
179277,-133.333333333333,4,2,1,52,0,0
179614,-100,4,2,1,52,0,0
179951,-133.333333333333,4,2,1,52,0,0
180288,-100,4,2,1,52,0,0
180625,-100,4,2,1,56,0,0
181974,-100,4,2,1,58,0,0
183322,-66.6666666666667,4,2,1,60,0,0
183659,-66.6666666666667,4,2,1,61,0,0
183996,-66.6666666666667,4,2,1,62,0,0
184333,-66.6666666666667,4,2,1,63,0,0
184670,-66.6666666666667,4,2,36,56,0,0
185682,-66.6666666666667,4,2,36,54,0,0
185766,-66.6666666666667,4,2,36,52,0,0
185850,-66.6666666666667,4,2,36,50,0,0
185934,-66.6666666666667,4,2,36,48,0,0
186019,-66.6666666666667,4,2,36,46,0,0
186356,-200,4,2,36,46,0,0
187030,-133.333333333333,4,2,36,26,0,0
187198,-133.333333333333,4,2,99,5,0,0
187283,-80,4,2,36,28,0,0
187367,-80,4,2,99,5,0,0
187535,-80,4,2,36,36,0,0
187577,-80,4,2,36,14,0,0
187703,-80,4,2,36,44,0,0
187873,-80,4,2,36,36,0,0
188041,-80,4,2,36,50,0,0
188378,-80,4,2,1,60,0,0
188715,-90.9090909090909,4,2,1,70,0,1
190232,-80,4,2,1,70,0,1
191412,-90.9090909090909,4,2,1,70,0,1
193434,-80,4,2,1,70,0,1
194108,-90.9090909090909,4,2,1,70,0,1
195625,-80,4,2,1,70,0,1
196805,-90.9090909090909,4,2,1,70,0,1
198153,-200,4,2,1,70,0,0
198491,-90.9090909090909,4,2,1,70,0,0
198828,-200,4,2,1,70,0,0
199165,-90.9090909090909,4,2,1,70,0,0
199502,-90.9090909090909,4,2,1,70,0,1
201019,-80,4,2,1,70,0,1
202198,-90.9090909090909,4,2,1,70,0,1
204221,-66.6666666666667,4,2,1,70,0,1
204333,-66.6666666666667,4,2,23,50,0,1
204445,-66.6666666666667,4,2,23,30,0,1
204558,-66.6666666666667,4,2,1,70,0,1
204726,-80,4,2,1,70,0,1
204895,-90.9090909090909,4,2,1,70,0,1
206075,-80,4,2,1,70,0,1
207592,-100,4,2,1,70,0,1
207929,-80,4,2,1,70,0,1
208097,-100,4,2,1,70,0,1
208771,-133.333333333333,4,2,1,70,0,0
209277,-133.333333333333,4,2,36,60,0,0
209446,-133.333333333333,4,2,36,50,0,0
209614,-133.333333333333,4,2,36,60,0,0
209951,-133.333333333333,4,2,36,56,0,0
210120,-133.333333333333,4,2,36,44,0,0
210288,-133.333333333333,4,2,68,58,0,1
210373,-133.333333333333,4,2,68,58,0,0
210625,-133.333333333333,4,2,68,54,0,0
217198,-133.333333333333,4,2,68,20,0,0
217366,-133.333333333333,4,2,68,54,0,0
220401,-80,4,2,1,50,0,0
220443,-80,4,2,1,20,0,0
220738,-80,4,2,1,52,0,0
220780,-80,4,2,1,22,0,0
221075,-133.333333333333,4,2,68,58,0,1
221159,-133.333333333333,4,2,68,58,0,0
221412,-133.333333333333,4,2,68,54,0,0
225794,-80,4,2,1,54,0,0
225906,-80,4,2,23,42,0,0
226018,-80,4,2,23,30,0,0
226131,-133.333333333333,4,2,68,54,0,0
226468,-133.333333333333,4,2,68,56,0,0
230513,-133.333333333333,4,2,1,56,0,0
230850,-133.333333333333,4,2,36,50,0,0
231187,-133.333333333333,4,2,36,48,0,0
231524,-133.333333333333,4,2,36,46,0,0
231861,-133.333333333333,4,2,54,40,0,0
234895,-133.333333333333,4,2,1,30,0,0
241974,-133.333333333333,4,2,68,50,0,0
242311,-133.333333333333,4,2,68,45,0,0
242648,-133.333333333333,4,2,68,50,0,0
243828,-100,4,2,68,50,0,0
244670,-133.333333333333,4,2,68,50,0,0
246524,-100,4,2,68,50,0,0
247030,-133.333333333333,4,2,68,50,0,0
249221,-100,4,2,68,50,0,0
249726,-133.333333333333,4,2,68,50,0,0
251917,-100,4,2,68,50,0,0
252760,-80,4,2,68,46,0,0
253434,-133.333333333333,4,2,68,40,0,0
254614,-100,4,2,68,40,0,0
255120,-133.333333333333,4,2,68,40,0,0
257311,-100,4,2,68,40,0,0
257816,-133.333333333333,4,2,68,40,0,0
258153,-80,4,2,68,40,0,0
258828,-133.333333333333,4,2,68,44,0,0
259502,-100,4,2,68,44,0,0
260176,-133.333333333333,4,2,68,54,0,0
260513,-133.333333333333,4,2,68,46,0,0
260850,-100,4,2,68,46,0,0
261524,-133.333333333333,4,2,68,56,0,0
261692,-133.333333333333,4,2,68,50,0,0
262198,-100,4,2,68,50,0,0
262873,-133.333333333333,4,2,68,60,0,0
263210,-133.333333333333,4,2,68,54,0,0
263547,-80,4,2,68,54,0,0
264221,-166.666666666667,4,2,1,60,0,0
264895,-142.857142857143,4,2,1,60,0,0
265569,-125,4,2,1,62,0,0
266243,-111.111111111111,4,2,1,62,0,0
266917,-66.6666666666667,4,2,1,64,0,0
267592,-66.6666666666667,4,2,1,66,0,0
268266,-66.6666666666667,4,2,1,64,0,0
268603,-66.6666666666667,4,2,1,62,0,0
268940,-80,4,2,68,60,0,0
269614,-66.6666666666667,4,2,1,74,0,0
269951,-66.6666666666667,4,2,1,70,0,0
270541,-76.9230769230769,4,2,1,70,0,0
270794,-90.9090909090909,4,2,1,70,0,0
270962,-90.9090909090909,4,2,67,50,0,0
271130,-90.9090909090909,4,2,1,70,0,0
271383,-90.9090909090909,4,2,67,20,0,0
271468,-90.9090909090909,4,2,1,70,0,0
271552,-90.9090909090909,4,2,67,20,0,0
271637,-66.6666666666667,4,2,1,70,0,0
273238,-76.9230769230769,4,2,1,70,0,0
273491,-90.9090909090909,4,2,1,70,0,0
273659,-66.6666666666667,4,2,67,70,0,0
273715,-66.6666666666667,4,2,67,30,0,0
273828,-66.6666666666667,4,2,67,70,0,0
273884,-66.6666666666667,4,2,67,30,0,0
273996,-66.6666666666667,4,2,67,60,0,0
274108,-66.6666666666667,4,2,67,56,0,0
274221,-66.6666666666667,4,2,67,52,0,0
274333,-80,4,2,1,60,0,0
274838,-80,4,2,68,60,0,0
275007,-66.6666666666667,4,2,1,74,0,0
275344,-66.6666666666667,4,2,1,70,0,0
275934,-76.9230769230769,4,2,1,70,0,0
276187,-90.9090909090909,4,2,1,70,0,0
276356,-90.9090909090909,4,2,67,50,0,0
276524,-90.9090909090909,4,2,1,70,0,0
276777,-90.9090909090909,4,2,67,20,0,0
276861,-90.9090909090909,4,2,1,70,0,0
276945,-90.9090909090909,4,2,67,20,0,0
277030,-66.6666666666667,4,2,1,70,0,0
278631,-76.9230769230769,4,2,1,70,0,0
278884,-90.9090909090909,4,2,1,70,0,0
279052,-90.9090909090909,4,2,67,60,0,0
279389,-90.9090909090909,4,2,67,62,0,0
279614,-90.9090909090909,4,2,67,64,0,0
279839,-90.9090909090909,4,2,67,66,0,0
280064,-80,4,2,67,68,0,0
280176,-80,4,2,67,58,0,0
280401,-80,4,2,1,74,0,0
280569,-66.6666666666667,4,2,1,74,0,0
280738,-66.6666666666667,4,2,1,70,0,0
281328,-76.9230769230769,4,2,1,70,0,0
281580,-90.9090909090909,4,2,1,70,0,0
281749,-90.9090909090909,4,2,67,50,0,0
281917,-90.9090909090909,4,2,1,70,0,0
282170,-90.9090909090909,4,2,67,20,0,0
282255,-90.9090909090909,4,2,1,70,0,0
282339,-90.9090909090909,4,2,67,20,0,0
282423,-66.6666666666667,4,2,1,70,0,0
284024,-76.9230769230769,4,2,1,70,0,0
284277,-90.9090909090909,4,2,1,70,0,0
284446,-76.9230769230769,4,2,1,70,0,0
284530,-76.9230769230769,4,2,67,30,0,0
284698,-76.9230769230769,4,2,1,70,0,0
284867,-76.9230769230769,4,2,67,30,0,0
284951,-76.9230769230769,4,2,1,70,0,0
285035,-76.9230769230769,4,2,67,30,0,0
285120,-66.6666666666667,4,2,1,70,0,0
285204,-66.6666666666667,4,2,67,30,0,0
285373,-66.6666666666667,4,2,1,70,0,0
285569,-66.6666666666667,4,2,67,40,0,0
285625,-66.6666666666667,4,2,1,70,0,0
285681,-66.6666666666667,4,2,67,40,0,0
285794,-66.6666666666667,4,2,1,74,0,0
286131,-66.6666666666667,4,2,1,70,0,0
286721,-76.9230769230769,4,2,1,70,0,0
286974,-90.9090909090909,4,2,1,70,0,0
287142,-90.9090909090909,4,2,67,50,0,0
287310,-90.9090909090909,4,2,1,70,0,0
287563,-90.9090909090909,4,2,67,20,0,0
287648,-90.9090909090909,4,2,1,70,0,0
287732,-90.9090909090909,4,2,67,20,0,0
287816,-66.6666666666667,4,2,1,70,0,0
289417,-76.9230769230769,4,2,1,70,0,0
289670,-90.9090909090909,4,2,1,70,0,0
289923,-90.9090909090909,4,2,1,40,0,0
290007,-90.9090909090909,4,2,1,70,0,0
290092,-90.9090909090909,4,2,1,40,0,0
290176,-90.9090909090909,4,2,1,70,0,0
290260,-90.9090909090909,4,2,1,40,0,0
290344,-90.9090909090909,4,2,1,70,0,0
290429,-90.9090909090909,4,2,1,40,0,0
290513,-90.9090909090909,4,2,1,70,0,0
290597,-90.9090909090909,4,2,1,40,0,0
290682,-90.9090909090909,4,2,1,70,0,0
290766,-90.9090909090909,4,2,1,40,0,0
290850,-90.9090909090909,4,2,1,62,0,0
291187,-100,4,2,1,58,0,0
300625,-200,4,2,67,44,0,0
300877,-200,4,2,99,5,0,0
300962,-80,4,2,67,42,0,0
301130,-80,4,2,67,32,0,0
301299,-80,4,2,67,46,0,0
301468,-80,4,2,67,42,0,0
301637,-80,4,2,67,50,0,0
301974,-133.333333333333,4,2,1,54,0,0
306693,-80,4,2,1,54,0,0
306805,-80,4,2,23,30,0,0
307030,-133.333333333333,4,2,1,42,0,0
307367,-133.333333333333,4,2,1,54,0,0
311749,-133.333333333333,4,2,67,50,0,0
312086,-200,4,2,67,50,0,0
312929,-80,4,2,67,40,0,0
313097,-80,4,2,99,5,0,0
313182,-80,4,2,67,42,0,0
313350,-80,4,2,99,5,0,0
313434,-80,4,2,67,44,0,0
313603,-80,4,2,67,44,0,0
313687,-133.333333333333,4,2,99,5,0,0
313771,-133.333333333333,4,2,67,46,0,0
313940,-133.333333333333,4,2,68,52,0,0
314024,-133.333333333333,4,2,67,58,0,0
314108,-133.333333333333,4,2,67,48,0,0
314193,-80,4,2,67,48,0,0
314277,-80,4,2,67,40,0,0
314530,-80,4,2,67,20,0,0
314614,-80,4,2,67,52,0,0
314783,-100,4,2,67,54,0,0
315035,-100,4,2,99,5,0,0
315120,-133.333333333333,4,2,67,50,0,0
315204,-133.333333333333,4,2,99,5,0,0
315288,-133.333333333333,4,2,67,52,0,0
315372,-133.333333333333,4,2,99,5,0,0
315457,-90.9090909090909,4,2,1,70,0,1
316637,-80,4,2,1,70,0,1
318153,-90.9090909090909,4,2,1,70,0,1
320344,-80,4,2,1,70,0,1
320850,-90.9090909090909,4,2,1,70,0,1
322367,-80,4,2,1,70,0,1
323547,-90.9090909090909,4,2,1,70,0,1
324726,-80,4,2,1,70,0,1
324895,-200,4,2,1,70,0,0
325232,-90.9090909090909,4,2,1,70,0,0
325569,-200,4,2,1,70,0,0
325906,-90.9090909090909,4,2,1,70,0,0
326243,-90.9090909090909,4,2,1,70,0,1
327423,-80,4,2,1,70,0,1
328940,-90.9090909090909,4,2,1,70,0,1
330962,-66.6666666666667,4,2,1,70,0,1
331074,-66.6666666666667,4,2,23,40,0,1
331299,-66.6666666666667,4,2,1,70,0,1
331468,-80,4,2,1,70,0,1
331637,-90.9090909090909,4,2,1,70,0,1
332816,-80,4,2,1,70,0,1
334333,-100,4,2,1,70,0,1
334670,-80,4,2,1,70,0,1
334839,-100,4,2,1,70,0,1
335513,-133.333333333333,4,2,1,70,0,0
335682,-133.333333333333,4,2,36,70,0,0
335850,-133.333333333333,4,2,36,60,0,0
336693,-133.333333333333,4,2,34,52,0,0
336777,-133.333333333333,4,2,34,53,0,0
336861,-133.333333333333,4,2,34,55,0,0
336946,-133.333333333333,4,2,34,56,0,0
337030,-90.9090909090909,4,2,1,70,0,1
338547,-80,4,2,1,70,0,1
339726,-90.9090909090909,4,2,1,70,0,1
341917,-80,4,2,1,70,0,1
342423,-90.9090909090909,4,2,1,70,0,1
343940,-80,4,2,1,70,0,1
345120,-90.9090909090909,4,2,1,70,0,1
346299,-80,4,2,1,70,0,1
346468,-200,4,2,1,70,0,0
346805,-90.9090909090909,4,2,1,70,0,0
347142,-200,4,2,1,70,0,0
347479,-90.9090909090909,4,2,1,70,0,0
347816,-90.9090909090909,4,2,1,70,0,1
349165,-80,4,2,1,70,0,1
350513,-90.9090909090909,4,2,1,70,0,1
352535,-66.6666666666667,4,2,1,70,0,1
352648,-66.6666666666667,4,2,23,50,0,1
352760,-66.6666666666667,4,2,23,30,0,1
352873,-66.6666666666667,4,2,1,70,0,1
353210,-90.9090909090909,4,2,1,70,0,1
354389,-80,4,2,1,70,0,1
355906,-100,4,2,1,70,0,1
356243,-80,4,2,1,70,0,1
356412,-100,4,2,1,70,0,1
357086,-133.333333333333,4,2,1,70,0,0
357592,-133.333333333333,4,2,36,60,0,0
357929,-133.333333333333,4,2,36,56,0,0
358266,-133.333333333333,4,2,36,53,0,0
358603,-133.333333333333,4,2,1,68,0,0
358771,-66.6666666666667,4,2,1,68,0,0
358940,-66.6666666666667,4,2,1,62,0,0
359530,-76.9230769230769,4,2,1,62,0,0
359783,-90.9090909090909,4,2,1,62,0,0
359951,-90.9090909090909,4,2,67,42,0,0
360119,-90.9090909090909,4,2,1,62,0,0
360288,-90.9090909090909,4,2,1,46,0,0
360372,-90.9090909090909,4,2,67,10,0,0
360457,-90.9090909090909,4,2,1,46,0,0
360541,-90.9090909090909,4,2,67,10,0,0
360625,-66.6666666666667,4,2,1,62,0,0
362226,-76.9230769230769,4,2,1,62,0,0
362479,-90.9090909090909,4,2,1,62,0,0
362648,-66.6666666666667,4,2,1,62,0,0
362704,-66.6666666666667,4,2,67,30,0,0
362816,-66.6666666666667,4,2,67,62,0,0
362872,-66.6666666666667,4,2,67,30,0,0
362985,-66.6666666666667,4,2,67,54,0,0
363097,-66.6666666666667,4,2,67,52,0,0
363210,-66.6666666666667,4,2,67,50,0,0
363322,-80,4,2,1,54,0,0
363827,-80,4,2,68,54,0,0
363996,-80,4,2,1,70,0,0
364165,-66.6666666666667,4,2,1,70,0,0
364333,-66.6666666666667,4,2,1,62,0,0
364923,-76.9230769230769,4,2,1,62,0,0
365176,-90.9090909090909,4,2,1,62,0,0
365344,-90.9090909090909,4,2,67,42,0,0
365512,-90.9090909090909,4,2,1,62,0,0
365766,-90.9090909090909,4,2,67,10,0,0
365850,-90.9090909090909,4,2,1,62,0,0
365934,-90.9090909090909,4,2,67,10,0,0
366019,-66.6666666666667,4,2,1,62,0,0
367620,-76.9230769230769,4,2,1,62,0,0
367873,-90.9090909090909,4,2,1,62,0,0
368041,-90.9090909090909,4,2,67,56,0,0
368378,-90.9090909090909,4,2,67,58,0,0
368603,-90.9090909090909,4,2,67,60,0,0
368828,-90.9090909090909,4,2,67,62,0,0
369052,-80,4,2,67,64,0,0
369165,-80,4,2,67,58,0,0
369389,-80,4,2,1,70,0,0
369558,-66.6666666666667,4,2,1,70,0,0
369726,-66.6666666666667,4,2,1,62,0,0
370316,-76.9230769230769,4,2,1,62,0,0
370569,-90.9090909090909,4,2,1,62,0,0
370738,-90.9090909090909,4,2,67,42,0,0
370906,-90.9090909090909,4,2,1,62,0,0
371159,-90.9090909090909,4,2,67,10,0,0
371243,-90.9090909090909,4,2,1,62,0,0
371327,-90.9090909090909,4,2,67,10,0,0
371412,-66.6666666666667,4,2,1,62,0,0
373013,-76.9230769230769,4,2,1,62,0,0
373266,-90.9090909090909,4,2,1,62,0,0
373434,-76.9230769230769,4,2,1,62,0,0
373518,-76.9230769230769,4,2,67,28,0,0
373687,-76.9230769230769,4,2,1,62,0,0
373855,-76.9230769230769,4,2,67,28,0,0
373940,-76.9230769230769,4,2,1,62,0,0
374024,-76.9230769230769,4,2,67,28,0,0
374108,-66.6666666666667,4,2,1,62,0,0
374192,-66.6666666666667,4,2,67,28,0,0
374361,-66.6666666666667,4,2,1,62,0,0
374558,-66.6666666666667,4,2,67,36,0,0
374614,-66.6666666666667,4,2,1,62,0,0
374670,-66.6666666666667,4,2,67,36,0,0
374783,-66.6666666666667,4,2,1,70,0,0
374951,-66.6666666666667,4,2,1,70,0,0
375120,-66.6666666666667,4,2,1,62,0,0
375710,-76.9230769230769,4,2,1,62,0,0
375962,-90.9090909090909,4,2,1,62,0,0
376131,-90.9090909090909,4,2,67,42,0,0
376299,-90.9090909090909,4,2,1,62,0,0
376552,-90.9090909090909,4,2,67,10,0,0
376637,-90.9090909090909,4,2,1,62,0,0
376721,-90.9090909090909,4,2,67,10,0,0
376805,-66.6666666666667,4,2,1,62,0,0
378406,-76.9230769230769,4,2,1,62,0,0
378659,-90.9090909090909,4,2,1,62,0,0
378912,-90.9090909090909,4,2,1,32,0,0
378996,-90.9090909090909,4,2,1,62,0,0
379080,-90.9090909090909,4,2,1,32,0,0
379165,-90.9090909090909,4,2,1,62,0,0
379249,-90.9090909090909,4,2,1,32,0,0
379333,-90.9090909090909,4,2,1,62,0,0
379417,-90.9090909090909,4,2,1,32,0,0
379502,-90.9090909090909,4,2,1,62,0,0
379586,-90.9090909090909,4,2,1,32,0,0
379670,-90.9090909090909,4,2,1,62,0,0
379755,-90.9090909090909,4,2,1,32,0,0
379839,-90.9090909090909,4,2,1,50,0,0
380176,-90.9090909090909,4,2,67,40,0,0
380513,-90.9090909090909,4,2,68,40,0,0
380682,-90.9090909090909,4,2,67,40,0,0
381187,-90.9090909090909,4,2,68,40,0,0
382030,-90.9090909090909,4,2,67,38,0,0
382535,-90.9090909090909,4,2,68,38,0,0
382873,-90.9090909090909,4,2,67,36,0,0
383210,-90.9090909090909,4,2,68,36,0,0
383378,-90.9090909090909,4,2,67,36,0,0
383884,-90.9090909090909,4,2,68,36,0,0
384558,-90.9090909090909,4,2,67,34,0,0
385232,-90.9090909090909,4,2,68,34,0,0
385569,-90.9090909090909,4,2,67,30,0,0
386075,-90.9090909090909,4,2,67,28,0,0
386243,-90.9090909090909,4,2,67,26,0,0
387423,-90.9090909090909,4,2,67,24,0,0
387592,-90.9090909090909,4,2,67,22,0,0
388266,-90.9090909090909,4,2,67,20,0,0
388771,-90.9090909090909,4,2,67,18,0,0
388940,-90.9090909090909,4,2,67,16,0,0
389951,-90.9090909090909,4,2,67,14,0,0
390288,-90.9090909090909,4,2,67,13,0,0
390962,-90.9090909090909,4,2,67,12,0,0
391468,-90.9090909090909,4,2,67,11,0,0
391637,-90.9090909090909,4,2,67,10,0,0
392816,-90.9090909090909,4,2,67,9,0,0
392985,-90.9090909090909,4,2,67,8,0,0
393659,-90.9090909090909,4,2,67,7,0,0
394165,-90.9090909090909,4,2,67,6,0,0
394333,-90.9090909090909,4,2,67,5,0,0
395344,-90.9090909090909,4,2,67,4,0,0
396356,-90.9090909090909,4,2,67,3,0,0
396861,-90.9090909090909,4,2,67,2,0,0
398210,-90.9090909090909,4,2,67,1,0,0
399052,-90.9090909090909,4,2,67,1,0,0

[Colours]
Combo1 : 227,57,57
Combo2 : 92,95,184
Combo3 : 248,165,90
Combo4 : 135,209,214

[HitObjects]
256,192,1300,12,0,4923,0:0:0:0:
228,124,5176,6,0,L|220:196,1,63.7500024318696,4|0,1:2|1:0,2:0:0:0:
196,280,5344,6,0,P|252:280|280:256,1,85,14|2,2:1|2:0,0:0:0:0:
273,263,6019,1,2,2:0:0:0:
148,124,6187,2,0,P|120:172|126:208,1,85,2|2,2:1|2:1,2:0:0:0:
123,199,6861,1,2,2:0:0:0:
308,160,7030,2,0,P|280:111|245:99,1,85,2|2,2:0|2:1,2:0:0:0:
123,199,7704,6,0,P|145:199|167:192,1,42.5,2|0,2:1|2:0,2:0:0:0:
308,160,8041,2,0,L|294:243,1,85,8|2,2:1|2:0,0:0:0:0:
294,243,8715,1,2,2:0:0:0:
464,172,8884,2,0,L|398:117,1,85,2|2,2:1|2:1,2:0:0:0:
398,117,9558,1,2,2:1:0:0:
376,288,9726,2,0,L|456:258,1,85,2|2,2:0|2:1,0:0:0:0:
398,117,10401,2,0,L|390:158,1,42.5,2|2,2:1|2:0,0:0:0:0:
324,204,10738,5,10,2:1:0:0:
244,204,10906,1,2,2:0:0:0:
212,128,11075,1,2,2:1:0:0:
148,196,11243,2,0,L|136:252,1,42.5,2|2,2:0|2:1,0:0:0:0:
132,176,11580,2,0,L|120:80,1,85,2|2,2:0|2:0,2:0:0:0:
121,91,12255,1,2,2:1:0:0:
192,20,12423,2,0,B|236:11|236:11|273:25,1,85,2|2,2:0|2:1,0:0:0:0:
380,156,13097,2,0,L|337:151,1,42.5,2|2,2:1|2:0,0:0:0:0:
256,148,13434,5,10,2:1:0:0:
200,208,13603,1,2,2:0:0:0:
212,288,13771,1,2,2:1:0:0:
280,332,13940,2,0,L|322:327,1,42.5,2|2,2:0|2:1,0:0:0:0:
264,352,14277,2,0,B|220:343|220:343|182:357,1,85,2|2,2:0|2:0,0:0:0:0:
182,357,14951,1,2,2:1:0:0:
68,284,15120,2,0,L|76:212,1,63.75
72,136,15457,5,10,1:0:0:0:
121,123,15541,1,2,2:0:0:0:
167,123,15625,1,2,1:2:0:0:
208,134,15710,1,2,2:0:0:0:
244,146,15794,1,2,3:1:0:0:
277,153,15878,1,2,1:2:0:0:
306,153,15962,1,2,3:2:0:0:
331,148,16047,1,2,1:2:0:0:
351,141,16131,6,0,P|335:169|339:200,1,63.75,14|0,2:1|0:0,2:0:0:0:
352,216,16468,6,0,L|446:206,1,85,10|10,2:0|2:3,0:0:0:0:
372,312,16805,1,2,2:1:0:0:
256,304,16974,2,0,B|198:274|198:274|137:290,1,127.500004863739,10|10,2:0|2:0,2:0:0:0:
46,181,17479,6,0,P|23:221|33:267,1,95.6250036478044,8|0,2:1|0:0,2:0:0:0:
53,283,17816,2,0,L|153:291,1,85,10|8,2:0|2:3,2:0:0:0:
256,200,18153,1,2,2:1:0:0:
268,83,18322,2,0,P|213:114|152:103,1,127.500004863739,8|8,2:0|2:0,0:0:0:0:
360,168,18828,6,0,B|376:216|376:216|359:258,1,95.6250036478044,10|0,2:1|0:0,2:0:0:0:
348,280,19165,2,0,L|263:273,1,85,10|10,2:0|2:3,0:0:0:0:
92,204,19502,1,2,2:1:0:0:
147,291,19670,2,0,P|208:303|262:273,1,127.500004863739,10|10,2:0|2:0,2:0:0:0:
99,108,20176,6,0,L|91:203,1,95.6250036478044,10|0,2:1|0:0,2:0:0:0:
66,303,20513,2,0,P|104:285|146:290,1,85,10|0,2:0|2:3,2:0:0:0:
260,168,20850,1,2,2:1:0:0:
368,360,21019,2,0,B|319:370|319:370|278:346,1,95.6250036478044,10|0,2:0|0:0,2:0:0:0:
268,328,21356,2,0,L|276:275,1,53.125,8|0,2:3|0:0,0:0:0:0:
339,177,21524,6,0,P|297:184|259:167,1,85,10|2,2:1|2:0,2:0:0:0:
132,52,21861,2,0,L|47:40,1,85,10|10,1:0|2:3,2:0:0:0:
348,28,22198,5,10,2:1:0:0:
404,120,22367,2,0,B|401:159|376:178|376:178|398:199|401:232,1,127.500004863739,10|10,2:0|2:0,0:0:0:0:
160,220,22873,6,0,P|202:216|234:189,1,85,10|2,2:1|2:0,2:0:0:0:
348,28,23210,2,0,L|432:39,1,85,10|10,1:0|2:3,2:0:0:0:
132,52,23547,5,10,2:1:0:0:
108,284,23715,2,0,B|111:245|136:226|136:226|114:205|110:171,1,127.500004863739,10|10,2:0|2:0,0:0:0:0:
256,24,24221,6,0,P|246:53|250:85,1,63.7500024318696,10|0,2:1|0:0,0:0:0:0:
114,146,24389,2,0,B|49:134,1,63.7500024318696,10|0,2:1|0:0,0:0:0:0:
256,100,24558,6,0,P|267:129|263:161,1,63.7500024318696,10|0,1:0|0:0,0:0:0:0:
388,192,24726,2,0,B|455:191,1,63.7500024318696,10|0,2:1|0:0,0:0:0:0:
248,184,24895,6,0,P|238:213|242:245,1,63.7500024318696,10|0,2:1|0:0,0:0:0:0:
120,280,25064,2,0,B|55:290,1,63.7500024318696,10|0,1:0|0:0,0:0:0:0:
252,268,25232,6,0,P|263:297|259:329,1,63.7500024318696,10|0,2:1|0:0,0:0:0:0:
368,336,25401,2,0,B|431:358,1,63.7500024318696,10|0,2:1|0:0,0:0:0:0:
250,347,25569,5,8,2:1:0:0:
242,316,25653,1,8,2:1:0:0:
238,284,25738,1,8,2:1:0:0:
241,253,25822,1,8,2:1:0:0:
250,222,25906,1,8,2:1:0:0:
260,192,25991,1,8,2:1:0:0:
263,160,26075,1,8,2:1:0:0:
258,129,26159,1,8,2:1:0:0:
249,98,26243,6,0,B|146:115|146:115|140:83|154:65|154:65|189:58,1,191.250007295609,10|0,2:1|0:0,2:0:0:0:
264,24,26580,6,0,B|304:29|304:29|328:43|328:43|350:36|350:36|385:41,1,127.500004863739,10|6,2:3|2:3,2:0:0:0:
444,164,26917,6,0,P|476:236|452:292,1,127.5,4|0,3:2|0:0,2:0:0:0:
462,279,27255,1,10,2:0:0:0:
248,252,27423,1,0,2:0:0:0:
248,252,27507,1,0,2:0:0:0:
248,252,27592,2,0,L|308:244,1,42.5,2|0,2:0|2:0,2:0:0:0:
356,316,27760,1,2,3:2:0:0:
152,268,27929,1,8,2:0:0:0:
284,80,28097,1,2,2:0:0:0:
284,80,28182,1,0,2:0:0:0:
284,80,28266,6,0,B|300:123|300:123|289:163,1,85,0|0,3:0|2:0,2:0:0:0:
72,308,28603,2,0,B|56:265|56:265|67:225,1,85,10|0,2:0|2:0,2:0:0:0:
66,227,28856,1,0,2:0:0:0:
66,227,28940,2,0,L|112:220,1,42.5,2|0,2:0|2:0,2:0:0:0:
264,336,29108,2,0,L|218:328,1,42.5,2|0,3:2|2:0,2:0:0:0:
332,204,29277,1,10,2:0:0:0:
492,324,29446,1,2,2:0:0:0:
492,324,29530,1,0,2:0:0:0:
491,323,29614,6,0,P|412:306|356:364,1,170,0|8,3:0|2:0,2:0:0:0:
331,204,30120,1,2,2:0:0:0:
301,218,30204,1,0,2:0:0:0:
268,220,30288,1,0,2:0:0:0:
240,212,30373,1,0,2:0:0:0:
216,188,30457,1,2,3:2:0:0:
372,88,30625,1,10,2:0:0:0:
272,36,30794,1,2,2:0:0:0:
272,36,30878,1,0,2:0:0:0:
272,36,30962,6,0,L|280:132,1,85,0|0,3:0|2:0,2:0:0:0:
132,296,31299,2,0,L|140:244,1,42.5,10|0,2:0|0:0,2:0:0:0:
86,169,31468,2,0,P|47:152|6:161,1,85,0|2,2:0|2:0,0:0:0:0:
7,162,31721,1,0,2:0:0:0:
7,162,31805,1,0,3:2:0:0:
152,96,31974,1,10,2:0:0:0:
224,220,32142,1,2,2:0:0:0:
224,220,32226,1,0,2:0:0:0:
224,220,32311,6,0,L|368:204,1,127.5,0|0,3:0|0:0,2:0:0:0:
424,272,32648,2,0,P|423:293|418:313,2,42.5,8|0|0,2:0|0:0|2:0,0:0:0:0:
292,128,32985,1,0,2:0:0:0:
296,300,33153,1,2,3:2:0:0:
428,156,33322,1,10,2:0:0:0:
256,16,33491,1,2,2:0:0:0:
256,16,33575,1,0,2:0:0:0:
256,16,33659,6,0,L|269:142,1,127.5,2|0,3:2|0:0,2:0:0:0:
224,220,33996,2,0,L|212:280,2,42.5,8|0|0,2:0|0:0|2:0,2:0:0:0:
140,128,34333,1,2,2:0:0:0:
352,212,34502,1,2,3:2:0:0:
120,324,34670,1,10,2:0:0:0:
316,316,34839,1,2,2:0:0:0:
316,316,34923,1,0,2:0:0:0:
316,316,35007,6,0,P|270:273|208:277,1,127.5,0|0,3:0|0:0,2:0:0:0:
208,277,35344,1,8,2:0:0:0:
140,128,35513,1,0,2:0:0:0:
147,160,35597,1,0,2:0:0:0:
137,192,35682,1,2,2:0:0:0:
112,215,35766,1,0,2:0:0:0:
79,223,35850,5,2,3:2:0:0:
60,52,36019,1,10,2:0:0:0:
160,20,36187,2,0,L|212:16,1,42.5,0|0,2:0|2:0,0:0:0:0:
288,136,36356,6,0,L|224:132,1,63.75,8|0,2:1|0:0,0:0:0:0:
140,128,36693,1,8,2:0:0:0:
220,100,36861,6,0,L|304:104,1,85,10|8,2:3|2:0,0:0:0:0:
400,212,37367,6,2,B|410:253|410:253|434:231|433:194|419:174,1,127.5,10|0,2:3|2:0,1:2:0:0:
288,135,37704,6,0,P|257:190|268:252,1,127.5,4|0,3:2|0:0,2:0:0:0:
268,251,38041,1,10,2:0:0:0:
132,348,38210,1,0,2:0:0:0:
132,348,38294,1,0,2:0:0:0:
132,347,38378,2,0,P|135:327|136:305,1,42.5,2|0,2:0|2:0,2:0:0:0:
64,240,38547,1,2,3:2:0:0:
240,344,38715,1,8,2:0:0:0:
164,176,38884,1,2,2:0:0:0:
164,176,38968,1,0,2:0:0:0:
164,176,39052,6,0,L|291:168,1,127.5,0|0,3:0|0:0,2:0:0:0:
376,120,39389,2,0,B|392:80|392:80|380:40,1,85,10|0,2:0|2:0,2:0:0:0:
379,39,39642,1,0,2:0:0:0:
379,39,39726,1,2,2:0:0:0:
452,192,39895,1,2,3:2:0:0:
288,80,40064,1,10,2:0:0:0:
296,256,40232,1,2,2:0:0:0:
296,256,40316,1,0,2:0:0:0:
296,255,40401,6,0,P|360:203|441:219,1,170,0|8,3:0|2:0,2:0:0:0:
228,152,40906,1,2,2:0:0:0:
194,153,40990,1,0,2:0:0:0:
163,140,41075,1,0,2:0:0:0:
140,115,41159,1,0,2:0:0:0:
131,82,41243,1,2,3:2:0:0:
288,80,41412,1,10,2:0:0:0:
132,232,41580,2,0,L|123:273,1,42.5,2|0,2:0|2:0,0:0:0:0:
176,348,41749,6,0,P|217:350|255:332,1,85,0|0,3:0|2:0,2:0:0:0:
488,276,42086,2,0,L|446:268,1,42.5,10|0,2:0|0:0,2:0:0:0:
359,248,42255,2,0,P|380:211|372:164,1,85,0|2,2:0|2:0,0:0:0:0:
375,170,42507,1,0,2:0:0:0:
375,170,42592,2,0,L|320:160,1,42.5,0|0,3:2|2:0,2:0:0:0:
288,80,42760,1,10,2:0:0:0:
132,232,42929,1,2,2:0:0:0:
132,232,43013,1,0,2:0:0:0:
132,232,43097,6,0,P|100:178|113:117,1,127.5,0|0,3:0|0:0,2:0:0:0:
160,44,43434,2,0,L|201:35,2,42.5,8|0|0,2:0|0:0|2:0,0:0:0:0:
288,80,43771,1,0,2:0:0:0:
64,32,43940,1,2,3:2:0:0:
284,0,44108,1,10,2:0:0:0:
160,44,44277,1,2,2:0:0:0:
160,44,44361,1,0,2:0:0:0:
159,43,44446,6,0,P|192:97|184:169,1,127.5,2|0,3:2|0:0,2:0:0:0:
132,231,44783,2,0,P|126:252|123:273,2,42.5,10|0|0,2:0|0:0|2:0,2:0:0:0:
200,344,45120,1,2,2:0:0:0:
80,128,45288,1,2,3:2:0:0:
284,184,45457,1,10,2:0:0:0:
132,232,45625,1,0,2:0:0:0:
132,232,45710,1,0,0:0:0:0:
131,231,45794,6,0,P|183:266|243:253,1,127.5,2|0,3:2|0:0,2:0:0:0:
284,184,46131,2,0,L|291:99,1,85,8|0,2:0|2:0,2:0:0:0:
472,128,46468,1,2,2:0:0:0:
472,128,46552,1,0,2:0:0:0:
472,128,46637,2,0,L|475:170,1,42.5,2|0,3:2|2:0,2:0:0:0:
416,240,46805,1,10,2:0:0:0:
208,144,47142,6,0,B|197:177|197:177|208:220,1,63.75,10|0,2:1|0:0,2:0:0:0:
240,284,47479,2,0,B|273:283|273:283|295:277|295:277|315:283|315:283|344:283,1,106.25,4|0,3:0|2:0,2:0:0:0:
240,284,47816,6,0,B|251:317|251:317|240:360,1,63.75,10|0,2:1|0:0,2:0:0:0:
168,372,48153,2,0,B|135:371|135:371|113:365|113:365|93:371|93:371|63:371,1,106.25,4|0,2:3|2:0,2:0:0:0:
16,300,48406,1,0,0:0:0:0:
20,280,48491,1,4,3:2:0:0:
132,68,48828,6,0,L|138:131,1,63.7500024318696,10|0,2:0|2:0,2:0:0:0:
292,188,49165,2,0,L|298:124,1,63.7500024318696,2|0,2:0|2:0,2:0:0:0:
364,52,49417,1,0,0:0:0:0:
376,60,49502,2,0,L|448:52,1,63.7500024318696,10|0,2:0|2:0,0:0:0:0:
512,140,49839,1,0,2:0:0:0:
216,252,50176,6,0,P|195:224|190:195,1,63.7500024318696,10|0,2:0|2:0,2:0:0:0:
384,220,50513,2,0,P|370:250|347:270,1,63.7500024318696,2|0,2:0|2:0,2:0:0:0:
296,204,50766,1,0,0:0:0:0:
292,188,50850,2,0,L|298:124,1,63.7500024318696,8|0,2:0|2:0,2:0:0:0:
232,32,51187,6,0,B|172:48|172:16|106:31,1,127.500004863739,2|8,2:0|2:0,0:0:0:0:
28,124,51693,1,2,2:0:0:0:
28,124,51777,1,0,0:0:0:0:
28,124,51861,2,0,L|34:187,1,63.7500024318696,0|0,2:0|2:0,2:0:0:0:
164,256,52198,2,0,L|170:192,1,63.7500024318696,10|0,2:0|2:0,0:0:0:0:
276,140,52535,1,0,2:0:0:0:
464,232,52873,6,0,P|435:246|404:246,1,63.7500024318696,10|0,2:0|2:0,2:0:0:0:
276,140,53210,2,0,P|302:157|318:184,1,63.7500024318696,2|0,2:0|2:0,2:0:0:0:
300,288,53462,1,0,0:0:0:0:
288,304,53547,2,0,L|224:310,1,63.7500024318696,10|0,2:0|2:0,2:0:0:0:
72,280,53884,6,0,B|56:220|88:220|72:154,1,127.500004863739,2|8,3:2|2:0,0:0:0:0:
120,64,54389,1,2,2:0:0:0:
120,64,54474,1,0,0:0:0:0:
120,64,54558,2,0,L|182:77,1,63.7500024318696,0|0,2:0|2:0,2:0:0:0:
338,126,54895,2,0,L|275:139,1,63.7500024318696,10|0,2:0|2:0,0:0:0:0:
208,188,55148,1,0,0:0:0:0:
204,208,55232,5,0,2:0:0:0:
400,220,55401,1,0,2:0:0:0:
304,312,55569,2,0,P|293:282|297:250,1,63.7500024318696,10|0,2:0|2:0,0:0:0:0:
448,320,55906,2,0,P|427:344|398:356,1,63.7500024318696,2|0,2:0|2:0,2:0:0:0:
228,356,56159,1,0,0:0:0:0:
220,340,56243,2,0,L|140:332,1,63.7500024318696,10|2,2:0|2:0,0:0:0:0:
380,272,56580,5,0,2:0:0:0:
204,208,56749,1,0,2:0:0:0:
360,152,56917,1,10,2:0:0:0:
292,220,57086,1,2,2:0:0:0:
292,220,57170,1,0,0:0:0:0:
292,220,57255,5,2,2:0:0:0:
472,160,57423,1,2,2:0:0:0:
284,76,57592,2,0,L|220:83,1,63.7500024318696,10|2,2:0|2:0,0:0:0:0:
32,92,57929,6,0,P|70:118|118:119,1,95.6250036478044,2|0,2:0|0:0,0:0:0:0:
184,188,58266,2,0,B|188:215|188:215|176:257|176:257|180:292,2,95.6250036478044,10|0|0,2:1|0:0|0:0,2:0:0:0:
247,120,58603,6,0,P|278:123|308:113,1,63.7500024318696,0|0,3:2|2:0,2:0:0:0:
416,92,58856,1,0,0:0:0:0:
428,108,58940,2,2,B|405:159|403:194|420:218|420:218|442:195|434:170,1,159.375,2|0,2:0|0:0,1:2:0:0:
472,280,59277,6,0,P|432:299|377:287,1,95.6250036478044,4|0,3:2|0:0,2:0:0:0:
360,276,59614,2,0,L|364:368,1,85,10|0,2:0|2:0,2:0:0:0:
336,130,59951,6,0,P|296:111|241:123,1,95.6250036478044,2|0,3:2|0:0,2:0:0:0:
224,134,60288,2,0,L|228:42,1,85,8|2,2:0|2:0,0:0:0:0:
216,296,60625,6,0,P|176:315|121:303,1,95.6250036478044,0|0,3:2|0:0,2:0:0:0:
104,292,60962,2,0,L|108:384,1,85,10|0,2:0|2:0,2:0:0:0:
120,100,61299,6,0,P|80:81|25:93,1,95.6250036478044,2|0,3:2|0:0,0:0:0:0:
8,104,61637,2,0,L|12:12,1,85,10|0,2:0|2:0,2:0:0:0:
32,332,61974,6,0,B|77:313|77:313|122:330,1,95.6250036478044,2|0,3:2|0:0,2:0:0:0:
148,316,62311,2,0,P|157:275|142:234,1,85,8|2,2:0|2:0,0:0:0:0:
476,284,62648,6,0,B|431:265|431:265|385:282,1,95.6250036478044,0|0,3:2|0:0,2:0:0:0:
360,268,62985,2,0,P|351:227|366:186,1,85,10|0,2:0|2:0,0:0:0:0:
64,156,63322,6,0,B|109:137|109:137|154:154,1,95.6250036478044,0|0,3:2|2:0,0:0:0:0:
180,140,63659,2,0,P|189:99|174:58,1,85,8|0,2:0|2:0,2:0:0:0:
420,100,63996,6,0,B|375:81|375:81|329:98,1,95.6250036478044,2|0,3:2|2:0,0:0:0:0:
304,84,64333,2,0,P|295:43|309:2,1,85,8|2,2:0|2:0,0:0:0:0:
268,248,64670,6,0,P|282:287|273:328,1,85,2|0,3:2|2:0,2:0:0:0:
100,140,65007,2,0,L|15:132,1,85,8|0,3:2|2:0,2:0:0:0:
248,144,65344,6,0,P|233:183|242:224,1,85,2|0,3:2|2:0,2:0:0:0:
404,60,65682,2,0,L|488:52,1,85,10|0,3:2|2:0,2:0:0:0:
240,244,66019,6,0,P|201:260|159:253,1,85,0|0,3:2|2:0,2:0:0:0:
24,116,66356,2,0,L|36:32,1,85,10|0,3:2|2:0,2:0:0:0:
260,224,66693,6,0,P|298:240|340:233,1,85,2|0,3:2|2:0,2:0:0:0:
480,100,67030,2,0,L|468:16,1,85,10|0,3:2|2:0,2:0:0:0:
252,12,67367,6,0,B|240:44|240:44|245:73,1,63.7500024318696,2|0,3:2|0:0,0:0:0:0:
416,112,67535,2,0,L|478:101,1,63.7500024318696,0|0,3:2|0:0,0:0:0:0:
260,88,67704,6,0,B|272:120|272:120|266:149,1,63.7500024318696,8|0,3:2|0:0,0:0:0:0:
86,126,67873,2,0,L|23:115,1,63.7500024318696,2|0,3:2|0:0,0:0:0:0:
252,172,68041,6,0,B|240:204|240:204|245:233,1,63.7500024318696,0|0,3:2|0:0,0:0:0:0:
388,248,68210,2,0,L|450:237,1,63.7500024318696,0|0,3:2|0:0,0:0:0:0:
268,252,68378,6,0,B|280:284|280:284|274:313,1,63.7500024318696,10|0,3:2|0:0,0:0:0:0:
148,344,68547,2,0,L|85:333,1,63.7500024318696,0|0,3:2|0:0,0:0:0:0:
264,361,68715,5,10,2:1:0:0:
258,330,68799,1,8,2:1:0:0:
252,298,68884,1,8,2:1:0:0:
257,266,68968,1,8,2:1:0:0:
263,235,69052,1,8,1:0:0:0:
257,203,69137,1,8,2:1:0:0:
251,172,69221,5,10,2:1:0:0:
274,192,69305,1,8,2:1:0:0:
305,200,69389,1,8,2:1:0:0:
336,193,69474,1,8,2:1:0:0:
360,173,69558,1,8,2:1:0:0:
373,145,69642,1,8,2:1:0:0:
368,112,69726,6,0,L|305:102,1,63.7500024318696,8|8,1:0|2:1,0:0:0:0:
236,12,69895,2,0,L|298:2,1,63.7500024318696,8|8,2:1|2:1,0:0:0:0:
168,100,70064,1,10,2:3:0:0:
168,100,70401,5,0,0:0:0:0:
120,284,70569,2,0,L|112:199,1,85
248,192,71075,2,0,B|271:212|271:212|311:205,1,63.7500024318696,2|0,2:0|2:0,2:0:0:0:
328,192,71328,6,0,L|396:184,1,53.125,2|0,2:0|2:0,2:0:0:0:
440,268,71580,1,0,3:2:0:0:
128,180,71749,1,8,2:0:0:0:
276,88,71917,1,8,2:3:0:0:
248,192,72086,5,2,3:2:0:0:
436,160,72255,1,2,3:2:0:0:
436,160,72339,1,2,2:0:0:0:
436,160,72423,2,0,L|440:104,1,53.125,2|0,2:0|2:0,0:0:0:0:
392,20,72592,2,0,B|369:29|369:29|339:25,1,53.125,8|0,2:0|2:0,0:0:0:0:
276,88,72760,6,0,L|288:228,1,140.25000428009,6|0,3:2|2:0,2:0:0:0:
287,227,73097,1,8,2:0:0:0:
136,312,73266,1,0,2:0:0:0:
111,284,73350,1,0,2:0:0:0:
98,249,73434,1,0,2:0:0:0:
99,212,73519,1,0,0:0:0:0:
113,177,73603,1,0,3:2:0:0:
276,88,73771,1,10,2:0:0:0:
96,44,73940,1,0,0:0:0:0:
96,44,74024,1,0,2:0:0:0:
96,44,74108,5,2,3:2:0:0:
207,177,74277,2,0,L|203:230,1,53.125,0|0,0:0|2:0,0:0:0:0:
256,308,74446,1,8,2:0:0:0:
420,128,74614,1,0,2:0:0:0:
420,128,74698,1,0,2:0:0:0:
420,128,74783,6,0,L|368:139,1,53.125,2|0,2:0|2:0,2:0:0:0:
220,60,74951,2,0,L|271:71,1,53.125,0|0,3:2|2:0,2:0:0:0:
320,216,75120,1,10,2:0:0:0:
64,184,75288,1,2,3:2:0:0:
64,184,75373,1,0,0:0:0:0:
64,184,75457,6,0,P|86:224|80:270,1,93.5000028533936,2|0,2:0|3:2,0:0:0:0:
0,344,75794,1,8,2:0:0:0:
128,92,75962,1,2,2:0:0:0:
145,124,76047,1,0,2:0:0:0:
174,148,76131,1,0,2:0:0:0:
210,158,76215,1,0,2:0:0:0:
246,152,76299,1,0,3:2:0:0:
432,92,76468,2,0,P|392:68|346:71,1,93.5000028533936,10|0,2:0|2:0,2:0:0:0:
488,208,76805,5,0,3:2:0:0:
246,152,76974,1,0,2:0:0:0:
404,356,77142,1,10,2:0:0:0:
404,356,77311,1,0,0:0:0:0:
244,304,77479,1,2,2:0:0:0:
244,304,77564,1,0,2:0:0:0:
244,304,77648,2,0,L|296:294,1,53.125,0|0,2:0|2:0,0:0:0:0:
360,228,77816,1,10,2:0:0:0:
152,103,77985,2,0,P|143:129|144:156,1,53.125,0|0,0:0|2:0,0:0:0:0:
160,252,78153,6,0,B|98:265|81:211|32:236|32:236|49:258|79:253,1,187.000005706787,2|8,3:2|2:0,2:0:0:0:
308,228,78659,1,2,2:0:0:0:
334,195,78743,1,0,2:0:0:0:
344,154,78828,1,0,2:0:0:0:
335,112,78912,1,0,0:0:0:0:
309,79,78996,1,0,3:2:0:0:
160,252,79165,1,8,2:0:0:0:
316,368,79333,1,2,2:0:0:0:
316,368,79417,1,0,2:0:0:0:
316,368,79502,5,0,3:2:0:0:
92,104,79670,2,0,P|116:93|142:91,1,53.125,0|0,0:0|2:0,0:0:0:0:
246,152,79839,1,8,2:0:0:0:
40,348,80007,1,2,2:0:0:0:
40,348,80092,1,0,2:0:0:0:
40,348,80176,6,0,L|48:284,1,53.125,0|0,2:0|0:0,0:0:0:0:
92,104,80344,2,0,L|98:156,1,53.125,0|0,3:2|0:0,0:0:0:0:
160,252,80513,1,10,2:0:0:0:
332,163,80682,1,0,3:2:0:0:
332,163,80766,1,0,2:0:0:0:
332,163,80850,6,0,B|290:140|290:140|245:151,1,93.5000028533936,2|0,2:0|3:2,0:0:0:0:
396,276,81187,1,8,2:0:0:0:
120,272,81356,1,2,2:0:0:0:
157,267,81440,1,0,2:0:0:0:
194,262,81524,1,0,2:0:0:0:
231,258,81608,1,0,0:0:0:0:
268,253,81693,1,0,3:2:0:0:
316,360,81861,1,10,2:0:0:0:
208,120,82030,2,0,L|200:172,1,53.125,2|0,2:0|2:0,0:0:0:0:
200,264,82198,6,0,L|136:272,1,63.75,0|0,3:2|2:0,2:0:0:0:
120,272,82535,2,0,B|100:316|100:316|107:360,1,93.5000028533936,8|0,2:0|2:0,2:0:0:0:
288,128,82873,6,0,L|224:119,1,63.75,2|0,3:2|0:0,0:0:0:0:
208,120,83210,2,0,B|188:76|188:76|195:31,1,93.5000028533936,10|0,2:0|0:0,2:0:0:0:
448,80,83547,6,0,L|440:220,1,140.25000428009,6|0,3:2|2:0,2:0:0:0:
440,220,83884,1,8,2:0:0:0:
280,280,84052,1,0,2:0:0:0:
259,249,84137,1,0,2:0:0:0:
228,228,84221,1,0,2:0:0:0:
192,220,84305,1,0,0:0:0:0:
155,227,84389,1,0,3:2:0:0:
24,336,84558,1,10,2:0:0:0:
188,324,84726,1,0,0:0:0:0:
188,324,84811,1,0,2:0:0:0:
188,324,84895,5,2,3:2:0:0:
88,104,85064,2,0,P|77:128|78:154,1,53.125,0|0,0:0|2:0,0:0:0:0:
155,227,85232,1,8,2:0:0:0:
248,40,85401,1,0,2:0:0:0:
248,40,85485,1,0,2:0:0:0:
248,40,85569,6,0,L|184:32,1,53.125,2|0,2:0|2:0,2:0:0:0:
348,96,85738,2,0,L|412:88,1,53.125,2|0,3:2|2:0,2:0:0:0:
272,168,85906,1,10,2:0:0:0:
360,300,86075,1,2,3:2:0:0:
360,300,86159,1,0,0:0:0:0:
360,300,86243,6,0,B|315:277|315:277|272:285,1,93.5000028533936,2|0,2:0|3:2,0:0:0:0:
144,360,86580,1,8,2:0:0:0:
36,204,86749,1,2,2:0:0:0:
70,218,86833,1,0,2:0:0:0:
107,220,86917,1,0,2:0:0:0:
142,208,87002,1,0,2:0:0:0:
171,185,87086,1,0,3:2:0:0:
100,16,87255,2,0,L|87:109,1,93.5000028533936,10|0,2:0|2:0,2:0:0:0:
144,360,87592,5,0,3:2:0:0:
232,112,87760,1,0,2:0:0:0:
316,332,87929,1,10,2:0:0:0:
316,332,88097,1,2,2:0:0:0:
171,185,88266,6,0,B|143:182|143:182|124:174|124:174|100:177|100:177|77:173,2,95.6250036478044,2|0|0,2:1|0:0|0:0,2:0:0:0:
232,112,88603,1,10,2:0:0:0:
315,332,88771,2,0,L|326:276,1,53.125,2|0,2:0|0:0,0:0:0:0:
300,196,88940,6,0,P|345:204|388:183,1,93.5000028533936,2|0,3:2|2:0,2:0:0:0:
288,28,89193,1,0,2:0:0:0:
266,31,89277,2,0,P|235:65|231:114,1,93.5000028533936,10|0,2:0|2:0,2:0:0:0:
424,108,89530,1,0,2:0:0:0:
432,92,89614,2,0,P|416:48|377:20,1,93.5000028533936,2|0,2:0|3:2,2:0:0:0:
332,108,89951,1,10,2:0:0:0:
366,340,90120,2,0,P|339:340|311:329,1,53.125,2|0,2:0|0:0,0:0:0:0:
244,276,90288,5,2,3:2:0:0:
68,144,90457,2,0,P|94:144|123:134,1,53.125,0|0,2:0|2:0,0:0:0:0:
200,76,90625,1,10,2:0:0:0:
144,268,90794,1,0,2:0:0:0:
144,268,90878,1,0,2:0:0:0:
144,268,90962,6,0,L|138:321,1,53.125,2|0,2:0|0:0,2:0:0:0:
206,128,91131,2,0,L|200:76,1,53.125,0|0,3:2|0:0,0:0:0:0:
300,192,91299,1,8,2:0:0:0:
292,344,91468,1,2,2:0:0:0:
292,344,91552,1,0,0:0:0:0:
292,344,91637,6,0,P|342:305|406:313,1,127.5,4|0,3:2|0:0,2:0:0:0:
480,252,91974,2,0,L|483:198,1,53.125,8|0,2:0|0:0,0:0:0:0:
444,124,92142,6,0,B|412:130|388:165|394:206|394:206|373:157|319:128|267:151,1,255,2|10,3:2|2:0,2:0:0:0:
151,282,92816,6,0,B|209:312|272:287|294:236|294:236|324:249|328:288|300:308,1,255.000009727478,2|0,2:0|2:0,0:0:0:0:
204,192,93659,2,0,L|198:128,1,63.7500024318696,2|8,2:1|2:0,0:0:0:0:
296,96,93996,2,0,L|304:191,1,95.6250036478044,10|0,2:3|0:0,2:0:0:0:
204,192,94333,6,0,L|64:176,1,140.25000428009,6|0,3:2|2:0,2:0:0:0:
64,176,94670,1,8,2:0:0:0:
160,296,94839,1,0,2:0:0:0:
192,313,94923,1,0,2:0:0:0:
229,316,95007,1,0,2:0:0:0:
265,305,95092,1,0,0:0:0:0:
293,281,95176,1,0,3:2:0:0:
192,72,95344,1,10,2:0:0:0:
320,128,95513,1,0,0:0:0:0:
320,128,95597,1,0,2:0:0:0:
320,128,95682,5,2,3:2:0:0:
76,144,95850,2,0,L|128:137,1,53.125,0|0,0:0|2:0,0:0:0:0:
192,72,96019,1,8,2:0:0:0:
293,281,96187,1,0,2:0:0:0:
293,281,96271,1,0,2:0:0:0:
293,281,96356,6,0,P|291:254|299:229,1,53.125,2|0,2:0|2:0,2:0:0:0:
400,88,96524,2,0,P|408:112|406:139,1,53.125,0|0,3:2|2:0,2:0:0:0:
320,128,96693,1,10,2:0:0:0:
392,272,96861,1,2,3:2:0:0:
392,272,96946,1,0,0:0:0:0:
392,272,97030,6,0,P|435:285|482:273,1,93.5000028533936,2|0,2:0|3:2,0:0:0:0:
320,128,97367,1,8,2:0:0:0:
176,340,97535,1,2,2:0:0:0:
159,306,97620,1,0,2:0:0:0:
156,269,97704,1,0,2:0:0:0:
166,233,97788,1,0,2:0:0:0:
187,203,97873,1,0,3:2:0:0:
327,34,98041,2,0,L|319:127,1,93.5000028533936,10|0,2:0|2:0,2:0:0:0:
392,272,98378,5,0,3:2:0:0:
120,128,98547,1,0,2:0:0:0:
416,168,98715,1,10,2:0:0:0:
416,168,98884,1,0,0:0:0:0:
264,280,99052,1,2,2:0:0:0:
264,280,99137,1,0,2:0:0:0:
264,280,99221,2,0,L|260:226,1,53.125,0|0,2:0|2:0,0:0:0:0:
304,152,99389,1,10,2:0:0:0:
67,207,99558,2,0,P|91:220|117:222,1,53.125,0|0,0:0|2:0,0:0:0:0:
208,76,99726,6,0,B|234:40|299:33|335:68|335:68|313:60|292:65,1,187.000005706787,2|8,3:2|2:0,2:0:0:0:
323,301,100232,1,2,2:0:0:0:
318,263,100316,1,0,2:0:0:0:
313,226,100401,1,0,2:0:0:0:
309,189,100485,1,0,0:0:0:0:
304,152,100569,1,0,3:2:0:0:
192,224,100738,1,8,2:0:0:0:
444,352,100906,1,2,2:0:0:0:
444,352,100991,1,0,2:0:0:0:
444,352,101075,5,0,3:2:0:0:
172,368,101243,2,0,L|184:317,1,53.125,0|0,0:0|2:0,0:0:0:0:
192,224,101412,1,8,2:0:0:0:
404,164,101580,1,2,2:0:0:0:
404,164,101665,1,0,2:0:0:0:
403,164,101749,6,0,P|427:152|458:154,1,53.125,0|0,2:0|0:0,0:0:0:0:
323,301,101917,2,0,P|296:301|272:289,1,53.125,0|0,3:2|0:0,0:0:0:0:
192,224,102086,1,10,2:0:0:0:
438,263,102255,1,0,3:2:0:0:
438,263,102339,1,0,2:0:0:0:
438,263,102423,6,0,B|455:307|455:307|443:351,1,93.5000028533936,2|0,2:0|3:2,0:0:0:0:
316,132,102760,1,8,2:0:0:0:
112,252,102929,1,2,2:0:0:0:
136,280,103013,1,0,2:0:0:0:
169,297,103097,1,0,2:0:0:0:
205,303,103182,1,0,0:0:0:0:
242,295,103266,1,0,3:2:0:0:
332,148,103434,1,10,2:0:0:0:
132,80,103603,2,0,L|79:72,1,53.125,2|0,2:0|2:0,0:0:0:0:
96,168,103771,6,0,L|92:231,1,63.75,0|0,3:2|2:0,2:0:0:0:
112,252,104108,2,0,B|156:228|156:228|198:236,1,93.5000028533936,8|0,2:0|2:0,2:0:0:0:
434,79,104446,6,0,L|437:142,1,63.75,2|0,3:2|0:0,0:0:0:0:
418,163,104783,2,0,B|374:139|374:139|331:147,1,93.5000028533936,10|0,2:0|0:0,2:0:0:0:
256,328,105120,6,0,B|344:296|344:364|438:330,1,187.000005706787,6|8,3:2|2:0,2:0:0:0:
288,144,105625,1,0,2:0:0:0:
252,135,105710,1,0,2:0:0:0:
215,138,105794,1,0,2:0:0:0:
182,154,105878,1,0,0:0:0:0:
156,181,105962,1,0,3:2:0:0:
388,244,106131,1,10,2:0:0:0:
140,296,106299,1,0,0:0:0:0:
140,296,106384,1,0,2:0:0:0:
140,296,106468,5,2,3:2:0:0:
196,44,106637,2,0,P|221:52|251:55,1,53.125,0|0,0:0|2:0,0:0:0:0:
288,144,106805,1,8,2:0:0:0:
52,196,106974,1,0,2:0:0:0:
52,196,107058,1,0,2:0:0:0:
52,196,107142,6,0,L|59:143,1,53.125,2|0,2:0|2:0,2:0:0:0:
140,296,107311,2,0,L|147:348,1,53.125,2|0,3:2|2:0,2:0:0:0:
248,244,107479,1,10,2:0:0:0:
281,61,107648,1,2,3:2:0:0:
281,61,107732,1,0,0:0:0:0:
281,61,107816,6,0,P|235:66|195:43,1,93.5000028533936,2|0,2:0|3:2,0:0:0:0:
404,28,108153,1,8,2:0:0:0:
404,152,108322,1,2,2:0:0:0:
373,173,108406,1,0,2:0:0:0:
353,204,108491,1,0,2:0:0:0:
345,240,108575,1,0,2:0:0:0:
352,277,108659,1,0,3:2:0:0:
164,352,108828,2,0,P|171:306|149:263,1,93.5000028533936,10|0,2:0|2:0,2:0:0:0:
28,212,109165,5,0,3:2:0:0:
256,160,109333,1,0,2:0:0:0:
52,100,109502,1,10,2:0:0:0:
52,100,109670,1,2,2:0:0:0:
256,160,109839,6,0,B|284:157|284:157|303:149|303:149|327:152|327:152|350:148,2,95.6250036478044,2|0|0,2:1|0:0|0:0,0:0:0:0:
200,88,110176,1,10,2:0:0:0:
111,344,110344,2,0,L|163:351,1,53.125,2|0,2:0|0:0,0:0:0:0:
256,272,110513,6,0,B|268:224|268:224|251:183,1,93.5000028533936,2|2,3:2|2:0,0:0:0:0:
280,68,110766,1,0,0:0:0:0:
296,56,110850,2,0,B|331:90|331:90|375:96,1,93.5000028533936,10|0,2:0|2:0,2:0:0:0:
448,168,111103,1,0,2:0:0:0:
444,188,111187,2,0,B|396:201|396:201|369:236,1,93.5000028533936,2|0,2:0|3:2,2:0:0:0:
420,336,111524,1,10,2:0:0:0:
259,325,111693,2,0,L|255:271,1,53.125,2|0,2:0|0:0,0:0:0:0:
200,200,111861,5,2,3:2:0:0:
80,24,112030,2,0,L|76:77,1,53.125,0|0,2:0|2:0,0:0:0:0:
12,148,112198,1,10,2:0:0:0:
200,200,112367,1,0,2:0:0:0:
200,200,112451,1,0,0:0:0:0:
199,200,112535,6,0,P|227:198|254:189,1,53.125,2|0,2:0|2:0,2:0:0:0:
63,157,112704,2,0,P|35:154|8:145,1,53.125,2|0,3:2|0:0,0:0:0:0:
156,112,112873,1,8,2:0:0:0:
72,268,113041,1,2,2:0:0:0:
72,268,113125,1,0,0:0:0:0:
72,268,113210,6,0,B|65:292|77:330|101:337|101:337|118:295,1,127.5,2|0,3:2|0:0,2:0:0:0:
118,294,113547,2,0,L|179:302,1,42.5,8|0,2:0|0:0,0:0:0:0:
312,296,113715,6,0,B|361:302|361:302|346:267|303:256|262:271|262:271|235:314|187:310,1,255,2|8,3:2|2:0,2:0:0:0:
184,56,114389,6,0,B|158:101|184:148|184:148|203:187|184:224|184:224|147:202|156:155,1,255.000009727478,2|0,3:2|0:0,0:0:0:0:
264,100,115232,2,0,L|332:88,1,63.7500024318696,10|10,2:3|2:0,0:0:0:0:
432,208,115569,2,0,L|364:196,1,63.7500024318696,10|8,2:3|2:0,0:0:0:0:
508,136,115906,5,4,2:0:0:0:
256,192,115991,12,0,118603,0:0:0:0:
88,71,126019,5,2,2:0:0:0:
74,80,126103,1,0,2:0:0:0:
63,91,126187,1,2,2:0:0:0:
54,105,126271,1,0,2:0:0:0:
49,120,126356,1,2,2:0:0:0:
47,135,126440,1,2,2:0:0:0:
49,151,126524,1,2,2:0:0:0:
54,166,126608,1,2,2:0:0:0:
63,179,126693,6,0,L|190:168,1,127.500004863739,2|8,3:2|2:0,2:0:0:0:
312,148,127198,1,0,3:2:0:0:
208,184,127367,2,0,L|81:195,1,127.500004863739,8|8,2:1|2:0,2:0:0:0:
40,312,127873,6,0,B|80:329|80:329|120:321,1,85,2|0,2:0|0:0,2:0:0:0:
240,288,128210,1,0,2:0:0:0:
240,288,128294,1,0,0:0:0:0:
240,288,128378,1,10,2:0:0:0:
120,88,128547,1,0,3:2:0:0:
208,184,128715,2,0,B|192:120|228:120|209:59,1,127.500004863739,8|8,2:1|2:0,2:0:0:0:
312,8,129221,1,0,0:0:0:0:
312,8,129305,1,0,0:0:0:0:
312,8,129389,6,0,B|376:-8|376:28|437:9,1,127.500004863739,2|8,3:2|2:0,2:0:0:0:
504,108,129895,1,0,3:2:0:0:
428,32,130064,2,0,B|367:51|367:15|303:31,1,127.500004863739,8|8,2:1|2:0,2:0:0:0:
344,192,130569,6,0,L|352:288,1,85,2|0,2:0|0:0,2:0:0:0:
472,332,130906,1,0,2:0:0:0:
472,332,130991,1,0,0:0:0:0:
472,332,131075,2,0,P|484:293|479:268,1,63.7500024318696,8|2,3:2|2:0,0:0:0:0:
236,253,131412,2,0,P|224:314|256:368,1,127.500004863739,8|8,2:1|2:0,2:0:0:0:
248,112,131917,1,0,2:0:0:0:
248,112,132002,1,0,0:0:0:0:
248,112,132086,6,0,L|121:126,1,127.500004863739,2|8,2:0|2:0,2:0:0:0:
0,128,132592,1,0,3:2:0:0:
108,148,132760,2,0,L|234:133,1,127.500004863739,8|8,2:1|2:0,2:0:0:0:
328,212,133266,6,0,B|337:257|337:257|313:300,1,85,2|0,2:0|0:0,2:0:0:0:
216,348,133603,1,2,2:0:0:0:
216,348,133687,1,0,0:0:0:0:
216,348,133771,1,8,2:0:0:0:
120,256,133940,1,0,3:2:0:0:
240,116,134108,2,0,L|226:242,1,127.500004863739,8|8,2:1|2:0,2:0:0:0:
72,40,134614,1,0,2:0:0:0:
72,40,134698,1,0,0:0:0:0:
72,40,134783,6,0,B|136:24|136:60|196:41,1,127.500004863739,2|8,3:2|2:0,2:0:0:0:
328,24,135288,1,0,3:2:0:0:
212,64,135457,2,0,B|151:82|151:46|87:62,1,127.500004863739,8|8,2:1|2:0,2:0:0:0:
24,156,135962,6,0,P|2:192|5:238,1,85,2|0,2:0|0:0,2:0:0:0:
96,308,136299,1,0,2:0:0:0:
96,308,136384,1,0,0:0:0:0:
96,308,136468,1,8,3:2:0:0:
424,192,136805,5,10,2:1:0:0:
399,199,136889,1,0,2:0:0:0:
374,202,136974,1,2,2:0:0:0:
348,201,137058,1,0,2:0:0:0:
324,194,137142,1,10,2:0:0:0:
299,186,137226,1,0,2:0:0:0:
274,182,137311,1,2,2:0:0:0:
249,182,137395,1,0,2:0:0:0:
224,187,137479,5,0,3:2:0:0:
264,332,137985,2,0,L|268:288,1,42.5,0|8,3:2|2:1,0:0:0:0:
68,124,139333,6,0,L|71:166,1,42.5,0|8,3:2|2:1,0:0:0:0:
276,72,140176,5,0,3:0:0:0:
68,200,140682,2,0,L|71:242,1,42.5,0|8,3:2|2:1,0:0:0:0:
280,288,141861,6,0,L|289:203,1,85,0|8,3:2|2:1,0:0:0:0:
244,24,152311,6,0,P|212:25|183:38,1,63.75,8|0,2:1|0:0,0:0:0:0:
132,108,152648,1,8,2:0:0:0:
191,56,152816,6,0,P|232:51|268:72,1,85,10|8,2:3|2:0,0:0:0:0:
344,108,153322,6,2,B|352:184|352:184|287:192,1,127.5,10|0,2:3|2:0,1:2:0:0:
288,212,153659,6,0,L|414:196,1,127.5,4|0,3:2|0:0,2:0:0:0:
414,196,153996,1,10,2:0:0:0:
208,140,154165,1,0,2:0:0:0:
188,156,154249,1,0,2:0:0:0:
180,179,154333,2,0,L|186:221,1,42.5,2|0,2:0|2:0,2:0:0:0:
128,320,154502,1,2,3:2:0:0:
288,212,154670,1,10,2:0:0:0:
132,117,154839,1,0,2:0:0:0:
132,117,154923,1,0,2:0:0:0:
132,117,155007,6,0,P|166:141|207:139,1,85,0|0,3:0|2:0,2:0:0:0:
430,116,155344,2,0,P|388:114|354:138,1,85,10|0,2:0|2:0,2:0:0:0:
413,195,155597,1,0,2:0:0:0:
413,195,155682,1,2,2:0:0:0:
276,80,155850,1,2,3:2:0:0:
512,36,156019,1,8,2:0:0:0:
413,195,156187,1,2,2:0:0:0:
413,195,156271,1,0,2:0:0:0:
413,195,156356,6,0,B|439:277|383:277|411:361,1,170,0|8,3:0|2:0,2:0:0:0:
320,240,156861,1,2,2:0:0:0:
286,237,156945,1,0,2:0:0:0:
252,234,157029,1,0,2:0:0:0:
218,231,157113,1,0,2:0:0:0:
185,228,157198,1,2,3:2:0:0:
232,120,157367,1,10,2:0:0:0:
80,172,157535,1,2,2:0:0:0:
80,172,157620,1,0,2:0:0:0:
80,171,157704,6,0,B|61:212|61:212|71:254,1,85,0|0,3:0|2:0,2:0:0:0:
200,360,158041,2,0,L|240:348,1,42.5,10|0,2:0|0:0,2:0:0:0:
320,296,158210,2,0,B|338:337|338:337|328:379,1,85,0|2,2:0|2:0,0:0:0:0:
328,376,158462,1,0,2:0:0:0:
328,376,158547,1,0,3:2:0:0:
218,231,158715,1,10,2:0:0:0:
412,228,158884,1,2,2:0:0:0:
360,104,159052,6,0,P|297:100|247:137,1,127.5,0|0,3:0|0:0,2:0:0:0:
218,231,159389,2,0,P|224:251|226:277,2,42.5,8|0|0,2:0|0:0|2:0,0:0:0:0:
324,204,159726,1,0,2:0:0:0:
136,140,159895,1,2,3:2:0:0:
148,336,160064,1,10,2:0:0:0:
384,352,160232,1,2,2:0:0:0:
384,352,160316,1,0,2:0:0:0:
384,352,160401,6,0,P|332:316|264:329,1,127.5,2|0,3:2|0:0,2:0:0:0:
218,231,160738,2,0,L|215:188,2,42.5,10|0|0,2:0|0:0|2:0,2:0:0:0:
148,336,161075,1,2,2:0:0:0:
324,204,161243,1,2,3:2:0:0:
136,140,161412,1,8,2:0:0:0:
272,304,161580,2,0,L|314:300,1,42.5,0|0,2:0|0:0,0:0:0:0:
399,272,161749,6,0,P|430:217|415:156,1,127.5,2|0,3:2|0:0,2:0:0:0:
415,156,162086,1,8,2:0:0:0:
334,69,162255,1,0,2:0:0:0:
331,102,162339,1,0,2:0:0:0:
329,136,162423,1,2,2:0:0:0:
327,170,162507,1,0,2:0:0:0:
324,204,162592,2,0,L|281:198,1,42.5,2|0,3:2|2:0,2:0:0:0:
168,224,162760,2,0,B|180:264|180:264|166:305,1,85,10|0,2:0|2:0,2:0:0:0:
368,344,163097,6,0,L|364:280,1,63.75,10|0,2:1|0:0,2:0:0:0:
324,204,163434,2,0,B|252:200|252:200|260:220|274:223,1,106.25,4|0,3:0|2:0,2:0:0:0:
324,204,163771,6,0,L|328:140,1,63.75,10|0,2:1|0:0,2:0:0:0:
348,32,164108,2,0,B|420:28|420:28|412:48|397:51,1,106.25,4|0,2:3|2:0,2:0:0:0:
272,72,164361,1,0,0:0:0:0:
257,65,164446,1,4,3:2:0:0:
56,220,164783,6,0,L|181:200,1,127.500004863739,10|2,2:0|2:0,2:0:0:0:
312,264,165288,1,0,3:2:0:0:
312,264,165373,1,0,0:0:0:0:
312,264,165457,2,0,L|299:326,1,63.7500024318696,10|0,2:0|2:0,0:0:0:0:
408,224,165794,1,0,3:2:0:0:
204,28,166131,6,0,P|180:48|170:78,1,63.7500024318696,10|0,2:0|2:0,2:0:0:0:
360,80,166468,2,0,P|353:49|332:25,1,63.7500024318696,2|0,2:0|3:2,2:0:0:0:
273,87,166721,1,0,0:0:0:0:
264,100,166805,2,0,L|276:176,1,63.7500024318696,8|0,2:0|2:0,2:0:0:0:
196,228,167142,6,0,P|140:196|75:205,1,127.500004863739,2|8,3:2|2:0,0:0:0:0:
8,332,167648,2,0,L|70:318,1,63.7500024318696,2|0,2:0|2:0,0:0:0:0:
236,372,167985,1,0,3:2:0:0:
236,372,168069,1,0,0:0:0:0:
236,372,168153,2,0,L|173:358,1,63.7500024318696,10|0,2:0|2:0,0:0:0:0:
300,288,168491,1,0,3:2:0:0:
400,84,168828,6,0,L|391:147,1,63.7500024318696,10|0,2:0|2:0,2:0:0:0:
300,288,169165,2,0,L|291:224,1,63.7500024318696,2|0,2:0|3:2,2:0:0:0:
224,156,169417,1,0,0:0:0:0:
208,144,169502,2,0,P|173:146|147:159,1,63.7500024318696,10|0,2:0|2:0,2:0:0:0:
56,256,169839,6,0,P|108:290|172:284,1,127.500004863739,2|8,3:2|2:0,0:0:0:0:
290,350,170344,2,0,L|299:287,1,63.7500024318696,2|0,2:0|2:0,0:0:0:0:
400,200,170682,1,0,3:2:0:0:
400,200,170766,1,0,0:0:0:0:
400,200,170850,2,0,L|409:262,1,63.7500024318696,10|0,2:0|2:0,0:0:0:0:
468,332,171103,1,0,0:0:0:0:
484,336,171187,5,0,3:2:0:0:
296,148,171356,1,0,2:0:0:0:
432,72,171524,2,0,P|400:73|370:63,1,63.7500024318696,10|0,2:0|2:0,0:0:0:0:
224,8,171861,2,0,P|241:34|247:65,1,63.7500024318696,2|0,2:0|3:2,2:0:0:0:
296,148,172114,1,0,0:0:0:0:
284,160,172198,2,0,L|272:222,1,63.7500024318696,10|2,2:0|2:0,0:0:0:0:
148,72,172535,5,0,3:2:0:0:
64,224,172704,1,0,2:0:0:0:
284,160,172873,1,10,2:0:0:0:
172,172,173041,1,2,2:0:0:0:
172,172,173125,1,0,0:0:0:0:
172,172,173210,5,2,2:0:0:0:
460,244,173378,1,2,3:2:0:0:
456,88,173547,2,0,L|380:84,1,63.7500024318696,10|2,2:0|2:0,0:0:0:0:
331,328,173884,6,0,P|351:284|343:235,1,95.6250036478044,2|0,3:2|0:0,0:0:0:0:
284,160,174221,2,0,B|255:154|236:160|236:160|214:151|189:154,2,95.6250036478044,10|0|0,2:1|0:0|0:0,2:0:0:0:
200,248,174558,6,0,P|160:274|113:272,1,95.6250036478044,0|0,3:2|0:0,2:0:0:0:
40,216,174895,2,0,B|28:176|40:138|69:115|69:115|48:128|24:129,1,159.375,2|0,2:0|0:0,2:0:0:0:
48,36,175232,6,0,P|95:34|134:60,1,95.6250036478044,4|0,3:2|0:0,2:0:0:0:
144,80,175569,2,0,L|228:69,1,85,10|0,2:0|2:0,2:0:0:0:
456,128,175906,6,0,P|409:126|370:152,1,95.6250036478044,2|0,3:2|0:0,2:0:0:0:
360,172,176243,2,0,L|275:161,1,85,8|2,2:0|2:0,0:0:0:0:
16,260,176580,6,0,P|63:258|102:284,1,95.6250036478044,0|0,3:2|0:0,2:0:0:0:
112,304,176917,2,0,L|196:293,1,85,10|0,2:0|2:0,2:0:0:0:
492,312,177255,6,0,P|445:310|406:336,1,95.6250036478044,2|0,3:2|0:0,0:0:0:0:
396,356,177592,2,0,L|311:345,1,85,10|0,2:0|2:0,2:0:0:0:
416,32,177929,6,0,B|438:73|438:73|428:128,1,95.6250036478044,2|0,3:2|0:0,2:0:0:0:
420,136,178266,2,0,B|328:128,1,85,8|2,2:0|2:0,0:0:0:0:
304,344,178603,6,0,B|326:302|326:302|316:247,1,95.6250036478044,0|0,3:2|0:0,2:0:0:0:
308,240,178940,2,0,B|216:248,1,85,8|0,2:0|2:0,0:0:0:0:
172,8,179277,6,0,B|194:49|194:49|184:104,1,95.6250036478044,0|0,3:2|2:0,0:0:0:0:
176,112,179614,2,0,B|84:104,1,85,8|0,2:0|2:0,2:0:0:0:
92,360,179951,6,0,B|114:318|114:318|104:263,1,95.6250036478044,2|0,3:2|2:0,0:0:0:0:
96,256,180288,2,0,B|4:264,1,85,8|2,2:0|2:0,0:0:0:0:
208,192,180625,6,0,B|300:200,1,85,2|0,3:2|2:0,2:0:0:0:
72,136,180962,2,0,P|62:94|75:54,1,85,8|0,3:2|2:0,2:0:0:0:
240,192,181299,6,0,B|324:184,1,85,2|0,3:2|2:0,2:0:0:0:
96,256,181637,2,0,P|94:297|113:335,1,85,10|0,3:2|2:0,2:0:0:0:
272,192,181974,6,0,B|356:199,1,85,0|0,3:2|2:0,2:0:0:0:
168,100,182311,2,0,P|173:58|198:24,1,85,10|0,3:2|2:0,2:0:0:0:
304,192,182648,6,0,B|388:184,1,85,2|0,3:2|2:0,2:0:0:0:
200,292,182985,2,0,P|212:332|243:360,1,85,10|0,3:2|2:0,2:0:0:0:
471,324,183322,6,0,P|484:294|484:263,1,63.7500024318696,2|0,3:2|0:0,0:0:0:0:
400,192,183491,2,0,L|336:184,1,63.7500024318696,0|0,3:2|0:0,0:0:0:0:
384,32,183659,6,0,P|396:61|396:92,1,63.7500024318696,8|0,3:2|0:0,0:0:0:0:
320,192,183828,2,0,L|256:200,1,63.7500024318696,2|0,3:2|0:0,0:0:0:0:
308,356,183996,6,0,P|320:326|320:295,1,63.7500024318696,0|0,3:2|0:0,0:0:0:0:
240,192,184165,2,0,L|176:184,1,63.7500024318696,0|0,3:2|0:0,0:0:0:0:
216,20,184333,6,0,P|228:49|228:80,1,63.7500024318696,10|0,3:2|0:0,0:0:0:0:
156,192,184502,2,0,L|92:200,1,63.7500024318696,0|0,3:2|0:0,0:0:0:0:
20,168,184670,5,10,2:1:0:0:
21,136,184755,1,8,2:1:0:0:
37,109,184839,1,8,2:1:0:0:
53,137,184923,1,8,2:1:0:0:
59,168,185007,1,8,1:0:0:0:
56,200,185092,1,8,2:1:0:0:
43,229,185176,5,10,2:1:0:0:
27,263,185260,1,8,2:1:0:0:
28,301,185344,1,8,2:1:0:0:
46,334,185429,1,8,2:1:0:0:
77,355,185513,1,8,2:1:0:0:
115,359,185597,1,8,2:1:0:0:
150,345,185682,6,0,L|160:280,1,63.7500024318696,8|8,1:0|2:1,0:0:0:0:
232,128,185850,2,0,L|240:191,1,63.7500024318696,8|8,2:1|2:1,0:0:0:0:
316,256,186019,1,10,2:3:0:0:
316,256,186356,5,0,0:0:0:0:
464,172,186524,2,0,L|379:183,1,85
292,336,187030,2,0,B|325:341|325:341|353:330,1,63.7500024318696,2|0,2:0|2:0,2:0:0:0:
316,256,187283,6,0,L|263:248,1,53.125,2|0,2:0|2:0,2:0:0:0:
88,296,187535,2,0,L|96:264,3,26.5625,2|0|0|0,2:1|2:0|2:0|2:0,2:0:0:0:
88,296,187704,1,8,2:0:0:0:
432,256,187873,1,8,2:3:0:0:
204,176,188041,5,2,3:2:0:0:
316,256,188210,1,2,3:2:0:0:
316,256,188294,1,2,2:0:0:0:
316,256,188378,1,2,2:0:0:0:
372,128,188547,2,0,L|319:138,1,53.125,8|0,2:0|2:0,0:0:0:0:
204,175,188715,6,0,P|243:120|232:48,1,140.25000428009,6|0,3:2|2:0,2:0:0:0:
234,52,189052,1,8,2:0:0:0:
72,132,189221,1,0,2:0:0:0:
59,167,189305,1,0,2:0:0:0:
61,204,189389,1,0,2:0:0:0:
76,238,189474,1,0,0:0:0:0:
102,264,189558,1,0,3:2:0:0:
316,256,189726,1,10,2:0:0:0:
200,356,189895,1,0,0:0:0:0:
200,356,189979,1,0,2:0:0:0:
200,356,190064,5,2,3:2:0:0:
204,176,190232,2,0,L|256:170,1,53.125,0|0,0:0|2:0,0:0:0:0:
316,256,190401,1,8,2:0:0:0:
448,64,190569,1,0,2:0:0:0:
448,64,190653,1,0,2:0:0:0:
448,63,190738,6,0,P|439:89|442:127,1,53.125,2|0,2:0|2:0,2:0:0:0:
428,272,190906,2,0,P|427:245|419:220,1,53.125,0|0,3:2|2:0,2:0:0:0:
348,168,191075,1,10,2:0:0:0:
152,76,191243,1,2,3:2:0:0:
152,76,191328,1,0,0:0:0:0:
152,76,191412,6,0,L|245:68,1,93.5000028533936,2|0,2:0|3:2,0:0:0:0:
72,168,191749,1,8,2:0:0:0:
264,296,191917,1,2,2:0:0:0:
226,292,192002,1,0,2:0:0:0:
189,288,192086,1,0,2:0:0:0:
152,284,192170,1,0,2:0:0:0:
115,280,192255,1,0,3:2:0:0:
348,168,192423,2,0,B|362:210|362:210|345:262,1,93.5000028533936,10|0,2:0|2:0,2:0:0:0:
248,376,192760,5,0,3:2:0:0:
256,208,192929,1,0,2:0:0:0:
420,348,193097,1,10,2:0:0:0:
420,348,193266,1,0,0:0:0:0:
357,115,193434,1,2,2:0:0:0:
357,115,193519,1,0,2:0:0:0:
357,115,193603,2,0,L|347:172,1,53.125,0|0,2:0|2:0,0:0:0:0:
432,240,193771,1,10,2:0:0:0:
136,248,193940,2,0,L|126:195,1,53.125,0|0,0:0|2:0,0:0:0:0:
136,104,194108,6,0,B|75:90|54:139|15:113|15:113|35:88|75:96,1,187.000005706787,2|8,3:2|2:0,2:0:0:0:
256,208,194614,1,2,2:0:0:0:
293,204,194698,1,0,2:0:0:0:
330,201,194783,1,0,2:0:0:0:
367,198,194867,1,0,0:0:0:0:
405,195,194951,1,0,3:2:0:0:
280,96,195120,1,8,2:0:0:0:
208,316,195288,1,2,2:0:0:0:
208,316,195373,1,0,2:0:0:0:
208,316,195457,5,0,3:2:0:0:
136,104,195625,2,0,L|187:115,1,53.125,0|0,0:0|2:0,0:0:0:0:
280,96,195794,1,8,2:0:0:0:
296,372,195962,1,2,2:0:0:0:
296,372,196047,1,0,2:0:0:0:
296,372,196131,6,0,P|306:345|303:315,1,53.125,0|0,2:0|0:0,0:0:0:0:
124,216,196299,2,0,P|121:240|131:267,1,53.125,0|0,3:2|0:0,0:0:0:0:
208,316,196468,1,10,2:0:0:0:
412,216,196637,1,0,3:2:0:0:
412,216,196721,1,0,2:0:0:0:
412,216,196805,6,0,P|372:192|326:196,1,93.5000028533936,2|0,2:0|3:2,0:0:0:0:
456,320,197142,1,8,2:0:0:0:
208,316,197311,1,2,2:0:0:0:
241,332,197395,1,0,2:0:0:0:
278,336,197479,1,0,2:0:0:0:
313,325,197564,1,0,0:0:0:0:
343,302,197648,1,0,3:2:0:0:
124,216,197816,1,10,2:0:0:0:
276,144,197985,1,2,2:0:0:0:
276,144,198069,1,0,2:0:0:0:
276,144,198153,6,0,L|268:207,1,63.75,0|0,3:2|2:0,2:0:0:0:
268,224,198491,2,0,B|226:201|226:201|179:211,1,93.5000028533936,8|0,2:0|2:0,2:0:0:0:
44,24,198828,6,0,L|51:87,1,63.75,2|0,3:2|0:0,0:0:0:0:
52,104,199165,2,0,B|94:81|94:81|141:91,1,93.5000028533936,10|0,2:0|0:0,2:0:0:0:
435,67,199502,6,0,P|369:83|313:45,1,140.25000428009,6|0,3:2|2:0,2:0:0:0:
314,45,199839,1,8,2:0:0:0:
124,207,200007,1,0,2:0:0:0:
152,183,200092,1,0,2:0:0:0:
186,170,200176,1,0,2:0:0:0:
223,169,200260,1,0,0:0:0:0:
259,181,200344,1,0,3:2:0:0:
208,276,200513,1,10,2:0:0:0:
52,104,200682,1,0,0:0:0:0:
52,104,200766,1,0,2:0:0:0:
52,104,200850,5,2,3:2:0:0:
352,144,201019,2,0,P|360:169|360:195,1,53.125,0|0,0:0|2:0,0:0:0:0:
312,284,201187,1,8,2:0:0:0:
216,48,201356,1,0,2:0:0:0:
216,48,201440,1,0,2:0:0:0:
216,48,201524,6,0,L|268:54,1,53.125,2|0,2:0|2:0,2:0:0:0:
404,137,201693,2,0,L|351:143,1,53.125,2|0,3:2|2:0,2:0:0:0:
268,204,201861,1,10,2:0:0:0:
436,352,202030,1,2,3:2:0:0:
436,352,202114,1,0,0:0:0:0:
436,352,202198,6,0,B|454:306|454:306|440:261,1,93.5000028533936,2|0,2:0|3:2,0:0:0:0:
180,144,202535,1,8,2:0:0:0:
184,272,202704,1,2,2:0:0:0:
204,301,202788,1,0,2:0:0:0:
236,320,202873,1,0,2:0:0:0:
273,325,202957,1,0,2:0:0:0:
309,315,203041,1,0,3:2:0:0:
275,110,203210,2,0,L|267:203,1,93.5000028533936,10|0,2:0|2:0,2:0:0:0:
368,44,203547,5,0,3:2:0:0:
180,144,203715,1,0,2:0:0:0:
180,144,203799,1,0,2:0:0:0:
180,144,203884,1,10,2:0:0:0:
392,196,204052,1,2,2:0:0:0:
214,315,204221,6,0,B|239:310|239:310|264:316|286:310|286:310|309:315,2,95.6250036478044,2|0|0,2:1|0:0|0:0,0:0:0:0:
148,256,204558,1,10,2:0:0:0:
399,144,204726,2,0,L|392:196,1,53.125,2|0,2:0|0:0,0:0:0:0:
496,328,204895,6,0,P|506:283|488:240,1,93.5000028533936,2|2,3:2|2:0,0:0:0:0:
336,324,205148,1,0,0:0:0:0:
336,344,205232,2,0,P|369:375|415:381,1,93.5000028533936,10|0,2:0|2:0,2:0:0:0:
408,208,205485,1,0,2:0:0:0:
391,195,205569,2,0,P|346:208|319:244,1,93.5000028533936,2|0,2:0|3:2,2:0:0:0:
220,360,205906,1,10,2:0:0:0:
100,120,206075,2,0,L|94:172,1,53.125,2|0,2:0|0:0,0:0:0:0:
24,228,206243,5,2,3:2:0:0:
220,360,206412,2,0,L|214:307,1,53.125,0|0,2:0|2:0,0:0:0:0:
280,208,206580,1,10,2:0:0:0:
91,27,206749,1,0,2:0:0:0:
91,27,206833,1,0,0:0:0:0:
91,27,206917,6,0,L|144:36,1,53.125,2|0,2:0|2:0,2:0:0:0:
188,200,207086,2,0,L|193:142,1,53.125,2|0,3:2|0:0,0:0:0:0:
276,80,207255,1,8,2:0:0:0:
432,172,207423,1,2,2:0:0:0:
432,172,207507,1,0,0:0:0:0:
432,172,207592,6,0,B|448:256|448:256|423:289,1,127.5,6|0,3:2|0:0,2:0:0:0:
336,324,207929,2,0,P|312:312|281:307,1,53.125,8|0,2:0|0:0,0:0:0:0:
178,243,208097,6,0,B|150:252|123:241|123:241|139:272|177:274|206:254|206:254|236:226|274:219|303:227,1,255,2|10,3:2|2:0,2:0:0:0:
412,316,208771,6,0,B|437:356|388:386|358:344|394:289|394:289|427:233|401:175,1,255.000009727478,2|0,3:2|2:0,0:0:0:0:
312,84,209614,2,0,L|384:72,1,63.7500024318696,2|8,2:1|2:0,0:0:0:0:
148,48,209951,2,0,L|220:36,1,63.7500024318696,10|8,2:3|2:0,0:0:0:0:
80,143,210288,6,0,L|66:269,1,127.500004863739,6|8,3:2|2:0,2:0:0:0:
152,352,210794,1,0,3:2:0:0:
92,264,210962,2,0,L|105:137,1,127.500004863739,8|10,2:1|2:0,2:0:0:0:
356,192,211468,1,0,2:0:0:0:
356,192,211552,1,0,0:0:0:0:
356,191,211637,6,0,P|305:226|244:215,1,127.500004863739,2|8,2:0|2:0,2:0:0:0:
176,96,212142,1,0,3:2:0:0:
292,32,212311,2,0,L|282:95,1,63.7500024318696,10|2,2:1|2:0,0:0:0:0:
356,192,212564,1,2,2:0:0:0:
376,180,212648,2,0,L|385:116,1,63.7500024318696,10|2,2:0|2:0,0:0:0:0:
260,220,212985,6,0,B|196:236|196:200|135:219,1,127.500004863739,2|8,3:2|2:0,2:0:0:0:
72,324,213491,1,2,3:2:0:0:
148,244,213659,2,0,B|209:225|209:261|273:245,1,127.500004863739,8|10,2:1|2:0,2:0:0:0:
464,288,214165,1,0,2:0:0:0:
464,288,214249,1,2,2:0:0:0:
464,288,214333,6,0,L|448:368,1,63.7500024318696,2|0,2:0|0:0,0:0:0:0:
368,196,214670,2,0,L|380:133,1,63.7500024318696,8|0,3:2|0:0,2:0:0:0:
444,40,214923,1,0,0:0:0:0:
428,28,215007,2,0,L|366:44,1,63.7500024318696,10|0,2:1|0:0,0:0:0:0:
232,80,215344,2,0,L|173:54,1,63.7500024318696,8|0,2:0|2:0,0:0:0:0:
80,119,215682,6,0,L|61:246,1,127.500004863739,2|8,3:2|2:0,2:0:0:0:
136,360,216187,1,2,3:2:0:0:
76,260,216356,2,0,L|94:133,1,127.500004863739,8|10,2:1|2:0,2:0:0:0:
232,80,216861,1,2,2:0:0:0:
232,80,216946,1,0,0:0:0:0:
232,80,217030,6,0,L|294:67,1,63.7500024318696
424,272,217367,2,0,L|361:259,1,63.7500024318696,0|0,3:2|2:0,0:0:0:0:
468,140,217620,1,0,0:0:0:0:
487,147,217704,2,0,P|502:176|502:207,1,63.7500024318696,10|0,2:1|2:0,2:0:0:0:
430,335,218041,2,0,L|423:271,1,63.7500024318696,10|0,2:0|2:0,2:0:0:0:
272,176,218378,6,0,B|288:236|252:236|268:301,1,127.500004863739,2|8,3:2|2:0,2:0:0:0:
336,376,218884,1,0,3:2:0:0:
248,312,219052,2,0,B|231:246|267:246|251:186,1,127.500004863739,8|10,2:1|2:0,2:0:0:0:
76,172,219558,1,2,2:0:0:0:
76,172,219642,1,0,2:0:0:0:
76,172,219726,6,0,L|148:184,1,63.7500024318696,0|0,2:0|0:0,2:0:0:0:
276,32,220064,2,0,L|213:42,1,63.7500024318696,0|0,3:2|2:0,0:0:0:0:
248,156,220401,6,0,L|306:168,2,53.125,2|0|0,2:0|2:0|3:2,2:0:0:0:
192,248,220738,2,0,L|241:286,2,53.125,10|0|0,2:0|2:0|2:0,2:0:0:0:
412,144,221075,6,0,B|431:205|395:205|411:269,1,127.500004863739,6|8,2:0|2:0,2:0:0:0:
332,352,221580,1,0,3:2:0:0:
388,252,221749,2,0,B|372:188|408:188|389:127,1,127.500004863739,8|10,2:1|2:0,2:0:0:0:
188,72,222255,1,0,2:0:0:0:
188,72,222339,1,0,0:0:0:0:
188,72,222423,6,0,L|311:41,1,127.500004863739,2|8,2:0|2:0,2:0:0:0:
168,180,222929,1,0,3:2:0:0:
60,132,223097,2,0,L|67:64,1,63.7500024318696,8|2,2:1|2:0,0:0:0:0:
64,324,223434,2,0,L|71:256,1,63.7500024318696,10|2,2:0|2:0,0:0:0:0:
293,184,223771,6,0,B|233:200|233:164|167:180,1,127.500004863739,2|8,3:2|2:0,2:0:0:0:
56,240,224277,1,2,3:2:0:0:
176,204,224446,2,0,B|241:187|241:223|301:207,1,127.500004863739,8|10,2:1|2:0,2:0:0:0:
448,184,224951,1,0,2:0:0:0:
448,184,225035,1,0,0:0:0:0:
448,184,225120,6,0,L|456:251,1,63.7500024318696,0|0,2:0|2:0,2:0:0:0:
336,352,225457,2,0,L|346:279,1,63.7500024318696,8|0,3:2|2:0,0:0:0:0:
256,164,225794,6,0,P|298:171|346:152,2,79.6875,2|0|0,2:1|0:0|0:0,2:0:0:0:
188,104,226131,2,0,L|116:92,1,63.7500024318696,10|2,2:0|2:0,0:0:0:0:
48,296,226468,6,0,L|174:282,1,127.500004863739,2|10,3:2|2:0,0:0:0:0:
280,336,226974,1,0,3:2:0:0:
184,264,227142,2,0,L|57:277,1,127.500004863739,2|10,2:0|2:0,2:0:0:0:
20,160,227648,6,0,L|29:97,1,63.7500024318696,2|2,2:0|2:0,0:0:0:0:
192,20,227985,1,0,3:2:0:0:
280,80,228153,2,0,L|289:142,1,63.7500024318696,10|0,2:0|2:0,2:0:0:0:
323,271,228491,2,0,P|319:307|306:335,1,63.7500024318696,2|2,3:2|2:0,2:0:0:0:
400,196,228828,2,0,P|432:182|463:180,1,63.7500024318696,10|2,2:0|2:0,0:0:0:0:
220,279,229165,6,0,P|156:289|103:256,1,127.500004863739,2|8,3:2|2:0,2:0:0:0:
256,80,229670,2,0,P|295:130|294:192,1,127.500004863739,2|0,3:2|2:0,2:0:0:0:
180,168,230176,2,0,L|92:152,1,63.7500024318696,8|2,2:0|2:0,0:0:0:0:
292,220,230513,1,0,3:2:0:0:
488,168,230850,5,8,2:0:0:0:
300,240,231019,1,0,0:0:0:0:
348,148,231187,1,10,2:3:0:0:
484,192,231356,1,10,2:0:0:0:
192,188,231524,1,10,2:3:0:0:
408,256,231693,1,8,2:0:0:0:
304,344,231861,5,4,2:0:0:0:
256,192,231946,12,0,234558,0:0:0:0:
116,112,241974,5,2,2:0:0:0:
116,112,242058,1,0,2:0:0:0:
116,112,242142,1,2,2:0:0:0:
116,112,242226,1,0,2:0:0:0:
116,112,242311,1,2,2:0:0:0:
116,112,242395,1,2,2:0:0:0:
116,112,242479,1,2,2:0:0:0:
116,112,242564,1,2,2:0:0:0:
116,112,242648,6,0,L|243:104,1,127.500004863739,2|8,3:2|2:0,2:0:0:0:
352,184,243153,1,0,3:2:0:0:
256,124,243322,2,0,L|128:131,1,127.500004863739,8|8,2:1|2:0,2:0:0:0:
56,312,243828,6,0,B|43:271|43:271|59:231,1,85,2|0,2:0|0:0,2:0:0:0:
256,124,244165,1,0,2:0:0:0:
256,124,244249,1,0,0:0:0:0:
256,124,244333,1,10,2:0:0:0:
284,260,244502,1,0,3:2:0:0:
152,188,244670,2,0,L|166:61,1,127.500004863739,8|8,2:1|2:0,2:0:0:0:
288,20,245176,1,0,0:0:0:0:
480,112,245344,6,0,B|416:128|416:92|355:111,1,127.500004863739,2|8,3:2|2:0,2:0:0:0:
234,90,245850,1,0,3:2:0:0:
342,129,246019,2,0,B|403:110|403:146|467:130,1,127.500004863739,8|8,2:1|2:0,2:0:0:0:
368,272,246524,6,0,L|283:261,1,85,2|0,2:0|0:0,2:0:0:0:
96,216,246861,1,0,2:0:0:0:
96,216,246946,1,0,0:0:0:0:
96,216,247030,2,0,L|158:205,1,63.7500024318696,8|2,3:2|2:0,0:0:0:0:
342,129,247367,2,0,P|296:87|234:90,1,127.500004863739,8|8,2:1|2:0,2:0:0:0:
96,216,247873,1,0,2:0:0:0:
96,216,247957,1,0,0:0:0:0:
96,216,248041,6,0,B|80:152|116:152|97:91,1,127.500004863739,2|8,2:0|2:0,2:0:0:0:
180,8,248547,1,0,3:2:0:0:
112,76,248715,2,0,B|131:137|95:137|111:201,1,127.500004863739,8|8,2:1|2:0,2:0:0:0:
208,280,249221,6,0,P|248:269|288:282,1,85,2|0,2:0|0:0,2:0:0:0:
432,156,249558,1,2,2:0:0:0:
432,156,249642,1,0,0:0:0:0:
432,156,249726,2,0,P|404:173|390:203,1,63.7500024318696,2|2,3:2|2:0,0:0:0:0:
492,348,250064,2,0,P|448:303|383:298,1,127.500004863739,8|8,2:1|2:0,2:0:0:0:
288,356,250569,1,0,2:0:0:0:
148,204,250738,6,0,L|275:196,1,127.500004863739,2|8,3:2|2:0,2:0:0:0:
388,248,251243,1,0,3:2:0:0:
288,180,251412,2,0,L|160:187,1,127.500004863739,8|8,2:1|2:0,0:0:0:0:
40,112,251917,6,0,B|22:150|22:150|33:191,1,85,2|0,2:0|0:0,2:0:0:0:
136,356,252255,1,0,2:0:0:0:
136,356,252339,1,0,0:0:0:0:
136,356,252423,2,0,B|118:318|118:318|129:276,1,85,8|0,3:2|2:0,2:0:0:0:
216,72,252760,6,0,B|256:106|256:106|261:52,1,106.25,10|0,2:3|3:2,2:0:0:0:
448,248,253097,2,0,B|453:194|453:194|493:228,1,106.25,10|0,2:3|2:0,2:0:0:0:
356,196,253434,6,0,L|228:202,1,127.500004863739,0|2,3:2|2:0,2:0:0:0:
172,304,253940,1,2,3:2:0:0:
216,184,254108,2,0,L|343:177,1,127.500004863739,10|0,2:1|2:0,0:0:0:0:
120,56,254614,6,0,B|156:136|88:136|118:220,1,170,2|0,2:0|2:0,2:0:0:0:
149,360,255120,2,0,P|167:334|171:303,1,63.7500024318696,2|0,3:2|0:0,2:0:0:0:
32,96,255457,2,0,L|0:89,3,31.8750012159348,10|0|0|0,2:1|2:0|2:0|2:0,2:0:0:0:
216,184,255794,2,0,L|247:177,3,31.8750012159348,2|0|0|0,2:0|2:0|2:0|2:0,2:0:0:0:
144,104,256131,6,0,P|110:137|105:183,1,95.6250036478044,0|0,3:2|2:0,2:0:0:0:
120,197,256468,1,2,2:0:0:0:
84,300,256637,1,2,3:2:0:0:
136,84,256805,2,0,P|186:48|248:57,1,127.500004863739,10|0,2:1|2:0,0:0:0:0:
428,184,257311,6,0,B|369:169|369:169|322:190|322:190|266:176,1,170,2|0,2:0|2:0,2:0:0:0:
120,197,257816,2,0,B|126:260,1,63.7500024318696,2|0,3:2|0:0,2:0:0:0:
363,324,258153,6,0,B|381:301|384:268|384:268|391:288|411:303,1,106.25,10|0,2:3|3:2,2:0:0:0:
280,60,258491,2,0,B|300:75|307:95|307:95|310:62|328:39,1,106.25,10|0,2:3|2:0,2:0:0:0:
264,247,258828,6,0,P|220:291|158:288,1,127.500004863739,6|0,3:2|2:0,2:0:0:0:
40,184,259333,1,0,3:2:0:0:
152,272,259502,2,0,P|167:271|199:260,7,42.5,10|0|0|0|2|0|0|0,2:1|2:0|2:0|2:0|2:0|2:0|2:0|2:0,2:0:0:0:
216,172,260176,6,0,L|228:45,1,127.500004863739,2|0,3:2|3:2,2:0:0:0:
352,20,260682,1,0,2:0:0:0:
248,44,260850,2,0,L|253:86,7,42.5,10|0|0|0|2|0|0|0,2:1|2:0|2:0|2:0|2:0|2:0|2:0|2:0,0:0:0:0:
318,170,261524,6,0,P|344:189|375:194,1,63.7500024318696,2|0,3:2|2:0,2:0:0:0:
448,164,261777,1,0,2:0:0:0:
448,164,261861,1,0,2:0:0:0:
496,56,262030,1,0,3:2:0:0:
448,164,262198,2,0,P|430:177|410:183,7,42.5,10|0|0|0|2|0|0|0,2:1|2:0|2:0|2:0|2:0|2:0|2:0|2:0,0:0:0:0:
319,171,262873,6,0,P|265:139|203:150,1,127.500004863739,2|0,3:2|3:0,2:0:0:0:
112,288,263378,1,0,2:0:0:0:
220,336,263547,6,0,B|237:308|239:281|239:281|256:292|270:316,1,106.25,10|0,2:3|3:2,2:0:0:0:
80,88,263884,2,0,B|63:116|61:143|61:143|44:132|29:107,1,106.25,10|2,2:3|3:2,2:0:0:0:
61,298,264221,6,0,L|111:287,1,50.9999984436036,4|0,3:2|2:0,2:0:0:0:
360,44,264558,2,0,L|409:54,1,50.9999984436036,0|0,3:2|2:0,2:0:0:0:
65,214,264895,6,0,L|123:201,1,59.4999981842042,2|0,3:2|2:0,2:0:0:0:
376,132,265232,6,0,L|434:144,1,59.4999981842042,0|0,3:2|2:0,2:0:0:0:
68,129,265569,6,0,L|135:115,1,68,4|0,3:2|2:0,2:0:0:0:
392,220,265906,2,0,L|458:234,1,68,0|0,3:2|2:0,2:0:0:0:
72,46,266243,6,0,L|147:29,1,76.4999976654053,2|0,3:2|2:0,2:0:0:0:
408,308,266580,2,0,L|482:324,1,76.4999976654053,0|0,3:2|2:0,2:0:0:0:
232,360,266917,6,0,P|244:330|244:299,1,63.7500024318696,4|0,3:2|0:0,0:0:0:0:
120,232,267086,2,0,L|57:245,1,63.7500024318696,0|0,3:2|0:0,0:0:0:0:
280,284,267255,6,0,P|267:254|267:223,1,63.7500024318696,0|0,3:2|0:0,0:0:0:0:
392,160,267423,2,0,L|455:162,1,63.7500024318696,0|0,3:2|0:0,0:0:0:0:
236,208,267592,6,0,P|248:178|248:147,1,63.7500024318696,4|0,3:2|0:0,0:0:0:0:
104,80,267760,2,0,L|40:71,1,63.7500024318696,0|0,3:2|0:0,0:0:0:0:
268,136,267929,6,0,P|255:106|255:75,1,63.7500024318696,0|0,3:2|0:0,0:0:0:0:
380,20,268097,2,0,L|440:0,1,63.7500024318696,0|0,3:2|0:0,0:0:0:0:
436,252,268266,5,0,3:2:0:0:
399,262,268350,1,0,3:2:0:0:
362,255,268434,1,0,3:2:0:0:
331,233,268519,1,0,3:2:0:0:
268,136,268603,5,0,3:2:0:0:
231,126,268687,1,0,3:2:0:0:
194,133,268771,1,0,3:2:0:0:
162,155,268856,1,0,3:2:0:0:
144,188,268940,6,0,B|136:216|145:248|145:248|128:228|107:223,1,106.25,10|0,3:0|3:2,2:0:0:0:
392,160,269277,2,0,B|400:132|390:99|390:99|408:120|429:125,1,106.25,10|0,3:0|2:0,2:0:0:0:
436,252,269614,1,6,2:0:0:0:
228,228,269783,6,0,B|262:194|337:206|345:261|345:261|325:246|293:244,1,191.250007295609
248,380,270120,2,0,L|244:316,1,63.7500024318696,0|0,3:2|0:0,0:0:0:0:
162,155,270288,6,0,P|120:201|129:266,1,127.500004863739,10|0,2:1|2:0,2:0:0:0:
64,108,270541,2,0,P|50:55|3:29,1,110.499994941712,2|0,3:1|2:0,2:0:0:0:
160,52,270794,2,0,P|211:66|254:44,1,93.5000028533936,10|2,2:1|2:0,0:0:0:0:
368,24,271131,6,0,P|373:47|371:70,1,46.7500014266968,8|0,2:0|0:0,0:0:0:0:
280,228,271299,1,0,3:2:0:0:
465,216,271468,1,0,3:2:0:0:
280,228,271637,6,2,B|339:224|339:224|360:216|375:207|375:207|390:216|412:220|412:220|464:216,1,191.250007295609,2|8,3:1|2:0,1:0:0:0:
440,320,271974,2,2,B|404:324|378:319|378:319|348:328|313:327,1,127.500004863739,2|8,2:1|2:0,1:0:0:0:
184,180,272311,5,2,2:0:0:0:
188,352,272479,2,0,P|187:320|200:291,1,63.7500024318696,0|0,3:0|0:0,0:0:0:0:
280,228,272648,1,8,2:0:0:0:
171,119,272816,2,0,P|170:150|183:179,1,63.7500024318696,0|0,3:2|2:0,2:0:0:0:
285,127,272985,6,0,B|337:111|359:148|411:131,1,127.500004863739,8|0,2:0|0:0,2:0:0:0:
200,32,273238,2,0,B|155:20|132:49|78:31,1,110.499994941712,0|2,3:2|2:0,0:0:0:0:
320,32,273491,2,0,P|339:19|365:14,1,46.7500014266968,10|2,2:0|2:0,0:0:0:0:
468,76,273659,6,0,P|470:97|467:118,1,42.5000016212464,2|0,3:1|2:0,2:0:0:0:
500,124,273771,6,0,P|482:136|463:144,1,42.5000016212464,0|2,2:0|2:1,0:0:0:0:
492,180,273884,6,0,P|471:176|451:168,1,42.5000016212464,0|0,2:0|2:0,0:0:0:0:
456,220,273996,6,0,P|443:202|435:183,1,42.5000016212464,2|0,2:3|0:0,0:0:0:0:
392,217,274108,6,0,B|385:185|405:157|405:157|411:177,1,85.0000032424928,2|2,3:2|2:0,0:0:0:0:
440,316,274333,6,0,B|412:331|381:326|381:326|394:346|415:354,1,106.25,2|0,2:1|3:0,2:0:0:0:
52,192,274670,2,0,B|80:207|111:202|111:202|98:222|76:230,1,106.25,2|8,2:1|2:3,2:0:0:0:
76,230,275007,1,6,2:0:0:0:
248,276,275176,6,0,B|287:238|285:177|245:150|245:150|235:196,1,191.250007295609
188,336,275513,2,0,P|213:354|244:360,1,63.7500024318696,0|0,3:2|0:0,0:0:0:0:
385,292,275682,6,0,B|461:280|461:280|496:315,1,127.500004863739,10|0,2:1|2:0,2:0:0:0:
404,184,275934,2,0,B|361:128|361:128|371:89,1,110.499994941712,2|0,3:1|2:0,2:0:0:0:
304,210,276187,2,0,B|279:265|279:265|247:275,1,93.5000028533936,10|2,2:1|2:0,0:0:0:0:
44,80,276524,6,0,L|91:86,1,46.7500014266968,8|0,2:0|0:0,0:0:0:0:
221,13,276693,1,0,3:2:0:0:
213,197,276861,1,0,3:2:0:0:
221,13,277030,6,2,B|231:76|231:76|204:129|204:129|213:203,1,191.250007295609,2|8,3:1|2:0,1:0:0:0:
308,156,277367,2,2,B|313:121|338:99|338:99|324:68|324:38,1,127.500004863739,2|8,2:1|2:0,1:0:0:0:
384,328,277704,5,2,2:0:0:0:
204,304,277873,2,0,P|230:287|266:285,1,63.7500024318696,0|0,3:2|0:0,0:0:0:0:
383,328,278041,1,8,2:0:0:0:
432,164,278210,2,0,P|403:178|383:203,1,63.7500024318696,2|2,2:0|2:0,0:0:0:0:
383,328,278378,6,0,P|416:278|377:233,1,127.500004863739,2|0,2:0|2:0,2:0:0:0:
230,194,278631,2,0,P|281:200|307:155,1,110.499994941712,10|0,2:0|2:0,0:0:0:0:
140,116,278884,2,0,P|103:82|57:92,1,93.5000028533936,2|2,3:2|2:0,2:0:0:0:
92,216,279165,5,0,3:2:0:0:
125,222,279277,1,0,3:2:0:0:
240,92,279389,5,14,2:3:0:0:
286,82,279502,1,0,3:2:0:0:
276,252,279614,5,6,2:3:0:0:
336,263,279726,1,0,3:2:0:0:
388,56,279839,5,6,2:3:0:0:
461,41,279951,1,0,3:2:0:0:
471,182,280064,6,0,B|453:246|507:271|471:326|471:326|443:300|457:264,1,212.5,6|6,2:3|2:0,0:0:0:0:
260,160,280569,6,0,P|203:150|197:207,1,127.500004863739,0|8,0:0|2:0,0:0:0:0:
352,192,280906,2,0,P|361:163|353:123,1,63.7500024318696,0|0,3:2|0:0,0:0:0:0:
241,49,281075,6,0,P|223:109|258:159,1,127.500004863739,10|0,2:1|2:0,2:0:0:0:
216,272,281328,2,0,P|173:227|118:233,1,110.499994941712,2|0,3:1|2:0,2:0:0:0:
48,144,281580,2,0,P|93:138|125:105,1,93.5000028533936,10|2,2:1|2:0,0:0:0:0:
320,72,281917,6,0,P|327:93|326:123,1,46.7500014266968,8|0,2:0|0:0,0:0:0:0:
216,272,282086,1,0,2:0:0:0:
393,254,282255,1,0,2:0:0:0:
215,271,282423,6,2,B|261:281|261:281|305:258|305:258|352:272|352:272|393:254,1,191.250007295609,2|8,3:1|2:0,1:0:0:0:
373,369,282760,2,2,B|342:368|312:350|312:350|289:372|257:381,1,127.500004863739,2|8,2:1|2:0,1:0:0:0:
72,192,283097,5,2,2:0:0:0:
108,368,283266,2,0,L|119:305,1,63.7500024318696,0|0,3:2|0:0,0:0:0:0:
72,192,283434,1,8,2:0:0:0:
248,84,283603,2,0,L|259:146,1,63.7500024318696,0|0,3:2|2:0,2:0:0:0:
204,240,283771,6,0,B|237:230|237:230|269:236|269:236|295:224|295:224|326:227,1,127.500004863739,8|0,2:0|0:0,0:0:0:0:
456,144,284024,2,0,B|429:134|429:134|402:139|402:139|374:127|374:127|350:129,1,110.499994941712,2|0,3:2|0:0,0:0:0:0:
232,60,284277,2,0,L|277:51,1,46.7500014266968,8|0,2:0|0:0,0:0:0:0:
116,108,284446,6,0,P|89:96|62:95,1,55.2499974708558,0|2,3:2|2:0,2:0:0:0:
72,192,284614,1,2,2:0:0:0:
72,192,284698,1,0,3:0:0:0:
72,192,284783,2,0,L|68:247,1,55.2499974708558,8|2,2:0|2:0,2:0:0:0:
200,295,284951,2,0,L|203:239,1,55.2499974708558,0|2,3:2|2:0,2:0:0:0:
280,148,285120,6,0,L|342:133,1,63.7500024318696,2|2,2:1|2:0,2:0:0:0:
232,60,285288,2,0,L|316:40,1,63.7500024318696,2|10,2:0|2:1,0:0:0:0:
456,112,285457,5,2,2:1:0:0:
470,192,285569,5,0,2:0:0:0:
412,249,285681,5,0,2:0:0:0:
332,231,285794,5,6,3:2:0:0:
112,152,285962,6,0,B|146:176|193:175|232:152|232:152|199:169|188:204,1,191.250007295609
200,295,286299,2,0,L|193:231,1,63.7500024318696,0|0,2:0|0:0,0:0:0:0:
232,60,286468,6,0,B|286:52|313:92|313:92|314:127,1,127.500004863739,10|0,2:1|2:0,2:0:0:0:
484,24,286721,2,0,B|472:66|426:76|426:76|398:59,1,110.499994941712,2|0,3:1|2:0,2:0:0:0:
412,249,286974,2,0,B|385:217|392:183|392:183|409:169,1,93.5000028533936,10|2,2:1|2:0,0:0:0:0:
72,220,287311,6,0,L|136:228,1,46.7500014266968,8|0,2:0|0:0,0:0:0:0:
224,324,287479,1,0,3:0:0:0:
242,142,287648,1,0,3:2:0:0:
224,324,287816,6,2,B|220:292|230:268|230:268|227:246|217:228|217:228|238:193|238:193|244:170|242:142,1,191.250007295609,2|8,3:1|2:0,1:0:0:0:
340,180,288153,2,2,B|337:220|319:239|319:239|331:266|323:303,1,127.500004863739,2|8,2:1|2:0,1:0:0:0:
460,140,288491,5,2,2:0:0:0:
488,296,288659,2,0,P|504:269|505:230,1,63.7500024318696,0|0,3:2|0:0,0:0:0:0:
460,140,288828,1,8,2:0:0:0:
336,24,288996,2,0,P|338:55|354:82,1,63.7500024318696,0|0,3:2|0:0,0:0:0:0:
340,180,289165,6,0,B|269:159|269:159|276:211,1,127.500004863739,8|0,3:2|2:0,2:0:0:0:
192,280,289417,2,0,B|180:204|180:204|160:231,1,110.499994941712,0|0,3:2|0:0,0:0:0:0:
72,248,289670,2,0,L|16:240,1,46.7500014266968,8|0,2:0|0:0,0:0:0:0:
4,124,289839,5,2,3:2:0:0:
28,65,289923,1,0,3:2:0:0:
88,45,290007,1,0,3:2:0:0:
143,77,290091,1,0,3:2:0:0:
224,168,290176,5,2,3:2:0:0:
222,140,290260,1,0,3:2:0:0:
233,114,290344,1,0,3:2:0:0:
255,97,290429,1,0,3:2:0:0:
339,179,290513,5,2,3:2:0:0:
405,210,290597,1,0,3:2:0:0:
470,179,290682,1,0,3:2:0:0:
487,109,290766,1,0,3:2:0:0:
443,51,290850,1,10,2:0:0:0:
403,127,291187,6,0,L|408:254,1,127.5,6|0,3:2|0:0,2:0:0:0:
409,255,291524,1,10,2:0:0:0:
292,328,291693,1,0,2:0:0:0:
292,328,291777,1,0,2:0:0:0:
292,328,291861,2,0,L|244:326,1,42.5,2|0,2:0|0:0,2:0:0:0:
192,248,292030,1,0,3:2:0:0:
388,352,292198,1,8,2:0:0:0:
148,356,292367,1,2,2:0:0:0:
148,356,292451,1,0,2:0:0:0:
148,356,292535,5,0,3:2:0:0:
160,152,292704,1,0,0:0:0:0:
160,152,292788,1,0,2:0:0:0:
160,152,292873,2,0,P|201:144|239:162,1,85,10|0,2:0|2:0,2:0:0:0:
292,328,293210,1,2,2:0:0:0:
292,328,293294,1,0,0:0:0:0:
292,328,293378,2,0,L|298:285,1,42.5,0|0,3:2|0:0,0:0:0:0:
376,244,293547,1,10,2:0:0:0:
400,120,293715,6,0,P|338:111|287:147,1,127.5,2|0,3:2|0:0,2:0:0:0:
287,147,294052,1,0,3:2:0:0:
132,248,294221,1,8,2:0:0:0:
46,194,294389,1,0,2:0:0:0:
65,166,294474,1,0,2:0:0:0:
94,149,294558,1,2,2:0:0:0:
128,144,294642,1,0,0:0:0:0:
160,152,294726,1,0,3:2:0:0:
240,256,294895,1,10,2:0:0:0:
248,64,295064,2,0,L|206:56,1,42.5,2|0,2:0|2:0,0:0:0:0:
350,65,295232,6,0,B|347:101|327:123|327:123|349:148|354:189,1,127.5,0|0,3:2|2:0,2:0:0:0:
353,181,295569,1,10,2:0:0:0:
484,132,295738,1,0,2:0:0:0:
484,132,295822,1,0,2:0:0:0:
484,132,295906,2,0,L|441:127,1,42.5,2|0,2:0|0:0,2:0:0:0:
353,181,296075,1,0,3:2:0:0:
464,272,296243,1,10,2:0:0:0:
304,340,296412,1,0,2:0:0:0:
304,340,296496,1,0,2:0:0:0:
304,340,296580,6,0,P|242:287|161:299,1,170,2|8,3:2|2:0,2:0:0:0:
128,96,297086,1,2,2:0:0:0:
145,124,297170,1,0,2:0:0:0:
172,144,297254,1,0,2:0:0:0:
206,150,297338,1,0,0:0:0:0:
238,143,297423,1,0,3:2:0:0:
60,192,297592,1,10,2:0:0:0:
212,56,297760,1,2,2:0:0:0:
212,56,297844,1,0,2:0:0:0:
212,56,297929,5,0,3:2:0:0:
332,180,298097,1,0,2:0:0:0:
332,180,298182,1,0,0:0:0:0:
332,180,298266,2,0,B|345:138|345:138|333:98,1,85,10|0,2:0|2:0,2:0:0:0:
60,192,298603,1,0,2:0:0:0:
60,192,298687,1,0,0:0:0:0:
60,192,298771,2,0,L|68:144,1,42.5,0|0,3:2|0:0,0:0:0:0:
128,96,298940,1,8,2:0:0:0:
176,296,299108,6,0,B|120:282|120:282|71:310|71:310|15:297,1,170,2|0,3:2|3:2,0:0:0:0:
196,200,299614,1,8,2:0:0:0:
54,57,299783,1,0,2:0:0:0:
55,90,299867,1,0,2:0:0:0:
57,124,299951,1,2,2:0:0:0:
58,158,300035,1,0,0:0:0:0:
60,192,300120,1,0,3:2:0:0:
224,120,300288,2,0,P|240:76|165:38,1,127.5,8|0,2:0|0:0,2:0:0:0:
203,136,300625,6,0,L|196:199,1,63.75,0|0,3:2|2:0,2:0:0:0:
195,199,300962,2,0,B|235:194|235:194|264:205|264:205|298:199,1,106.25,2|0,2:1|2:0,2:0:0:0:
368,288,301299,5,2,3:2:0:0:
144,296,301468,1,2,3:2:0:0:
252,360,301637,1,2,2:0:0:0:
253,333,301721,1,2,2:0:0:0:
254,306,301805,1,2,2:0:0:0:
255,280,301889,1,2,2:0:0:0:
257,253,301974,1,4,2:0:0:0:
400,44,302311,5,10,2:0:0:0:
448,144,302479,1,2,2:0:0:0:
324,160,302648,2,0,L|196:149,1,127.500004863739,2|10,2:0|2:0,2:0:0:0:
72,136,303153,1,2,2:0:0:0:
72,136,303238,1,0,2:0:0:0:
72,136,303322,6,0,L|80:204,1,63.7500024318696,0|0,2:0|2:0,2:0:0:0:
168,332,303659,2,0,L|175:268,1,63.7500024318696,10|0,2:0|2:0,2:0:0:0:
264,208,303912,1,0,0:0:0:0:
271,227,303996,2,0,P|304:244|330:243,1,63.7500024318696,2|0,2:0|2:0,2:0:0:0:
268,108,304333,1,10,2:0:0:0:
160,180,304502,1,2,2:0:0:0:
347,228,304670,6,0,P|400:190|470:204,1,127.500004863739,0|8,2:0|2:0,2:0:0:0:
488,56,305176,1,0,0:0:0:0:
488,56,305260,1,0,0:0:0:0:
488,56,305344,2,0,P|456:72|424:76,1,63.7500024318696,0|0,2:0|0:0,0:0:0:0:
304,16,305682,1,10,2:0:0:0:
400,60,305850,6,0,L|416:196,1,127.500004863739,2|0,2:0|2:0,0:0:0:0:
368,348,306356,1,8,2:0:0:0:
248,304,306524,1,0,2:0:0:0:
248,304,306608,1,0,0:0:0:0:
248,304,306693,6,0,P|211:288|172:291,2,79.6875,2|0|0,2:1|0:0|0:0,2:0:0:0:
316,240,307030,2,0,P|299:212|294:181,1,63.7500024318696,0|0,2:0|2:0,2:0:0:0:
344,32,307367,6,0,P|285:51|220:4,1,127.500004863739,2|8,2:0|2:0,2:0:0:0:
136,96,307873,1,2,2:0:0:0:
136,96,307957,1,0,2:0:0:0:
136,96,308041,2,0,P|104:91|74:101,1,63.7500024318696,0|0,2:0|2:0,2:0:0:0:
8,228,308378,1,10,2:0:0:0:
112,204,308547,6,0,L|92:356,1,127.500004863739,2|0,2:0|0:0,0:0:0:0:
220,288,309052,2,0,L|296:272,1,63.7500024318696,8|0,2:0|0:0,0:0:0:0:
384,244,309305,1,0,0:0:0:0:
395,228,309389,2,0,P|403:197|401:165,1,63.7500024318696,2|0,2:0|2:0,2:0:0:0:
252,36,309726,2,0,P|249:67|258:98,1,63.7500024318696,10|0,2:0|2:0,2:0:0:0:
332,60,310064,6,0,L|205:44,1,127.500004863739,2|8,2:0|2:0,2:0:0:0:
96,104,310569,1,2,2:0:0:0:
96,104,310653,1,0,2:0:0:0:
96,104,310738,2,0,L|112:176,1,63.7500024318696,0|0,2:0|2:0,2:0:0:0:
160,312,311075,1,8,2:0:0:0:
228,232,311243,6,0,P|276:204|360:216,1,127.500004863739,2|0,2:0|0:0,0:0:0:0:
504,100,311749,2,0,P|505:131|495:161,1,63.7500024318696,2|0,2:0|2:0,2:0:0:0:
496,368,312086,2,0,P|459:347|438:311,1,85,2|0,2:0|2:0,0:0:0:0:
436,228,312592,1,2,2:0:0:0:
352,116,312929,6,0,L|300:102,1,53.125,2|0,2:0|0:0,2:0:0:0:
204,292,313182,2,0,L|152:305,1,53.125,2|0,2:0|0:0,2:0:0:0:
84,176,313434,6,2,P|136:148|204:176,1,106.25,2|0,2:0|0:0,2:0:0:0:
252,200,313687,2,0,B|280:232|329:241|366:214|366:214|334:203,1,159.375006079674,0|0,2:0|3:2,0:0:0:0:
334,203,314193,1,0,0:0:0:0:
334,203,314277,6,0,L|342:255,1,53.125,2|2,2:0|2:0,0:0:0:0:
468,240,314446,2,0,L|460:292,1,53.125,2|0,2:0|2:0,2:0:0:0:
404,120,314614,1,2,2:0:0:0:
400,108,314698,1,2,2:0:0:0:
396,96,314783,6,0,P|338:72|280:95,1,127.5,2|0,2:0|2:0,2:0:0:0:
220,159,315120,2,2,P|176:176|129:166,1,95.6250036478044,2|0,2:0|2:0,1:2:0:0:
168,100,315457,6,0,L|155:239,1,140.25000428009,6|0,3:2|2:0,2:0:0:0:
155,239,315794,1,8,2:0:0:0:
384,344,315962,1,0,2:0:0:0:
413,322,316047,1,0,2:0:0:0:
432,290,316131,1,0,2:0:0:0:
436,253,316215,1,0,0:0:0:0:
425,217,316299,1,0,3:2:0:0:
268,332,316468,1,10,2:0:0:0:
320,200,316637,2,0,L|325:252,1,53.125,0|0,0:0|2:0,0:0:0:0:
380,132,316805,5,2,3:2:0:0:
168,100,316974,1,0,0:0:0:0:
168,100,317058,1,0,2:0:0:0:
168,100,317142,1,8,2:0:0:0:
356,44,317311,1,0,2:0:0:0:
356,44,317395,1,0,2:0:0:0:
356,44,317479,6,0,L|292:52,1,53.125,2|0,2:0|2:0,2:0:0:0:
148,192,317648,2,0,L|212:200,1,53.125,0|0,3:2|2:0,2:0:0:0:
319,200,317816,1,10,2:0:0:0:
392,320,317985,1,2,3:2:0:0:
392,320,318069,1,0,0:0:0:0:
392,320,318153,6,0,P|351:341|305:337,1,93.5000028533936,2|0,2:0|3:2,0:0:0:0:
448,212,318491,1,8,2:0:0:0:
170,212,318659,1,2,2:0:0:0:
207,209,318743,1,0,2:0:0:0:
244,206,318828,1,0,2:0:0:0:
281,203,318912,1,0,2:0:0:0:
319,200,318996,1,0,3:2:0:0:
388,16,319165,2,0,P|362:54|364:100,1,93.5000028533936,10|0,2:0|2:0,2:0:0:0:
252,56,319502,5,0,3:2:0:0:
448,212,319670,1,0,2:0:0:0:
476,84,319839,1,10,2:0:0:0:
476,84,320007,1,0,0:0:0:0:
314,252,320176,1,2,2:0:0:0:
314,252,320260,1,0,2:0:0:0:
314,252,320344,2,0,L|320:185,1,53.125,0|0,2:0|2:0,0:0:0:0:
384,132,320513,1,10,2:0:0:0:
104,76,320682,2,0,P|130:85|164:81,1,53.125,0|0,0:0|2:0,0:0:0:0:
252,56,320850,6,0,B|270:109|226:150|226:150|204:190|221:229,1,187.000005706787,2|8,3:2|2:0,2:0:0:0:
429,313,321356,1,2,2:0:0:0:
414,278,321440,1,0,2:0:0:0:
386,254,321524,1,0,2:0:0:0:
350,245,321608,1,0,0:0:0:0:
314,252,321693,1,0,3:2:0:0:
188,336,321861,1,8,2:0:0:0:
268,144,322030,1,2,2:0:0:0:
268,144,322114,1,0,2:0:0:0:
268,144,322198,5,0,3:2:0:0:
336,340,322367,2,0,L|332:286,1,53.125,0|0,0:0|2:0,0:0:0:0:
392,172,322535,1,8,2:0:0:0:
132,200,322704,1,2,2:0:0:0:
132,200,322788,1,0,2:0:0:0:
131,199,322873,6,0,P|155:209|196:207,1,53.125,0|0,2:0|0:0,0:0:0:0:
348,80,323041,2,0,L|352:26,1,53.125,0|0,3:2|0:0,0:0:0:0:
268,144,323210,1,10,2:0:0:0:
488,124,323378,1,0,3:2:0:0:
488,124,323462,1,0,2:0:0:0:
488,124,323547,6,0,B|501:171|501:171|484:212,1,93.5000028533936,2|0,2:0|3:2,0:0:0:0:
268,144,323884,1,8,2:0:0:0:
375,321,324052,1,2,2:0:0:0:
379,283,324137,1,0,2:0:0:0:
383,246,324221,1,0,2:0:0:0:
388,209,324305,1,0,0:0:0:0:
392,172,324389,1,0,3:2:0:0:
272,56,324558,1,10,2:0:0:0:
151,228,324726,2,0,P|182:229|204:219,1,53.125,2|0,2:0|2:0,0:0:0:0:
268,144,324895,6,0,L|258:80,1,63.75,0|0,3:2|2:0,2:0:0:0:
271,55,325232,2,0,P|227:43|185:60,1,93.5000028533936,8|0,2:0|2:0,2:0:0:0:
396,261,325569,6,0,L|405:197,1,63.75,2|0,3:2|0:0,0:0:0:0:
392,172,325906,2,0,P|436:159|478:176,1,93.5000028533936,10|0,2:0|0:0,2:0:0:0:
280,256,326243,6,0,B|218:267|218:267|166:236|166:236|103:247,1,187.000005706787,6|8,3:2|2:0,2:0:0:0:
204,44,326749,1,0,2:0:0:0:
238,58,326833,1,0,2:0:0:0:
259,88,326917,1,0,2:0:0:0:
262,125,327002,1,0,0:0:0:0:
246,158,327086,1,0,3:2:0:0:
60,156,327255,1,10,2:0:0:0:
192,376,327423,2,0,L|184:320,1,53.125,0|0,0:0|2:0,0:0:0:0:
280,256,327592,5,2,3:2:0:0:
96,236,327760,2,0,P|70:244|37:241,1,53.125,0|0,0:0|2:0,0:0:0:0:
60,156,327929,1,8,2:0:0:0:
203,43,328097,1,0,2:0:0:0:
203,43,328182,1,0,2:0:0:0:
203,43,328266,2,0,P|211:68|208:101,1,53.125,2|0,2:0|2:0,2:0:0:0:
280,256,328434,2,0,L|288:200,1,53.125,2|0,3:2|2:0,2:0:0:0:
376,148,328603,1,10,2:0:0:0:
464,296,328771,1,2,3:2:0:0:
464,296,328856,1,0,0:0:0:0:
464,296,328940,6,0,P|420:328|376:320,1,93.5000028533936,2|0,2:0|3:2,0:0:0:0:
112,352,329277,1,8,2:0:0:0:
279,255,329446,1,2,2:0:0:0:
258,225,329530,1,0,2:0:0:0:
227,205,329614,1,0,2:0:0:0:
190,199,329698,1,0,2:0:0:0:
154,208,329783,1,0,3:2:0:0:
23,355,329951,2,0,B|68:368|68:368|112:351,1,93.5000028533936,10|0,2:0|2:0,2:0:0:0:
0,204,330288,5,0,3:2:0:0:
196,296,330457,1,0,2:0:0:0:
112,104,330625,1,10,2:0:0:0:
112,104,330794,1,2,2:0:0:0:
112,228,330962,2,0,B|116:260|116:260|104:291|104:291|106:322,2,95.6250036478044,2|0|0,2:1|0:0|0:0,2:0:0:0:
184,168,331299,1,10,2:0:0:0:
296,16,331468,2,0,L|289:68,1,53.125,2|0,2:0|0:0,0:0:0:0:
336,155,331637,6,0,P|374:131|420:137,1,93.5000028533936,2|0,3:2|2:0,2:0:0:0:
372,320,331889,1,0,2:0:0:0:
356,324,331974,2,0,P|315:302|297:260,1,93.5000028533936,10|0,2:0|2:0,2:0:0:0:
500,208,332226,1,0,2:0:0:0:
512,224,332311,2,0,P|513:269|486:306,1,93.5000028533936,2|0,2:0|3:2,2:0:0:0:
220,348,332648,1,10,2:0:0:0:
396,236,332816,2,0,L|339:230,1,53.125,2|0,2:0|0:0,0:0:0:0:
256,176,332985,5,2,3:2:0:0:
64,120,333153,2,0,L|121:114,1,53.125,0|0,2:0|2:0,0:0:0:0:
180,48,333322,1,10,2:0:0:0:
108,328,333491,1,0,2:0:0:0:
108,328,333575,1,0,2:0:0:0:
108,328,333659,2,0,P|98:303|100:265,1,53.125,2|0,2:0|0:0,2:0:0:0:
296,256,333828,2,0,L|353:262,1,53.125,0|0,3:2|0:0,0:0:0:0:
220,348,333996,1,8,2:0:0:0:
428,136,334165,1,2,2:0:0:0:
428,136,334249,1,0,0:0:0:0:
428,136,334333,6,0,B|344:152|344:152|313:114,1,127.5,4|0,3:2|0:0,2:0:0:0:
232,84,334670,2,0,P|204:75|178:75,1,53.125,8|0,2:0|0:0,0:0:0:0:
205,218,334839,6,0,B|224:184|199:136|160:172|168:218|189:244|189:244|237:295|216:362,1,255,2|10,3:2|2:0,2:0:0:0:
124,320,335513,6,0,B|220:284|220:356|310:322,1,191.250007295609,2|8,2:0|2:0,0:0:0:0:
412,236,336187,2,0,P|436:293|410:349,1,127.500004863739,8|8,2:3|2:0,0:0:0:0:
308,160,336693,2,0,P|297:114|318:72,1,95.6250036478044,2|2,2:0|2:0,0:0:0:0:
328,48,337030,6,0,P|270:85|203:72,1,140.25000428009,6|0,3:2|2:0,2:0:0:0:
203,72,337367,1,8,2:0:0:0:
168,224,337535,1,0,2:0:0:0:
151,190,337620,1,0,2:0:0:0:
122,167,337704,1,0,2:0:0:0:
86,157,337787,1,0,0:0:0:0:
49,163,337873,1,0,3:2:0:0:
196,352,338041,1,10,2:0:0:0:
276,168,338210,1,0,0:0:0:0:
276,168,338294,1,0,2:0:0:0:
276,168,338378,5,2,3:2:0:0:
72,264,338547,2,0,L|77:316,1,53.125,0|0,0:0|2:0,0:0:0:0:
151,190,338715,1,8,2:0:0:0:
296,280,338884,1,0,2:0:0:0:
296,280,338968,1,0,2:0:0:0:
296,280,339052,6,0,P|269:281|237:270,1,53.125,2|0,2:0|2:0,2:0:0:0:
396,204,339221,2,0,P|421:196|447:197,1,53.125,0|0,3:2|2:0,2:0:0:0:
276,168,339389,1,10,2:0:0:0:
444,24,339558,1,2,3:2:0:0:
444,24,339642,1,0,0:0:0:0:
444,24,339726,6,0,P|470:61|467:106,1,93.5000028533936,2|0,2:0|3:2,0:0:0:0:
432,292,340064,1,8,2:0:0:0:
276,168,340232,1,2,2:0:0:0:
238,164,340316,1,0,2:0:0:0:
201,161,340401,1,0,2:0:0:0:
164,158,340485,1,0,2:0:0:0:
126,155,340569,1,0,3:2:0:0:
48,324,340738,2,0,B|93:339|93:339|137:324,1,93.5000028533936,10|0,2:0|2:0,2:0:0:0:
0,208,341075,5,0,3:2:0:0:
224,276,341243,1,0,2:0:0:0:
80,68,341412,1,10,2:0:0:0:
81,68,341580,1,0,0:0:0:0:
120,208,341749,1,2,2:0:0:0:
120,208,341833,1,0,2:0:0:0:
120,208,341917,2,0,L|126:155,1,53.125,0|0,2:0|2:0,0:0:0:0:
81,68,342086,1,10,2:0:0:0:
356,96,342255,2,0,P|331:105|295:105,1,53.125,0|0,0:0|2:0,0:0:0:0:
80,68,342423,6,0,B|94:28|167:14|203:48|203:48|177:44|158:47,1,187.000005706787,2|8,3:2|2:0,2:0:0:0:
224,276,342929,1,2,2:0:0:0:
209,241,343013,1,0,2:0:0:0:
209,204,343097,1,0,2:0:0:0:
225,171,343182,1,0,0:0:0:0:
253,146,343266,1,0,3:2:0:0:
340,332,343434,1,8,2:0:0:0:
88,236,343603,1,2,2:0:0:0:
88,236,343687,1,0,2:0:0:0:
88,236,343771,5,0,3:2:0:0:
320,228,343940,2,0,L|371:216,1,53.125,0|0,0:0|2:0,0:0:0:0:
253,146,344108,1,8,2:0:0:0:
96,52,344277,1,2,2:0:0:0:
96,52,344361,1,0,2:0:0:0:
96,52,344446,6,0,P|93:78|101:110,1,53.125,0|0,2:0|0:0,0:0:0:0:
180,260,344614,2,0,P|185:234|182:207,1,53.125,0|0,3:2|0:0,0:0:0:0:
16,172,344783,1,10,2:0:0:0:
192,72,344951,1,0,3:2:0:0:
192,72,345035,1,0,2:0:0:0:
192,72,345120,6,0,L|287:62,1,93.5000028533936,2|0,2:0|3:2,0:0:0:0:
428,120,345457,1,8,2:0:0:0:
423,267,345625,1,2,2:0:0:0:
401,238,345710,1,0,2:0:0:0:
369,219,345794,1,0,2:0:0:0:
333,213,345878,1,0,0:0:0:0:
297,221,345962,1,0,3:2:0:0:
220,328,346131,1,10,2:0:0:0:
100,200,346299,2,0,P|90:220|89:257,1,53.125,2|0,2:0|2:0,0:0:0:0:
218,328,346468,6,0,P|221:296|206:268,1,63.75,0|0,3:2|2:0,2:0:0:0:
188,252,346805,2,0,L|281:244,1,93.5000028533936,8|0,2:0|2:0,2:0:0:0:
368,44,347142,6,0,P|370:75|355:103,1,63.75,2|0,3:2|0:0,0:0:0:0:
337,120,347479,2,0,L|430:127,1,93.5000028533936,10|0,2:0|0:0,2:0:0:0:
252,48,347816,6,0,P|185:32|128:70,1,140.25000428009,6|0,3:2|2:0,2:0:0:0:
128,69,348153,1,8,2:0:0:0:
200,292,348322,1,0,2:0:0:0:
203,255,348406,1,0,2:0:0:0:
207,218,348490,1,0,2:0:0:0:
210,180,348575,1,0,0:0:0:0:
213,143,348659,1,0,3:2:0:0:
88,232,348828,1,10,2:0:0:0:
288,344,348996,1,0,0:0:0:0:
288,344,349080,1,0,2:0:0:0:
288,344,349165,5,2,3:2:0:0:
64,352,349333,2,0,P|90:352|116:346,1,53.125,0|0,0:0|2:0,0:0:0:0:
200,292,349502,1,8,2:0:0:0:
128,96,349670,1,0,2:0:0:0:
128,96,349755,1,0,2:0:0:0:
128,95,349839,6,0,P|118:119|117:155,1,53.125,2|0,2:0|2:0,2:0:0:0:
290,238,350007,2,0,L|354:230,1,53.125,2|0,3:2|2:0,2:0:0:0:
200,292,350176,1,10,2:0:0:0:
420,164,350344,1,2,3:2:0:0:
420,164,350429,1,0,0:0:0:0:
420,164,350513,6,0,P|445:201|443:247,1,93.5000028533936,2|0,2:0|3:2,0:0:0:0:
302,102,350850,1,8,2:0:0:0:
166,282,351019,1,2,2:0:0:0:
200,292,351103,1,0,2:0:0:0:
237,288,351187,1,0,2:0:0:0:
269,269,351271,1,0,2:0:0:0:
290,238,351356,1,0,3:2:0:0:
96,176,351524,2,0,L|3:165,1,93.5000028533936,10|0,2:0|2:0,2:0:0:0:
56,336,351861,5,0,3:2:0:0:
208,192,352030,1,0,2:0:0:0:
76,72,352198,1,10,2:0:0:0:
76,72,352367,1,2,2:0:0:0:
208,192,352535,2,0,B|239:196|239:196|256:204|256:204|277:201|277:201|302:206,2,95.6250036478044,2|0|0,2:1|0:0|0:0,0:0:0:0:
192,104,352873,1,10,2:0:0:0:
20,184,353041,2,0,P|11:209|10:245,1,63.7500024318696,2|0,2:0|0:0,0:0:0:0:
56,336,353210,6,0,B|98:316|98:316|144:324,1,93.5000028533936,2|2,3:2|2:0,0:0:0:0:
260,280,353462,1,0,0:0:0:0:
261,262,353547,2,0,B|222:235|222:235|207:191,1,93.5000028533936,10|0,2:0|2:0,2:0:0:0:
108,120,353799,1,0,2:0:0:0:
92,129,353884,2,0,B|88:175|88:175|57:211,1,93.5000028533936,2|0,2:0|3:2,2:0:0:0:
160,336,354221,1,10,2:0:0:0:
440,132,354389,2,0,P|415:121|387:120,1,53.125,2|0,2:0|0:0,0:0:0:0:
304,176,354558,5,2,3:2:0:0:
16,268,354726,2,0,P|40:257|68:256,1,53.125,0|0,2:0|2:0,0:0:0:0:
160,336,354895,1,10,2:0:0:0:
196,112,355064,1,0,2:0:0:0:
196,112,355148,1,0,0:0:0:0:
196,112,355232,6,0,L|205:164,1,53.125,2|0,2:0|2:0,2:0:0:0:
244,320,355401,2,0,L|253:267,1,53.125,2|0,3:2|0:0,0:0:0:0:
304,176,355569,1,8,2:0:0:0:
452,268,355738,1,2,2:0:0:0:
452,268,355822,1,0,0:0:0:0:
452,268,355906,6,0,B|387:297|387:297|376:241,1,127.5,2|0,3:2|0:0,2:0:0:0:
304,176,356243,2,0,P|321:155|351:143,1,53.125,8|0,2:0|0:0,0:0:0:0:
429,103,356412,6,0,B|373:133|315:94|315:94|273:65|216:78|194:111,1,255,2|8,3:2|2:0,2:0:0:0:
260,307,357086,6,0,B|305:277|297:186|261:181|261:181|247:200|251:225|295:236|342:204,1,255.000009727478,2|0,3:2|0:0,0:0:0:0:
432,180,357929,2,0,P|440:210|423:252,1,63.7500024318696,10|10,2:3|2:0,0:0:0:0:
336,88,358266,2,0,P|324:58|286:33,1,63.7500024318696,10|8,2:3|2:0,0:0:0:0:
329,211,358603,1,6,3:2:0:0:
184,244,358771,6,0,B|144:248|106:219|99:180|99:180|106:222|84:256,1,191.250007295609
47,108,359108,2,0,P|75:94|108:92,1,63.7500024318696,0|0,3:2|0:0,0:0:0:0:
268,200,359277,6,0,P|283:259|248:311,1,127.500004863739,10|0,2:1|2:0,2:0:0:0:
368,180,359530,2,0,P|404:140|458:135,1,110.499994941712,2|0,3:1|2:0,2:0:0:0:
296,103,359783,2,0,P|250:97|220:63,1,93.5000028533936,10|2,2:1|2:0,0:0:0:0:
444,240,360120,6,0,L|438:286,1,46.7500014266968,8|0,2:0|0:0,0:0:0:0:
287,380,360288,1,0,3:2:0:0:
267,199,360457,1,0,3:2:0:0:
287,380,360625,6,2,B|302:331|272:293|272:293|298:240|265:198,1,191.250007295609,2|8,3:1|2:0,1:0:0:0:
168,244,360962,2,2,B|178:278|160:309|160:309|186:330|188:366,1,127.500004863739,2|8,2:1|2:0,1:0:0:0:
64,180,361299,5,2,2:0:0:0:
232,156,361468,2,0,P|206:137|171:134,1,63.7500024318696,0|0,3:2|0:0,0:0:0:0:
64,280,361637,1,8,2:0:0:0:
53,118,361805,2,0,P|50:150|63:179,1,63.7500024318696,0|0,3:2|2:0,2:0:0:0:
168,244,361974,6,0,B|253:261|253:261|277:228,1,127.500004863739,8|0,2:0|2:0,2:0:0:0:
452,180,362226,2,0,B|380:195|380:195|360:163,1,110.499994941712,0|0,3:2|0:0,0:0:0:0:
236,68,362479,2,0,L|288:80,1,46.7500014266968,8|0,2:0|0:0,0:0:0:0:
423,9,362648,6,0,L|418:52,1,42.5000016212464,2|0,3:1|2:0,2:0:0:0:
439,53,362760,6,0,L|444:96,1,42.5000016212464,0|2,2:0|2:1,0:0:0:0:
415,105,362873,6,0,L|410:148,1,42.5000016212464,0|0,2:0|2:0,0:0:0:0:
447,137,362985,6,0,L|452:180,1,42.5000016212464,2|0,2:3|0:0,0:0:0:0:
427,219,363097,6,0,P|443:258|434:303,1,85.0000032424928,2|2,3:2|2:0,0:0:0:0:
272,264,363322,6,0,B|299:277|332:270|332:270|315:283|306:305,1,106.25,2|0,2:1|3:0,2:0:0:0:
112,112,363659,2,0,B|85:125|52:118|52:118|69:131|77:153,1,106.25,2|8,2:1|2:3,2:0:0:0:
308,180,363996,1,6,3:2:0:0:
100,304,364165,6,0,B|141:270|133:201|88:180|88:180|85:203|104:231,1,191.250007295609
219,192,364502,2,0,P|247:176|278:173,1,63.7500024318696,0|0,3:2|0:0,0:0:0:0:
379,293,364670,6,0,B|299:301|299:301|271:263,1,127.500004863739,10|0,2:1|2:0,2:0:0:0:
277,84,364923,2,0,B|319:143|319:143|307:179,1,110.499994941712,2|0,3:1|2:0,2:0:0:0:
166,258,365176,2,0,B|188:202|188:202|219:191,1,93.5000028533936,10|2,2:1|2:0,0:0:0:0:
476,204,365513,6,0,L|430:195,1,46.7500014266968,8|0,2:0|0:0,0:0:0:0:
277,84,365682,1,0,3:2:0:0:
296,267,365850,1,0,3:2:0:0:
277,84,366019,6,2,B|282:140|282:140|301:173|301:173|289:205|289:205|296:274,1,191.250007295609,2|8,3:1|2:0,1:0:0:0:
184,252,366356,2,2,B|174:214|186:186|186:186|168:156|171:128,1,127.500004863739,2|8,2:1|2:0,1:0:0:0:
60,64,366693,5,2,2:0:0:0:
24,216,366861,2,0,L|86:204,1,63.7500024318696,0|0,3:2|0:0,0:0:0:0:
184,252,367030,1,8,2:0:0:0:
344,184,367198,2,0,L|281:172,1,63.7500024318696,0|0,2:0|0:0,0:0:0:0:
176,340,367367,6,0,B|213:342|238:325|238:325|270:336|299:324,1,127.500004863739,2|0,2:0|2:0,2:0:0:0:
484,280,367620,2,0,B|456:282|433:266|433:266|404:276|377:265,1,110.499994941712,0|0,3:2|0:0,0:0:0:0:
280,172,367873,2,0,P|310:139|355:154,1,93.5000028533936,2|2,3:2|2:0,2:0:0:0:
184,252,368153,5,0,3:2:0:0:
151,246,368265,1,0,3:2:0:0:
280,172,368377,5,14,2:3:0:0:
326,162,368490,1,0,3:2:0:0:
136,112,368602,5,6,2:3:0:0:
76,101,368714,1,0,3:2:0:0:
272,20,368827,5,6,2:3:0:0:
345,5,368939,1,0,3:2:0:0:
220,112,369052,6,0,B|199:163|242:207|244:244|216:249|216:249|190:246|189:216|210:193,1,212.5,6|6,2:3|3:2,0:0:0:0:
171,335,369558,6,0,P|230:354|288:321,1,127.500004863739,0|8,0:0|2:0,0:0:0:0:
456,248,369895,2,0,P|430:229|399:228,1,63.7500024318696,0|0,3:2|0:0,0:0:0:0:
208,160,370064,6,0,B|217:251|217:251|235:221,1,127.500004863739,10|0,2:1|2:0,2:0:0:0:
320,144,370316,2,0,B|329:59|329:59|347:88,1,110.499994941712,2|0,3:1|2:0,2:0:0:0:
364,244,370569,2,0,B|372:315|372:315|389:291,1,93.5000028533936,10|2,2:1|2:0,0:0:0:0:
488,140,370906,6,0,L|441:148,1,46.7500014266968,8|0,2:0|0:0,0:0:0:0:
292,100,371075,1,0,3:2:0:0:
283,283,371243,1,0,3:2:0:0:
292,100,371412,6,2,B|302:163|302:163|275:216|275:216|284:290,1,191.250007295609,2|8,3:1|2:0,1:0:0:0:
184,252,371749,2,2,B|184:223|170:192|170:192|195:170|200:135,1,127.500004863739,2|8,2:1|2:0,1:0:0:0:
96,104,372086,5,2,2:0:0:0:
79,308,372255,2,0,P|94:279|94:248,1,63.7500024318696,0|0,3:2|0:0,0:0:0:0:
12,172,372423,1,8,2:0:0:0:
106,43,372592,2,0,P|107:74|95:103,1,63.7500024318696,0|0,3:2|0:0,0:0:0:0:
207,164,372760,6,0,P|264:183|298:135,1,127.500004863739,8|0,2:0|2:0,2:0:0:0:
388,200,373013,2,0,P|388:147|437:129,1,110.499994941712,2|0,3:2|0:0,0:0:0:0:
476,212,373266,2,0,P|473:235|463:256,1,46.7500014266968,8|0,2:0|0:0,0:0:0:0:
360,304,373434,6,0,L|305:295,1,55.2499974708558,0|2,3:2|2:0,2:0:0:0:
184,268,373603,1,2,2:0:0:0:
184,268,373687,1,0,3:0:0:0:
184,267,373771,2,0,P|172:293|176:330,1,55.2499974708558,8|2,2:0|2:0,2:0:0:0:
72,244,373940,2,0,P|83:218|80:181,1,55.2499974708558,0|2,3:2|2:0,2:0:0:0:
124,68,374108,6,0,L|187:60,1,63.7500024318696,2|2,2:1|2:0,2:0:0:0:
207,164,374277,2,0,L|270:171,1,63.7500024318696,2|10,2:0|2:1,0:0:0:0:
396,116,374446,5,2,2:1:0:0:
465,158,374558,5,0,2:0:0:0:
470,240,374670,5,0,2:0:0:0:
405,291,374783,5,6,3:2:0:0:
292,372,374951,6,0,B|265:335|279:271|316:256|316:256|303:282|311:318,1,191.250007295609
455,324,375288,2,0,P|425:314|404:290,1,63.7500024318696,0|0,3:2|0:0,0:0:0:0:
376,192,375457,6,0,P|320:164|262:186,1,127.500004863739,10|0,2:1|2:0,2:0:0:0:
204,4,375710,2,0,P|203:57|243:94,1,110.499994941712,2|0,3:1|2:0,2:0:0:0:
112,224,375962,2,0,P|153:203|170:161,1,93.5000028533936,10|2,2:1|2:0,0:0:0:0:
314,265,376299,6,0,L|309:312,1,46.7500014266968,8|0,2:0|0:0,0:0:0:0:
436,152,376468,1,0,3:2:0:0:
257,113,376637,1,0,3:2:0:0:
436,152,376805,2,2,B|389:154|389:154|348:128|348:128|300:134|300:134|257:113,1,191.250007295609,2|8,3:1|2:0,1:0:0:0:
308,24,377142,2,2,B|338:39|338:39|368:37|368:37|394:53|394:53|426:53,1,127.500004863739,2|8,2:1|2:0,1:0:0:0:
192,40,377479,5,2,2:0:0:0:
156,204,377648,2,0,P|143:170|147:139,1,63.7500024318696,0|0,3:2|0:0,0:0:0:0:
192,40,377816,1,8,2:0:0:0:
64,12,377985,2,0,P|51:45|55:76,1,63.7500024318696,0|0,3:2|0:0,0:0:0:0:
252,164,378153,6,0,B|304:148|326:185|378:168,1,127.500004863739,8|0,2:0|2:0,2:0:0:0:
192,40,378406,2,0,B|147:28|124:57|70:39,1,110.499994941712,0|0,3:2|0:0,0:0:0:0:
331,40,378659,2,0,P|352:29|382:24,1,46.7500014266968,8|0,2:0|0:0,0:0:0:0:
472,148,378828,5,2,3:2:0:0:
474,211,378912,1,0,3:2:0:0:
432,260,378996,1,0,3:2:0:0:
369,266,379080,1,0,3:2:0:0:
264,196,379165,5,2,3:2:0:0:
274,221,379249,1,0,3:2:0:0:
274,249,379333,1,0,3:2:0:0:
265,276,379417,1,0,3:2:0:0:
176,232,379502,5,2,3:2:0:0:
122,183,379586,1,0,3:2:0:0:
50,193,379670,1,0,3:2:0:0:
13,255,379755,1,0,3:2:0:0:
37,323,379839,1,10,2:0:0:0:
96,264,380176,5,0,3:2:0:0:
96,264,380682,1,0,3:2:0:0:
112,72,380850,1,8,2:1:0:0:
132,68,382030,5,0,3:2:0:0:
124,260,382198,1,8,2:1:0:0:
124,260,382873,5,0,3:2:0:0:
124,260,383378,1,0,3:2:0:0:
328,252,383547,1,8,2:1:0:0:
336,236,384558,5,0,3:2:0:0:
112,228,384895,1,8,2:1:0:0:
112,228,385569,5,0,3:2:0:0:
112,228,386075,1,0,3:2:0:0:
128,56,386243,1,8,2:1:0:0:
144,48,387423,5,0,3:2:0:0:
144,240,387592,1,8,2:1:0:0:
144,240,388266,5,0,3:2:0:0:
144,240,388771,1,0,3:2:0:0:
336,232,388940,1,8,2:1:0:0:
340,212,389951,5,0,3:2:0:0:
136,204,390288,1,8,2:1:0:0:
136,204,390962,5,0,3:2:0:0:
256,192,391047,12,0,399052,3:2:0:0:
